  0
SECTION
  2
HEADER
  9
$ACADVER
  1
AC1015
  9
$ACADMAINTVER
 70
    18
  9
$DWGCODEPAGE
  3
ANSI_932
  9
$INSBASE
 10
0.0
 20
0.0
 30
0.0
  9
$EXTMIN
 10
-2454.820143929413
 20
-995.120049279672
 30
0.0
  9
$EXTMAX
 10
1380.073877573286
 20
1795.277650462654
 30
0.0
  9
$LIMMIN
 10
-20.0
 20
-7.5
  9
$LIMMAX
 10
277.0
 20
202.5
  9
$ORTHOMODE
 70
     0
  9
$REGENMODE
 70
     1
  9
$FILLMODE
 70
     1
  9
$QTEXTMODE
 70
     0
  9
$MIRRTEXT
 70
     0
  9
$LTSCALE
 40
1.0
  9
$ATTMODE
 70
     1
  9
$TEXTSIZE
 40
9.0
  9
$TRACEWID
 40
1.0
  9
$TEXTSTYLE
  7
STANDARD
  9
$CLAYER
  8
AM_VIEWS
  9
$CELTYPE
  6
ByLayer
  9
$CECOLOR
 62
   256
  9
$CELTSCALE
 40
1.0
  9
$DISPSILH
 70
     0
  9
$DIMSCALE
 40
1.0
  9
$DIMASZ
 40
1.8
  9
$DIMEXO
 40
1.0
  9
$DIMDLI
 40
10.0
  9
$DIMRND
 40
0.0
  9
$DIMDLE
 40
0.0
  9
$DIMEXE
 40
1.0
  9
$DIMTP
 40
0.1
  9
$DIMTM
 40
0.1
  9
$DIMTXT
 40
3.5
  9
$DIMCEN
 40
0.0
  9
$DIMTSZ
 40
0.0
  9
$DIMTOL
 70
     0
  9
$DIMLIM
 70
     0
  9
$DIMTIH
 70
     0
  9
$DIMTOH
 70
     0
  9
$DIMSE1
 70
     0
  9
$DIMSE2
 70
     0
  9
$DIMTAD
 70
     3
  9
$DIMZIN
 70
     8
  9
$DIMBLK
  1
Open30
  9
$DIMASO
 70
     1
  9
$DIMSHO
 70
     1
  9
$DIMPOST
  1

  9
$DIMAPOST
  1
"
  9
$DIMALT
 70
     0
  9
$DIMALTD
 70
     2
  9
$DIMALTF
 40
0.0393701
  9
$DIMLFAC
 40
1.0
  9
$DIMTOFL
 70
     1
  9
$DIMTVP
 40
0.0
  9
$DIMTIX
 70
     0
  9
$DIMSOXD
 70
     0
  9
$DIMSAH
 70
     0
  9
$DIMBLK1
  1

  9
$DIMBLK2
  1

  9
$DIMSTYLE
  2
JIS2
  9
$DIMCLRD
 70
   256
  9
$DIMCLRE
 70
   256
  9
$DIMCLRT
 70
     2
  9
$DIMTFAC
 40
0.71
  9
$DIMGAP
 40
0.5
  9
$DIMJUST
 70
     0
  9
$DIMSD1
 70
     0
  9
$DIMSD2
 70
     0
  9
$DIMTOLJ
 70
     0
  9
$DIMTZIN
 70
     8
  9
$DIMALTZ
 70
     0
  9
$DIMALTTZ
 70
     0
  9
$DIMUPT
 70
     0
  9
$DIMDEC
 70
     2
  9
$DIMTDEC
 70
     2
  9
$DIMALTU
 70
     2
  9
$DIMALTTD
 70
     2
  9
$DIMTXSTY
  7
STANDARD
  9
$DIMAUNIT
 70
     0
  9
$DIMADEC
 70
     0
  9
$DIMALTRND
 40
0.0
  9
$DIMAZIN
 70
     2
  9
$DIMDSEP
 70
    46
  9
$DIMATFIT
 70
     3
  9
$DIMFRAC
 70
     0
  9
$DIMLDRBLK
  1
Open30
  9
$DIMLUNIT
 70
     2
  9
$DIMLWD
 70
    -1
  9
$DIMLWE
 70
    -1
  9
$DIMTMOVE
 70
     0
  9
$LUNITS
 70
     2
  9
$LUPREC
 70
     2
  9
$SKETCHINC
 40
1.0
  9
$FILLETRAD
 40
2.5
  9
$AUNITS
 70
     0
  9
$AUPREC
 70
     0
  9
$MENU
  1
.
  9
$ELEVATION
 40
0.0
  9
$PELEVATION
 40
0.0
  9
$THICKNESS
 40
0.0
  9
$LIMCHECK
 70
     0
  9
$CHAMFERA
 40
2.5
  9
$CHAMFERB
 40
2.5
  9
$CHAMFERC
 40
20.0
  9
$CHAMFERD
 40
0.0
  9
$SKPOLY
 70
     0
  9
$TDCREATE
 40
2459320.646608797
  9
$TDUCREATE
 40
2459320.271608796
  9
$TDUPDATE
 40
2459320.646620370
  9
$TDUUPDATE
 40
2459320.271620371
  9
$TDINDWG
 40
0.0000347222
  9
$TDUSRTIMER
 40
0.0000347222
  9
$USRTIMER
 70
     1
  9
$ANGBASE
 50
0.0
  9
$ANGDIR
 70
     0
  9
$PDMODE
 70
     0
  9
$PDSIZE
 40
0.0
  9
$PLINEWID
 40
0.0
  9
$SPLFRAME
 70
     0
  9
$SPLINETYPE
 70
     6
  9
$SPLINESEGS
 70
     8
  9
$HANDSEED
  5
656
  9
$SURFTAB1
 70
     6
  9
$SURFTAB2
 70
     6
  9
$SURFTYPE
 70
     6
  9
$SURFU
 70
     6
  9
$SURFV
 70
     6
  9
$UCSBASE
  2

  9
$UCSNAME
  2

  9
$UCSORG
 10
0.0
 20
0.0
 30
0.0
  9
$UCSXDIR
 10
1.0
 20
0.0
 30
0.0
  9
$UCSYDIR
 10
0.0
 20
1.0
 30
0.0
  9
$UCSORTHOREF
  2

  9
$UCSORTHOVIEW
 70
     0
  9
$UCSORGTOP
 10
0.0
 20
0.0
 30
0.0
  9
$UCSORGBOTTOM
 10
0.0
 20
0.0
 30
0.0
  9
$UCSORGLEFT
 10
0.0
 20
0.0
 30
0.0
  9
$UCSORGRIGHT
 10
0.0
 20
0.0
 30
0.0
  9
$UCSORGFRONT
 10
0.0
 20
0.0
 30
0.0
  9
$UCSORGBACK
 10
0.0
 20
0.0
 30
0.0
  9
$PUCSBASE
  2

  9
$PUCSNAME
  2

  9
$PUCSORG
 10
0.0
 20
0.0
 30
0.0
  9
$PUCSXDIR
 10
1.0
 20
0.0
 30
0.0
  9
$PUCSYDIR
 10
0.0
 20
1.0
 30
0.0
  9
$PUCSORTHOREF
  2

  9
$PUCSORTHOVIEW
 70
     0
  9
$PUCSORGTOP
 10
0.0
 20
0.0
 30
0.0
  9
$PUCSORGBOTTOM
 10
0.0
 20
0.0
 30
0.0
  9
$PUCSORGLEFT
 10
0.0
 20
0.0
 30
0.0
  9
$PUCSORGRIGHT
 10
0.0
 20
0.0
 30
0.0
  9
$PUCSORGFRONT
 10
0.0
 20
0.0
 30
0.0
  9
$PUCSORGBACK
 10
0.0
 20
0.0
 30
0.0
  9
$USERI1
 70
     0
  9
$USERI2
 70
     0
  9
$USERI3
 70
     0
  9
$USERI4
 70
     0
  9
$USERI5
 70
     0
  9
$USERR1
 40
0.0
  9
$USERR2
 40
0.0
  9
$USERR3
 40
0.0
  9
$USERR4
 40
0.0
  9
$USERR5
 40
0.0
  9
$WORLDVIEW
 70
     1
  9
$SHADEDGE
 70
     3
  9
$SHADEDIF
 70
    70
  9
$TILEMODE
 70
     1
  9
$MAXACTVP
 70
    64
  9
$PINSBASE
 10
0.0
 20
0.0
 30
0.0
  9
$PLIMCHECK
 70
     0
  9
$PEXTMIN
 10
1.000000000000000E+20
 20
1.000000000000000E+20
 30
1.000000000000000E+20
  9
$PEXTMAX
 10
-1.000000000000000E+20
 20
-1.000000000000000E+20
 30
-1.000000000000000E+20
  9
$PLIMMIN
 10
0.0
 20
0.0
  9
$PLIMMAX
 10
12.0
 20
9.0
  9
$UNITMODE
 70
     0
  9
$VISRETAIN
 70
     1
  9
$PLINEGEN
 70
     0
  9
$PSLTSCALE
 70
     1
  9
$TREEDEPTH
 70
  3020
  9
$CMLSTYLE
  2
Standard
  9
$CMLJUST
 70
     0
  9
$CMLSCALE
 40
20.0
  9
$PROXYGRAPHICS
 70
     1
  9
$MEASUREMENT
 70
     1
  9
$CELWEIGHT
370
    -1
  9
$ENDCAPS
280
     0
  9
$JOINSTYLE
280
     0
  9
$LWDISPLAY
290
     0
  9
$INSUNITS
 70
     4
  9
$HYPERLINKBASE
  1

  9
$STYLESHEET
  1

  9
$XEDIT
290
     1
  9
$CEPSNTYPE
380
     0
  9
$PSTYLEMODE
290
     1
  9
$FINGERPRINTGUID
  2
{20FB9A74-44F0-D34E-AC44-CF24B8CF96B5}
  9
$VERSIONGUID
  2
{1E61B817-B3CD-AB43-904A-AEFF8F9E2BDE}
  9
$EXTNAMES
290
     1
  9
$PSVPSCALE
 40
0.0
  9
$OLESTARTUP
290
     0
  0
ENDSEC
  0
SECTION
  2
CLASSES
  0
CLASS
  1
ACDBDICTIONARYWDFLT
  2
AcDbDictionaryWithDefault
  3
ObjectDBX Classes
 90
        0
280
     0
281
     0
  0
CLASS
  1
MATERIAL
  2
AcDbMaterial
  3
ObjectDBX Classes
 90
     1153
280
     0
281
     0
  0
CLASS
  1
VISUALSTYLE
  2
AcDbVisualStyle
  3
ObjectDBX Classes
 90
     4095
280
     0
281
     0
  0
CLASS
  1
SCALE
  2
AcDbScale
  3
ObjectDBX Classes
 90
     1153
280
     0
281
     0
  0
CLASS
  1
TABLESTYLE
  2
AcDbTableStyle
  3
ObjectDBX Classes
 90
     4095
280
     0
281
     0
  0
CLASS
  1
MLEADERSTYLE
  2
AcDbMLeaderStyle
  3
ACDB_MLEADERSTYLE_CLASS
 90
     4095
280
     0
281
     0
  0
CLASS
  1
ACDBSECTIONVIEWSTYLE
  2
AcDbSectionViewStyle
  3
ObjectDBX Classes
 90
     1025
280
     0
281
     0
  0
CLASS
  1
ACDBDETAILVIEWSTYLE
  2
AcDbDetailViewStyle
  3
ObjectDBX Classes
 90
     1025
280
     0
281
     0
  0
CLASS
  1
ACMESCOPE
  2
AcMeScope
  3
AcMeServices
 90
     1024
280
     0
281
     0
  0
CLASS
  1
ACMECOMMANDHISTORY
  2
AcMeCommandHistory
  3
AcMeServices
 90
     1024
280
     0
281
     0
  0
CLASS
  1
ACIMSYSVARMAN
  2
AcImSysVarManager
  3
AcMeServices
 90
     1024
280
     0
281
     0
  0
CLASS
  1
ACIMINTSYSVAR
  2
AcImIntSysVar
  3
AcMeServices
 90
     1024
280
     0
281
     0
  0
CLASS
  1
ACMESTATEMGR
  2
AcMeStateMgr
  3
AcMeServices
 90
     1024
280
     0
281
     0
  0
CLASS
  1
ACGREFMASTER
  2
AcGrefMaster
  3
AcAttribServices
 90
     1024
280
     0
281
     0
  0
CLASS
  1
SORTENTSTABLE
  2
AcDbSortentsTable
  3
ObjectDBX Classes
 90
        0
280
     0
281
     0
  0
CLASS
  1
DICTIONARYVAR
  2
AcDbDictionaryVar
  3
ObjectDBX Classes
 90
        0
280
     0
281
     0
  0
CLASS
  1
ACME_DOCUMENT
  2
AcMeDbDoc
  3
AcMeServices
 90
     1024
280
     0
281
     0
  0
CLASS
  1
AMGSETTINGSOBJ
  2
AmgSettingsObj
  3
"AcadM|Product Description: AutoCAD Mechanical|Company: Autodesk, Inc."
 90
     1024
280
     0
281
     0
  0
CLASS
  1
ACDBENTITYCACHE
  2
AcMeEntityCache
  3
AcMeServices
 90
     1024
280
     0
281
     0
  0
CLASS
  1
ACME_DATABASE
  2
AcMeDbDatabase
  3
AcMeServices
 90
     1024
280
     0
281
     0
  0
CLASS
  1
ACRFINSADJUSTERMGR
  2
AcRfInsAdjusterMgr
  3
AcMeServices
 90
     1024
280
     0
281
     0
  0
CLASS
  1
ACGREFACADMASTER
  2
AcGrefacadMaster
  3
AcGrefServices
 90
     1024
280
     0
281
     0
  0
CLASS
  1
AMIMASTER
  2
AmiMaster
  3
AmiServices
 90
     1024
280
     0
281
     0
  0
CLASS
  1
AMDTMENUSTATEMGR
  2
AmdtMenuStateMgr
  3
McadcomServices
 90
     1024
280
     0
281
     0
  0
CLASS
  1
AMDTMCOMMENUSTATE
  2
AmdtMcomMenuState
  3
McadcomServices
 90
     1024
280
     0
281
     0
  0
CLASS
  1
MAPIAMMOUDLE
  2
MApiAmModule
  3
MApiAmServices
 90
     1024
280
     0
281
     0
  0
CLASS
  1
ACIMSTRSYSVAR
  2
AcImStrSysVar
  3
AcMeServices
 90
     1024
280
     0
281
     0
  0
CLASS
  1
AMDTAMMENUSTATE
  2
AmdtAmMenuState
  3
DesignerAssemblies_arx
 90
     1024
280
     0
281
     0
  0
CLASS
  1
ACAMPROJECT
  2
AcAmProject
  3
DesignerAssemblies
 90
     1024
280
     0
281
     0
  0
CLASS
  1
ACAMGRCOMPDEF
  2
AcAmGrCompDef
  3
DesignerAssemblies
 90
     1024
280
     0
281
     0
  0
CLASS
  1
ACAMCOMPDEF
  2
AcAmCompDef
  3
DesignerAssemblies
 90
     1024
280
     0
281
     0
  0
CLASS
  1
ACAMCOMPDEFMGR
  2
AcAmCompDefMgr
  3
DesignerAssemblies
 90
     1024
280
     0
281
     0
  0
CLASS
  1
AMCONTEXTMGR
  2
AcAmContextMgr
  3
DesignerAssemblies
 90
     1024
280
     0
281
     0
  0
CLASS
  1
ACAMCONTEXTMODELER
  2
AcAmContextModeler
  3
DesignerAssemblies
 90
     1024
280
     0
281
     0
  0
CLASS
  1
ACMDATADICTIONARY
  2
AcmDataDictionary
  3
"AcmSymBB|Product Description: AutoCAD Mechanical|Company: Autodesk, Inc."
 90
     1024
280
     0
281
     0
  0
CLASS
  1
ACAMGRCOMPDEFSET
  2
AcAmGrCompDefSet
  3
DesignerAssemblies
 90
     1024
280
     0
281
     0
  0
CLASS
  1
AMDTBROWSERDBTAB
  2
AmdtBrowserDbTab
  3
McadcomServices
 90
     1024
280
     0
281
     0
  0
CLASS
  1
CBROWSERAPPOBJECT
  2
CBrowserAppObject
  3
McadcomServices
 90
     1024
280
     0
281
     0
  0
CLASS
  1
DM_PLACEHOLDER
  2
AcDmSelsetPlaceholder
  3
McadcomServices
 90
     1024
280
     0
281
     0
  0
CLASS
  1
ACMSTANDARDISO
  2
AcmStandardISO
  3
"Amdt_StdImp|Product Description: AutoCAD Mechanical|Company: Autodesk, Inc."
 90
     1024
280
     0
281
     0
  0
CLASS
  1
AMDTEDGESTANDARDISO13715
  2
AmdtEdgeStdISO13715
  3
"Amdt_StdImp|Product Description: AutoCAD Mechanical|Company: Autodesk, Inc."
 90
     1024
280
     0
281
     0
  0
CLASS
  1
ACMSURFSTANDARDISO2002
  2
AcmSurfTextStdISO2002
  3
"Amdt_StdImp|Product Description: AutoCAD Mechanical|Company: Autodesk, Inc."
 90
     1024
280
     0
281
     0
  0
CLASS
  1
ACMFCFSTANDARDISO2012
  2
AcmFCFStdISO2012
  3
"Amdt_StdImp|Product Description: AutoCAD Mechanical|Company: Autodesk, Inc."
 90
     1024
280
     0
281
     0
  0
CLASS
  1
ACMWELDSTANDARDISO
  2
AcmWeldingStdISO
  3
"Amdt_StdImp|Product Description: AutoCAD Mechanical|Company: Autodesk, Inc."
 90
     1024
280
     0
281
     0
  0
CLASS
  1
ACMIDSTANDARDISO2012
  2
AcmIdStdISO2012
  3
"Amdt_StdImp|Product Description: AutoCAD Mechanical|Company: Autodesk, Inc."
 90
     1024
280
     0
281
     0
  0
CLASS
  1
ACMDATUMSTANDARDISO2012
  2
AcmDatumStdISO2012
  3
"Amdt_StdImp|Product Description: AutoCAD Mechanical|Company: Autodesk, Inc."
 90
     1024
280
     0
281
     0
  0
CLASS
  1
ACMBOMSTANDARDISO
  2
AcmBOMStdISO
  3
"Amdt_StdImp|Product Description: AutoCAD Mechanical|Company: Autodesk, Inc."
 90
     1024
280
     0
281
     0
  0
CLASS
  1
ACMDETAILSTANDARDISO
  2
AmdtDetailSymStdISO
  3
"Amdt_StdImp|Product Description: AutoCAD Mechanical|Company: Autodesk, Inc."
 90
     1024
280
     0
281
     0
  0
CLASS
  1
ACMSECTIONSTANDARDISO2001
  2
AmdtSectionSymStdISO2001
  3
"Amdt_StdImp|Product Description: AutoCAD Mechanical|Company: Autodesk, Inc."
 90
     1024
280
     0
281
     0
  0
CLASS
  1
ACMCENTERLINESTANDARDISO
  2
AmdtCenterLineStdISO
  3
"Amdt_StdImp|Product Description: AutoCAD Mechanical|Company: Autodesk, Inc."
 90
     1024
280
     0
281
     0
  0
CLASS
  1
ACMTHREADLINESTANDARDISO
  2
AmdtThreadLineStdISO
  3
"Amdt_StdImp|Product Description: AutoCAD Mechanical|Company: Autodesk, Inc."
 90
     1024
280
     0
281
     0
  0
CLASS
  1
ACMNOTESTANDARDISO
  2
AmdtNoteStdISO
  3
"Amdt_StdImp|Product Description: AutoCAD Mechanical|Company: Autodesk, Inc."
 90
     1024
280
     0
281
     0
  0
CLASS
  1
ACMTAPERSTANDARDISO
  2
AcmTaperStdISO
  3
"Amdt_StdImp|Product Description: AutoCAD Mechanical|Company: Autodesk, Inc."
 90
     1024
280
     0
281
     0
  0
CLASS
  1
ACMANOOTATIONVIEWSTANDARDISO
  2
AmdtAnViewStdISO
  3
"Amdt_StdImp|Product Description: AutoCAD Mechanical|Company: Autodesk, Inc."
 90
     1024
280
     0
281
     0
  0
CLASS
  1
ACAMGLAYSTD
  2
AcAmgLayStd
  3
"AmgLay|Product Description: AutoCAD Mechanical|Company: Autodesk, Inc."
 90
     1024
280
     0
281
     0
  0
CLASS
  1
ACAMGTITLESTD
  2
AcAmgTitleStd
  3
"AmgTitle|Product Description: AutoCAD Mechanical|Company: Autodesk, Inc."
 90
     1024
280
     0
281
     0
  0
CLASS
  1
ACAMGDIMSTD
  2
AcAmgDimStd
  3
"AmgDim|Product Description: AutoCAD Mechanical|Company: Autodesk, Inc."
 90
     1024
280
     0
281
     0
  0
CLASS
  1
AMGOBJPROPCFG
  2
AmgObjPropCfg
  3
"AmgLay|Product Description: AutoCAD Mechanical|Company: Autodesk, Inc."
 90
     1024
280
     0
281
     0
  0
CLASS
  1
ACAMGHOLECHARTSTDISO
  2
AcAmgHoleChartStdISO
  3
"AmgDim" "Product Description: AutoCAD Mechanical|Company: Autodesk, Inc."
 90
     1024
280
     0
281
     0
  0
CLASS
  1
ACMSECTIONSTANDARDCUSTOM
  2
AmdtSectionSymStdCustom
  3
"Amdt_StdImp|Product Description: AutoCAD Mechanical|Company: Autodesk, Inc."
 90
     1024
280
     0
281
     0
  0
CLASS
  1
ACMDETAILTANDARDCUSTOM
  2
AmdtDetailSymStdCustom
  3
"Amdt_StdImp|Product Description: AutoCAD Mechanical|Company: Autodesk, Inc."
 90
     1024
280
     0
281
     0
  0
CLASS
  1
FIELD
  2
AcDbField
  3
ObjectDBX Classes
 90
     1152
280
     0
281
     0
  0
CLASS
  1
FIELDLIST
  2
AcDbFieldList
  3
ObjectDBX Classes
 90
     1152
280
     0
281
     0
  0
CLASS
  1
AMDTNOTETEMPLATEDB
  2
AmdtNoteTemplateDB
  3
"AcmSymBB" "Product Description: AutoCAD Mechanical|Company: Autodesk, Inc."
 90
     1024
280
     0
281
     0
  0
CLASS
  1
CELLSTYLEMAP
  2
AcDbCellStyleMap
  3
ObjectDBX Classes
 90
     1152
280
     0
281
     0
  0
CLASS
  1
ACDBPLACEHOLDER
  2
AcDbPlaceHolder
  3
ObjectDBX Classes
 90
        0
280
     0
281
     0
  0
CLASS
  1
LAYOUT
  2
AcDbLayout
  3
ObjectDBX Classes
 90
        0
280
     0
281
     0
  0
ENDSEC
  0
SECTION
  2
TABLES
  0
TABLE
  2
VPORT
  5
8
330
0
100
AcDbSymbolTable
 70
     1
  0
VPORT
  5
57
330
8
100
AcDbSymbolTableRecord
100
AcDbViewportTableRecord
  2
*Active
 70
     0
 10
0.0
 20
0.0
 11
1.0
 21
1.0
 12
-292.3011018995948
 22
321.1579580270616
 13
0.0
 23
0.0
 14
10.0
 24
10.0
 15
10.0
 25
10.0
 16
0.0
 26
0.0
 36
1.0
 17
0.0
 27
0.0
 37
0.0
 40
3000.278902732808
 41
2.180967238689547
 42
50.0
 43
0.0
 44
0.0
 50
0.0
 51
0.0
 71
     0
 72
  1000
 73
     1
 74
     1
 75
     0
 76
     0
 77
     0
 78
     0
281
     0
 65
     1
110
0.0
120
0.0
130
0.0
111
1.0
121
0.0
131
0.0
112
0.0
122
1.0
132
0.0
 79
     0
146
0.0
1001
ACAD_NAV_VCDISPLAY
1070
     3
  0
ENDTAB
  0
TABLE
  2
LTYPE
  5
5
330
0
100
AcDbSymbolTable
 70
    20
  0
LTYPE
  5
5B
330
5
100
AcDbSymbolTableRecord
100
AcDbLinetypeTableRecord
  2
ByBlock
 70
     0
  3

 72
    65
 73
     0
 40
0.0
  0
LTYPE
  5
5C
330
5
100
AcDbSymbolTableRecord
100
AcDbLinetypeTableRecord
  2
ByLayer
 70
     0
  3

 72
    65
 73
     0
 40
0.0
  0
LTYPE
  5
5D
330
5
100
AcDbSymbolTableRecord
100
AcDbLinetypeTableRecord
  2
Continuous
 70
     0
  3
Solid line
 72
    65
 73
     0
 40
0.0
  0
LTYPE
  5
81
330
5
100
AcDbSymbolTableRecord
100
AcDbLinetypeTableRecord
  2
HIDDEN
 70
     0
  3
Hidden __ __ __ __ __ __ __ __ __ __ __ __ __ _
 72
    65
 73
     2
 40
9.524999999999998
 49
6.349999999999999
 74
     0
 49
-3.174999999999999
 74
     0
  0
LTYPE
  5
82
330
5
100
AcDbSymbolTableRecord
100
AcDbLinetypeTableRecord
  2
PHANTOM2
 70
     0
  3
Phantom (.5x) ___ _ _ ___ _ _ ___ _ _ ___ _ _
 72
    65
 73
     6
 40
31.75
 49
15.875
 74
     0
 49
-3.174999999999999
 74
     0
 49
3.174999999999999
 74
     0
 49
-3.174999999999999
 74
     0
 49
3.174999999999999
 74
     0
 49
-3.174999999999999
 74
     0
  0
LTYPE
  5
83
330
5
100
AcDbSymbolTableRecord
100
AcDbLinetypeTableRecord
  2
CENTER
 70
     0
  3
Center ____ _ ____ _ ____ _ ____ _ ____ _ ____
 72
    65
 73
     4
 40
50.8
 49
31.75
 74
     0
 49
-6.349999999999999
 74
     0
 49
6.349999999999999
 74
     0
 49
-6.349999999999999
 74
     0
  0
LTYPE
  5
9C
330
5
100
AcDbSymbolTableRecord
100
AcDbLinetypeTableRecord
  2
AM_ISO02W050
 70
     0
  3
__ __ __ __ __ __ __ __ __ __ __ __ __ __ __
 72
    65
 73
     2
 40
7.5
 49
6.0
 74
     0
 49
-1.5
 74
     0
  0
LTYPE
  5
9D
330
5
100
AcDbSymbolTableRecord
100
AcDbLinetypeTableRecord
  2
AM_ISO08W050
 70
     0
  3
____ . ____ . ____ . ____ . ____ . ____ . ____
 72
    65
 73
     4
 40
18.0
 49
12.0
 74
     0
 49
-1.5
 74
     0
 49
3.0
 74
     0
 49
-1.5
 74
     0
  0
LTYPE
  5
9E
330
5
100
AcDbSymbolTableRecord
100
AcDbLinetypeTableRecord
  2
AM_ISO09W050
 70
     0
  3
_____ . . _____ . . _____ . . ____ .. ____
 72
    65
 73
     6
 40
22.5
 49
12.0
 74
     0
 49
-1.5
 74
     0
 49
3.0
 74
     0
 49
-1.5
 74
     0
 49
3.0
 74
     0
 49
-1.5
 74
     0
  0
LTYPE
  5
9F
330
5
100
AcDbSymbolTableRecord
100
AcDbLinetypeTableRecord
  2
Amconstr
 70
     0
  3
_______________________
 72
    65
 73
     2
 40
9999.0
 49
9999.0
 74
     0
 49
0.0
 74
     0
  0
LTYPE
  5
A0
330
5
100
AcDbSymbolTableRecord
100
AcDbLinetypeTableRecord
  2
AM_ISO08W050x2
 70
     0
  3
__ . __ . __ . __ . __ . __
 72
    65
 73
     4
 40
9.0
 49
6.0
 74
     0
 49
-0.75
 74
     0
 49
1.5
 74
     0
 49
-0.75
 74
     0
  0
LTYPE
  5
A1
330
5
100
AcDbSymbolTableRecord
100
AcDbLinetypeTableRecord
  2
AM_ISO02W050x2
 70
     0
  3
 _ _ _ _ _ _ _ _ _ _ _ _
 72
    65
 73
     2
 40
3.75
 49
3.0
 74
     0
 49
-0.75
 74
     0
  0
LTYPE
  5
A2
330
5
100
AcDbSymbolTableRecord
100
AcDbLinetypeTableRecord
  2
Amzigzag
 70
     0
  3
/\/-/\/-/\/-/\/-/\/-/\/
 72
    65
 73
     2
 40
11.0001
 49
0.0001
 74
     4
 75
   136
340
96
 46
0.04
 50
0.0
 44
0.0
 45
0.0
 49
-11.0
 74
     0
  0
LTYPE
  5
A3
330
5
100
AcDbSymbolTableRecord
100
AcDbLinetypeTableRecord
  2
ACJISWELD
 70
     0
  3
_ _ _ _ _
 72
    65
 73
     2
 40
2.0
 49
2.0
 74
     0
 49
-1.0
 74
     0
  0
LTYPE
  5
A4
330
5
100
AcDbSymbolTableRecord
100
AcDbLinetypeTableRecord
  2
ACJISTGL
 70
     0
  3
_ _ _ _ _
 72
    65
 73
     2
 40
3.0
 49
2.0
 74
     0
 49
-1.0
 74
     0
  0
LTYPE
  5
A5
330
5
100
AcDbSymbolTableRecord
100
AcDbLinetypeTableRecord
  2
ACJISTGB
 70
     0
  3
__ . . __ . .
 72
    65
 73
     6
 40
9.0
 49
4.0
 74
     0
 49
-1.0
 74
     0
 49
1.0
 74
     0
 49
-1.0
 74
     0
 49
1.0
 74
     0
 49
-1.0
 74
     0
  0
LTYPE
  5
A6
330
5
100
AcDbSymbolTableRecord
100
AcDbLinetypeTableRecord
  2
DASHDOT
 70
     0
  3
Dash dot __ . __ . __ . __ . __ . __ . __ . __
 72
    65
 73
     4
 40
25.4
 49
12.7
 74
     0
 49
-6.349999999999999
 74
     0
 49
0.0
 74
     0
 49
-6.349999999999999
 74
     0
  0
LTYPE
  5
A7
330
5
100
AcDbSymbolTableRecord
100
AcDbLinetypeTableRecord
  2
DASHED
 70
     0
  3
Dashed __ __ __ __ __ __ __ __ __ __ __ __ __ _
 72
    65
 73
     2
 40
19.05
 49
12.7
 74
     0
 49
-6.349999999999999
 74
     0
  0
LTYPE
  5
A8
330
5
100
AcDbSymbolTableRecord
100
AcDbLinetypeTableRecord
  2
PHANTOM
 70
     0
  3
Phantom ______  __  __  ______  __  __  ______
 72
    65
 73
     6
 40
63.5
 49
31.75
 74
     0
 49
-6.349999999999999
 74
     0
 49
6.349999999999999
 74
     0
 49
-6.349999999999999
 74
     0
 49
6.349999999999999
 74
     0
 49
-6.349999999999999
 74
     0
  0
LTYPE
  5
5CC
330
5
100
AcDbSymbolTableRecord
100
AcDbLinetypeTableRecord
  2
ACISOWELD
 70
     0
  3
_ _ _ _ _
 72
    65
 73
     2
 40
2.0
 49
2.0
 74
     0
 49
-1.0
 74
     0
  0
LTYPE
  5
5CD
330
5
100
AcDbSymbolTableRecord
100
AcDbLinetypeTableRecord
  2
ACISOTGL
 70
     0
  3
_ _ _ _ _
 72
    65
 73
     2
 40
3.0
 49
2.0
 74
     0
 49
-1.0
 74
     0
  0
LTYPE
  5
5CE
330
5
100
AcDbSymbolTableRecord
100
AcDbLinetypeTableRecord
  2
ACISOTGB
 70
     0
  3
__ . . __ . .
 72
    65
 73
     6
 40
9.0
 49
4.0
 74
     0
 49
-1.0
 74
     0
 49
1.0
 74
     0
 49
-1.0
 74
     0
 49
1.0
 74
     0
 49
-1.0
 74
     0
  0
ENDTAB
  0
TABLE
  2
LAYER
  5
2
330
0
100
AcDbSymbolTable
 70
    13
  0
LAYER
  5
54
330
2
100
AcDbSymbolTableRecord
100
AcDbLayerTableRecord
  2
0
 70
     0
 62
     7
  6
Continuous
370
    -3
390
F
1001
AcAecLayerStandard
1000

1000

  0
LAYER
  5
79
330
2
100
AcDbSymbolTableRecord
100
AcDbLayerTableRecord
  2
Defpoints
 70
     0
 62
     7
  6
Continuous
290
     0
370
    -3
390
F
1001
AcAecLayerStandard
1000

1000

  0
LAYER
  5
C3
102
{ACAD_XDICTIONARY
360
C4
102
}
330
2
100
AcDbSymbolTableRecord
100
AcDbLayerTableRecord
  2
AM_VIEWS
 70
     0
 62
    -1
  6
Continuous
290
     0
370
    13
390
F
1001
AcAecLayerStandard
1000

1000

  0
LAYER
  5
C7
102
{ACAD_XDICTIONARY
360
C8
102
}
330
2
100
AcDbSymbolTableRecord
100
AcDbLayerTableRecord
  2
DETAIL
 70
     0
 62
     5
  6
Continuous
370
    -3
390
F
  0
LAYER
  5
19A
102
{ACAD_XDICTIONARY
360
19B
102
}
330
2
100
AcDbSymbolTableRecord
100
AcDbLayerTableRecord
  2
SERVICESPACE
 70
     0
 62
     2
  6
DASHDOT
370
    -3
390
F
  0
LAYER
  5
1A3
102
{ACAD_XDICTIONARY
360
1A4
102
}
330
2
100
AcDbSymbolTableRecord
100
AcDbLayerTableRecord
  2
NOTE
 70
     0
 62
     4
  6
Continuous
370
    -3
390
F
  0
LAYER
  5
1AD
102
{ACAD_XDICTIONARY
360
1AE
102
}
330
2
100
AcDbSymbolTableRecord
100
AcDbLayerTableRecord
  2
BASIS
 70
     0
 62
     6
  6
DASHDOT
370
    -3
390
F
  0
LAYER
  5
1B7
102
{ACAD_XDICTIONARY
360
1B8
102
}
330
2
100
AcDbSymbolTableRecord
100
AcDbLayerTableRecord
  2
OUTLINE
 70
     0
 62
     3
  6
Continuous
370
    -3
390
F
  0
LAYER
  5
21C
102
{ACAD_XDICTIONARY
360
21D
102
}
330
2
100
AcDbSymbolTableRecord
100
AcDbLayerTableRecord
  2
ARRANGE
 70
     0
 62
     1
  6
Continuous
370
    -3
390
F
  0
LAYER
  5
223
102
{ACAD_XDICTIONARY
360
224
102
}
330
2
100
AcDbSymbolTableRecord
100
AcDbLayerTableRecord
  2
FIX
 70
     0
 62
    11
  6
Continuous
370
    -3
390
F
  0
LAYER
  5
243
330
2
100
AcDbSymbolTableRecord
100
AcDbLayerTableRecord
  2
AM_7
 70
     0
 62
     4
  6
AM_ISO08W050
370
    13
390
F
1001
AcAecLayerStandard
1000

1000

  0
LAYER
  5
258
102
{ACAD_XDICTIONARY
360
259
102
}
330
2
100
AcDbSymbolTableRecord
100
AcDbLayerTableRecord
  2
ETC
 70
     0
 62
    61
  6
Continuous
370
    -3
390
F
  0
LAYER
  5
264
102
{ACAD_XDICTIONARY
360
265
102
}
330
2
100
AcDbSymbolTableRecord
100
AcDbLayerTableRecord
  2
SIZE
 70
     0
 62
    30
  6
Continuous
370
    -3
390
F
  0
ENDTAB
  0
TABLE
  2
STYLE
  5
3
330
0
100
AcDbSymbolTable
 70
     9
  0
STYLE
  5
55
330
3
100
AcDbSymbolTableRecord
100
AcDbTextStyleTableRecord
  2
STANDARD
 70
     0
 40
0.0
 41
1.0
 50
0.0
 71
     0
 42
9.0
  3
exthalf2.shx
  4
extfont2.shx
  0
STYLE
  5
5A
330
3
100
AcDbSymbolTableRecord
100
AcDbTextStyleTableRecord
  2
Annotative
 70
     0
 40
0.0
 41
1.0
 50
0.0
 71
     0
 42
0.2
  3
txt
  4

1001
AcadAnnotative
1000
AnnotativeData
1002
{
1070
     1
1070
     1
1002
}
  0
STYLE
  5
96
330
3
100
AcDbSymbolTableRecord
100
AcDbTextStyleTableRecord
  2

 70
     1
 40
0.0
 41
1.0
 50
0.0
 71
     0
 42
2.5
  3
genltshp.shx
  4
extfont2.shx
  0
STYLE
  5
97
330
3
100
AcDbSymbolTableRecord
100
AcDbTextStyleTableRecord
  2
ACJISGDT
 70
     0
 40
0.0
 41
1.0
 50
0.0
 71
     0
 42
2.5
  3
amgdt.shx
  4
extfont2.shx
  0
STYLE
  5
98
330
3
100
AcDbSymbolTableRecord
100
AcDbTextStyleTableRecord
  2
STANDARD_MODELNAME
 70
     0
 40
80.0
 41
0.8
 50
0.0
 71
     0
 42
64.0
  3
MONOTXT.shx
  4
BIGFONT.shx
  0
STYLE
  5
99
330
3
100
AcDbSymbolTableRecord
100
AcDbTextStyleTableRecord
  2
KAIGAI_STANDARD_1
 70
     0
 40
53.0
 41
0.51
 50
0.0
 71
     0
 42
53.0
  3
MONOTXT.shx
  4
BIGFONT.shx
  0
STYLE
  5
9A
330
3
100
AcDbSymbolTableRecord
100
AcDbTextStyleTableRecord
  2
AUDIT_D_191004085756-470174
 70
     0
 40
0.0
 41
1.0
 50
0.0
 71
     0
 42
0.0
  3
exthalf2
  4
ExtFont2
  0
STYLE
  5
5CA
330
3
100
AcDbSymbolTableRecord
100
AcDbTextStyleTableRecord
  2
ACISOTS
 70
     0
 40
0.0
 41
1.0
 50
0.0
 71
     0
 42
0.2
  3
isocp.shx
  4

  0
STYLE
  5
5CB
330
3
100
AcDbSymbolTableRecord
100
AcDbTextStyleTableRecord
  2
ACISOGDT
 70
     0
 40
0.0
 41
1.0
 50
0.0
 71
     0
 42
0.2
  3
amgdt.shx
  4

  0
ENDTAB
  0
TABLE
  2
VIEW
  5
6
330
0
100
AcDbSymbolTable
 70
     0
  0
ENDTAB
  0
TABLE
  2
UCS
  5
7
330
0
100
AcDbSymbolTable
 70
     0
  0
ENDTAB
  0
TABLE
  2
APPID
  5
9
330
0
100
AcDbSymbolTable
 70
    31
  0
APPID
  5
56
330
9
100
AcDbSymbolTableRecord
100
AcDbRegAppTableRecord
  2
ACAD
 70
     0
  0
APPID
  5
5E
330
9
100
AcDbSymbolTableRecord
100
AcDbRegAppTableRecord
  2
AcadAnnotative
 70
     0
  0
APPID
  5
78
330
9
100
AcDbSymbolTableRecord
100
AcDbRegAppTableRecord
  2
ACAD_PSEXT
 70
     0
  0
APPID
  5
7A
330
9
100
AcDbSymbolTableRecord
100
AcDbRegAppTableRecord
  2
MCAD_NO_VIS
 70
     0
  0
APPID
  5
7B
330
9
100
AcDbSymbolTableRecord
100
AcDbRegAppTableRecord
  2
ACAD_TEMP_GRAPHIC
 70
     0
  0
APPID
  5
84
330
9
100
AcDbSymbolTableRecord
100
AcDbRegAppTableRecord
  2
ACAD_DSTYLE_DIMJAG
 70
     0
  0
APPID
  5
85
330
9
100
AcDbSymbolTableRecord
100
AcDbRegAppTableRecord
  2
ACAD_DSTYLE_DIMTALN
 70
     0
  0
APPID
  5
86
330
9
100
AcDbSymbolTableRecord
100
AcDbRegAppTableRecord
  2
ACAD_NAV_VCDISPLAY
 70
     0
  0
APPID
  5
87
330
9
100
AcDbSymbolTableRecord
100
AcDbRegAppTableRecord
  2
ACAD_DSTYLE_DIMBREAK
 70
     0
  0
APPID
  5
88
330
9
100
AcDbSymbolTableRecord
100
AcDbRegAppTableRecord
  2
AcAecLayerStandard
 70
     0
  0
APPID
  5
89
330
9
100
AcDbSymbolTableRecord
100
AcDbRegAppTableRecord
  2
GENIUS_GENODEF_13
 70
     0
  0
APPID
  5
8A
330
9
100
AcDbSymbolTableRecord
100
AcDbRegAppTableRecord
  2
GENIUS_GENSCREG_15
 70
     0
  0
APPID
  5
8B
330
9
100
AcDbSymbolTableRecord
100
AcDbRegAppTableRecord
  2
GENIUS_GENOBJ-N-SDF_13
 70
     0
  0
APPID
  5
8C
330
9
100
AcDbSymbolTableRecord
100
AcDbRegAppTableRecord
  2
ACAD_DSTYLE_DIMINSPECT
 70
     0
  0
APPID
  5
8D
330
9
100
AcDbSymbolTableRecord
100
AcDbRegAppTableRecord
  2
GENIUS_GENOBJ-N-CEN_13
 70
     0
  0
APPID
  5
8E
330
9
100
AcDbSymbolTableRecord
100
AcDbRegAppTableRecord
  2
GENIUS_GENCEN_19
 70
     0
  0
APPID
  5
8F
330
9
100
AcDbSymbolTableRecord
100
AcDbRegAppTableRecord
  2
ACAD_DIMASSOC_CALC_DIMLFAC
 70
     0
  0
APPID
  5
90
330
9
100
AcDbSymbolTableRecord
100
AcDbRegAppTableRecord
  2
ACAD_DIMASSOC_DIMLFAC
 70
     0
  0
APPID
  5
91
330
9
100
AcDbSymbolTableRecord
100
AcDbRegAppTableRecord
  2
ACAD_DIMASSOC_OVERRIDDEN_DIMLFAC
 70
     0
  0
APPID
  5
92
330
9
100
AcDbSymbolTableRecord
100
AcDbRegAppTableRecord
  2
GradientColor1ACI
 70
     0
  0
APPID
  5
93
330
9
100
AcDbSymbolTableRecord
100
AcDbRegAppTableRecord
  2
GradientColor2ACI
 70
     0
  0
APPID
  5
94
330
9
100
AcDbSymbolTableRecord
100
AcDbRegAppTableRecord
  2
ACAD_DSTYLE_DIMRADIAL_EXTENSION
 70
     0
  0
APPID
  5
95
330
9
100
AcDbSymbolTableRecord
100
AcDbRegAppTableRecord
  2
ACATTRIBSERVICES
 70
     0
  0
APPID
  5
568
330
9
100
AcDbSymbolTableRecord
100
AcDbRegAppTableRecord
  2
DCO15
 70
     0
  0
APPID
  5
5A2
330
9
100
AcDbSymbolTableRecord
100
AcDbRegAppTableRecord
  2
DESIGNERASSEMBLIES
 70
     0
  0
APPID
  5
632
330
9
100
AcDbSymbolTableRecord
100
AcDbRegAppTableRecord
  2
ACAD_MLEADERVER
 70
     0
  0
APPID
  5
63F
330
9
100
AcDbSymbolTableRecord
100
AcDbRegAppTableRecord
  2
ACAD_DSTYLE_DIMARC_LENGTH_SYMBOL
 70
     0
  0
APPID
  5
640
330
9
100
AcDbSymbolTableRecord
100
AcDbRegAppTableRecord
  2
ACAD_DSTYLE_DIM_LINETYPE
 70
     0
  0
APPID
  5
641
330
9
100
AcDbSymbolTableRecord
100
AcDbRegAppTableRecord
  2
ACAD_DSTYLE_DIM_EXT1_LINETYPE
 70
     0
  0
APPID
  5
642
330
9
100
AcDbSymbolTableRecord
100
AcDbRegAppTableRecord
  2
ACAD_DSTYLE_DIM_EXT2_LINETYPE
 70
     0
  0
APPID
  5
643
330
9
100
AcDbSymbolTableRecord
100
AcDbRegAppTableRecord
  2
ACAD_DSTYLE_DIMFLIPARROW_WHICH_SYMBOL
 70
     0
  0
ENDTAB
  0
TABLE
  2
DIMSTYLE
  5
A
330
0
100
AcDbSymbolTable
 70
    19
100
AcDbDimStyleTable
 71
     1
340
AC
  0
DIMSTYLE
105
58
330
A
100
AcDbSymbolTableRecord
100
AcDbDimStyleTableRecord
  2
Standard
 70
     0
340
55
  0
DIMSTYLE
105
59
330
A
100
AcDbSymbolTableRecord
100
AcDbDimStyleTableRecord
  2
Annotative
 70
     0
 40
0.0
 41
2.5
 42
0.625
 43
3.75
 44
1.25
 73
     0
 74
     0
 77
     1
 78
     8
140
2.5
141
2.5
143
0.03937007874016
147
0.625
171
     3
172
     1
271
     2
272
     2
274
     3
278
    44
283
     0
284
     8
340
55
1001
AcadAnnotative
1000
AnnotativeData
1002
{
1070
     1
1070
     1
1002
}
  0
DIMSTYLE
105
AA
330
A
100
AcDbSymbolTableRecord
100
AcDbDimStyleTableRecord
  2
ISO-25
 70
     0
 41
2.5
 42
0.625
 43
3.75
 44
1.25
 73
     0
 74
     0
 77
     1
 78
     8
140
2.5
141
2.5
143
0.03937007874016
147
0.625
171
     3
172
     1
271
     2
272
     2
274
     3
278
    44
283
     0
284
     8
340
55
  0
DIMSTYLE
105
AB
330
A
100
AcDbSymbolTableRecord
100
AcDbDimStyleTableRecord
  2
AM_JIS
 70
     0
  4
"
 41
6.0
 42
1.0
 43
10.0
 44
1.0
 47
0.1
 48
0.1
 73
     0
 74
     0
 77
     3
 78
     8
 79
     2
140
9.0
141
0.0
143
0.0393701
146
0.71
147
1.5
172
     1
176
   256
177
   256
178
     2
271
     2
272
     2
283
     0
284
     8
340
55
371
    -1
372
    -1
1001
ACAD_DSTYLE_DIMBREAK
1070
   391
1040
3.75
1001
ACAD_DSTYLE_DIMJAG
1070
   388
1040
1.5
1001
ACAD_DSTYLE_DIMTALN
1070
   392
1070
     0
1001
ACAD_DSTYLE_DIMARC_LENGTH_SYMBOL
1070
   379
1070
     1
1001
ACAD_DSTYLE_DIM_LINETYPE
1070
   380
1005
5B
1001
ACAD_DSTYLE_DIM_EXT1_LINETYPE
1070
   381
1005
5B
1001
ACAD_DSTYLE_DIM_EXT2_LINETYPE
1070
   382
1005
5B
  0
DIMSTYLE
105
AC
330
A
100
AcDbSymbolTableRecord
100
AcDbDimStyleTableRecord
  2
JIS2
 70
     0
  4
"
 41
1.8
 42
1.0
 43
10.0
 44
1.0
 47
0.1
 48
0.1
 73
     0
 74
     0
 77
     3
 78
     8
 79
     2
140
3.5
141
0.0
143
0.0393701
146
0.71
147
0.5
172
     1
176
   256
177
   256
178
     2
271
     2
272
     2
283
     0
284
     8
340
55
341
AD
342
AD
371
    -1
372
    -1
1001
ACAD_DSTYLE_DIMBREAK
1070
   391
1040
3.75
1001
ACAD_DSTYLE_DIMJAG
1070
   388
1040
1.5
1001
ACAD_DSTYLE_DIMTALN
1070
   392
1070
     0
1001
ACAD_DSTYLE_DIMARC_LENGTH_SYMBOL
1070
   379
1070
     1
1001
ACAD_DSTYLE_DIM_LINETYPE
1070
   380
1005
5B
1001
ACAD_DSTYLE_DIM_EXT1_LINETYPE
1070
   381
1005
5B
1001
ACAD_DSTYLE_DIM_EXT2_LINETYPE
1070
   382
1005
5B
  0
DIMSTYLE
105
B3
330
A
100
AcDbSymbolTableRecord
100
AcDbDimStyleTableRecord
  2
JIS2$3
 70
     0
  4
"
 41
1.8
 42
1.0
 43
10.0
 44
1.0
 47
0.1
 48
0.1
 73
     0
 74
     0
 77
     3
 78
     8
 79
     2
140
3.5
141
0.0
143
0.0393701
146
0.71
147
0.5
172
     1
176
   256
177
   256
178
     2
271
     2
272
     2
283
     0
284
     8
288
     1
289
     2
340
55
341
AD
342
AD
371
    -1
372
    -1
1001
ACAD_DSTYLE_DIMBREAK
1070
   391
1040
3.75
1001
ACAD_DSTYLE_DIMJAG
1070
   388
1040
1.5
1001
ACAD_DSTYLE_DIMTALN
1070
   392
1070
     0
1001
ACAD_DSTYLE_DIMARC_LENGTH_SYMBOL
1070
   379
1070
     1
1001
ACAD_DSTYLE_DIM_LINETYPE
1070
   380
1005
5B
1001
ACAD_DSTYLE_DIM_EXT1_LINETYPE
1070
   381
1005
5B
1001
ACAD_DSTYLE_DIM_EXT2_LINETYPE
1070
   382
1005
5B
  0
DIMSTYLE
105
B4
330
A
100
AcDbSymbolTableRecord
100
AcDbDimStyleTableRecord
  2
JIS2$4
 70
     0
  4
"
 41
1.8
 42
1.0
 43
10.0
 44
1.0
 47
0.1
 48
0.1
 73
     0
 74
     0
 77
     3
 78
     8
 79
     2
140
3.5
141
0.0
143
0.0393701
146
0.71
147
0.5
172
     1
176
   256
177
   256
178
     2
271
     2
272
     2
283
     0
284
     8
289
     2
340
55
341
AD
342
AD
371
    -1
372
    -1
1001
ACAD_DSTYLE_DIMBREAK
1070
   391
1040
3.75
1001
ACAD_DSTYLE_DIMJAG
1070
   388
1040
1.5
1001
ACAD_DSTYLE_DIMTALN
1070
   392
1070
     0
1001
ACAD_DSTYLE_DIMARC_LENGTH_SYMBOL
1070
   379
1070
     1
1001
ACAD_DSTYLE_DIM_LINETYPE
1070
   380
1005
5B
1001
ACAD_DSTYLE_DIM_EXT1_LINETYPE
1070
   381
1005
5B
1001
ACAD_DSTYLE_DIM_EXT2_LINETYPE
1070
   382
1005
5B
  0
DIMSTYLE
105
B5
330
A
100
AcDbSymbolTableRecord
100
AcDbDimStyleTableRecord
  2
JIS2$6
 70
     0
  4
"
 41
1.8
 42
1.0
 43
10.0
 44
1.0
 47
0.1
 48
0.1
 73
     0
 74
     0
 78
     8
 79
     2
140
3.5
141
0.0
143
0.0393701
146
0.71
147
0.5
172
     1
176
   256
177
   256
178
     2
271
     2
272
     2
283
     0
284
     8
340
55
341
AD
342
AD
371
    -1
372
    -1
1001
ACAD_DSTYLE_DIMBREAK
1070
   391
1040
3.75
1001
ACAD_DSTYLE_DIMJAG
1070
   388
1040
1.5
1001
ACAD_DSTYLE_DIMTALN
1070
   392
1070
     0
1001
ACAD_DSTYLE_DIMARC_LENGTH_SYMBOL
1070
   379
1070
     1
1001
ACAD_DSTYLE_DIM_LINETYPE
1070
   380
1005
5B
1001
ACAD_DSTYLE_DIM_EXT1_LINETYPE
1070
   381
1005
5B
1001
ACAD_DSTYLE_DIM_EXT2_LINETYPE
1070
   382
1005
5B
  0
DIMSTYLE
105
B6
330
A
100
AcDbSymbolTableRecord
100
AcDbDimStyleTableRecord
  2
JIS2$7
 70
     0
  4
"
 41
1.8
 42
1.0
 43
10.0
 44
1.0
 47
0.1
 48
0.1
 73
     0
 74
     0
 77
     3
 78
     8
 79
     2
140
3.5
141
0.0
143
0.0393701
146
0.71
147
0.5
172
     1
176
   256
177
   256
178
     2
271
     2
272
     2
283
     0
284
     8
340
55
341
AD
342
AD
371
    -1
372
    -1
1001
ACAD_DSTYLE_DIMBREAK
1070
   391
1040
3.75
1001
ACAD_DSTYLE_DIMJAG
1070
   388
1040
1.5
1001
ACAD_DSTYLE_DIMTALN
1070
   392
1070
     0
1001
ACAD_DSTYLE_DIMARC_LENGTH_SYMBOL
1070
   379
1070
     1
1001
ACAD_DSTYLE_DIM_LINETYPE
1070
   380
1005
5B
1001
ACAD_DSTYLE_DIM_EXT1_LINETYPE
1070
   381
1005
5B
1001
ACAD_DSTYLE_DIM_EXT2_LINETYPE
1070
   382
1005
5B
  0
DIMSTYLE
105
B7
330
A
100
AcDbSymbolTableRecord
100
AcDbDimStyleTableRecord
  2
JIS2$SF
 70
     0
  4
"
 41
1.8
 42
1.0
 43
10.0
 44
1.0
 47
0.1
 48
0.1
 73
     0
 74
     0
 75
     1
 76
     1
 77
     3
 78
     8
 79
     2
140
3.5
141
0.0
143
0.0393701
146
0.71
147
0.5
172
     1
176
   256
177
   256
178
     2
271
     2
272
     2
283
     0
284
     8
340
55
341
AD
342
AD
371
    -1
372
    -1
1001
ACAD_DSTYLE_DIMBREAK
1070
   391
1040
3.75
1001
ACAD_DSTYLE_DIMJAG
1070
   388
1040
1.5
1001
ACAD_DSTYLE_DIMTALN
1070
   392
1070
     0
1001
ACAD_DSTYLE_DIMARC_LENGTH_SYMBOL
1070
   379
1070
     1
1001
ACAD_DSTYLE_DIM_LINETYPE
1070
   380
1005
5B
1001
ACAD_DSTYLE_DIM_EXT1_LINETYPE
1070
   381
1005
5B
1001
ACAD_DSTYLE_DIM_EXT2_LINETYPE
1070
   382
1005
5B
  0
DIMSTYLE
105
B8
330
A
100
AcDbSymbolTableRecord
100
AcDbDimStyleTableRecord
  2
JIS2$SH
 70
     0
  4
"
 41
1.8
 42
1.0
 43
10.0
 44
1.0
 47
0.1
 48
0.1
 73
     0
 74
     0
 75
     1
 76
     1
 77
     3
 78
     8
 79
     2
140
3.5
141
0.0
143
0.0393701
144
2.0
146
0.71
147
0.5
172
     1
173
     1
176
   256
177
   256
178
     2
271
     2
272
     2
283
     0
284
     8
340
55
341
AD
342
AD
343
B9
371
    -1
372
    -1
1001
ACAD_DSTYLE_DIMBREAK
1070
   391
1040
3.75
1001
ACAD_DSTYLE_DIMJAG
1070
   388
1040
1.5
1001
ACAD_DSTYLE_DIMTALN
1070
   392
1070
     0
1001
ACAD_DSTYLE_DIMARC_LENGTH_SYMBOL
1070
   379
1070
     1
1001
ACAD_DSTYLE_DIM_LINETYPE
1070
   380
1005
5B
1001
ACAD_DSTYLE_DIM_EXT1_LINETYPE
1070
   381
1005
5B
1001
ACAD_DSTYLE_DIM_EXT2_LINETYPE
1070
   382
1005
5B
  0
DIMSTYLE
105
BD
102
{ACAD_REACTORS
330
263
330
276
330
282
330
28E
330
29E
330
2AA
330
2D0
330
2DE
330
2EA
330
300
330
30E
330
31A
102
}
330
A
100
AcDbSymbolTableRecord
100
AcDbDimStyleTableRecord
  2
JIS2$0
 70
     0
  4
"
 41
1.8
 42
1.0
 43
10.0
 44
1.0
 47
0.1
 48
0.1
 73
     0
 74
     0
 77
     3
 78
     8
 79
     2
140
3.5
141
0.0
143
0.0393701
146
0.71
147
1.5
172
     1
176
   256
177
   256
178
     2
271
     2
272
     2
283
     0
284
     8
340
55
341
AD
342
AD
371
    -1
372
    -1
1001
ACAD_DSTYLE_DIMBREAK
1070
   391
1040
3.75
1001
ACAD_DSTYLE_DIMJAG
1070
   388
1040
1.5
1001
ACAD_DSTYLE_DIMARC_LENGTH_SYMBOL
1070
   379
1070
     1
1001
ACAD_DSTYLE_DIM_LINETYPE
1070
   380
1005
5B
1001
ACAD_DSTYLE_DIM_EXT1_LINETYPE
1070
   381
1005
5B
1001
ACAD_DSTYLE_DIM_EXT2_LINETYPE
1070
   382
1005
5B
  0
DIMSTYLE
105
5BD
102
{ACAD_REACTORS
330
5AB
102
}
330
A
100
AcDbSymbolTableRecord
100
AcDbDimStyleTableRecord
  2
AM_ISO
 70
     0
  4
"
 41
3.5
 42
1.0
 43
10.0
 44
1.0
 47
0.1
 48
0.1
 73
     0
 74
     0
 77
     1
 78
     8
 79
     2
140
3.5
141
0.0
143
0.0393701
146
0.71
147
1.5
172
     1
176
   256
177
   256
178
     2
271
     2
272
     3
274
     4
283
     0
284
     8
340
55
371
    -1
372
    -1
1001
ACAD_DSTYLE_DIMJAG
1070
   388
1040
1.5
1001
ACAD_DSTYLE_DIMBREAK
1070
   391
1040
3.75
1001
ACAD_DSTYLE_DIMARC_LENGTH_SYMBOL
1070
   379
1070
     1
1001
ACAD_DSTYLE_DIM_LINETYPE
1070
   380
1005
5B
1001
ACAD_DSTYLE_DIM_EXT1_LINETYPE
1070
   381
1005
5B
1001
ACAD_DSTYLE_DIM_EXT2_LINETYPE
1070
   382
1005
5B
  0
DIMSTYLE
105
5BF
330
A
100
AcDbSymbolTableRecord
100
AcDbDimStyleTableRecord
  2
AM_ISO$3
 70
     0
  4
"
 41
3.5
 42
1.0
 43
10.0
 44
1.0
 47
0.1
 48
0.1
 73
     0
 77
     1
 78
     8
 79
     2
140
3.5
141
0.0
143
0.0393701
146
0.71
147
1.5
176
   256
177
   256
178
     2
271
     2
272
     3
274
     4
283
     0
284
     8
288
     1
289
     0
340
55
371
    -1
372
    -1
1001
ACAD_DSTYLE_DIMBREAK
1070
   391
1040
3.75
1001
ACAD_DSTYLE_DIMJAG
1070
   388
1040
1.5
1001
ACAD_DSTYLE_DIMARC_LENGTH_SYMBOL
1070
   379
1070
     1
1001
ACAD_DSTYLE_DIM_LINETYPE
1070
   380
1005
5B
1001
ACAD_DSTYLE_DIM_EXT1_LINETYPE
1070
   381
1005
5B
1001
ACAD_DSTYLE_DIM_EXT2_LINETYPE
1070
   382
1005
5B
  0
DIMSTYLE
105
5C0
330
A
100
AcDbSymbolTableRecord
100
AcDbDimStyleTableRecord
  2
AM_ISO$4
 70
     0
  4
"
 41
3.5
 42
1.0
 43
10.0
 44
1.0
 47
0.1
 48
0.1
 73
     0
 77
     1
 78
     8
 79
     2
140
3.5
141
0.0
143
0.0393701
146
0.71
147
1.5
176
   256
177
   256
178
     2
271
     2
272
     3
274
     4
283
     0
284
     8
288
     1
289
     0
340
55
371
    -1
372
    -1
1001
ACAD_DSTYLE_DIMBREAK
1070
   391
1040
3.75
1001
ACAD_DSTYLE_DIMJAG
1070
   388
1040
1.5
1001
ACAD_DSTYLE_DIMARC_LENGTH_SYMBOL
1070
   379
1070
     1
1001
ACAD_DSTYLE_DIM_LINETYPE
1070
   380
1005
5B
1001
ACAD_DSTYLE_DIM_EXT1_LINETYPE
1070
   381
1005
5B
1001
ACAD_DSTYLE_DIM_EXT2_LINETYPE
1070
   382
1005
5B
  0
DIMSTYLE
105
5C1
330
A
100
AcDbSymbolTableRecord
100
AcDbDimStyleTableRecord
  2
AM_ISO$6
 70
     0
  4
"
 41
3.5
 42
1.0
 43
10.0
 44
1.0
 47
0.1
 48
0.1
 73
     0
 74
     0
 78
     8
 79
     2
140
3.5
141
0.0
143
0.0393701
146
0.71
147
1.5
172
     1
176
   256
177
   256
178
     2
271
     2
272
     3
274
     4
283
     0
284
     8
340
55
371
    -1
372
    -1
1001
ACAD_DSTYLE_DIMBREAK
1070
   391
1040
3.75
1001
ACAD_DSTYLE_DIMJAG
1070
   388
1040
1.5
1001
ACAD_DSTYLE_DIMARC_LENGTH_SYMBOL
1070
   379
1070
     1
1001
ACAD_DSTYLE_DIM_LINETYPE
1070
   380
1005
5B
1001
ACAD_DSTYLE_DIM_EXT1_LINETYPE
1070
   381
1005
5B
1001
ACAD_DSTYLE_DIM_EXT2_LINETYPE
1070
   382
1005
5B
  0
DIMSTYLE
105
5C2
330
A
100
AcDbSymbolTableRecord
100
AcDbDimStyleTableRecord
  2
AM_ISO$7
 70
     0
  4
"
 41
3.5
 42
1.0
 43
10.0
 44
1.0
 47
0.1
 48
0.1
 73
     0
 74
     0
 77
     1
 78
     8
 79
     2
140
3.5
141
0.0
143
0.0393701
146
0.71
147
1.5
172
     1
176
   256
177
   256
178
     2
271
     2
272
     3
274
     4
283
     0
284
     8
340
55
371
    -1
372
    -1
1001
ACAD_DSTYLE_DIMBREAK
1070
   391
1040
3.75
1001
ACAD_DSTYLE_DIMJAG
1070
   388
1040
1.5
1001
ACAD_DSTYLE_DIMARC_LENGTH_SYMBOL
1070
   379
1070
     1
1001
ACAD_DSTYLE_DIM_LINETYPE
1070
   380
1005
5B
1001
ACAD_DSTYLE_DIM_EXT1_LINETYPE
1070
   381
1005
5B
1001
ACAD_DSTYLE_DIM_EXT2_LINETYPE
1070
   382
1005
5B
  0
DIMSTYLE
105
5C3
330
A
100
AcDbSymbolTableRecord
100
AcDbDimStyleTableRecord
  2
AM_ISO$SF
 70
     0
  4
"
 41
3.5
 42
1.0
 43
10.0
 44
1.0
 47
0.1
 48
0.1
 73
     0
 74
     0
 75
     1
 76
     1
 77
     1
 78
     8
 79
     2
140
3.5
141
0.0
143
0.0393701
146
0.71
147
1.5
172
     1
176
   256
177
   256
178
     2
271
     2
272
     3
274
     4
283
     0
284
     8
340
55
371
    -1
372
    -1
1001
ACAD_DSTYLE_DIMBREAK
1070
   391
1040
3.75
1001
ACAD_DSTYLE_DIMJAG
1070
   388
1040
1.5
1001
ACAD_DSTYLE_DIMARC_LENGTH_SYMBOL
1070
   379
1070
     1
1001
ACAD_DSTYLE_DIM_LINETYPE
1070
   380
1005
5B
1001
ACAD_DSTYLE_DIM_EXT1_LINETYPE
1070
   381
1005
5B
1001
ACAD_DSTYLE_DIM_EXT2_LINETYPE
1070
   382
1005
5B
  0
DIMSTYLE
105
5C4
330
A
100
AcDbSymbolTableRecord
100
AcDbDimStyleTableRecord
  2
AM_ISO$SH
 70
     0
  4
"
 41
3.5
 42
1.0
 43
10.0
 44
1.0
 47
0.1
 48
0.1
 73
     0
 74
     0
 75
     1
 76
     1
 77
     1
 78
     8
 79
     2
140
3.5
141
0.0
143
0.0393701
144
2.0
146
0.71
147
1.5
172
     1
173
     1
176
   256
177
   256
178
     2
271
     2
272
     3
274
     4
283
     0
284
     8
340
55
343
B9
371
    -1
372
    -1
1001
ACAD_DSTYLE_DIMBREAK
1070
   391
1040
3.75
1001
ACAD_DSTYLE_DIMJAG
1070
   388
1040
1.5
1001
ACAD_DSTYLE_DIMARC_LENGTH_SYMBOL
1070
   379
1070
     1
1001
ACAD_DSTYLE_DIM_LINETYPE
1070
   380
1005
5B
1001
ACAD_DSTYLE_DIM_EXT1_LINETYPE
1070
   381
1005
5B
1001
ACAD_DSTYLE_DIM_EXT2_LINETYPE
1070
   382
1005
5B
  0
ENDTAB
  0
TABLE
  2
BLOCK_RECORD
  5
1
330
0
100
AcDbSymbolTable
 70
    30
  0
BLOCK_RECORD
  5
70
102
{ACAD_XDICTIONARY
360
255
102
}
330
1
100
AcDbSymbolTableRecord
100
AcDbBlockTableRecord
  2
*Model_Space
340
73
  0
BLOCK_RECORD
  5
6C
330
1
100
AcDbSymbolTableRecord
100
AcDbBlockTableRecord
  2
*Paper_Space
340
6F
  0
BLOCK_RECORD
  5
74
330
1
100
AcDbSymbolTableRecord
100
AcDbBlockTableRecord
  2
*Paper_Space0
340
77
  0
BLOCK_RECORD
  5
AD
330
1
100
AcDbSymbolTableRecord
100
AcDbBlockTableRecord
  2
_Open30
340
0
102
{BLKREFS
331
52E
331
52F
102
}
  0
BLOCK_RECORD
  5
B9
330
1
100
AcDbSymbolTableRecord
100
AcDbBlockTableRecord
  2
GENAXEH
340
0
  0
BLOCK_RECORD
  5
26C
330
1
100
AcDbSymbolTableRecord
100
AcDbBlockTableRecord
  2
_DotBlank
340
0
102
{BLKREFS
331
512
331
513
331
526
331
527
331
538
331
539
331
540
331
541
331
548
331
549
331
551
331
552
331
559
331
55A
331
561
331
562
331
502
331
503
331
50A
331
50B
331
647
331
64A
102
}
  0
BLOCK_RECORD
  5
32A
330
1
100
AcDbSymbolTableRecord
100
AcDbBlockTableRecord
  2
CustomObjectsInViewport1_0
340
0
102
{BLKREFS
331
328
102
}
  0
BLOCK_RECORD
  5
33F
330
1
100
AcDbSymbolTableRecord
100
AcDbBlockTableRecord
  2
*D17
340
0
  0
BLOCK_RECORD
  5
34A
330
1
100
AcDbSymbolTableRecord
100
AcDbBlockTableRecord
  2
*D18
340
0
  0
BLOCK_RECORD
  5
355
330
1
100
AcDbSymbolTableRecord
100
AcDbBlockTableRecord
  2
*D19
340
0
  0
BLOCK_RECORD
  5
360
330
1
100
AcDbSymbolTableRecord
100
AcDbBlockTableRecord
  2
*D20
340
0
  0
BLOCK_RECORD
  5
36F
330
1
100
AcDbSymbolTableRecord
100
AcDbBlockTableRecord
  2
*D21
340
0
  0
BLOCK_RECORD
  5
37A
330
1
100
AcDbSymbolTableRecord
100
AcDbBlockTableRecord
  2
*D22
340
0
  0
BLOCK_RECORD
  5
385
330
1
100
AcDbSymbolTableRecord
100
AcDbBlockTableRecord
  2
*D23
340
0
  0
BLOCK_RECORD
  5
392
330
1
100
AcDbSymbolTableRecord
100
AcDbBlockTableRecord
  2
*D24
340
0
  0
BLOCK_RECORD
  5
39D
330
1
100
AcDbSymbolTableRecord
100
AcDbBlockTableRecord
  2
*D25
340
0
  0
BLOCK_RECORD
  5
3A8
330
1
100
AcDbSymbolTableRecord
100
AcDbBlockTableRecord
  2
*D26
340
0
  0
BLOCK_RECORD
  5
3B4
330
1
100
AcDbSymbolTableRecord
100
AcDbBlockTableRecord
  2
*D27
340
0
  0
BLOCK_RECORD
  5
3BF
330
1
100
AcDbSymbolTableRecord
100
AcDbBlockTableRecord
  2
*D28
340
0
  0
ENDTAB
  0
ENDSEC
  0
SECTION
  2
BLOCKS
  0
BLOCK
  5
71
330
70
100
AcDbEntity
  8
0
100
AcDbBlockBegin
  2
*Model_Space
 70
     0
 10
0.0
 20
0.0
 30
0.0
  3
*Model_Space
  1

  0
ENDBLK
  5
72
330
70
100
AcDbEntity
  8
0
100
AcDbBlockEnd
  0
BLOCK
  5
6D
330
6C
100
AcDbEntity
 67
     1
  8
0
100
AcDbBlockBegin
  2
*Paper_Space
 70
     0
 10
0.0
 20
0.0
 30
0.0
  3
*Paper_Space
  1

  0
ENDBLK
  5
6E
330
6C
100
AcDbEntity
 67
     1
  8
0
100
AcDbBlockEnd
  0
BLOCK
  5
75
330
74
100
AcDbEntity
 67
     1
  8
0
100
AcDbBlockBegin
  2
*Paper_Space0
 70
     0
 10
0.0
 20
0.0
 30
0.0
  3
*Paper_Space0
  1

  0
ENDBLK
  5
76
330
74
100
AcDbEntity
 67
     1
  8
0
100
AcDbBlockEnd
  0
BLOCK
  5
AE
330
AD
100
AcDbEntity
  8
0
100
AcDbBlockBegin
  2
_Open30
 70
     0
 10
0.0
 20
0.0
 30
0.0
  3
_Open30
  1

  0
LINE
  5
AF
330
AD
100
AcDbEntity
  8
0
  6
ByBlock
 62
     0
370
    -2
100
AcDbLine
 10
-1.0
 20
0.26794919
 30
0.0
 11
0.0
 21
0.0
 31
0.0
  0
LINE
  5
B0
330
AD
100
AcDbEntity
  8
0
  6
ByBlock
 62
     0
370
    -2
100
AcDbLine
 10
0.0
 20
0.0
 30
0.0
 11
-1.0
 21
-0.26794919
 31
0.0
  0
LINE
  5
B1
330
AD
100
AcDbEntity
  8
0
  6
ByBlock
 62
     0
370
    -2
100
AcDbLine
 10
0.0
 20
0.0
 30
0.0
 11
-1.0
 21
0.0
 31
0.0
  0
ENDBLK
  5
B2
330
AD
100
AcDbEntity
  8
0
100
AcDbBlockEnd
  0
BLOCK
  5
BA
330
B9
100
AcDbEntity
  8
0
100
AcDbBlockBegin
  2
GENAXEH
 70
     0
 10
0.0
 20
0.0
 30
0.0
  3
GENAXEH
  1

  0
LINE
  5
BB
330
B9
100
AcDbEntity
  8
0
100
AcDbLine
 10
-1.0
 20
0.0
 30
0.0
 11
1.0
 21
0.0
 31
0.0
  0
ENDBLK
  5
BC
330
B9
100
AcDbEntity
  8
0
100
AcDbBlockEnd
  0
BLOCK
  5
26D
330
26C
100
AcDbEntity
  8
0
100
AcDbBlockBegin
  2
_DotBlank
 70
     0
 10
0.0
 20
0.0
 30
0.0
  3
_DotBlank
  1

  0
CIRCLE
  5
26E
330
26C
100
AcDbEntity
  8
0
  6
ByBlock
 62
     0
370
    -2
100
AcDbCircle
 10
0.0
 20
0.0
 30
0.0
 40
0.5
  0
LINE
  5
26F
330
26C
100
AcDbEntity
  8
0
  6
ByBlock
 62
     0
370
    -2
100
AcDbLine
 10
-0.5
 20
0.0
 30
0.0
 11
-1.0
 21
0.0
 31
0.0
  0
ENDBLK
  5
270
330
26C
100
AcDbEntity
  8
0
100
AcDbBlockEnd
  0
BLOCK
  5
32B
330
32A
100
AcDbEntity
  8
0
100
AcDbBlockBegin
  2
CustomObjectsInViewport1_0
 70
     0
 10
0.0
 20
0.0
 30
0.0
  3
CustomObjectsInViewport1_0
  1

  0
LINE
  5
32C
330
32A
100
AcDbEntity
  8
NOTE
100
AcDbLine
 10
1206.958624555526
 20
-842.9069111830477
 30
0.0
 11
684.2919578888595
 21
-842.9069111830477
 31
0.0
  0
LINE
  5
32D
330
32A
100
AcDbEntity
  8
NOTE
100
AcDbLine
 10
684.2919578888595
 20
-842.9069111830477
 30
0.0
 11
288.9766226512236
 21
-388.3367219358354
 31
0.0
  0
LWPOLYLINE
  5
32E
330
32A
100
AcDbEntity
  8
NOTE
  6
Continuous
100
AcDbPolyline
 90
        2
 70
   129
 43
17.99999999999999
 10
256.3529329503417
 20
-361.1720153311903
 42
1.0
 10
274.3529329503417
 20
-361.1720153311903
 42
1.0
  0
LINE
  5
32F
330
32A
100
AcDbEntity
  8
NOTE
  6
Continuous
100
AcDbLine
 10
277.1647778007826
 20
-374.7543686335129
 30
0.0
 11
288.9766226512236
 21
-388.3367219358354
 31
0.0
  0
TEXT
  5
330
330
32A
100
AcDbEntity
  8
NOTE
 62
     2
100
AcDbText
 10
754.2919578888595
 20
-807.9069111830476
 30
0.0
 40
70.0
  1
Control box
100
AcDbText
  0
LINE
  5
331
330
32A
100
AcDbEntity
  8
NOTE
100
AcDbLine
 10
930.6424914255421
 20
1031.804451016638
 30
0.0
 11
-129.6241752411242
 21
1031.804451016638
 31
0.0
  0
LINE
  5
332
330
32A
100
AcDbEntity
  8
NOTE
100
AcDbLine
 10
-129.6241752411242
 20
1031.804451016638
 30
0.0
 11
-366.4301340778145
 21
762.0241614305245
 31
0.0
  0
LWPOLYLINE
  5
333
330
32A
100
AcDbEntity
  8
NOTE
  6
Continuous
100
AcDbPolyline
 90
        2
 70
   129
 43
18.0
 10
-399.1787687888373
 20
734.9686194961555
 42
1.0
 10
-381.1787687888373
 20
734.9686194961555
 42
1.0
  0
LINE
  5
334
330
32A
100
AcDbEntity
  8
NOTE
  6
Continuous
100
AcDbLine
 10
-378.3044514333259
 20
748.49639046334
 30
0.0
 11
-366.4301340778144
 21
762.0241614305245
 31
0.0
  0
LINE
  5
335
330
32A
100
AcDbEntity
  8
NOTE
100
AcDbLine
 10
-129.6241752411242
 20
1031.804451016638
 30
0.0
 11
-380.7584919186372
 21
-302.0535905821116
 31
0.0
  0
LWPOLYLINE
  5
336
330
32A
100
AcDbEntity
  8
NOTE
  6
Continuous
100
AcDbPolyline
 90
        2
 70
   129
 43
18.0
 10
-396.4194206096963
 20
-337.4320024878575
 42
1.0
 10
-378.4194206096963
 20
-337.4320024878575
 42
1.0
  0
LINE
  5
337
330
32A
100
AcDbEntity
  8
NOTE
  6
Continuous
100
AcDbLine
 10
-384.0889562641667
 20
-319.7427965349846
 30
0.0
 11
-380.7584919186372
 21
-302.0535905821116
 31
0.0
  0
TEXT
  5
338
330
32A
100
AcDbEntity
  8
NOTE
 62
     2
100
AcDbText
 10
-59.62417524112424
 20
1066.804451016638
 30
0.0
 40
70.0
  1
Alternative duct position
100
AcDbText
  0
LINE
  5
339
330
32A
100
AcDbEntity
  8
NOTE
100
AcDbLine
 10
-2454.820143929413
 20
927.160920618588
 30
0.0
 11
-761.7768105960804
 21
927.160920618588
 31
0.0
  0
LINE
  5
33A
330
32A
100
AcDbEntity
  8
NOTE
100
AcDbLine
 10
-761.7768105960804
 20
927.160920618588
 30
0.0
 11
-638.7736752699447
 21
738.8224279856954
 31
0.0
  0
LWPOLYLINE
  5
33B
330
32A
100
AcDbEntity
  8
NOTE
  6
Continuous
100
AcDbPolyline
 90
        2
 70
   129
 43
17.99999999999998
 10
-628.0885378991024
 20
708.6811710993101
 42
1.0
 10
-610.0885378991024
 20
708.6811710993101
 42
1.0
  0
LINE
  5
33C
330
32A
100
AcDbEntity
  8
NOTE
  6
Continuous
100
AcDbLine
 10
-628.9311065845236
 20
723.7517995425028
 30
0.0
 11
-638.7736752699447
 21
738.8224279856954
 31
0.0
  0
TEXT
  5
33D
330
32A
100
AcDbEntity
  8
NOTE
 62
     2
100
AcDbText
 10
-2454.820143929413
 20
962.160920618588
 30
0.0
 40
70.0
  1
Ceiling suspension fixture(4-13 × 20 oval)
 41
0.95
100
AcDbText
  0
ENDBLK
  5
33E
330
32A
100
AcDbEntity
  8
0
100
AcDbBlockEnd
  0
BLOCK
  5
340
330
33F
100
AcDbEntity
  8
0
100
AcDbBlockBegin
  2
*D17
 70
     1
 10
0.0
 20
0.0
 30
0.0
  3
*D17
  1

  0
LINE
  5
4FF
330
33F
100
AcDbEntity
  8
SIZE
  6
ByBlock
100
AcDbLine
 10
365.0212312312269
 20
714.3993587074878
 30
0.0
 11
365.0212312312269
 21
825.3072803462833
 31
0.0
  0
LINE
  5
500
330
33F
100
AcDbEntity
  8
SIZE
  6
ByBlock
100
AcDbLine
 10
-603.7787687945183
 20
714.3993587074878
 30
0.0
 11
-603.7787687945183
 21
825.3072803462833
 31
0.0
  0
LINE
  5
501
330
33F
100
AcDbEntity
  8
SIZE
  6
ByBlock
100
AcDbLine
 10
335.0212312312269
 20
824.3072803462833
 30
0.0
 11
-573.7787687945183
 21
824.3072803462833
 31
0.0
  0
INSERT
  5
502
330
33F
100
AcDbEntity
  8
SIZE
100
AcDbBlockReference
  2
_DotBlank
 10
365.0212312312269
 20
824.3072803462833
 30
0.0
 41
30.0
 42
30.0
 43
30.0
  0
INSERT
  5
503
330
33F
100
AcDbEntity
  8
SIZE
100
AcDbBlockReference
  2
_DotBlank
 10
-603.7787687945183
 20
824.3072803462833
 30
0.0
 41
30.0
 42
30.0
 43
30.0
 50
180.0
  0
POINT
  5
504
330
33F
100
AcDbEntity
  8
Defpoints
 62
     0
100
AcDbPoint
 10
365.0212312312269
 20
713.3993587074878
 30
0.0
  0
POINT
  5
505
330
33F
100
AcDbEntity
  8
Defpoints
 62
     0
100
AcDbPoint
 10
-603.7787687945183
 20
713.3993587074878
 30
0.0
  0
POINT
  5
506
330
33F
100
AcDbEntity
  8
Defpoints
 62
     0
100
AcDbPoint
 10
-603.7787687945183
 20
824.3072803462833
 30
0.0
  0
ENDBLK
  5
341
330
33F
100
AcDbEntity
  8
0
100
AcDbBlockEnd
  0
BLOCK
  5
34B
330
34A
100
AcDbEntity
  8
0
100
AcDbBlockBegin
  2
*D18
 70
     1
 10
0.0
 20
0.0
 30
0.0
  3
*D18
  1

  0
LINE
  5
507
330
34A
100
AcDbEntity
  8
SIZE
  6
ByBlock
100
AcDbLine
 10
-606.3787687945896
 20
659.8686194941324
 30
0.0
 11
-606.3787687945896
 21
913.3277368223147
 31
0.0
  0
LINE
  5
508
330
34A
100
AcDbEntity
  8
SIZE
  6
ByBlock
100
AcDbLine
 10
-486.1787687913984
 20
778.1402310707358
 30
0.0
 11
-486.1787687913984
 21
913.3277368223147
 31
0.0
  0
LINE
  5
509
330
34A
100
AcDbEntity
  8
SIZE
  6
ByBlock
100
AcDbLine
 10
-576.3787687945896
 20
912.3277368223147
 30
0.0
 11
-516.1787687913983
 21
912.3277368223147
 31
0.0
  0
INSERT
  5
50A
330
34A
100
AcDbEntity
  8
SIZE
100
AcDbBlockReference
  2
_DotBlank
 10
-606.3787687945896
 20
912.3277368223147
 30
0.0
 41
30.0
 42
30.0
 43
30.0
 50
180.0
  0
INSERT
  5
50B
330
34A
100
AcDbEntity
  8
SIZE
100
AcDbBlockReference
  2
_DotBlank
 10
-486.1787687913984
 20
912.3277368223147
 30
0.0
 41
30.0
 42
30.0
 43
30.0
  0
POINT
  5
50C
330
34A
100
AcDbEntity
  8
Defpoints
 62
     0
100
AcDbPoint
 10
-606.3787687945896
 20
658.8686194941324
 30
0.0
  0
POINT
  5
50D
330
34A
100
AcDbEntity
  8
Defpoints
 62
     0
100
AcDbPoint
 10
-486.1787687913984
 20
777.1402310707358
 30
0.0
  0
POINT
  5
50E
330
34A
100
AcDbEntity
  8
Defpoints
 62
     0
100
AcDbPoint
 10
-486.1787687913984
 20
912.3277368223147
 30
0.0
  0
ENDBLK
  5
34C
330
34A
100
AcDbEntity
  8
0
100
AcDbBlockEnd
  0
BLOCK
  5
356
330
355
100
AcDbEntity
  8
0
100
AcDbBlockBegin
  2
*D19
 70
     1
 10
0.0
 20
0.0
 30
0.0
  3
*D19
  1

  0
LINE
  5
50F
330
355
100
AcDbEntity
  8
SIZE
  6
ByBlock
100
AcDbLine
 10
-606.1787687945491
 20
-286.331380530995
 30
0.0
 11
-964.529476350299
 21
-286.3313805309951
 31
0.0
  0
LINE
  5
510
330
355
100
AcDbEntity
  8
SIZE
  6
ByBlock
100
AcDbLine
 10
-607.3787687945898
 20
-980.120049279672
 30
0.0
 11
-964.5294763502988
 21
-980.1200492796722
 31
0.0
  0
LINE
  5
511
330
355
100
AcDbEntity
  8
SIZE
  6
ByBlock
100
AcDbLine
 10
-963.529476350299
 20
-316.3313805309952
 30
0.0
 11
-963.5294763502988
 21
-950.1200492796721
 31
0.0
  0
INSERT
  5
512
330
355
100
AcDbEntity
  8
SIZE
100
AcDbBlockReference
  2
_DotBlank
 10
-963.529476350299
 20
-286.3313805309951
 30
0.0
 41
30.0
 42
30.0
 43
30.0
 50
90.0
  0
INSERT
  5
513
330
355
100
AcDbEntity
  8
SIZE
100
AcDbBlockReference
  2
_DotBlank
 10
-963.5294763502988
 20
-980.1200492796722
 30
0.0
 41
30.0
 42
30.0
 43
30.0
 50
270.0
  0
POINT
  5
514
330
355
100
AcDbEntity
  8
Defpoints
 62
     0
100
AcDbPoint
 10
-605.1787687945491
 20
-286.331380530995
 30
0.0
  0
POINT
  5
515
330
355
100
AcDbEntity
  8
Defpoints
 62
     0
100
AcDbPoint
 10
-606.3787687945898
 20
-980.120049279672
 30
0.0
  0
POINT
  5
516
330
355
100
AcDbEntity
  8
Defpoints
 62
     0
100
AcDbPoint
 10
-963.5294763502988
 20
-980.1200492796722
 30
0.0
  0
ENDBLK
  5
357
330
355
100
AcDbEntity
  8
0
100
AcDbBlockEnd
  0
BLOCK
  5
361
330
360
100
AcDbEntity
  8
0
100
AcDbBlockBegin
  2
*D20
 70
     1
 10
0.0
 20
0.0
 30
0.0
  3
*D20
  1

  0
LINE
  5
644
330
360
100
AcDbEntity
  8
SIZE
  6
ByBlock
100
AcDbLine
 10
-606.1787687945491
 20
-286.331380530995
 30
0.0
 11
-707.3524317324845
 21
-286.3313805309951
 31
0.0
  0
LINE
  5
645
330
360
100
AcDbEntity
  8
SIZE
  6
ByBlock
100
AcDbLine
 10
-345.3756837854181
 20
-440.1313805350853
 30
0.0
 11
-707.3524317324845
 21
-440.1313805350854
 31
0.0
  0
LINE
  5
646
330
360
100
AcDbEntity
  8
SIZE
  6
ByBlock
100
AcDbLine
 10
-706.3524317324845
 20
-316.3313805309951
 30
0.0
 11
-706.3524317324845
 21
-410.1313805350854
 31
0.0
  0
INSERT
  5
647
330
360
100
AcDbEntity
  8
SIZE
100
AcDbBlockReference
  2
_DotBlank
 10
-706.3524317324845
 20
-286.3313805309951
 30
0.0
 41
30.0
 42
30.0
 43
30.0
 50
270.0
  0
LINE
  5
648
330
360
100
AcDbEntity
  8
SIZE
100
AcDbLine
 10
-706.3524317324845
 20
-256.3313805309951
 30
0.0
 11
-706.3524317324846
 21
-226.3313805309951
 31
0.0
  0
LINE
  5
649
330
360
100
AcDbEntity
  8
SIZE
  6
ByBlock
100
AcDbLine
 10
-706.3524317324845
 20
-286.3313805309951
 30
0.0
 11
-706.3524317324845
 21
-316.3313805309951
 31
0.0
  0
INSERT
  5
64A
330
360
100
AcDbEntity
  8
SIZE
100
AcDbBlockReference
  2
_DotBlank
 10
-706.3524317324845
 20
-440.1313805350854
 30
0.0
 41
30.0
 42
30.0
 43
30.0
 50
90.0
  0
LINE
  5
64B
330
360
100
AcDbEntity
  8
SIZE
100
AcDbLine
 10
-706.3524317324845
 20
-470.1313805350854
 30
0.0
 11
-706.3524317324845
 21
-500.1313805350854
 31
0.0
  0
LINE
  5
64C
330
360
100
AcDbEntity
  8
SIZE
  6
ByBlock
100
AcDbLine
 10
-706.3524317324845
 20
-440.1313805350854
 30
0.0
 11
-706.3524317324845
 21
-410.1313805350854
 31
0.0
  0
POINT
  5
64D
330
360
100
AcDbEntity
  8
Defpoints
 62
     0
100
AcDbPoint
 10
-605.1787687945491
 20
-286.331380530995
 30
0.0
  0
POINT
  5
64E
330
360
100
AcDbEntity
  8
Defpoints
 62
     0
100
AcDbPoint
 10
-344.3756837854181
 20
-440.1313805350853
 30
0.0
  0
POINT
  5
64F
330
360
100
AcDbEntity
  8
Defpoints
 62
     0
100
AcDbPoint
 10
-706.3524317324845
 20
-440.1313805350854
 30
0.0
  0
ENDBLK
  5
362
330
360
100
AcDbEntity
  8
0
100
AcDbBlockEnd
  0
BLOCK
  5
370
330
36F
100
AcDbEntity
  8
0
100
AcDbBlockBegin
  2
*D21
 70
     1
 10
0.0
 20
0.0
 30
0.0
  3
*D21
  1

  0
LINE
  5
523
330
36F
100
AcDbEntity
  8
SIZE
  6
ByBlock
100
AcDbLine
 10
-606.1787687945491
 20
-286.331380530995
 30
0.0
 11
-965.068621634413
 21
-286.3313805309951
 31
0.0
  0
LINE
  5
524
330
36F
100
AcDbEntity
  8
SIZE
  6
ByBlock
100
AcDbLine
 10
-606.1787687945491
 20
660.0686194941633
 30
0.0
 11
-965.0686216344132
 21
660.0686194941633
 31
0.0
  0
LINE
  5
525
330
36F
100
AcDbEntity
  8
SIZE
  6
ByBlock
100
AcDbLine
 10
-964.068621634413
 20
-256.3313805309952
 30
0.0
 11
-964.0686216344132
 21
630.0686194941633
 31
0.0
  0
INSERT
  5
526
330
36F
100
AcDbEntity
  8
SIZE
100
AcDbBlockReference
  2
_DotBlank
 10
-964.068621634413
 20
-286.3313805309951
 30
0.0
 41
30.0
 42
30.0
 43
30.0
 50
270.0
  0
INSERT
  5
527
330
36F
100
AcDbEntity
  8
SIZE
100
AcDbBlockReference
  2
_DotBlank
 10
-964.0686216344132
 20
660.0686194941633
 30
0.0
 41
30.0
 42
30.0
 43
30.0
 50
90.0
  0
POINT
  5
528
330
36F
100
AcDbEntity
  8
Defpoints
 62
     0
100
AcDbPoint
 10
-605.1787687945491
 20
-286.331380530995
 30
0.0
  0
POINT
  5
529
330
36F
100
AcDbEntity
  8
Defpoints
 62
     0
100
AcDbPoint
 10
-605.1787687945491
 20
660.0686194941633
 30
0.0
  0
POINT
  5
52A
330
36F
100
AcDbEntity
  8
Defpoints
 62
     0
100
AcDbPoint
 10
-964.0686216344132
 20
660.0686194941633
 30
0.0
  0
ENDBLK
  5
371
330
36F
100
AcDbEntity
  8
0
100
AcDbBlockEnd
  0
BLOCK
  5
37B
330
37A
100
AcDbEntity
  8
0
100
AcDbBlockBegin
  2
*D22
 70
     1
 10
0.0
 20
0.0
 30
0.0
  3
*D22
  1

  0
LINE
  5
52B
330
37A
100
AcDbEntity
  8
SIZE
  6
ByBlock
100
AcDbLine
 10
-710.7894520636202
 20
-159.1313805276136
 30
0.0
 11
-826.4719550310422
 21
-159.1313805276136
 31
0.0
  0
LINE
  5
52C
330
37A
100
AcDbEntity
  8
SIZE
  6
ByBlock
100
AcDbLine
 10
-717.0357274837535
 20
532.8686194907829
 30
0.0
 11
-826.4719550310422
 21
532.8686194907828
 31
0.0
  0
LINE
  5
52D
330
37A
100
AcDbEntity
  8
SIZE
  6
ByBlock
100
AcDbLine
 10
-825.4719550310422
 20
-157.3313805276136
 30
0.0
 11
-825.4719550310422
 21
531.0686194907829
 31
0.0
  0
INSERT
  5
52E
330
37A
100
AcDbEntity
  8
SIZE
100
AcDbBlockReference
  2
_Open30
 10
-825.4719550310422
 20
-159.1313805276136
 30
0.0
 41
1.8
 42
1.8
 43
1.8
 50
270.0
  0
INSERT
  5
52F
330
37A
100
AcDbEntity
  8
SIZE
100
AcDbBlockReference
  2
_Open30
 10
-825.4719550310422
 20
532.8686194907828
 30
0.0
 41
1.8
 42
1.8
 43
1.8
 50
90.0
  0
POINT
  5
530
330
37A
100
AcDbEntity
  8
Defpoints
 62
     0
100
AcDbPoint
 10
-709.7894520636202
 20
-159.1313805276136
 30
0.0
  0
POINT
  5
531
330
37A
100
AcDbEntity
  8
Defpoints
 62
     0
100
AcDbPoint
 10
-716.0357274837536
 20
532.8686194907829
 30
0.0
  0
POINT
  5
532
330
37A
100
AcDbEntity
  8
Defpoints
 62
     0
100
AcDbPoint
 10
-825.4719550310422
 20
532.8686194907828
 30
0.0
  0
ENDBLK
  5
37C
330
37A
100
AcDbEntity
  8
0
100
AcDbBlockEnd
  0
BLOCK
  5
386
330
385
100
AcDbEntity
  8
0
100
AcDbBlockBegin
  2
*D23
 70
     1
 10
0.0
 20
0.0
 30
0.0
  3
*D23
  1

  0
LINE
  5
533
330
385
100
AcDbEntity
  8
SIZE
  6
ByBlock
100
AcDbLine
 10
381.8192699487901
 20
-313.7313805317232
 30
0.0
 11
642.2563532549158
 21
-313.731380531723
 31
0.0
  0
LINE
  5
534
330
385
100
AcDbEntity
  8
SIZE
  6
ByBlock
100
AcDbLine
 10
384.5212312317219
 20
-333.7313805322552
 30
0.0
 11
642.2563532549158
 21
-333.7313805322551
 31
0.0
  0
LINE
  5
535
330
385
100
AcDbEntity
  8
SIZE
  6
ByBlock
100
AcDbLine
 10
641.2563532549159
 20
-283.7313805317231
 30
0.0
 11
641.2563532549158
 21
-253.7313805317231
 31
0.0
  0
LINE
  5
536
330
385
100
AcDbEntity
  8
SIZE
  6
ByBlock
100
AcDbLine
 10
641.2563532549159
 20
-363.7313805322551
 30
0.0
 11
641.2563532549159
 21
-474.5647138656017
 31
0.0
  0
LINE
  5
537
330
385
100
AcDbEntity
  8
SIZE
  6
ByBlock
100
AcDbLine
 10
641.2563532549159
 20
-313.731380531723
 30
0.0
 11
641.2563532549159
 21
-333.7313805322551
 31
0.0
  0
INSERT
  5
538
330
385
100
AcDbEntity
  8
SIZE
100
AcDbBlockReference
  2
_DotBlank
 10
641.2563532549159
 20
-313.731380531723
 30
0.0
 41
30.0
 42
30.0
 43
30.0
 50
270.0
  0
INSERT
  5
539
330
385
100
AcDbEntity
  8
SIZE
100
AcDbBlockReference
  2
_DotBlank
 10
641.2563532549159
 20
-333.7313805322551
 30
0.0
 41
30.0
 42
30.0
 43
30.0
 50
90.0
  0
POINT
  5
53A
330
385
100
AcDbEntity
  8
Defpoints
 62
     0
100
AcDbPoint
 10
380.81926994879
 20
-313.7313805317232
 30
0.0
  0
POINT
  5
53B
330
385
100
AcDbEntity
  8
Defpoints
 62
     0
100
AcDbPoint
 10
383.5212312317218
 20
-333.7313805322552
 30
0.0
  0
POINT
  5
53C
330
385
100
AcDbEntity
  8
Defpoints
 62
     0
100
AcDbPoint
 10
641.2563532549159
 20
-333.7313805322551
 30
0.0
  0
ENDBLK
  5
387
330
385
100
AcDbEntity
  8
0
100
AcDbBlockEnd
  0
BLOCK
  5
393
330
392
100
AcDbEntity
  8
0
100
AcDbBlockBegin
  2
*D24
 70
     1
 10
0.0
 20
0.0
 30
0.0
  3
*D24
  1

  0
LINE
  5
53D
330
392
100
AcDbEntity
  8
SIZE
  6
ByBlock
100
AcDbLine
 10
381.8192699487901
 20
-313.7313805317232
 30
0.0
 11
642.2563532549158
 21
-313.731380531723
 31
0.0
  0
LINE
  5
53E
330
392
100
AcDbEntity
  8
SIZE
  6
ByBlock
100
AcDbLine
 10
381.8192699487901
 20
687.4686194948924
 30
0.0
 11
642.2563532549157
 21
687.4686194948924
 31
0.0
  0
LINE
  5
53F
330
392
100
AcDbEntity
  8
SIZE
  6
ByBlock
100
AcDbLine
 10
641.2563532549159
 20
-283.7313805317231
 30
0.0
 11
641.2563532549157
 21
657.4686194948924
 31
0.0
  0
INSERT
  5
540
330
392
100
AcDbEntity
  8
SIZE
100
AcDbBlockReference
  2
_DotBlank
 10
641.2563532549159
 20
-313.731380531723
 30
0.0
 41
30.0
 42
30.0
 43
30.0
 50
270.0
  0
INSERT
  5
541
330
392
100
AcDbEntity
  8
SIZE
100
AcDbBlockReference
  2
_DotBlank
 10
641.2563532549157
 20
687.4686194948924
 30
0.0
 41
30.0
 42
30.0
 43
30.0
 50
90.0
  0
POINT
  5
542
330
392
100
AcDbEntity
  8
Defpoints
 62
     0
100
AcDbPoint
 10
380.81926994879
 20
-313.7313805317232
 30
0.0
  0
POINT
  5
543
330
392
100
AcDbEntity
  8
Defpoints
 62
     0
100
AcDbPoint
 10
380.81926994879
 20
687.4686194948924
 30
0.0
  0
POINT
  5
544
330
392
100
AcDbEntity
  8
Defpoints
 62
     0
100
AcDbPoint
 10
641.2563532549157
 20
687.4686194948924
 30
0.0
  0
ENDBLK
  5
394
330
392
100
AcDbEntity
  8
0
100
AcDbBlockEnd
  0
BLOCK
  5
39E
330
39D
100
AcDbEntity
  8
0
100
AcDbBlockBegin
  2
*D25
 70
     1
 10
0.0
 20
0.0
 30
0.0
  3
*D25
  1

  0
LINE
  5
545
330
39D
100
AcDbEntity
  8
SIZE
  6
ByBlock
100
AcDbLine
 10
-606.3787687945896
 20
-601.6864926904522
 30
0.0
 11
-606.3787687945896
 21
-607.0126289401687
 31
0.0
  0
LINE
  5
546
330
39D
100
AcDbEntity
  8
SIZE
  6
ByBlock
100
AcDbLine
 10
-486.1787687913984
 20
-409.0062076128811
 30
0.0
 11
-486.1787687913984
 21
-607.0126289401687
 31
0.0
  0
LINE
  5
547
330
39D
100
AcDbEntity
  8
SIZE
  6
ByBlock
100
AcDbLine
 10
-576.3787687945896
 20
-606.0126289401686
 30
0.0
 11
-516.1787687913983
 21
-606.0126289401686
 31
0.0
  0
INSERT
  5
548
330
39D
100
AcDbEntity
  8
SIZE
100
AcDbBlockReference
  2
_DotBlank
 10
-606.3787687945896
 20
-606.0126289401686
 30
0.0
 41
30.0
 42
30.0
 43
30.0
 50
180.0
  0
INSERT
  5
549
330
39D
100
AcDbEntity
  8
SIZE
100
AcDbBlockReference
  2
_DotBlank
 10
-486.1787687913984
 20
-606.0126289401686
 30
0.0
 41
30.0
 42
30.0
 43
30.0
  0
POINT
  5
54A
330
39D
100
AcDbEntity
  8
Defpoints
 62
     0
100
AcDbPoint
 10
-606.3787687945896
 20
-600.6864926904523
 30
0.0
  0
POINT
  5
54B
330
39D
100
AcDbEntity
  8
Defpoints
 62
     0
100
AcDbPoint
 10
-486.1787687913984
 20
-408.006207612881
 30
0.0
  0
POINT
  5
54C
330
39D
100
AcDbEntity
  8
Defpoints
 62
     0
100
AcDbPoint
 10
-486.1787687913984
 20
-606.0126289401686
 30
0.0
  0
ENDBLK
  5
39F
330
39D
100
AcDbEntity
  8
0
100
AcDbBlockEnd
  0
BLOCK
  5
3A9
330
3A8
100
AcDbEntity
  8
0
100
AcDbBlockBegin
  2
*D26
 70
     1
 10
0.0
 20
0.0
 30
0.0
  3
*D26
  1

  0
LINE
  5
54D
330
3A8
100
AcDbEntity
  8
SIZE
  6
ByBlock
100
AcDbLine
 10
319.7212312054163
 20
-286.3313805494373
 30
0.0
 11
551.1760847630614
 21
-286.3313805494373
 31
0.0
  0
LINE
  5
54E
330
3A8
100
AcDbEntity
  8
SIZE
  6
ByBlock
100
AcDbLine
 10
319.7212312054163
 20
-399.5313805494382
 30
0.0
 11
551.1760847630614
 21
-399.5313805494381
 31
0.0
  0
LINE
  5
54F
330
3A8
100
AcDbEntity
  8
SIZE
  6
ByBlock
100
AcDbLine
 10
550.1760847630614
 20
-316.3313805494373
 30
0.0
 11
550.1760847630614
 21
-369.5313805494381
 31
0.0
  0
LINE
  5
550
330
3A8
100
AcDbEntity
  8
SIZE
  6
ByBlock
100
AcDbLine
 10
550.1760847630614
 20
-399.5313805494381
 30
0.0
 11
550.1760847630614
 21
-507.1942977291081
 31
0.0
  0
INSERT
  5
551
330
3A8
100
AcDbEntity
  8
SIZE
100
AcDbBlockReference
  2
_DotBlank
 10
550.1760847630614
 20
-286.3313805494373
 30
0.0
 41
30.0
 42
30.0
 43
30.0
 50
90.0
  0
INSERT
  5
552
330
3A8
100
AcDbEntity
  8
SIZE
100
AcDbBlockReference
  2
_DotBlank
 10
550.1760847630614
 20
-399.5313805494381
 30
0.0
 41
30.0
 42
30.0
 43
30.0
 50
270.0
  0
POINT
  5
553
330
3A8
100
AcDbEntity
  8
Defpoints
 62
     0
100
AcDbPoint
 10
318.7212312054163
 20
-286.3313805494373
 30
0.0
  0
POINT
  5
554
330
3A8
100
AcDbEntity
  8
Defpoints
 62
     0
100
AcDbPoint
 10
318.7212312054163
 20
-399.5313805494382
 30
0.0
  0
POINT
  5
555
330
3A8
100
AcDbEntity
  8
Defpoints
 62
     0
100
AcDbPoint
 10
550.1760847630614
 20
-399.5313805494381
 30
0.0
  0
ENDBLK
  5
3AA
330
3A8
100
AcDbEntity
  8
0
100
AcDbBlockEnd
  0
BLOCK
  5
3B5
330
3B4
100
AcDbEntity
  8
0
100
AcDbBlockBegin
  2
*D27
 70
     1
 10
0.0
 20
0.0
 30
0.0
  3
*D27
  1

  0
LINE
  5
556
330
3B4
100
AcDbEntity
  8
SIZE
  6
ByBlock
100
AcDbLine
 10
450.5212312054484
 20
628.8686194505621
 30
0.0
 11
536.3513073596768
 21
628.8686194505621
 31
0.0
  0
LINE
  5
557
330
3B4
100
AcDbEntity
  8
SIZE
  6
ByBlock
100
AcDbLine
 10
450.5212312054484
 20
436.8686194505612
 30
0.0
 11
536.3513073596768
 21
436.8686194505612
 31
0.0
  0
LINE
  5
558
330
3B4
100
AcDbEntity
  8
SIZE
  6
ByBlock
100
AcDbLine
 10
535.3513073596769
 20
598.8686194505621
 30
0.0
 11
535.3513073596769
 21
466.8686194505612
 31
0.0
  0
INSERT
  5
559
330
3B4
100
AcDbEntity
  8
SIZE
100
AcDbBlockReference
  2
_DotBlank
 10
535.3513073596769
 20
628.8686194505621
 30
0.0
 41
30.0
 42
30.0
 43
30.0
 50
90.0
  0
INSERT
  5
55A
330
3B4
100
AcDbEntity
  8
SIZE
100
AcDbBlockReference
  2
_DotBlank
 10
535.3513073596769
 20
436.8686194505612
 30
0.0
 41
30.0
 42
30.0
 43
30.0
 50
270.0
  0
POINT
  5
55B
330
3B4
100
AcDbEntity
  8
Defpoints
 62
     0
100
AcDbPoint
 10
449.5212312054484
 20
628.8686194505621
 30
0.0
  0
POINT
  5
55C
330
3B4
100
AcDbEntity
  8
Defpoints
 62
     0
100
AcDbPoint
 10
449.5212312054484
 20
436.8686194505612
 30
0.0
  0
POINT
  5
55D
330
3B4
100
AcDbEntity
  8
Defpoints
 62
     0
100
AcDbPoint
 10
535.3513073596769
 20
436.8686194505612
 30
0.0
  0
ENDBLK
  5
3B6
330
3B4
100
AcDbEntity
  8
0
100
AcDbBlockEnd
  0
BLOCK
  5
3C0
330
3BF
100
AcDbEntity
  8
0
100
AcDbBlockBegin
  2
*D28
 70
     1
 10
0.0
 20
0.0
 30
0.0
  3
*D28
  1

  0
LINE
  5
55E
330
3BF
100
AcDbEntity
  8
SIZE
  6
ByBlock
100
AcDbLine
 10
374.0212312054376
 20
636.8686194505612
 30
0.0
 11
597.1517040601286
 21
636.8686194505612
 31
0.0
  0
LINE
  5
55F
330
3BF
100
AcDbEntity
  8
SIZE
  6
ByBlock
100
AcDbLine
 10
374.021231205434
 20
428.8686194505621
 30
0.0
 11
597.1517040601286
 21
428.8686194505622
 31
0.0
  0
LINE
  5
560
330
3BF
100
AcDbEntity
  8
SIZE
  6
ByBlock
100
AcDbLine
 10
596.1517040601286
 20
606.8686194505612
 30
0.0
 11
596.1517040601286
 21
458.8686194505622
 31
0.0
  0
INSERT
  5
561
330
3BF
100
AcDbEntity
  8
SIZE
100
AcDbBlockReference
  2
_DotBlank
 10
596.1517040601286
 20
636.8686194505612
 30
0.0
 41
30.0
 42
30.0
 43
30.0
 50
90.0
  0
INSERT
  5
562
330
3BF
100
AcDbEntity
  8
SIZE
100
AcDbBlockReference
  2
_DotBlank
 10
596.1517040601286
 20
428.8686194505622
 30
0.0
 41
30.0
 42
30.0
 43
30.0
 50
270.0
  0
POINT
  5
563
330
3BF
100
AcDbEntity
  8
Defpoints
 62
     0
100
AcDbPoint
 10
373.0212312054376
 20
636.8686194505612
 30
0.0
  0
POINT
  5
564
330
3BF
100
AcDbEntity
  8
Defpoints
 62
     0
100
AcDbPoint
 10
373.021231205434
 20
428.8686194505621
 30
0.0
  0
POINT
  5
565
330
3BF
100
AcDbEntity
  8
Defpoints
 62
     0
100
AcDbPoint
 10
596.1517040601286
 20
428.8686194505622
 30
0.0
  0
ENDBLK
  5
3C1
330
3BF
100
AcDbEntity
  8
0
100
AcDbBlockEnd
  0
ENDSEC
  0
SECTION
  2
ENTITIES
  0
LINE
  5
C6
330
70
100
AcDbEntity
  8
DETAIL
 62
     5
100
AcDbLine
 10
318.7212312054162
 20
-399.531380549437
 30
0.0
 11
144.3212312054074
 21
-399.531380549437
 31
0.0
  0
LINE
  5
C9
330
70
100
AcDbEntity
  8
DETAIL
  6
PHANTOM
 62
     5
100
AcDbLine
 10
-391.2787687945838
 20
-369.8313805494363
 30
0.0
 11
-581.0787687945867
 21
-369.8313805494363
 31
0.0
  0
LINE
  5
CA
330
70
100
AcDbEntity
  8
DETAIL
  6
PHANTOM
 62
     5
100
AcDbLine
 10
-390.178768794578
 20
-361.2313805494377
 30
0.0
 11
-582.1787687945925
 21
-361.2313805494377
 31
0.0
  0
LINE
  5
CB
330
70
100
AcDbEntity
  8
DETAIL
 62
     5
100
AcDbLine
 10
-680.7787687945983
 20
-255.1313805494374
 30
0.0
 11
-611.7787687945837
 21
-263.1313805494374
 31
0.0
  0
LINE
  5
CC
330
70
100
AcDbEntity
  8
DETAIL
 62
     5
100
AcDbLine
 10
371.5212312054191
 20
-333.7313805494377
 30
0.0
 11
383.5212312054046
 21
-333.7313805494377
 31
0.0
  0
LINE
  5
CD
330
70
100
AcDbEntity
  8
DETAIL
 62
     5
100
AcDbLine
 10
358.5212312054046
 20
-333.7313805494377
 30
0.0
 11
340.0212312054045
 21
-333.7313805494377
 31
0.0
  0
LINE
  5
CE
330
70
100
AcDbEntity
  8
DETAIL
 62
     5
100
AcDbLine
 10
-578.7787687945837
 20
-333.7313805494377
 30
0.0
 11
-597.2787687945984
 21
-333.7313805494377
 31
0.0
  0
LINE
  5
CF
330
70
100
AcDbEntity
  8
DETAIL
 62
     5
100
AcDbLine
 10
-610.2787687945838
 20
-333.7313805494377
 30
0.0
 11
-622.2787687945984
 21
-333.7313805494377
 31
0.0
  0
LINE
  5
D0
330
70
100
AcDbEntity
  8
DETAIL
 62
     5
100
AcDbLine
 10
340.0212312054045
 20
-330.531380549437
 30
0.0
 11
358.5212312054046
 21
-330.531380549437
 31
0.0
  0
LINE
  5
D1
330
70
100
AcDbEntity
  8
DETAIL
 62
     5
100
AcDbLine
 10
-578.7787687945837
 20
-330.531380549437
 30
0.0
 11
-597.2787687945984
 21
-330.531380549437
 31
0.0
  0
LINE
  5
D2
330
70
100
AcDbEntity
  8
DETAIL
 62
     5
100
AcDbLine
 10
115.0212312054045
 20
-302.031380549437
 30
0.0
 11
-353.7787687945838
 21
-302.031380549437
 31
0.0
  0
LINE
  5
D3
330
70
100
AcDbEntity
  8
DETAIL
 62
     5
100
AcDbLine
 10
115.8212312054074
 20
-301.2313805494378
 30
0.0
 11
116.6212312053958
 21
-301.2313805494378
 31
0.0
  0
LINE
  5
D4
330
70
100
AcDbEntity
  8
DETAIL
 62
     5
100
AcDbLine
 10
-354.5787687945867
 20
-301.2313805494378
 30
0.0
 11
-355.3787687945896
 21
-301.2313805494378
 31
0.0
  0
LINE
  5
D5
330
70
100
AcDbEntity
  8
DETAIL
 62
     5
100
AcDbLine
 10
116.6212312053958
 20
-297.531380549437
 30
0.0
 11
117.4212312054133
 21
-297.531380549437
 31
0.0
  0
LINE
  5
D6
330
70
100
AcDbEntity
  8
DETAIL
 62
     5
100
AcDbLine
 10
-355.3787687945896
 20
-297.531380549437
 30
0.0
 11
-356.1787687945925
 21
-297.531380549437
 31
0.0
  0
LINE
  5
D7
330
70
100
AcDbEntity
  8
DETAIL
 62
     5
100
AcDbLine
 10
115.8212312054074
 20
-296.2313805494377
 30
0.0
 11
116.6212312053958
 21
-296.2313805494377
 31
0.0
  0
LINE
  5
D8
330
70
100
AcDbEntity
  8
DETAIL
 62
     5
100
AcDbLine
 10
-354.5787687945867
 20
-296.2313805494377
 30
0.0
 11
-355.3787687945896
 21
-296.2313805494377
 31
0.0
  0
LINE
  5
D9
330
70
100
AcDbEntity
  8
DETAIL
 62
     5
100
AcDbLine
 10
116.6212312053958
 20
-294.531380549437
 30
0.0
 11
117.4212312054133
 21
-294.531380549437
 31
0.0
  0
LINE
  5
DA
330
70
100
AcDbEntity
  8
DETAIL
 62
     5
100
AcDbLine
 10
-355.3787687945896
 20
-294.531380549437
 30
0.0
 11
-356.1787687945925
 21
-294.531380549437
 31
0.0
  0
LINE
  5
DB
330
70
100
AcDbEntity
  8
DETAIL
  6
PHANTOM
 62
     5
100
AcDbLine
 10
-382.1787687945926
 20
-292.2313805494377
 30
0.0
 11
-578.7787687945837
 21
-292.2313805494377
 31
0.0
  0
LINE
  5
DC
330
70
100
AcDbEntity
  8
DETAIL
 62
     5
100
AcDbLine
 10
115.0212312054045
 20
-292.031380549437
 30
0.0
 11
-353.7787687945838
 21
-292.031380549437
 31
0.0
  0
LINE
  5
DD
330
70
100
AcDbEntity
  8
DETAIL
 62
     5
100
AcDbLine
 10
116.6212312053958
 20
-291.2313805494378
 30
0.0
 11
115.0212312054045
 21
-291.2313805494378
 31
0.0
  0
LINE
  5
DE
330
70
100
AcDbEntity
  8
DETAIL
 62
     5
100
AcDbLine
 10
-353.7787687945838
 20
-291.2313805494378
 30
0.0
 11
-355.3787687945896
 21
-291.2313805494378
 31
0.0
  0
LINE
  5
DF
330
70
100
AcDbEntity
  8
DETAIL
 62
     5
100
AcDbLine
 10
-578.7787687945837
 20
-286.531380549437
 30
0.0
 11
-568.4791593745922
 21
-286.531380549437
 31
0.0
  0
LINE
  5
E0
330
70
100
AcDbEntity
  8
DETAIL
 62
     5
100
AcDbLine
 10
-562.2702971995768
 20
-286.531380549437
 30
0.0
 11
-410.0872403885896
 21
-286.531380549437
 31
0.0
  0
LINE
  5
E1
330
70
100
AcDbEntity
  8
DETAIL
 62
     5
100
AcDbLine
 10
-403.8783782135742
 20
-286.531380549437
 30
0.0
 11
-355.3787687945896
 21
-286.531380549437
 31
0.0
  0
LINE
  5
E2
330
70
100
AcDbEntity
  8
DETAIL
 62
     5
100
AcDbLine
 10
116.6212312053958
 20
-286.531380549437
 30
0.0
 11
131.3210517714014
 21
-286.531380549437
 31
0.0
  0
LINE
  5
E3
330
70
100
AcDbEntity
  8
DETAIL
 62
     5
100
AcDbLine
 10
138.5214106404146
 20
-286.531380549437
 30
0.0
 11
144.3212312054074
 21
-286.531380549437
 31
0.0
  0
LINE
  5
E4
330
70
100
AcDbEntity
  8
DETAIL
 62
     5
100
AcDbLine
 10
144.9212312054132
 20
-286.531380549437
 30
0.0
 11
317.9212312054133
 21
-286.531380549437
 31
0.0
  0
LINE
  5
E5
330
70
100
AcDbEntity
  8
DETAIL
 62
     5
100
AcDbLine
 10
318.7212312054162
 20
-286.531380549437
 30
0.0
 11
326.2269858024211
 21
-286.531380549437
 31
0.0
  0
LINE
  5
E6
330
70
100
AcDbEntity
  8
DETAIL
 62
     5
100
AcDbLine
 10
331.2154766094009
 20
-286.531380549437
 30
0.0
 11
340.0212312054045
 21
-286.531380549437
 31
0.0
  0
LINE
  5
E7
330
70
100
AcDbEntity
  8
DETAIL
 62
     5
100
AcDbLine
 10
366.4212312054133
 20
-286.3313805494363
 30
0.0
 11
116.6212312053958
 21
-286.3313805494363
 31
0.0
  0
LINE
  5
E8
330
70
100
AcDbEntity
  8
DETAIL
 62
     5
100
AcDbLine
 10
-355.3787687945896
 20
-286.3313805494363
 30
0.0
 11
-605.178768794578
 21
-286.3313805494363
 31
0.0
  0
LINE
  5
E9
330
70
100
AcDbEntity
  8
DETAIL
 62
     5
100
AcDbLine
 10
-606.3787687945896
 20
-285.1313805494374
 30
0.0
 11
-605.178768794578
 21
-285.1313805494374
 31
0.0
  0
LINE
  5
EA
330
70
100
AcDbEntity
  8
DETAIL
 62
     5
100
AcDbLine
 10
367.6212312054104
 20
-285.1313805494374
 30
0.0
 11
366.4212312054133
 21
-285.1313805494374
 31
0.0
  0
LINE
  5
EB
330
70
100
AcDbEntity
  8
DETAIL
 62
     5
100
AcDbLine
 10
-622.2787687945984
 20
-283.7313805494377
 30
0.0
 11
-606.3787687945896
 21
-283.7313805494377
 31
0.0
  0
LINE
  5
EC
330
70
100
AcDbEntity
  8
DETAIL
 62
     5
100
AcDbLine
 10
383.5212312054046
 20
-283.7313805494377
 30
0.0
 11
367.6212312054104
 21
-283.7313805494377
 31
0.0
  0
LINE
  5
ED
330
70
100
AcDbEntity
  8
DETAIL
 62
     5
100
AcDbLine
 10
116.6212312053958
 20
-283.2313805494377
 30
0.0
 11
115.0212312054045
 21
-283.2313805494377
 31
0.0
  0
LINE
  5
EE
330
70
100
AcDbEntity
  8
DETAIL
 62
     5
100
AcDbLine
 10
-353.7787687945838
 20
-283.2313805494377
 30
0.0
 11
-355.3787687945896
 21
-283.2313805494377
 31
0.0
  0
LINE
  5
EF
330
70
100
AcDbEntity
  8
DETAIL
 62
     5
100
AcDbLine
 10
442.021231205419
 20
-255.1313805494374
 30
0.0
 11
373.0212312054191
 21
-263.1313805494374
 31
0.0
  0
LINE
  5
F0
330
70
100
AcDbEntity
  8
DETAIL
 62
     5
100
AcDbLine
 10
450.6212312054249
 20
627.7686194505622
 30
0.0
 11
450.6212312054249
 21
437.9686194505629
 31
0.0
  0
LINE
  5
F1
330
70
100
AcDbEntity
  8
DETAIL
 62
     5
100
AcDbLine
 10
450.6212312054249
 20
-64.23138054943774
 30
0.0
 11
450.6212312054249
 21
-254.031380549437
 31
0.0
  0
LINE
  5
F2
330
70
100
AcDbEntity
  8
DETAIL
 62
     5
100
AcDbLine
 10
442.021231205419
 20
628.8686194505644
 30
0.0
 11
442.021231205419
 21
436.8686194505626
 31
0.0
  0
LINE
  5
F3
330
70
100
AcDbEntity
  8
DETAIL
 62
     5
100
AcDbLine
 10
442.021231205419
 20
-63.13138054943738
 30
0.0
 11
442.021231205419
 21
-255.1313805494374
 31
0.0
  0
LINE
  5
F4
330
70
100
AcDbEntity
  8
DETAIL
 62
     5
100
AcDbLine
 10
-348.7787687945838
 20
-270.2313805494378
 30
0.0
 11
110.0212312054045
 21
-270.2313805494378
 31
0.0
  0
LINE
  5
F5
330
70
100
AcDbEntity
  8
DETAIL
 62
     5
100
AcDbLine
 10
367.6212312054104
 20
-263.7313805494378
 30
0.0
 11
368.2212312054162
 21
-263.7313805494378
 31
0.0
  0
LINE
  5
F6
330
70
100
AcDbEntity
  8
DETAIL
 62
     5
100
AcDbLine
 10
-606.3787687945896
 20
-263.7313805494378
 30
0.0
 11
-606.9787687945809
 21
-263.7313805494378
 31
0.0
  0
LINE
  5
F7
330
70
100
AcDbEntity
  8
DETAIL
 62
     5
100
AcDbLine
 10
-611.7787687945837
 20
-263.1313805494374
 30
0.0
 11
-606.3787687945896
 21
-263.1313805494374
 31
0.0
  0
LINE
  5
F8
330
70
100
AcDbEntity
  8
DETAIL
 62
     5
100
AcDbLine
 10
373.0212312054191
 20
-263.1313805494374
 30
0.0
 11
367.6212312054104
 21
-263.1313805494374
 31
0.0
  0
LINE
  5
F9
330
70
100
AcDbEntity
  8
DETAIL
 62
     5
100
AcDbLine
 10
-688.2787687945984
 20
-255.1313805494374
 30
0.0
 11
-680.7787687945983
 21
-255.1313805494374
 31
0.0
  0
LINE
  5
FA
330
70
100
AcDbEntity
  8
DETAIL
 62
     5
100
AcDbLine
 10
449.521231205419
 20
-255.1313805494374
 30
0.0
 11
442.021231205419
 21
-255.1313805494374
 31
0.0
  0
LINE
  5
FB
330
70
100
AcDbEntity
  8
DETAIL
 62
     5
100
AcDbLine
 10
383.5212312054046
 20
-333.7313805494377
 30
0.0
 11
383.5212312054046
 21
-283.7313805494377
 31
0.0
  0
LINE
  5
FC
330
70
100
AcDbEntity
  8
DETAIL
 62
     5
100
AcDbLine
 10
383.5212312054046
 20
657.468619450563
 30
0.0
 11
383.5212312054046
 21
707.468619450563
 31
0.0
  0
LINE
  5
FD
330
70
100
AcDbEntity
  8
DETAIL
 62
     5
100
AcDbLine
 10
373.0212312054191
 20
636.8686194505626
 30
0.0
 11
373.0212312054191
 21
428.8686194505644
 31
0.0
  0
LINE
  5
FE
330
70
100
AcDbEntity
  8
DETAIL
 62
     5
100
AcDbLine
 10
373.0212312054191
 20
-55.13138054943738
 30
0.0
 11
373.0212312054191
 21
-263.1313805494374
 31
0.0
  0
LINE
  5
FF
330
70
100
AcDbEntity
  8
DETAIL
 62
     5
100
AcDbLine
 10
371.5212312054191
 20
-333.7313805494377
 30
0.0
 11
371.5212312054191
 21
-313.7313805494378
 31
0.0
  0
LINE
  5
100
330
70
100
AcDbEntity
  8
DETAIL
 62
     5
100
AcDbLine
 10
371.5212312054191
 20
687.4686194505629
 30
0.0
 11
371.5212312054191
 21
707.468619450563
 31
0.0
  0
LINE
  5
101
330
70
100
AcDbEntity
  8
DETAIL
 62
     5
100
AcDbLine
 10
368.2212312054162
 20
-263.7313805494378
 30
0.0
 11
368.2212312054162
 21
-280.531380549437
 31
0.0
  0
LINE
  5
102
330
70
100
AcDbEntity
  8
DETAIL
 62
     5
100
AcDbLine
 10
368.2212312054162
 20
637.4686194505629
 30
0.0
 11
368.2212312054162
 21
654.2686194505622
 31
0.0
  0
LINE
  5
103
330
70
100
AcDbEntity
  8
DETAIL
 62
     5
100
AcDbLine
 10
367.8212312054075
 20
-263.7313805494378
 30
0.0
 11
367.8212312054075
 21
-263.1313805494374
 31
0.0
  0
LINE
  5
104
330
70
100
AcDbEntity
  8
DETAIL
 62
     5
100
AcDbLine
 10
367.8212312054075
 20
-55.13138054943738
 30
0.0
 11
367.8212312054075
 21
428.8686194505644
 31
0.0
  0
LINE
  5
105
330
70
100
AcDbEntity
  8
DETAIL
 62
     5
100
AcDbLine
 10
367.8212312054075
 20
636.8686194505626
 30
0.0
 11
367.8212312054075
 21
637.4686194505629
 31
0.0
  0
LINE
  5
106
330
70
100
AcDbEntity
  8
DETAIL
 62
     5
100
AcDbLine
 10
367.6212312054104
 20
658.8686194505644
 30
0.0
 11
367.6212312054104
 21
-285.1313805494374
 31
0.0
  0
LINE
  5
107
330
70
100
AcDbEntity
  8
DETAIL
 62
     5
100
AcDbLine
 10
366.4212312054133
 20
660.0686194505633
 30
0.0
 11
366.4212312054133
 21
658.8686194505644
 31
0.0
  0
LINE
  5
108
330
70
100
AcDbEntity
  8
DETAIL
 62
     5
100
AcDbLine
 10
366.4212312054133
 20
-286.3313805494363
 30
0.0
 11
366.4212312054133
 21
-285.1313805494374
 31
0.0
  0
LINE
  5
109
330
70
100
AcDbEntity
  8
DETAIL
 62
     5
100
AcDbLine
 10
358.5212312054046
 20
-330.531380549437
 30
0.0
 11
358.5212312054046
 21
-333.7313805494377
 31
0.0
  0
LINE
  5
10A
330
70
100
AcDbEntity
  8
DETAIL
 62
     5
100
AcDbLine
 10
358.5212312054046
 20
-330.5143582454366
 30
0.0
 11
358.5212312054046
 21
-313.7313805494378
 31
0.0
  0
LINE
  5
10B
330
70
100
AcDbEntity
  8
DETAIL
 62
     5
100
AcDbLine
 10
358.5212312054046
 20
687.4686194505629
 30
0.0
 11
358.5212312054046
 21
704.2515971465618
 31
0.0
  0
LINE
  5
10C
330
70
100
AcDbEntity
  8
DETAIL
 62
     5
100
AcDbLine
 10
358.5212312054046
 20
704.2686194505622
 30
0.0
 11
358.5212312054046
 21
707.468619450563
 31
0.0
  0
LINE
  5
10D
330
70
100
AcDbEntity
  8
DETAIL
 62
     5
100
AcDbLine
 10
340.0212312054045
 20
-330.531380549437
 30
0.0
 11
340.0212312054045
 21
-333.7313805494377
 31
0.0
  0
LINE
  5
10E
330
70
100
AcDbEntity
  8
DETAIL
 62
     5
100
AcDbLine
 10
340.0212312054045
 20
-330.531380549437
 30
0.0
 11
340.0212312054045
 21
-286.3313805494363
 31
0.0
  0
LINE
  5
10F
330
70
100
AcDbEntity
  8
DETAIL
 62
     5
100
AcDbLine
 10
340.0212312054045
 20
660.0686194505633
 30
0.0
 11
340.0212312054045
 21
704.2686194505622
 31
0.0
  0
LINE
  5
110
330
70
100
AcDbEntity
  8
DETAIL
 62
     5
100
AcDbLine
 10
340.0212312054045
 20
704.2686194505622
 30
0.0
 11
340.0212312054045
 21
707.468619450563
 31
0.0
  0
LINE
  5
111
330
70
100
AcDbEntity
  8
DETAIL
 62
     5
100
AcDbLine
 10
318.7212312054162
 20
-286.3313805494363
 30
0.0
 11
318.7212312054162
 21
-399.531380549437
 31
0.0
  0
LINE
  5
112
330
70
100
AcDbEntity
  8
DETAIL
 62
     5
100
AcDbLine
 10
-688.2787687945984
 20
-63.13138054943738
 30
0.0
 11
-680.7787687945983
 21
-63.13138054943738
 31
0.0
  0
LINE
  5
113
330
70
100
AcDbEntity
  8
DETAIL
 62
     5
100
AcDbLine
 10
449.521231205419
 20
-63.13138054943738
 30
0.0
 11
442.021231205419
 21
-63.13138054943738
 31
0.0
  0
LINE
  5
114
330
70
100
AcDbEntity
  8
DETAIL
 62
     5
100
AcDbLine
 10
-611.7787687945837
 20
-55.13138054943738
 30
0.0
 11
-606.3787687945896
 21
-55.13138054943738
 31
0.0
  0
LINE
  5
115
330
70
100
AcDbEntity
  8
DETAIL
 62
     5
100
AcDbLine
 10
373.0212312054191
 20
-55.13138054943738
 30
0.0
 11
367.6212312054104
 21
-55.13138054943738
 31
0.0
  0
LINE
  5
116
330
70
100
AcDbEntity
  8
DETAIL
 62
     5
100
AcDbLine
 10
442.021231205419
 20
-63.13138054943738
 30
0.0
 11
373.0212312054191
 21
-55.13138054943738
 31
0.0
  0
LINE
  5
117
330
70
100
AcDbEntity
  8
DETAIL
 62
     5
100
AcDbLine
 10
-680.7787687945983
 20
-63.13138054943738
 30
0.0
 11
-611.7787687945837
 21
-55.13138054943738
 31
0.0
  0
LINE
  5
118
330
70
100
AcDbEntity
  8
DETAIL
 62
     5
100
AcDbLine
 10
144.9212312054132
 20
-286.3313805494363
 30
0.0
 11
144.9212312054132
 21
-289.031380549437
 31
0.0
  0
LINE
  5
119
330
70
100
AcDbEntity
  8
DETAIL
 62
     5
100
AcDbLine
 10
144.3212312054074
 20
-286.3313805494363
 30
0.0
 11
144.3212312054074
 21
-399.531380549437
 31
0.0
  0
LINE
  5
11A
330
70
100
AcDbEntity
  8
DETAIL
 62
     5
100
AcDbLine
 10
117.4212312054133
 20
-301.2313805494378
 30
0.0
 11
117.4212312054133
 21
-294.531380549437
 31
0.0
  0
LINE
  5
11B
330
70
100
AcDbEntity
  8
DETAIL
 62
     5
100
AcDbLine
 10
116.6212312053958
 20
-301.2313805494378
 30
0.0
 11
116.6212312053958
 21
-291.2313805494378
 31
0.0
  0
LINE
  5
11C
330
70
100
AcDbEntity
  8
DETAIL
 62
     5
100
AcDbLine
 10
116.6212312053958
 20
-291.2313805494378
 30
0.0
 11
116.6212312053958
 21
-283.2313805494377
 31
0.0
  0
LINE
  5
11D
330
70
100
AcDbEntity
  8
DETAIL
 62
     5
100
AcDbLine
 10
115.8212312054074
 20
-291.2313805494378
 30
0.0
 11
115.8212312054074
 21
-291.4457399034363
 31
0.0
  0
LINE
  5
11E
330
70
100
AcDbEntity
  8
DETAIL
 62
     5
100
AcDbLine
 10
115.8212312054074
 20
-292.8313805494363
 30
0.0
 11
115.8212312054074
 21
-301.2313805494378
 31
0.0
  0
LINE
  5
11F
330
70
100
AcDbEntity
  8
DETAIL
 62
     5
100
AcDbLine
 10
115.0212312054045
 20
-276.031380549437
 30
0.0
 11
115.0212312054045
 21
-302.031380549437
 31
0.0
  0
LINE
  5
120
330
70
100
AcDbEntity
  8
DETAIL
 62
     5
100
AcDbLine
 10
110.0212312054045
 20
-271.031380549437
 30
0.0
 11
110.0212312054045
 21
-270.2313805494378
 31
0.0
  0
LINE
  5
121
330
70
100
AcDbEntity
  8
DETAIL
 62
     5
100
AcDbLine
 10
-353.7787687945838
 20
-276.031380549437
 30
0.0
 11
-348.7787687945838
 21
-271.031380549437
 31
0.0
  0
LINE
  5
122
330
70
100
AcDbEntity
  8
DETAIL
 62
     5
100
AcDbLine
 10
-680.7787687945983
 20
436.8686194505626
 30
0.0
 11
-611.7787687945837
 21
428.8686194505644
 31
0.0
  0
LINE
  5
123
330
70
100
AcDbEntity
  8
DETAIL
 62
     5
100
AcDbLine
 10
442.021231205419
 20
436.8686194505626
 30
0.0
 11
373.0212312054191
 21
428.8686194505644
 31
0.0
  0
LINE
  5
124
330
70
100
AcDbEntity
  8
DETAIL
 62
     5
100
AcDbLine
 10
-611.7787687945837
 20
428.8686194505644
 30
0.0
 11
-606.3787687945896
 21
428.8686194505644
 31
0.0
  0
LINE
  5
125
330
70
100
AcDbEntity
  8
DETAIL
 62
     5
100
AcDbLine
 10
373.0212312054191
 20
428.8686194505644
 30
0.0
 11
367.6212312054104
 21
428.8686194505644
 31
0.0
  0
LINE
  5
126
330
70
100
AcDbEntity
  8
DETAIL
 62
     5
100
AcDbLine
 10
-688.2787687945984
 20
436.8686194505626
 30
0.0
 11
-680.7787687945983
 21
436.8686194505626
 31
0.0
  0
LINE
  5
127
330
70
100
AcDbEntity
  8
DETAIL
 62
     5
100
AcDbLine
 10
449.521231205419
 20
436.8686194505626
 30
0.0
 11
442.021231205419
 21
436.8686194505626
 31
0.0
  0
LINE
  5
128
330
70
100
AcDbEntity
  8
DETAIL
  6
PHANTOM
 62
     5
100
AcDbLine
 10
-390.178768794578
 20
734.9686194505629
 30
0.0
 11
-382.1787687945926
 21
665.968619450563
 31
0.0
  0
LINE
  5
129
330
70
100
AcDbEntity
  8
DETAIL
 62
     5
100
AcDbLine
 10
110.0212312054045
 20
-271.031380549437
 30
0.0
 11
115.0212312054045
 21
-276.031380549437
 31
0.0
  0
LINE
  5
12A
330
70
100
AcDbEntity
  8
DETAIL
  6
PHANTOM
 62
     5
100
AcDbLine
 10
-390.178768794578
 20
-361.2313805494377
 30
0.0
 11
-382.1787687945926
 21
-292.2313805494377
 31
0.0
  0
LINE
  5
12B
330
70
100
AcDbEntity
  8
DETAIL
 62
     5
100
AcDbLine
 10
-348.7787687945838
 20
-271.031380549437
 30
0.0
 11
-348.7787687945838
 21
-270.2313805494378
 31
0.0
  0
LINE
  5
12C
330
70
100
AcDbEntity
  8
DETAIL
 62
     5
100
AcDbLine
 10
-353.7787687945838
 20
-302.031380549437
 30
0.0
 11
-353.7787687945838
 21
-276.031380549437
 31
0.0
  0
LINE
  5
12D
330
70
100
AcDbEntity
  8
DETAIL
 62
     5
100
AcDbLine
 10
-354.5787687945867
 20
-291.2313805494378
 30
0.0
 11
-354.5787687945867
 21
-291.4457399034363
 31
0.0
  0
LINE
  5
12E
330
70
100
AcDbEntity
  8
DETAIL
 62
     5
100
AcDbLine
 10
-354.5787687945867
 20
-301.2313805494378
 30
0.0
 11
-354.5787687945867
 21
-292.8313805494363
 31
0.0
  0
LINE
  5
12F
330
70
100
AcDbEntity
  8
DETAIL
 62
     5
100
AcDbLine
 10
-355.3787687945896
 20
-291.2313805494378
 30
0.0
 11
-355.3787687945896
 21
-301.2313805494378
 31
0.0
  0
LINE
  5
130
330
70
100
AcDbEntity
  8
DETAIL
 62
     5
100
AcDbLine
 10
-355.3787687945896
 20
-291.2313805494378
 30
0.0
 11
-355.3787687945896
 21
-283.2313805494377
 31
0.0
  0
LINE
  5
131
330
70
100
AcDbEntity
  8
DETAIL
 62
     5
100
AcDbLine
 10
-356.1787687945925
 20
-301.2313805494378
 30
0.0
 11
-356.1787687945925
 21
-294.531380549437
 31
0.0
  0
LINE
  5
132
330
70
100
AcDbEntity
  8
DETAIL
  6
PHANTOM
 62
     5
100
AcDbLine
 10
-382.1787687945926
 20
665.968619450563
 30
0.0
 11
-382.1787687945926
 21
660.0686194505633
 31
0.0
  0
LINE
  5
133
330
70
100
AcDbEntity
  8
DETAIL
  6
PHANTOM
 62
     5
100
AcDbLine
 10
-382.1787687945926
 20
-292.2313805494377
 30
0.0
 11
-382.1787687945926
 21
-286.3313805494363
 31
0.0
  0
LINE
  5
134
330
70
100
AcDbEntity
  8
DETAIL
  6
PHANTOM
 62
     5
100
AcDbLine
 10
-390.178768794578
 20
742.4686194505629
 30
0.0
 11
-390.178768794578
 21
734.9686194505629
 31
0.0
  0
LINE
  5
135
330
70
100
AcDbEntity
  8
DETAIL
  6
PHANTOM
 62
     5
100
AcDbLine
 10
-390.178768794578
 20
-368.7313805494377
 30
0.0
 11
-390.178768794578
 21
-361.2313805494377
 31
0.0
  0
LINE
  5
136
330
70
100
AcDbEntity
  8
DETAIL
 62
     5
100
AcDbLine
 10
-688.2787687945984
 20
628.8686194505644
 30
0.0
 11
-680.7787687945983
 21
628.8686194505644
 31
0.0
  0
LINE
  5
137
330
70
100
AcDbEntity
  8
DETAIL
 62
     5
100
AcDbLine
 10
449.521231205419
 20
628.8686194505644
 30
0.0
 11
442.021231205419
 21
628.8686194505644
 31
0.0
  0
LINE
  5
138
330
70
100
AcDbEntity
  8
DETAIL
 62
     5
100
AcDbLine
 10
-611.7787687945837
 20
636.8686194505626
 30
0.0
 11
-606.3787687945896
 21
636.8686194505626
 31
0.0
  0
LINE
  5
139
330
70
100
AcDbEntity
  8
DETAIL
 62
     5
100
AcDbLine
 10
373.0212312054191
 20
636.8686194505626
 30
0.0
 11
367.6212312054104
 21
636.8686194505626
 31
0.0
  0
LINE
  5
13A
330
70
100
AcDbEntity
  8
DETAIL
 62
     5
100
AcDbLine
 10
367.6212312054104
 20
637.4686194505629
 30
0.0
 11
368.2212312054162
 21
637.4686194505629
 31
0.0
  0
LINE
  5
13B
330
70
100
AcDbEntity
  8
DETAIL
 62
     5
100
AcDbLine
 10
-606.3787687945896
 20
637.4686194505629
 30
0.0
 11
-606.9787687945809
 21
637.4686194505629
 31
0.0
  0
LINE
  5
13C
330
70
100
AcDbEntity
  8
DETAIL
 62
     5
100
AcDbLine
 10
442.021231205419
 20
628.8686194505644
 30
0.0
 11
373.0212312054191
 21
636.8686194505626
 31
0.0
  0
LINE
  5
13D
330
70
100
AcDbEntity
  8
DETAIL
 62
     5
100
AcDbLine
 10
-622.2787687945984
 20
657.468619450563
 30
0.0
 11
-606.3787687945896
 21
657.468619450563
 31
0.0
  0
LINE
  5
13E
330
70
100
AcDbEntity
  8
DETAIL
 62
     5
100
AcDbLine
 10
383.5212312054046
 20
657.468619450563
 30
0.0
 11
367.6212312054104
 21
657.468619450563
 31
0.0
  0
LINE
  5
13F
330
70
100
AcDbEntity
  8
DETAIL
 62
     5
100
AcDbLine
 10
-606.3787687945896
 20
658.8686194505644
 30
0.0
 11
-605.178768794578
 21
658.8686194505644
 31
0.0
  0
LINE
  5
140
330
70
100
AcDbEntity
  8
DETAIL
 62
     5
100
AcDbLine
 10
367.6212312054104
 20
658.8686194505644
 30
0.0
 11
366.4212312054133
 21
658.8686194505644
 31
0.0
  0
LINE
  5
141
330
70
100
AcDbEntity
  8
DETAIL
 62
     5
100
AcDbLine
 10
-605.178768794578
 20
660.0686194505633
 30
0.0
 11
366.4212312054133
 21
660.0686194505633
 31
0.0
  0
LINE
  5
142
330
70
100
AcDbEntity
  8
DETAIL
 62
     5
100
AcDbLine
 10
340.0212312054045
 20
660.2686194505622
 30
0.0
 11
-578.7787687945837
 21
660.2686194505622
 31
0.0
  0
LINE
  5
143
330
70
100
AcDbEntity
  8
DETAIL
  6
PHANTOM
 62
     5
100
AcDbLine
 10
-578.7787687945837
 20
665.968619450563
 30
0.0
 11
-382.1787687945926
 21
665.968619450563
 31
0.0
  0
LINE
  5
144
330
70
100
AcDbEntity
  8
DETAIL
 62
     5
100
AcDbLine
 10
340.0212312054045
 20
704.2686194505622
 30
0.0
 11
358.5212312054046
 21
704.2686194505622
 31
0.0
  0
LINE
  5
145
330
70
100
AcDbEntity
  8
DETAIL
 62
     5
100
AcDbLine
 10
-578.7787687945837
 20
704.2686194505622
 30
0.0
 11
-597.2787687945984
 21
704.2686194505622
 31
0.0
  0
LINE
  5
146
330
70
100
AcDbEntity
  8
DETAIL
 62
     5
100
AcDbLine
 10
-680.7787687945983
 20
628.8686194505644
 30
0.0
 11
-611.7787687945837
 21
636.8686194505626
 31
0.0
  0
LINE
  5
147
330
70
100
AcDbEntity
  8
DETAIL
 62
     5
100
AcDbLine
 10
-578.7787687945837
 20
-330.531380549437
 30
0.0
 11
-578.7787687945837
 21
-333.7313805494377
 31
0.0
  0
LINE
  5
148
330
70
100
AcDbEntity
  8
DETAIL
 62
     5
100
AcDbLine
 10
-578.7787687945837
 20
-330.531380549437
 30
0.0
 11
-578.7787687945837
 21
-286.3313805494363
 31
0.0
  0
LINE
  5
149
330
70
100
AcDbEntity
  8
DETAIL
 62
     5
100
AcDbLine
 10
-578.7787687945837
 20
660.0686194505633
 30
0.0
 11
-578.7787687945837
 21
704.2686194505622
 31
0.0
  0
LINE
  5
14A
330
70
100
AcDbEntity
  8
DETAIL
 62
     5
100
AcDbLine
 10
-578.7787687945837
 20
704.2686194505622
 30
0.0
 11
-578.7787687945837
 21
707.468619450563
 31
0.0
  0
LINE
  5
14B
330
70
100
AcDbEntity
  8
DETAIL
 62
     5
100
AcDbLine
 10
371.5212312054191
 20
707.468619450563
 30
0.0
 11
383.5212312054046
 21
707.468619450563
 31
0.0
  0
LINE
  5
14C
330
70
100
AcDbEntity
  8
DETAIL
 62
     5
100
AcDbLine
 10
358.5212312054046
 20
707.468619450563
 30
0.0
 11
340.0212312054045
 21
707.468619450563
 31
0.0
  0
LINE
  5
14D
330
70
100
AcDbEntity
  8
DETAIL
 62
     5
100
AcDbLine
 10
-578.7787687945837
 20
707.468619450563
 30
0.0
 11
-597.2787687945984
 21
707.468619450563
 31
0.0
  0
LINE
  5
14E
330
70
100
AcDbEntity
  8
DETAIL
 62
     5
100
AcDbLine
 10
-610.2787687945838
 20
707.468619450563
 30
0.0
 11
-622.2787687945984
 21
707.468619450563
 31
0.0
  0
LINE
  5
14F
330
70
100
AcDbEntity
  8
DETAIL
  6
PHANTOM
 62
     5
100
AcDbLine
 10
-582.1787687945925
 20
734.9686194505629
 30
0.0
 11
-390.178768794578
 21
734.9686194505629
 31
0.0
  0
LINE
  5
150
330
70
100
AcDbEntity
  8
DETAIL
  6
PHANTOM
 62
     5
100
AcDbLine
 10
-581.0787687945867
 20
743.5686194505633
 30
0.0
 11
-391.2787687945838
 21
743.5686194505633
 31
0.0
  0
LINE
  5
151
330
70
100
AcDbEntity
  8
DETAIL
  6
PHANTOM
 62
     5
100
AcDbLine
 10
-582.1787687945925
 20
742.4686194505629
 30
0.0
 11
-582.1787687945925
 21
734.9686194505629
 31
0.0
  0
LINE
  5
152
330
70
100
AcDbEntity
  8
DETAIL
  6
PHANTOM
 62
     5
100
AcDbLine
 10
-582.1787687945925
 20
-368.7313805494377
 30
0.0
 11
-582.1787687945925
 21
-361.2313805494377
 31
0.0
  0
LINE
  5
153
330
70
100
AcDbEntity
  8
DETAIL
 62
     5
100
AcDbLine
 10
-597.2787687945984
 20
-330.531380549437
 30
0.0
 11
-597.2787687945984
 21
-333.7313805494377
 31
0.0
  0
LINE
  5
154
330
70
100
AcDbEntity
  8
DETAIL
 62
     5
100
AcDbLine
 10
-597.2787687945984
 20
-330.5143582454366
 30
0.0
 11
-597.2787687945984
 21
-313.7313805494378
 31
0.0
  0
LINE
  5
155
330
70
100
AcDbEntity
  8
DETAIL
 62
     5
100
AcDbLine
 10
-597.2787687945984
 20
687.4686194505629
 30
0.0
 11
-597.2787687945984
 21
704.2515971465618
 31
0.0
  0
LINE
  5
156
330
70
100
AcDbEntity
  8
DETAIL
 62
     5
100
AcDbLine
 10
-597.2787687945984
 20
704.2686194505622
 30
0.0
 11
-597.2787687945984
 21
707.468619450563
 31
0.0
  0
LINE
  5
157
330
70
100
AcDbEntity
  8
DETAIL
 62
     5
100
AcDbLine
 10
-605.178768794578
 20
660.0686194505633
 30
0.0
 11
-605.178768794578
 21
658.8686194505644
 31
0.0
  0
LINE
  5
158
330
70
100
AcDbEntity
  8
DETAIL
 62
     5
100
AcDbLine
 10
-605.178768794578
 20
-286.3313805494363
 30
0.0
 11
-605.178768794578
 21
-285.1313805494374
 31
0.0
  0
LINE
  5
159
330
70
100
AcDbEntity
  8
DETAIL
 62
     5
100
AcDbLine
 10
-606.3787687945896
 20
-285.1313805494374
 30
0.0
 11
-606.3787687945896
 21
658.8686194505644
 31
0.0
  0
LINE
  5
15A
330
70
100
AcDbEntity
  8
DETAIL
 62
     5
100
AcDbLine
 10
-606.5787687945867
 20
637.4686194505629
 30
0.0
 11
-606.5787687945867
 21
636.8686194505626
 31
0.0
  0
LINE
  5
15B
330
70
100
AcDbEntity
  8
DETAIL
 62
     5
100
AcDbLine
 10
-606.5787687945867
 20
428.8686194505644
 30
0.0
 11
-606.5787687945867
 21
-55.13138054943738
 31
0.0
  0
LINE
  5
15C
330
70
100
AcDbEntity
  8
DETAIL
 62
     5
100
AcDbLine
 10
-606.5787687945867
 20
-263.1313805494374
 30
0.0
 11
-606.5787687945867
 21
-263.7313805494378
 31
0.0
  0
LINE
  5
15D
330
70
100
AcDbEntity
  8
DETAIL
 62
     5
100
AcDbLine
 10
-606.9787687945809
 20
-263.7313805494378
 30
0.0
 11
-606.9787687945809
 21
-280.531380549437
 31
0.0
  0
LINE
  5
15E
330
70
100
AcDbEntity
  8
DETAIL
 62
     5
100
AcDbLine
 10
-606.9787687945809
 20
637.4686194505629
 30
0.0
 11
-606.9787687945809
 21
654.2686194505622
 31
0.0
  0
LINE
  5
15F
330
70
100
AcDbEntity
  8
DETAIL
 62
     5
100
AcDbLine
 10
-610.2787687945838
 20
-333.7313805494377
 30
0.0
 11
-610.2787687945838
 21
-313.7313805494378
 31
0.0
  0
LINE
  5
160
330
70
100
AcDbEntity
  8
DETAIL
 62
     5
100
AcDbLine
 10
-610.2787687945838
 20
687.4686194505629
 30
0.0
 11
-610.2787687945838
 21
707.468619450563
 31
0.0
  0
LINE
  5
161
330
70
100
AcDbEntity
  8
DETAIL
 62
     5
100
AcDbLine
 10
-611.7787687945837
 20
-263.1313805494374
 30
0.0
 11
-611.7787687945837
 21
-55.13138054943738
 31
0.0
  0
LINE
  5
162
330
70
100
AcDbEntity
  8
DETAIL
 62
     5
100
AcDbLine
 10
-611.7787687945837
 20
428.8686194505644
 30
0.0
 11
-611.7787687945837
 21
636.8686194505626
 31
0.0
  0
LINE
  5
163
330
70
100
AcDbEntity
  8
DETAIL
 62
     5
100
AcDbLine
 10
-622.2787687945984
 20
-333.7313805494377
 30
0.0
 11
-622.2787687945984
 21
-283.7313805494377
 31
0.0
  0
LINE
  5
164
330
70
100
AcDbEntity
  8
DETAIL
 62
     5
100
AcDbLine
 10
-622.2787687945984
 20
657.468619450563
 30
0.0
 11
-622.2787687945984
 21
707.468619450563
 31
0.0
  0
LINE
  5
165
330
70
100
AcDbEntity
  8
DETAIL
  6
PHANTOM
 62
     5
100
AcDbLine
 10
-582.1787687945925
 20
734.9686194505629
 30
0.0
 11
-585.3671745915798
 21
707.468619450563
 31
0.0
  0
LINE
  5
166
330
70
100
AcDbEntity
  8
DETAIL
 62
     5
100
AcDbLine
 10
-680.7787687945983
 20
-255.1313805494374
 30
0.0
 11
-680.7787687945983
 21
-63.13138054943738
 31
0.0
  0
LINE
  5
167
330
70
100
AcDbEntity
  8
DETAIL
 62
     5
100
AcDbLine
 10
-680.7787687945983
 20
436.8686194505626
 30
0.0
 11
-680.7787687945983
 21
628.8686194505644
 31
0.0
  0
LINE
  5
168
330
70
100
AcDbEntity
  8
DETAIL
 62
     5
100
AcDbLine
 10
-689.378768794575
 20
-254.031380549437
 30
0.0
 11
-689.378768794575
 21
-64.23138054943774
 31
0.0
  0
LINE
  5
169
330
70
100
AcDbEntity
  8
DETAIL
 62
     5
100
AcDbLine
 10
-689.378768794575
 20
437.9686194505629
 30
0.0
 11
-689.378768794575
 21
627.7686194505622
 31
0.0
  0
LINE
  5
16A
330
70
100
AcDbEntity
  8
DETAIL
  6
PHANTOM
 62
     5
100
AcDbLine
 10
-582.1787687945925
 20
-361.2313805494377
 30
0.0
 11
-585.3671745915798
 21
-333.7313805494377
 31
0.0
  0
ARC
  5
16B
330
70
100
AcDbEntity
  8
DETAIL
 62
     5
100
AcDbCircle
 10
449.521231205419
 20
-254.031380549437
 30
0.0
 40
1.1
100
AcDbArc
 50
270.0
 51
0.0
  0
ARC
  5
16C
330
70
100
AcDbEntity
  8
DETAIL
 62
     5
100
AcDbCircle
 10
328.7212312054162
 20
-280.5088805494379
 30
0.0
 40
6.522499999999999
100
AcDbArc
 50
243.465816442991
 51
296.534183557009
  0
ARC
  5
16D
330
70
100
AcDbEntity
  8
DETAIL
 62
     5
100
AcDbCircle
 10
365.0212312054045
 20
-313.7313805494378
 30
0.0
 40
6.5
100
AcDbArc
 50
0.0
 51
180.0
  0
ARC
  5
16E
330
70
100
AcDbEntity
  8
DETAIL
 62
     5
100
AcDbCircle
 10
371.4212312064173
 20
-280.531380549437
 30
0.0
 40
3.2
100
AcDbArc
 50
180.0
 51
269.5537889352105
  0
ARC
  5
16F
330
70
100
AcDbEntity
  8
DETAIL
 62
     5
100
AcDbCircle
 10
449.521231205419
 20
-64.23138054943774
 30
0.0
 40
1.1
100
AcDbArc
 50
0.0
 51
90.0
  0
ARC
  5
170
330
70
100
AcDbEntity
  8
DETAIL
 62
     5
100
AcDbCircle
 10
115.0212312054045
 20
-292.8313805494363
 30
0.0
 40
1.6
100
AcDbArc
 50
0.0
 51
90.0
  0
ARC
  5
171
330
70
100
AcDbEntity
  8
DETAIL
 62
     5
100
AcDbCircle
 10
115.0212312054045
 20
-292.8313805494363
 30
0.0
 40
0.8
100
AcDbArc
 50
0.0
 51
90.0
  0
ARC
  5
172
330
70
100
AcDbEntity
  8
DETAIL
 62
     5
100
AcDbCircle
 10
116.6212312053958
 20
-301.2313805494378
 30
0.0
 40
0.8
100
AcDbArc
 50
180.0
 51
0.0
  0
ARC
  5
173
330
70
100
AcDbEntity
  8
DETAIL
 62
     5
100
AcDbCircle
 10
449.521231205419
 20
437.9686194505629
 30
0.0
 40
1.1
100
AcDbArc
 50
270.0
 51
0.0
  0
ARC
  5
174
330
70
100
AcDbEntity
  8
DETAIL
 62
     5
100
AcDbCircle
 10
365.0212312054045
 20
687.4686194505629
 30
0.0
 40
6.5
100
AcDbArc
 50
180.0
 51
0.0
  0
ARC
  5
175
330
70
100
AcDbEntity
  8
DETAIL
 62
     5
100
AcDbCircle
 10
371.4212312054133
 20
654.2686194505622
 30
0.0
 40
3.2
100
AcDbArc
 50
90.44621106416423
 51
180.0
  0
ARC
  5
176
330
70
100
AcDbEntity
  8
DETAIL
 62
     5
100
AcDbCircle
 10
449.521231205419
 20
627.7686194505622
 30
0.0
 40
1.1
100
AcDbArc
 50
0.0
 51
90.0
  0
ARC
  5
177
330
70
100
AcDbEntity
  8
DETAIL
  6
PHANTOM
 62
     5
100
AcDbCircle
 10
-391.2787687945838
 20
-368.7313805494377
 30
0.0
 40
1.1
100
AcDbArc
 50
270.0
 51
0.0
  0
ARC
  5
178
330
70
100
AcDbEntity
  8
DETAIL
 62
     5
100
AcDbCircle
 10
-355.3787687945896
 20
-301.2313805494378
 30
0.0
 40
0.8
100
AcDbArc
 50
180.0
 51
0.0
  0
ARC
  5
179
330
70
100
AcDbEntity
  8
DETAIL
 62
     5
100
AcDbCircle
 10
-353.7787687945838
 20
-292.8313805494363
 30
0.0
 40
1.6
100
AcDbArc
 50
90.0
 51
180.0
  0
ARC
  5
17A
330
70
100
AcDbEntity
  8
DETAIL
 62
     5
100
AcDbCircle
 10
-353.7787687945838
 20
-292.8313805494363
 30
0.0
 40
0.8
100
AcDbArc
 50
90.0
 51
180.0
  0
ARC
  5
17B
330
70
100
AcDbEntity
  8
DETAIL
 62
     5
100
AcDbCircle
 10
-603.7787687945837
 20
-313.7313805494378
 30
0.0
 40
6.5
100
AcDbArc
 50
0.0
 51
180.0
  0
ARC
  5
17C
330
70
100
AcDbEntity
  8
DETAIL
  6
PHANTOM
 62
     5
100
AcDbCircle
 10
-581.0787687945867
 20
-368.7313805494377
 30
0.0
 40
1.1
100
AcDbArc
 50
180.0
 51
270.0
  0
ARC
  5
17D
330
70
100
AcDbEntity
  8
DETAIL
 62
     5
100
AcDbCircle
 10
-565.374728286597
 20
-280.8088805494372
 30
0.0
 40
6.522499999999999
100
AcDbArc
 50
237.96611681117
 51
302.03388318883
  0
ARC
  5
17E
330
70
100
AcDbEntity
  8
DETAIL
 62
     5
100
AcDbCircle
 10
-600.3562687945832
 20
-238.3273400424368
 30
0.0
 40
6.522499999999999
100
AcDbArc
 50
157.504210238266
 51
202.495789761734
  0
ARC
  5
17F
330
70
100
AcDbEntity
  8
DETAIL
 62
     5
100
AcDbCircle
 10
-610.178768794578
 20
-280.531380549437
 30
0.0
 40
3.2
100
AcDbArc
 50
270.4462110647895
 51
359.9999999994789
  0
ARC
  5
180
330
70
100
AcDbEntity
  8
DETAIL
 62
     5
100
AcDbCircle
 10
-688.2787687945984
 20
-254.031380549437
 30
0.0
 40
1.1
100
AcDbArc
 50
180.0
 51
270.0
  0
ARC
  5
181
330
70
100
AcDbEntity
  8
DETAIL
 62
     5
100
AcDbCircle
 10
-688.2787687945984
 20
-64.23138054943774
 30
0.0
 40
1.1
100
AcDbArc
 50
90.0
 51
180.0
  0
ARC
  5
182
330
70
100
AcDbEntity
  8
DETAIL
  6
PHANTOM
 62
     5
100
AcDbCircle
 10
-391.2787687945838
 20
742.4686194505629
 30
0.0
 40
1.1
100
AcDbArc
 50
0.0
 51
90.0
  0
ARC
  5
183
330
70
100
AcDbEntity
  8
DETAIL
 62
     5
100
AcDbCircle
 10
-600.3562687945832
 20
453.6726599575631
 30
0.0
 40
6.522499999999999
100
AcDbArc
 50
157.504210238266
 51
202.495789761734
  0
ARC
  5
184
330
70
100
AcDbEntity
  8
DETAIL
 62
     5
100
AcDbCircle
 10
-688.2787687945984
 20
437.9686194505629
 30
0.0
 40
1.1
100
AcDbArc
 50
180.0
 51
270.0
  0
ARC
  5
185
330
70
100
AcDbEntity
  8
DETAIL
 62
     5
100
AcDbCircle
 10
-610.178768794578
 20
654.2686194505622
 30
0.0
 40
3.2
100
AcDbArc
 50
0.0
 51
89.5537889354189
  0
ARC
  5
186
330
70
100
AcDbEntity
  8
DETAIL
 62
     5
100
AcDbCircle
 10
-603.7787687945837
 20
687.4686194505629
 30
0.0
 40
6.5
100
AcDbArc
 50
180.0
 51
0.0
  0
ARC
  5
187
330
70
100
AcDbEntity
  8
DETAIL
  6
PHANTOM
 62
     5
100
AcDbCircle
 10
-581.0787687945867
 20
742.4686194505629
 30
0.0
 40
1.1
100
AcDbArc
 50
90.0
 51
180.0
  0
ARC
  5
188
330
70
100
AcDbEntity
  8
DETAIL
 62
     5
100
AcDbCircle
 10
-688.2787687945984
 20
627.7686194505622
 30
0.0
 40
1.1
100
AcDbArc
 50
90.0
 51
180.0
  0
SPLINE
  5
189
330
70
100
AcDbEntity
  8
DETAIL
 62
     5
100
AcDbSpline
210
0.0
220
0.0
230
1.0
 70
     8
 71
     3
 72
    19
 73
    15
 74
     0
 42
0.0000001
 43
0.0000000001
 40
0.0
 40
0.0
 40
0.0
 40
0.0
 40
0.125
 40
0.1875
 40
0.25
 40
0.3125
 40
0.375
 40
0.5
 40
0.625
 40
0.6875
 40
0.75
 40
0.8125
 40
0.875
 40
1.0
 40
1.0
 40
1.0
 40
1.0
 10
-565.374728286597
 20
-287.3313805494363
 30
0.0
 10
-565.3908270435804
 20
-287.3312216024369
 30
0.0
 10
-565.4143439305935
 20
-287.3310517284372
 30
0.0
 10
-565.4482247745927
 20
-287.3305510454374
 30
0.0
 10
-565.4793826416007
 20
-287.3294008294361
 30
0.0
 10
-565.5104085245857
 20
-287.3285661934369
 30
0.0
 10
-565.5448173045897
 20
-287.3268031864372
 30
0.0
 10
-565.5798804835812
 20
-287.3252616984373
 30
0.0
 10
-565.6352767685912
 20
-287.320742171436
 30
0.0
 10
-565.6732166056044
 20
-287.3177585624362
 30
0.0
 10
-565.6964998005878
 20
-287.3152642264358
 30
0.0
 10
-565.7194515345927
 20
-287.3131855674365
 30
0.0
 10
-565.7587172155781
 20
-287.3085392484372
 30
0.0
 10
-565.7902770735836
 20
-287.3046550944364
 30
0.0
 10
-565.8108479575912
 20
-287.3021544164367
 30
0.0
  0
SPLINE
  5
18A
330
70
100
AcDbEntity
  8
DETAIL
 62
     5
100
AcDbSpline
210
0.0
220
0.0
230
1.0
 70
     8
 71
     3
 72
    21
 73
    17
 74
     0
 42
0.0000001
 43
0.0000000001
 40
0.0
 40
0.0
 40
0.0
 40
0.0
 40
0.125
 40
0.1875
 40
0.25
 40
0.3125
 40
0.375
 40
0.4375
 40
0.5
 40
0.5625
 40
0.625
 40
0.6875
 40
0.75
 40
0.8125
 40
0.875
 40
1.0
 40
1.0
 40
1.0
 40
1.0
 10
-565.8108479625825
 20
-287.3021544164367
 30
0.0
 10
-565.8548314095842
 20
-287.2950388174359
 30
0.0
 10
-565.9202100405982
 20
-287.2848446814369
 30
0.0
 10
-566.0097677045869
 20
-287.2693354514376
 30
0.0
 10
-566.0821875785786
 20
-287.2524050264365
 30
0.0
 10
-566.1548418955954
 20
-287.2374448874361
 30
0.0
 10
-566.2213068135915
 20
-287.2199021054366
 30
0.0
 10
-566.2865896866005
 20
-287.2011081854362
 30
0.0
 10
-566.349937537585
 20
-287.1850957454372
 30
0.0
 10
-566.4222075205925
 20
-287.1592085264365
 30
0.0
 10
-566.4925498615794
 20
-287.1360464374374
 30
0.0
 10
-566.5616806385969
 20
-287.1118586054363
 30
0.0
 10
-566.6245015845797
 20
-287.0857161054373
 30
0.0
 10
-566.6876059605875
 20
-287.0617530014369
 30
0.0
 10
-566.7786466115958
 20
-287.0207849724375
 30
0.0
 10
-566.8486997086019
 20
-286.9881678774364
 30
0.0
 10
-566.8950078595826
 20
-286.9668433854367
 30
0.0
  0
SPLINE
  5
18B
330
70
100
AcDbEntity
  8
DETAIL
 62
     5
100
AcDbSpline
210
0.0
220
0.0
230
1.0
 70
     8
 71
     3
 72
    21
 73
    17
 74
     0
 42
0.0000001
 43
0.0000000001
 40
0.0
 40
0.0
 40
0.0
 40
0.0
 40
0.125
 40
0.1875
 40
0.25
 40
0.3125
 40
0.375
 40
0.4375
 40
0.5
 40
0.5625
 40
0.625
 40
0.6875
 40
0.75
 40
0.8125
 40
0.875
 40
1.0
 40
1.0
 40
1.0
 40
1.0
 10
-564.9386086115718
 20
-287.3021544164367
 30
0.0
 10
-564.8946251645847
 20
-287.2950388174359
 30
0.0
 10
-564.8292465325957
 20
-287.2848446814369
 30
0.0
 10
-564.7396888695821
 20
-287.2693354514376
 30
0.0
 10
-564.6672689955903
 20
-287.2524050264365
 30
0.0
 10
-564.5946146775986
 20
-287.2374448874361
 30
0.0
 10
-564.5281497605919
 20
-287.2199021054366
 30
0.0
 10
-564.4628668875975
 20
-287.2011081854362
 30
0.0
 10
-564.399519036584
 20
-287.1850957454372
 30
0.0
 10
-564.327249053591
 20
-287.1592085264365
 30
0.0
 10
-564.2569067125896
 20
-287.1360464374374
 30
0.0
 10
-564.1877759355866
 20
-287.1118586054363
 30
0.0
 10
-564.1249549895892
 20
-287.0857161054373
 30
0.0
 10
-564.0618506135815
 20
-287.0617530014369
 30
0.0
 10
-563.9708099625877
 20
-287.0207849724375
 30
0.0
 10
-563.9007568655961
 20
-286.9881678774364
 30
0.0
 10
-563.8544487135968
 20
-286.9668433854367
 30
0.0
  0
SPLINE
  5
18C
330
70
100
AcDbEntity
  8
DETAIL
 62
     5
100
AcDbSpline
210
0.0
220
0.0
230
1.0
 70
     8
 71
     3
 72
    19
 73
    15
 74
     0
 42
0.0000001
 43
0.0000000001
 40
0.0
 40
0.0
 40
0.0
 40
0.0
 40
0.125
 40
0.1875
 40
0.25
 40
0.3125
 40
0.375
 40
0.5
 40
0.625
 40
0.6875
 40
0.75
 40
0.8125
 40
0.875
 40
1.0
 40
1.0
 40
1.0
 40
1.0
 10
-565.374728286597
 20
-287.3313805494363
 30
0.0
 10
-565.3586295305886
 20
-287.3312216024369
 30
0.0
 10
-565.33511264359
 20
-287.3310517284372
 30
0.0
 10
-565.3012317995908
 20
-287.3305510454374
 30
0.0
 10
-565.2700739325974
 20
-287.3294008294361
 30
0.0
 10
-565.2390480495978
 20
-287.3285661934369
 30
0.0
 10
-565.2046392685897
 20
-287.3268031864372
 30
0.0
 10
-565.1695760895836
 20
-287.3252616984373
 30
0.0
 10
-565.1141798055923
 20
-287.320742171436
 30
0.0
 10
-565.0762399685937
 20
-287.3177585624362
 30
0.0
 10
-565.0529567735811
 20
-287.3152642264358
 30
0.0
 10
-565.0300050395908
 20
-287.3131855674365
 30
0.0
 10
-564.9907393585908
 20
-287.3085392484372
 30
0.0
 10
-564.9591795005854
 20
-287.3046550944364
 30
0.0
 10
-564.9386086165777
 20
-287.3021544164367
 30
0.0
  0
SPLINE
  5
18D
330
70
100
AcDbEntity
  8
DETAIL
 62
     5
100
AcDbSpline
210
0.0
220
0.0
230
1.0
 70
     8
 71
     3
 72
    19
 73
    15
 74
     0
 42
0.0000001
 43
0.0000000001
 40
0.0
 40
0.0
 40
0.0
 40
0.0
 40
0.125
 40
0.1875
 40
0.25
 40
0.3125
 40
0.375
 40
0.5
 40
0.625
 40
0.6875
 40
0.75
 40
0.8125
 40
0.875
 40
1.0
 40
1.0
 40
1.0
 40
1.0
 10
328.7212312054162
 20
-287.031380549437
 30
0.0
 10
328.7051324494078
 20
-287.0312216024359
 30
0.0
 10
328.6816155624092
 20
-287.0310517284379
 30
0.0
 10
328.64773471841
 20
-287.0305510454364
 30
0.0
 10
328.6165768514166
 20
-287.0294008294368
 30
0.0
 10
328.585550968417
 20
-287.0285661934358
 30
0.0
 10
328.5511421874235
 20
-287.0268031864362
 30
0.0
 10
328.5160790094214
 20
-287.0252616984362
 30
0.0
 10
328.4606827244115
 20
-287.0207421714367
 30
0.0
 10
328.4227428874128
 20
-287.0177585624369
 30
0.0
 10
328.3994596924003
 20
-287.0152642264366
 30
0.0
 10
328.37650795841
 20
-287.0131855674372
 30
0.0
 10
328.3372422774101
 20
-287.0085392484361
 30
0.0
 10
328.3056824194046
 20
-287.0046550944371
 30
0.0
 10
328.2851115354115
 20
-287.0021544164374
 30
0.0
  0
SPLINE
  5
18E
330
70
100
AcDbEntity
  8
DETAIL
 62
     5
100
AcDbSpline
210
0.0
220
0.0
230
1.0
 70
     8
 71
     3
 72
    21
 73
    17
 74
     0
 42
0.0000001
 43
0.0000000001
 40
0.0
 40
0.0
 40
0.0
 40
0.0
 40
0.125
 40
0.1875
 40
0.25
 40
0.3125
 40
0.375
 40
0.4375
 40
0.5
 40
0.5625
 40
0.625
 40
0.6875
 40
0.75
 40
0.8125
 40
0.875
 40
1.0
 40
1.0
 40
1.0
 40
1.0
 10
328.2851115304202
 20
-287.0021544164374
 30
0.0
 10
328.241128083404
 20
-286.9950388174366
 30
0.0
 10
328.1757494514149
 20
-286.9848446814358
 30
0.0
 10
328.0861917884158
 20
-286.9693354514366
 30
0.0
 10
328.0137719144095
 20
-286.9524050264372
 30
0.0
 10
327.9411175964178
 20
-286.9374448874369
 30
0.0
 10
327.8746526794112
 20
-286.9199021054374
 30
0.0
 10
327.8093698064167
 20
-286.9011081854369
 30
0.0
 10
327.7460219554032
 20
-286.8850957454379
 30
0.0
 10
327.6737519724102
 20
-286.8592085264372
 30
0.0
 10
327.6034096314088
 20
-286.8360464374382
 30
0.0
 10
327.5342788544203
 20
-286.811858605437
 30
0.0
 10
327.4714579084084
 20
-286.785716105438
 30
0.0
 10
327.4083535324007
 20
-286.7617530014359
 30
0.0
 10
327.3173128814215
 20
-286.7207849724364
 30
0.0
 10
327.2472597844153
 20
-286.6881678774371
 30
0.0
 10
327.200951632416
 20
-286.6668433854375
 30
0.0
  0
SPLINE
  5
18F
330
70
100
AcDbEntity
  8
DETAIL
 62
     5
100
AcDbSpline
210
0.0
220
0.0
230
1.0
 70
     8
 71
     3
 72
    21
 73
    17
 74
     0
 42
0.0000001
 43
0.0000000001
 40
0.0
 40
0.0
 40
0.0
 40
0.0
 40
0.125
 40
0.1875
 40
0.25
 40
0.3125
 40
0.375
 40
0.4375
 40
0.5
 40
0.5625
 40
0.625
 40
0.6875
 40
0.75
 40
0.8125
 40
0.875
 40
1.0
 40
1.0
 40
1.0
 40
1.0
 10
329.1573508814163
 20
-287.0021544164374
 30
0.0
 10
329.2013343284034
 20
-286.9950388174366
 30
0.0
 10
329.2667129604069
 20
-286.9848446814358
 30
0.0
 10
329.3562706234061
 20
-286.9693354514366
 30
0.0
 10
329.4286904974269
 20
-286.9524050264372
 30
0.0
 10
329.5013448154041
 20
-286.9374448874369
 30
0.0
 10
329.5678097324107
 20
-286.9199021054374
 30
0.0
 10
329.6330926054052
 20
-286.9011081854369
 30
0.0
 10
329.6964404564042
 20
-286.8850957454379
 30
0.0
 10
329.7687104394118
 20
-286.8592085264372
 30
0.0
 10
329.8390527804277
 20
-286.8360464374382
 30
0.0
 10
329.9081835574161
 20
-286.811858605437
 30
0.0
 10
329.9710045034135
 20
-286.785716105438
 30
0.0
 10
330.0341088794066
 20
-286.7617530014359
 30
0.0
 10
330.1251495304005
 20
-286.7207849724364
 30
0.0
 10
330.1952026274066
 20
-286.6881678774371
 30
0.0
 10
330.2415107794059
 20
-286.6668433854375
 30
0.0
  0
SPLINE
  5
190
330
70
100
AcDbEntity
  8
DETAIL
 62
     5
100
AcDbSpline
210
0.0
220
0.0
230
1.0
 70
     8
 71
     3
 72
    19
 73
    15
 74
     0
 42
0.0000001
 43
0.0000000001
 40
0.0
 40
0.0
 40
0.0
 40
0.0
 40
0.125
 40
0.1875
 40
0.25
 40
0.3125
 40
0.375
 40
0.5
 40
0.625
 40
0.6875
 40
0.75
 40
0.8125
 40
0.875
 40
1.0
 40
1.0
 40
1.0
 40
1.0
 10
328.7212312054162
 20
-287.031380549437
 30
0.0
 10
328.7373299624142
 20
-287.0312216024359
 30
0.0
 10
328.7608468494127
 20
-287.0310517284379
 30
0.0
 10
328.7947276934119
 20
-287.0305510454364
 30
0.0
 10
328.8258855604054
 20
-287.0294008294368
 30
0.0
 10
328.8569114434194
 20
-287.0285661934358
 30
0.0
 10
328.8913202243985
 20
-287.0268031864362
 30
0.0
 10
328.926383402415
 20
-287.0252616984362
 30
0.0
 10
328.9817796874104
 20
-287.0207421714367
 30
0.0
 10
329.0197195244091
 20
-287.0177585624369
 30
0.0
 10
329.043002719407
 20
-287.0152642264366
 30
0.0
 10
329.0659544534119
 20
-287.0131855674372
 30
0.0
 10
329.1052201344119
 20
-287.0085392484361
 30
0.0
 10
329.1367799924174
 20
-287.0046550944371
 30
0.0
 10
329.1573508764104
 20
-287.0021544164374
 30
0.0
  0
SPLINE
  5
191
330
70
100
AcDbEntity
  8
DETAIL
 62
     5
100
AcDbSpline
210
0.0
220
0.0
230
1.0
 70
     8
 71
     3
 72
    21
 73
    17
 74
     0
 42
0.0000001
 43
0.0000000001
 40
0.0
 40
0.0
 40
0.0
 40
0.0
 40
0.125
 40
0.1875
 40
0.25
 40
0.3125
 40
0.375
 40
0.4375
 40
0.5
 40
0.5625
 40
0.625
 40
0.6875
 40
0.75
 40
0.8125
 40
0.875
 40
1.0
 40
1.0
 40
1.0
 40
1.0
 10
-606.8495426605968
 20
-237.8912203674372
 30
0.0
 10
-606.842427061596
 20
-237.8472369204374
 30
0.0
 10
-606.8322329265956
 20
-237.7818582884356
 30
0.0
 10
-606.8167236965837
 20
-237.692300624436
 30
0.0
 10
-606.799793270593
 20
-237.619880750437
 30
0.0
 10
-606.7848331315927
 20
-237.5472264334367
 30
0.0
 10
-606.7672903495859
 20
-237.4807615154368
 30
0.0
 10
-606.7484964305931
 20
-237.4154786434374
 30
0.0
 10
-606.7324839905941
 20
-237.3521307924366
 30
0.0
 10
-606.7065967715916
 20
-237.2798608094363
 30
0.0
 10
-606.6834346825944
 20
-237.2095184684367
 30
0.0
 10
-606.6592468505859
 20
-237.1403876914373
 30
0.0
 10
-606.6331043495901
 20
-237.0775667444359
 30
0.0
 10
-606.609141245588
 20
-237.0144623684373
 30
0.0
 10
-606.5681732165849
 20
-236.9234217184366
 30
0.0
 10
-606.5355561215856
 20
-236.8533686204355
 30
0.0
 10
-606.5142316295987
 20
-236.8070604694367
 30
0.0
  0
SPLINE
  5
192
330
70
100
AcDbEntity
  8
DETAIL
 62
     5
100
AcDbSpline
210
0.0
220
0.0
230
1.0
 70
     8
 71
     3
 72
    19
 73
    15
 74
     0
 42
0.0000001
 43
0.0000000001
 40
0.0
 40
0.0
 40
0.0
 40
0.0
 40
0.125
 40
0.1875
 40
0.25
 40
0.3125
 40
0.375
 40
0.5
 40
0.625
 40
0.6875
 40
0.75
 40
0.8125
 40
0.875
 40
1.0
 40
1.0
 40
1.0
 40
1.0
 10
-606.878768794575
 20
-238.3273400424368
 30
0.0
 10
-606.8786098475993
 20
-238.3112412854371
 30
0.0
 10
-606.8784399735904
 20
-238.2877243994371
 30
0.0
 10
-606.8779392905871
 20
-238.2538435544375
 30
0.0
 10
-606.876789073578
 20
-238.2226856874368
 30
0.0
 10
-606.8759544385848
 20
-238.1916598044372
 30
0.0
 10
-606.8741914315778
 20
-238.1572510244368
 30
0.0
 10
-606.8726499435888
 20
-238.122187845438
 30
0.0
 10
-606.8681304165965
 20
-238.0667915604372
 30
0.0
 10
-606.8651468065818
 20
-238.0288517244371
 30
0.0
 10
-606.8626524705924
 20
-238.0055685284369
 30
0.0
 10
-606.8605738125934
 20
-237.9826167944375
 30
0.0
 10
-606.855927492581
 20
-237.9433511144362
 30
0.0
 10
-606.8520433385875
 20
-237.9117912554375
 30
0.0
 10
-606.8495426615863
 20
-237.8912203714372
 30
0.0
  0
SPLINE
  5
193
330
70
100
AcDbEntity
  8
DETAIL
 62
     5
100
AcDbSpline
210
0.0
220
0.0
230
1.0
 70
     8
 71
     3
 72
    21
 73
    17
 74
     0
 42
0.0000001
 43
0.0000000001
 40
0.0
 40
0.0
 40
0.0
 40
0.0
 40
0.125
 40
0.1875
 40
0.25
 40
0.3125
 40
0.375
 40
0.4375
 40
0.5
 40
0.5625
 40
0.625
 40
0.6875
 40
0.75
 40
0.8125
 40
0.875
 40
1.0
 40
1.0
 40
1.0
 40
1.0
 10
-606.514231626601
 20
-239.847619621436
 30
0.0
 10
-606.5337303405849
 20
-239.8055511114362
 30
0.0
 10
-606.5630617685838
 20
-239.7431318884374
 30
0.0
 10
-606.6018369125831
 20
-239.6571720884367
 30
0.0
 10
-606.6292036555842
 20
-239.5863660964369
 30
0.0
 10
-606.6584992175794
 20
-239.515928622437
 30
0.0
 10
-606.6817941165809
 20
-239.4503532174367
 30
0.0
 10
-606.7032542985998
 20
-239.3854826584357
 30
0.0
 10
-606.726099738591
 20
-239.3231914684366
 30
0.0
 10
-606.7452388605906
 20
-239.2498779534362
 30
0.0
 10
-606.7657163935819
 20
-239.1791204704368
 30
0.0
 10
-606.7845465995796
 20
-239.1091611854372
 30
0.0
 10
-606.7978756975808
 20
-239.0443587614373
 30
0.0
 10
-606.8133525525791
 20
-238.9799420644376
 30
0.0
 10
-606.8298684616038
 20
-238.8851201144371
 30
0.0
 10
-606.8415833786002
 20
-238.8118346844367
 30
0.0
 10
-606.8495426595927
 20
-238.763459724436
 30
0.0
  0
SPLINE
  5
194
330
70
100
AcDbEntity
  8
DETAIL
 62
     5
100
AcDbSpline
210
0.0
220
0.0
230
1.0
 70
     8
 71
     3
 72
    19
 73
    15
 74
     0
 42
0.0000001
 43
0.0000000001
 40
0.0
 40
0.0
 40
0.0
 40
0.0
 40
0.125
 40
0.1875
 40
0.25
 40
0.3125
 40
0.375
 40
0.5
 40
0.625
 40
0.6875
 40
0.75
 40
0.8125
 40
0.875
 40
1.0
 40
1.0
 40
1.0
 40
1.0
 10
-606.8495426605968
 20
-238.7634597174365
 30
0.0
 10
-606.851537276585
 20
-238.7474224684374
 30
0.0
 10
-606.8545130245929
 20
-238.7239995984364
 30
0.0
 10
-606.8585453946016
 20
-238.6902370904372
 30
0.0
 10
-606.8615670045856
 20
-238.6591419284378
 30
0.0
 10
-606.8648851305933
 20
-238.6281992594377
 30
0.0
 10
-606.8677314325777
 20
-238.5938267774363
 30
0.0
 10
-606.8708857725887
 20
-238.5588176404381
 30
0.0
 10
-606.8737945175834
 20
-238.5033673824364
 30
0.0
 10
-606.8758978865972
 20
-238.4653980514376
 30
0.0
 10
-606.8765283375851
 20
-238.4420524034358
 30
0.0
 10
-606.8775282765873
 20
-238.419064524438
 30
0.0
 10
-606.8781536885817
 20
-238.3796641154368
 30
0.0
 10
-606.8785073675845
 20
-238.3479859614363
 30
0.0
 10
-606.878768794575
 20
-238.3273400464368
 30
0.0
  0
SPLINE
  5
195
330
70
100
AcDbEntity
  8
DETAIL
 62
     5
100
AcDbSpline
210
0.0
220
0.0
230
1.0
 70
     8
 71
     3
 72
    21
 73
    17
 74
     0
 42
0.0000001
 43
0.0000000001
 40
0.0
 40
0.0
 40
0.0
 40
0.0
 40
0.125
 40
0.1875
 40
0.25
 40
0.3125
 40
0.375
 40
0.4375
 40
0.5
 40
0.5625
 40
0.625
 40
0.6875
 40
0.75
 40
0.8125
 40
0.875
 40
1.0
 40
1.0
 40
1.0
 40
1.0
 10
-606.8495426605968
 20
454.1087796325627
 30
0.0
 10
-606.842427061596
 20
454.1527630795644
 30
0.0
 10
-606.8322329265956
 20
454.2181417115625
 30
0.0
 10
-606.8167236965837
 20
454.3076993755639
 30
0.0
 10
-606.799793270593
 20
454.380119249563
 30
0.0
 10
-606.7848331315927
 20
454.4527735665633
 30
0.0
 10
-606.7672903495859
 20
454.5192384845631
 30
0.0
 10
-606.7484964305931
 20
454.5845213565626
 30
0.0
 10
-606.7324839905941
 20
454.6478692075634
 30
0.0
 10
-606.7065967715916
 20
454.7201391905637
 30
0.0
 10
-606.6834346825944
 20
454.7904815315632
 30
0.0
 10
-606.6592468505859
 20
454.8596123085626
 30
0.0
 10
-606.6331043495901
 20
454.9224332555641
 30
0.0
 10
-606.609141245588
 20
454.9855376315645
 30
0.0
 10
-606.5681732165849
 20
455.0765782815633
 30
0.0
 10
-606.5355561215856
 20
455.1466313795627
 30
0.0
 10
-606.5142316295987
 20
455.1929395305633
 30
0.0
  0
SPLINE
  5
196
330
70
100
AcDbEntity
  8
DETAIL
 62
     5
100
AcDbSpline
210
0.0
220
0.0
230
1.0
 70
     8
 71
     3
 72
    19
 73
    15
 74
     0
 42
0.0000001
 43
0.0000000001
 40
0.0
 40
0.0
 40
0.0
 40
0.0
 40
0.125
 40
0.1875
 40
0.25
 40
0.3125
 40
0.375
 40
0.5
 40
0.625
 40
0.6875
 40
0.75
 40
0.8125
 40
0.875
 40
1.0
 40
1.0
 40
1.0
 40
1.0
 10
-606.878768794575
 20
453.6726599575631
 30
0.0
 10
-606.8786098475993
 20
453.6887587145629
 30
0.0
 10
-606.8784399735904
 20
453.7122756005628
 30
0.0
 10
-606.8779392905871
 20
453.7461564455624
 30
0.0
 10
-606.876789073578
 20
453.7773143125632
 30
0.0
 10
-606.8759544385848
 20
453.8083401955628
 30
0.0
 10
-606.8741914315778
 20
453.8427489755632
 30
0.0
 10
-606.8726499435888
 20
453.8778121545638
 30
0.0
 10
-606.8681304165965
 20
453.9332084395628
 30
0.0
 10
-606.8651468065818
 20
453.9711482755628
 30
0.0
 10
-606.8626524705924
 20
453.994431471563
 30
0.0
 10
-606.8605738125934
 20
454.0173832055625
 30
0.0
 10
-606.855927492581
 20
454.0566488855638
 30
0.0
 10
-606.8520433385875
 20
454.0882087445624
 30
0.0
 10
-606.8495426615863
 20
454.1087796285628
 30
0.0
  0
SPLINE
  5
197
330
70
100
AcDbEntity
  8
DETAIL
 62
     5
100
AcDbSpline
210
0.0
220
0.0
230
1.0
 70
     8
 71
     3
 72
    21
 73
    17
 74
     0
 42
0.0000001
 43
0.0000000001
 40
0.0
 40
0.0
 40
0.0
 40
0.0
 40
0.125
 40
0.1875
 40
0.25
 40
0.3125
 40
0.375
 40
0.4375
 40
0.5
 40
0.5625
 40
0.625
 40
0.6875
 40
0.75
 40
0.8125
 40
0.875
 40
1.0
 40
1.0
 40
1.0
 40
1.0
 10
-606.514231626601
 20
452.152380378564
 30
0.0
 10
-606.5337303405849
 20
452.1944488885638
 30
0.0
 10
-606.5630617685838
 20
452.2568681115626
 30
0.0
 10
-606.6018369125831
 20
452.3428279115632
 30
0.0
 10
-606.6292036555842
 20
452.4136339035631
 30
0.0
 10
-606.6584992175794
 20
452.4840713775629
 30
0.0
 10
-606.6817941165809
 20
452.5496467825632
 30
0.0
 10
-606.7032542985998
 20
452.6145173415625
 30
0.0
 10
-606.726099738591
 20
452.6768085315634
 30
0.0
 10
-606.7452388605906
 20
452.7501220465637
 30
0.0
 10
-606.7657163935819
 20
452.8208795295632
 30
0.0
 10
-606.7845465995796
 20
452.8908388145628
 30
0.0
 10
-606.7978756975808
 20
452.9556412385627
 30
0.0
 10
-606.8133525525791
 20
453.0200579355623
 30
0.0
 10
-606.8298684616038
 20
453.1148798855629
 30
0.0
 10
-606.8415833786002
 20
453.1881653155632
 30
0.0
 10
-606.8495426595927
 20
453.236540275564
 30
0.0
  0
SPLINE
  5
198
330
70
100
AcDbEntity
  8
DETAIL
 62
     5
100
AcDbSpline
210
0.0
220
0.0
230
1.0
 70
     8
 71
     3
 72
    19
 73
    15
 74
     0
 42
0.0000001
 43
0.0000000001
 40
0.0
 40
0.0
 40
0.0
 40
0.0
 40
0.125
 40
0.1875
 40
0.25
 40
0.3125
 40
0.375
 40
0.5
 40
0.625
 40
0.6875
 40
0.75
 40
0.8125
 40
0.875
 40
1.0
 40
1.0
 40
1.0
 40
1.0
 10
-606.8495426605968
 20
453.2365402825635
 30
0.0
 10
-606.851537276585
 20
453.2525775315625
 30
0.0
 10
-606.8545130245929
 20
453.2760004015635
 30
0.0
 10
-606.8585453946016
 20
453.3097629095627
 30
0.0
 10
-606.8615670045856
 20
453.3408580715622
 30
0.0
 10
-606.8648851305933
 20
453.3718007405623
 30
0.0
 10
-606.8677314325777
 20
453.4061732225636
 30
0.0
 10
-606.8708857725887
 20
453.4411823595637
 30
0.0
 10
-606.8737945175834
 20
453.4966326175635
 30
0.0
 10
-606.8758978865972
 20
453.5346019485623
 30
0.0
 10
-606.8765283375851
 20
453.5579475965642
 30
0.0
 10
-606.8775282765873
 20
453.5809354755638
 30
0.0
 10
-606.8781536885817
 20
453.6203358845632
 30
0.0
 10
-606.8785073675845
 20
453.6520140385637
 30
0.0
 10
-606.878768794575
 20
453.6726599535632
 30
0.0
  0
LINE
  5
199
330
70
100
AcDbEntity
  8
SERVICESPACE
100
AcDbLine
 10
367.6212312054104
 20
-980.1200492796706
 30
0.0
 11
-606.3787687945896
 21
-980.1200492796706
 31
0.0
  0
LINE
  5
19C
330
70
100
AcDbEntity
  8
SERVICESPACE
100
AcDbLine
 10
105.6243162076225
 20
-890.1313805494392
 30
0.0
 11
-344.3756837923775
 21
-890.1313805494392
 31
0.0
  0
LINE
  5
19D
330
70
100
AcDbEntity
  8
SERVICESPACE
100
AcDbLine
 10
105.6243162076225
 20
-440.1313805494392
 30
0.0
 11
-344.3756837923775
 21
-440.1313805494392
 31
0.0
  0
LINE
  5
19E
330
70
100
AcDbEntity
  8
SERVICESPACE
100
AcDbLine
 10
-344.3756837923775
 20
-440.1313805494392
 30
0.0
 11
-344.3756837923775
 21
-890.1313805494392
 31
0.0
1001
GENIUS_GENODEF_13
1002
{
1000
HIER
1070
     0
1002
}
1002
{
1000
MANEDIT
1070
     0
1002
}
1002
{
1000
NOSEL
1070
     0
1002
}
1002
{
1000
BEHIND
1070
     0
1002
}
1002
{
1000
OTHER
1070
     0
1002
}
1002
{
1000
REACTOR
1002
}
1001
GENIUS_GENOBJ-N-CEN_13
1002
{
1000
OWNER
1000
GEN
1002
}
1001
GENIUS_GENCEN_19
1002
{
1040
5.0
1002
}
  0
LINE
  5
19F
330
70
100
AcDbEntity
  8
SERVICESPACE
100
AcDbLine
 10
105.6243162076225
 20
-440.1313805494392
 30
0.0
 11
105.6243162076225
 21
-890.1313805494392
 31
0.0
1001
GENIUS_GENODEF_13
1002
{
1000
HIER
1070
     0
1002
}
1002
{
1000
MANEDIT
1070
     0
1002
}
1002
{
1000
NOSEL
1070
     0
1002
}
1002
{
1000
BEHIND
1070
     0
1002
}
1002
{
1000
OTHER
1070
     0
1002
}
1002
{
1000
REACTOR
1002
}
1001
GENIUS_GENOBJ-N-CEN_13
1002
{
1000
OWNER
1000
GEN
1002
}
1001
GENIUS_GENCEN_19
1002
{
1040
5.0
1002
}
  0
LINE
  5
1A0
330
70
100
AcDbEntity
  8
SERVICESPACE
100
AcDbLine
 10
-606.3787687945896
 20
-280.1313805494374
 30
0.0
 11
-606.3787687945896
 21
-980.1200492796706
 31
0.0
1001
GENIUS_GENODEF_13
1002
{
1000
HIER
1070
     0
1002
}
1002
{
1000
MANEDIT
1070
     0
1002
}
1002
{
1000
NOSEL
1070
     0
1002
}
1002
{
1000
BEHIND
1070
     0
1002
}
1002
{
1000
OTHER
1070
     0
1002
}
1002
{
1000
REACTOR
1002
}
1001
GENIUS_GENOBJ-N-CEN_13
1002
{
1000
OWNER
1000
GEN
1002
}
1001
GENIUS_GENCEN_19
1002
{
1040
5.0
1002
}
  0
LINE
  5
1A1
330
70
100
AcDbEntity
  8
SERVICESPACE
100
AcDbLine
 10
367.6212312054104
 20
-280.1313805494374
 30
0.0
 11
367.6212312054104
 21
-980.1200492796706
 31
0.0
1001
GENIUS_GENODEF_13
1002
{
1000
HIER
1070
     0
1002
}
1002
{
1000
MANEDIT
1070
     0
1002
}
1002
{
1000
NOSEL
1070
     0
1002
}
1002
{
1000
BEHIND
1070
     0
1002
}
1002
{
1000
OTHER
1070
     0
1002
}
1002
{
1000
REACTOR
1002
}
1001
GENIUS_GENOBJ-N-CEN_13
1002
{
1000
OWNER
1000
GEN
1002
}
1001
GENIUS_GENCEN_19
1002
{
1040
5.0
1002
}
  0
LINE
  5
1A2
330
70
100
AcDbEntity
  8
NOTE
  6
CENTER
100
AcDbLine
 10
-584.1803783932537
 20
-313.7313805494378
 30
0.0
 11
-621.0718760680083
 21
-313.7313805494378
 31
0.0
1001
GENIUS_GENODEF_13
1002
{
1000
HIER
1070
     0
1002
}
1002
{
1000
MANEDIT
1070
     0
1002
}
1002
{
1000
NOSEL
1070
     0
1002
}
1002
{
1000
BEHIND
1070
     0
1002
}
1002
{
1000
OTHER
1070
     0
1002
}
1002
{
1000
REACTOR
1002
}
1001
GENIUS_GENOBJ-N-CEN_13
1002
{
1000
OWNER
1000
GEN
1002
}
1001
GENIUS_GENCEN_19
1002
{
1040
5.0
1002
}
  0
LINE
  5
1A5
330
70
100
AcDbEntity
  8
NOTE
  6
CENTER
100
AcDbLine
 10
-603.7787687945837
 20
-340.2787626278405
 30
0.0
 11
-603.7787687945837
 21
-294.363062824923
 31
0.0
1001
GENIUS_GENOBJ-N-CEN_13
1002
{
1000
OWNER
1000
GEN
1002
}
1001
GENIUS_GENODEF_13
1002
{
1000
HIER
1070
     0
1002
}
1002
{
1000
MANEDIT
1070
     0
1002
}
1002
{
1000
NOSEL
1070
     0
1002
}
1002
{
1000
BEHIND
1070
     0
1002
}
1002
{
1000
OTHER
1070
     0
1002
}
1002
{
1000
REACTOR
1002
}
1001
GENIUS_GENCEN_19
1002
{
1040
5.0
1002
}
  0
LINE
  5
1A6
330
70
100
AcDbEntity
  8
NOTE
  6
CENTER
100
AcDbLine
 10
380.8192699225492
 20
-313.7313805494378
 30
0.0
 11
348.3497403436359
 21
-313.7313805494378
 31
0.0
1001
GENIUS_GENODEF_13
1002
{
1000
HIER
1070
     0
1002
}
1002
{
1000
MANEDIT
1070
     0
1002
}
1002
{
1000
NOSEL
1070
     0
1002
}
1002
{
1000
BEHIND
1070
     0
1002
}
1002
{
1000
OTHER
1070
     0
1002
}
1002
{
1000
REACTOR
1002
}
1001
GENIUS_GENOBJ-N-CEN_13
1002
{
1000
OWNER
1000
GEN
1002
}
1001
GENIUS_GENCEN_19
1002
{
1040
5.0
1002
}
  0
LINE
  5
1A7
330
70
100
AcDbEntity
  8
NOTE
  6
CENTER
100
AcDbLine
 10
365.0212312054045
 20
-338.9447079747006
 30
0.0
 11
365.0212312054045
 21
-297.2088562000717
 31
0.0
1001
GENIUS_GENODEF_13
1002
{
1000
HIER
1070
     0
1002
}
1002
{
1000
MANEDIT
1070
     0
1002
}
1002
{
1000
NOSEL
1070
     0
1002
}
1002
{
1000
BEHIND
1070
     0
1002
}
1002
{
1000
OTHER
1070
     0
1002
}
1002
{
1000
REACTOR
1002
}
1001
GENIUS_GENOBJ-N-CEN_13
1002
{
1000
OWNER
1000
GEN
1002
}
1001
GENIUS_GENCEN_19
1002
{
1040
5.0
1002
}
  0
LINE
  5
1A8
330
70
100
AcDbEntity
  8
NOTE
  6
CENTER
100
AcDbLine
 10
380.8192699225492
 20
687.4686194505629
 30
0.0
 11
348.3497403436359
 21
687.4686194505629
 31
0.0
1001
GENIUS_GENODEF_13
1002
{
1000
HIER
1070
     0
1002
}
1002
{
1000
MANEDIT
1070
     0
1002
}
1002
{
1000
NOSEL
1070
     0
1002
}
1002
{
1000
BEHIND
1070
     0
1002
}
1002
{
1000
OTHER
1070
     0
1002
}
1002
{
1000
REACTOR
1002
}
1001
GENIUS_GENOBJ-N-CEN_13
1002
{
1000
OWNER
1000
GEN
1002
}
1001
GENIUS_GENCEN_19
1002
{
1040
5.0
1002
}
  0
LINE
  5
1A9
330
70
100
AcDbEntity
  8
NOTE
  6
CENTER
100
AcDbLine
 10
365.0212312054045
 20
671.6635068878422
 30
0.0
 11
365.0212312054045
 21
713.399358662471
 31
0.0
1001
GENIUS_GENODEF_13
1002
{
1000
HIER
1070
     0
1002
}
1002
{
1000
MANEDIT
1070
     0
1002
}
1002
{
1000
NOSEL
1070
     0
1002
}
1002
{
1000
BEHIND
1070
     0
1002
}
1002
{
1000
OTHER
1070
     0
1002
}
1002
{
1000
REACTOR
1002
}
1001
GENIUS_GENOBJ-N-CEN_13
1002
{
1000
OWNER
1000
GEN
1002
}
1001
GENIUS_GENCEN_19
1002
{
1040
5.0
1002
}
  0
LINE
  5
1AA
330
70
100
AcDbEntity
  8
NOTE
  6
CENTER
100
AcDbLine
 10
-587.9807300774391
 20
687.4686194505629
 30
0.0
 11
-620.4502596563525
 21
687.4686194505629
 31
0.0
1001
GENIUS_GENODEF_13
1002
{
1000
HIER
1070
     0
1002
}
1002
{
1000
MANEDIT
1070
     0
1002
}
1002
{
1000
NOSEL
1070
     0
1002
}
1002
{
1000
BEHIND
1070
     0
1002
}
1002
{
1000
OTHER
1070
     0
1002
}
1002
{
1000
REACTOR
1002
}
1001
GENIUS_GENOBJ-N-CEN_13
1002
{
1000
OWNER
1000
GEN
1002
}
1001
GENIUS_GENCEN_19
1002
{
1040
5.0
1002
}
  0
LINE
  5
1AB
330
70
100
AcDbEntity
  8
NOTE
  6
CENTER
100
AcDbLine
 10
-603.7787687945837
 20
671.6635068878422
 30
0.0
 11
-603.7787687945837
 21
713.399358662471
 31
0.0
1001
GENIUS_GENODEF_13
1002
{
1000
HIER
1070
     0
1002
}
1002
{
1000
MANEDIT
1070
     0
1002
}
1002
{
1000
NOSEL
1070
     0
1002
}
1002
{
1000
BEHIND
1070
     0
1002
}
1002
{
1000
OTHER
1070
     0
1002
}
1002
{
1000
REACTOR
1002
}
1001
GENIUS_GENOBJ-N-CEN_13
1002
{
1000
OWNER
1000
GEN
1002
}
1001
GENIUS_GENCEN_19
1002
{
1040
5.0
1002
}
  0
LINE
  5
1AC
330
70
100
AcDbEntity
  8
BASIS
  6
CENTER
100
AcDbLine
 10
-698.0129176357932
 20
186.8686194505626
 30
0.0
 11
480.8219237911198
 21
186.8686194505626
 31
0.0
1001
GENIUS_GENODEF_13
1002
{
1000
HIER
1070
     0
1002
}
1002
{
1000
MANEDIT
1070
     0
1002
}
1002
{
1000
NOSEL
1070
     0
1002
}
1002
{
1000
BEHIND
1070
     0
1002
}
1002
{
1000
OTHER
1070
     0
1002
}
1002
{
1000
REACTOR
1002
}
1001
GENIUS_GENOBJ-N-CEN_13
1002
{
1000
OWNER
1000
GEN
1002
}
1001
GENIUS_GENCEN_19
1002
{
1040
5.0
1002
}
  0
LINE
  5
1AF
330
70
100
AcDbEntity
  8
NOTE
  6
CENTER
100
AcDbLine
 10
-709.7894520608661
 20
-159.1313805494374
 30
0.0
 11
-570.4490007684126
 21
-159.1313805494374
 31
0.0
1001
GENIUS_GENODEF_13
1002
{
1000
HIER
1070
     0
1002
}
1002
{
1000
MANEDIT
1070
     0
1002
}
1002
{
1000
NOSEL
1070
     0
1002
}
1002
{
1000
BEHIND
1070
     0
1002
}
1002
{
1000
OTHER
1070
     0
1002
}
1002
{
1000
REACTOR
1002
}
1001
GENIUS_GENOBJ-N-CEN_13
1002
{
1000
OWNER
1000
GEN
1002
}
1001
GENIUS_GENCEN_19
1002
{
1040
5.0
1002
}
  0
LINE
  5
1B0
330
70
100
AcDbEntity
  8
NOTE
  6
CENTER
100
AcDbLine
 10
490.510411046971
 20
532.8686194505626
 30
0.0
 11
334.1214228772969
 21
532.8686194505626
 31
0.0
1001
GENIUS_GENODEF_13
1002
{
1000
HIER
1070
     0
1002
}
1002
{
1000
MANEDIT
1070
     0
1002
}
1002
{
1000
NOSEL
1070
     0
1002
}
1002
{
1000
BEHIND
1070
     0
1002
}
1002
{
1000
OTHER
1070
     0
1002
}
1002
{
1000
REACTOR
1002
}
1001
GENIUS_GENOBJ-N-CEN_13
1002
{
1000
OWNER
1000
GEN
1002
}
1001
GENIUS_GENCEN_19
1002
{
1040
5.0
1002
}
  0
LINE
  5
1B1
330
70
100
AcDbEntity
  8
NOTE
  6
CENTER
100
AcDbLine
 10
474.6963531588644
 20
-159.1313805494374
 30
0.0
 11
328.53890212851
 21
-159.1313805494374
 31
0.0
1001
GENIUS_GENODEF_13
1002
{
1000
HIER
1070
     0
1002
}
1002
{
1000
MANEDIT
1070
     0
1002
}
1002
{
1000
NOSEL
1070
     0
1002
}
1002
{
1000
BEHIND
1070
     0
1002
}
1002
{
1000
OTHER
1070
     0
1002
}
1002
{
1000
REACTOR
1002
}
1001
GENIUS_GENOBJ-N-CEN_13
1002
{
1000
OWNER
1000
GEN
1002
}
1001
GENIUS_GENCEN_19
1002
{
1040
5.0
1002
}
  0
LINE
  5
1B2
330
70
100
AcDbEntity
  8
NOTE
  6
CENTER
100
AcDbLine
 10
-486.1787687945852
 20
-408.0062076280882
 30
0.0
 11
-486.1787687945852
 21
-254.2063640664947
 31
0.0
1001
GENIUS_GENODEF_13
1002
{
1000
HIER
1070
     0
1002
}
1002
{
1000
MANEDIT
1070
     0
1002
}
1002
{
1000
NOSEL
1070
     0
1002
}
1002
{
1000
BEHIND
1070
     0
1002
}
1002
{
1000
OTHER
1070
     0
1002
}
1002
{
1000
REACTOR
1002
}
1001
GENIUS_GENOBJ-N-CEN_13
1002
{
1000
OWNER
1000
GEN
1002
}
1001
GENIUS_GENCEN_19
1002
{
1040
5.0
1002
}
  0
LINE
  5
1B3
330
70
100
AcDbEntity
  8
NOTE
  6
CENTER
100
AcDbLine
 10
-486.1787687945852
 20
643.9337145582758
 30
0.0
 11
-486.1787687945852
 21
777.1402310240228
 31
0.0
1001
GENIUS_GENOBJ-N-CEN_13
1002
{
1000
OWNER
1000
GEN
1002
}
1001
GENIUS_GENODEF_13
1002
{
1000
HIER
1070
     0
1002
}
1002
{
1000
MANEDIT
1070
     0
1002
}
1002
{
1000
NOSEL
1070
     0
1002
}
1002
{
1000
BEHIND
1070
     0
1002
}
1002
{
1000
OTHER
1070
     0
1002
}
1002
{
1000
REACTOR
1002
}
1001
GENIUS_GENCEN_19
1002
{
1040
5.0
1002
}
  0
LINE
  5
1B4
330
70
100
AcDbEntity
  8
NOTE
  6
CENTER
100
AcDbLine
 10
-716.0357274808375
 20
532.8686194505626
 30
0.0
 11
-583.0912528873359
 21
532.8686194505626
 31
0.0
1001
GENIUS_GENODEF_13
1002
{
1000
HIER
1070
     0
1002
}
1002
{
1000
MANEDIT
1070
     0
1002
}
1002
{
1000
NOSEL
1070
     0
1002
}
1002
{
1000
BEHIND
1070
     0
1002
}
1002
{
1000
OTHER
1070
     0
1002
}
1002
{
1000
REACTOR
1002
}
1001
GENIUS_GENOBJ-N-CEN_13
1002
{
1000
OWNER
1000
GEN
1002
}
1001
GENIUS_GENCEN_19
1002
{
1040
5.0
1002
}
  0
LINE
  5
1B5
330
70
100
AcDbEntity
  8
BASIS
100
AcDbLine
 10
-119.3787687945896
 20
-370.7237832719147
 30
0.0
 11
-119.3787687945896
 21
769.8482176883226
 31
0.0
1001
GENIUS_GENOBJ-N-CEN_13
1002
{
1000
OWNER
1000
GEN
1002
}
1001
GENIUS_GENODEF_13
1002
{
1000
HIER
1070
     0
1002
}
1002
{
1000
MANEDIT
1070
     0
1002
}
1002
{
1000
NOSEL
1070
     0
1002
}
1002
{
1000
BEHIND
1070
     0
1002
}
1002
{
1000
OTHER
1070
     0
1002
}
1002
{
1000
REACTOR
1002
}
1001
GENIUS_GENCEN_19
1002
{
1040
5.0
1002
}
  0
LINE
  5
1B6
330
70
100
AcDbEntity
  8
OUTLINE
100
AcDbLine
 10
318.7212312054162
 20
-399.531380549437
 30
0.0
 11
144.3212312054074
 21
-399.531380549437
 31
0.0
  0
LINE
  5
1B9
330
70
100
AcDbEntity
  8
OUTLINE
100
AcDbLine
 10
-680.7787687945983
 20
-255.1313805494374
 30
0.0
 11
-611.7787687945837
 21
-263.1313805494374
 31
0.0
  0
LINE
  5
1BA
330
70
100
AcDbEntity
  8
OUTLINE
100
AcDbLine
 10
371.5212312054191
 20
-333.7313805494377
 30
0.0
 11
383.5212312054046
 21
-333.7313805494377
 31
0.0
  0
LINE
  5
1BB
330
70
100
AcDbEntity
  8
OUTLINE
100
AcDbLine
 10
358.5212312054046
 20
-333.7313805494377
 30
0.0
 11
340.0212312054045
 21
-333.7313805494377
 31
0.0
  0
LINE
  5
1BC
330
70
100
AcDbEntity
  8
OUTLINE
100
AcDbLine
 10
-578.7787687945837
 20
-333.7313805494377
 30
0.0
 11
-597.2787687945984
 21
-333.7313805494377
 31
0.0
  0
LINE
  5
1BD
330
70
100
AcDbEntity
  8
OUTLINE
100
AcDbLine
 10
-610.2787687945838
 20
-333.7313805494377
 30
0.0
 11
-622.2787687945984
 21
-333.7313805494377
 31
0.0
  0
LINE
  5
1BE
330
70
100
AcDbEntity
  8
OUTLINE
100
AcDbLine
 10
115.0212312054045
 20
-302.031380549437
 30
0.0
 11
-353.7787687945838
 21
-302.031380549437
 31
0.0
  0
LINE
  5
1BF
330
70
100
AcDbEntity
  8
OUTLINE
100
AcDbLine
 10
116.6212312053958
 20
-294.531380549437
 30
0.0
 11
117.4212312054133
 21
-294.531380549437
 31
0.0
  0
LINE
  5
1C0
330
70
100
AcDbEntity
  8
OUTLINE
100
AcDbLine
 10
-355.3787687945896
 20
-294.531380549437
 30
0.0
 11
-356.1787687945925
 21
-294.531380549437
 31
0.0
  0
LINE
  5
1C1
330
70
100
AcDbEntity
  8
OUTLINE
100
AcDbLine
 10
-403.8783782135742
 20
-286.531380549437
 30
0.0
 11
-355.3787687945896
 21
-286.531380549437
 31
0.0
  0
LINE
  5
1C2
330
70
100
AcDbEntity
  8
OUTLINE
100
AcDbLine
 10
116.6212312053958
 20
-286.531380549437
 30
0.0
 11
131.3210517714014
 21
-286.531380549437
 31
0.0
  0
LINE
  5
1C3
330
70
100
AcDbEntity
  8
OUTLINE
100
AcDbLine
 10
138.5214106404146
 20
-286.531380549437
 30
0.0
 11
144.3212312054074
 21
-286.531380549437
 31
0.0
  0
LINE
  5
1C4
330
70
100
AcDbEntity
  8
OUTLINE
100
AcDbLine
 10
318.7212312054162
 20
-286.531380549437
 30
0.0
 11
326.2269858024211
 21
-286.531380549437
 31
0.0
  0
LINE
  5
1C5
330
70
100
AcDbEntity
  8
OUTLINE
100
AcDbLine
 10
331.2154766094009
 20
-286.531380549437
 30
0.0
 11
340.0212312054045
 21
-286.531380549437
 31
0.0
  0
LINE
  5
1C6
330
70
100
AcDbEntity
  8
OUTLINE
100
AcDbLine
 10
-622.2787687945984
 20
-283.7313805494377
 30
0.0
 11
-606.3787687945896
 21
-283.7313805494377
 31
0.0
  0
LINE
  5
1C7
330
70
100
AcDbEntity
  8
OUTLINE
100
AcDbLine
 10
383.5212312054046
 20
-283.7313805494377
 30
0.0
 11
367.6212312054104
 21
-283.7313805494377
 31
0.0
  0
LINE
  5
1C8
330
70
100
AcDbEntity
  8
OUTLINE
100
AcDbLine
 10
442.021231205419
 20
-255.1313805494374
 30
0.0
 11
373.0212312054191
 21
-263.1313805494374
 31
0.0
  0
LINE
  5
1C9
330
70
100
AcDbEntity
  8
OUTLINE
100
AcDbLine
 10
450.6212312054249
 20
627.7686194505622
 30
0.0
 11
450.6212312054249
 21
437.9686194505629
 31
0.0
  0
LINE
  5
1CA
330
70
100
AcDbEntity
  8
OUTLINE
100
AcDbLine
 10
450.6212312054249
 20
-64.23138054943774
 30
0.0
 11
450.6212312054249
 21
-254.031380549437
 31
0.0
  0
LINE
  5
1CB
330
70
100
AcDbEntity
  8
OUTLINE
100
AcDbLine
 10
367.6212312054104
 20
-263.7313805494378
 30
0.0
 11
368.2212312054162
 21
-263.7313805494378
 31
0.0
  0
LINE
  5
1CC
330
70
100
AcDbEntity
  8
OUTLINE
100
AcDbLine
 10
-611.7787687945837
 20
-263.1313805494374
 30
0.0
 11
-606.3787687945896
 21
-263.1313805494374
 31
0.0
  0
LINE
  5
1CD
330
70
100
AcDbEntity
  8
OUTLINE
100
AcDbLine
 10
373.0212312054191
 20
-263.1313805494374
 30
0.0
 11
367.6212312054104
 21
-263.1313805494374
 31
0.0
  0
LINE
  5
1CE
330
70
100
AcDbEntity
  8
OUTLINE
100
AcDbLine
 10
-688.2787687945984
 20
-255.1313805494374
 30
0.0
 11
-680.7787687945983
 21
-255.1313805494374
 31
0.0
  0
LINE
  5
1CF
330
70
100
AcDbEntity
  8
OUTLINE
100
AcDbLine
 10
449.521231205419
 20
-255.1313805494374
 30
0.0
 11
442.021231205419
 21
-255.1313805494374
 31
0.0
  0
LINE
  5
1D0
330
70
100
AcDbEntity
  8
OUTLINE
100
AcDbLine
 10
383.5212312054046
 20
-333.7313805494377
 30
0.0
 11
383.5212312054046
 21
-283.7313805494377
 31
0.0
  0
LINE
  5
1D1
330
70
100
AcDbEntity
  8
OUTLINE
100
AcDbLine
 10
383.5212312054046
 20
657.468619450563
 30
0.0
 11
383.5212312054046
 21
707.468619450563
 31
0.0
  0
LINE
  5
1D2
330
70
100
AcDbEntity
  8
OUTLINE
100
AcDbLine
 10
371.5212312054191
 20
-333.7313805494377
 30
0.0
 11
371.5212312054191
 21
-313.7313805494378
 31
0.0
  0
LINE
  5
1D3
330
70
100
AcDbEntity
  8
OUTLINE
100
AcDbLine
 10
371.5212312054191
 20
687.4686194505629
 30
0.0
 11
371.5212312054191
 21
707.468619450563
 31
0.0
  0
LINE
  5
1D4
330
70
100
AcDbEntity
  8
OUTLINE
100
AcDbLine
 10
368.2212312054162
 20
-263.7313805494378
 30
0.0
 11
368.2212312054162
 21
-280.531380549437
 31
0.0
  0
LINE
  5
1D5
330
70
100
AcDbEntity
  8
OUTLINE
100
AcDbLine
 10
367.8212312054075
 20
-263.7313805494378
 30
0.0
 11
367.8212312054075
 21
-263.1313805494374
 31
0.0
  0
LINE
  5
1D6
330
70
100
AcDbEntity
  8
OUTLINE
100
AcDbLine
 10
367.8212312054075
 20
-55.13138054943738
 30
0.0
 11
367.8212312054075
 21
428.8686194505644
 31
0.0
  0
LINE
  5
1D7
330
70
100
AcDbEntity
  8
OUTLINE
100
AcDbLine
 10
358.5212312054046
 20
-330.5143582454366
 30
0.0
 11
358.5212312054046
 21
-313.7313805494378
 31
0.0
  0
LINE
  5
1D8
330
70
100
AcDbEntity
  8
OUTLINE
100
AcDbLine
 10
358.5212312054046
 20
687.4686194505629
 30
0.0
 11
358.5212312054046
 21
704.2515971465618
 31
0.0
  0
LINE
  5
1D9
330
70
100
AcDbEntity
  8
OUTLINE
100
AcDbLine
 10
340.0212312054045
 20
-330.531380549437
 30
0.0
 11
340.0212312054045
 21
-286.3313805494363
 31
0.0
  0
LINE
  5
1DA
330
70
100
AcDbEntity
  8
OUTLINE
100
AcDbLine
 10
340.0212312054045
 20
660.0686194505633
 30
0.0
 11
340.0212312054045
 21
704.2686194505622
 31
0.0
  0
LINE
  5
1DB
330
70
100
AcDbEntity
  8
OUTLINE
100
AcDbLine
 10
340.0212312054045
 20
704.2686194505622
 30
0.0
 11
340.0212312054045
 21
707.468619450563
 31
0.0
  0
LINE
  5
1DC
330
70
100
AcDbEntity
  8
OUTLINE
100
AcDbLine
 10
318.7212312054162
 20
-286.3313805494363
 30
0.0
 11
318.7212312054162
 21
-399.531380549437
 31
0.0
  0
LINE
  5
1DD
330
70
100
AcDbEntity
  8
OUTLINE
100
AcDbLine
 10
-688.2787687945984
 20
-63.13138054943738
 30
0.0
 11
-680.7787687945983
 21
-63.13138054943738
 31
0.0
  0
LINE
  5
1DE
330
70
100
AcDbEntity
  8
OUTLINE
100
AcDbLine
 10
449.521231205419
 20
-63.13138054943738
 30
0.0
 11
442.021231205419
 21
-63.13138054943738
 31
0.0
  0
LINE
  5
1DF
330
70
100
AcDbEntity
  8
OUTLINE
100
AcDbLine
 10
-611.7787687945837
 20
-55.13138054943738
 30
0.0
 11
-606.3787687945896
 21
-55.13138054943738
 31
0.0
  0
LINE
  5
1E0
330
70
100
AcDbEntity
  8
OUTLINE
100
AcDbLine
 10
-680.7787687945983
 20
-63.13138054943738
 30
0.0
 11
-611.7787687945837
 21
-55.13138054943738
 31
0.0
  0
LINE
  5
1E1
330
70
100
AcDbEntity
  8
OUTLINE
100
AcDbLine
 10
144.3212312054074
 20
-286.3313805494363
 30
0.0
 11
144.3212312054074
 21
-399.531380549437
 31
0.0
  0
LINE
  5
1E2
330
70
100
AcDbEntity
  8
OUTLINE
100
AcDbLine
 10
117.4212312054133
 20
-301.2313805494378
 30
0.0
 11
117.4212312054133
 21
-294.531380549437
 31
0.0
  0
LINE
  5
1E3
330
70
100
AcDbEntity
  8
OUTLINE
100
AcDbLine
 10
116.6212312053958
 20
-301.2313805494378
 30
0.0
 11
116.6212312053958
 21
-291.2313805494378
 31
0.0
  0
LINE
  5
1E4
330
70
100
AcDbEntity
  8
OUTLINE
100
AcDbLine
 10
116.6212312053958
 20
-291.2313805494378
 30
0.0
 11
116.6212312053958
 21
-283.2313805494377
 31
0.0
  0
LINE
  5
1E5
330
70
100
AcDbEntity
  8
OUTLINE
100
AcDbLine
 10
115.8212312054074
 20
-292.8313805494363
 30
0.0
 11
115.8212312054074
 21
-301.2313805494378
 31
0.0
  0
LINE
  5
1E6
330
70
100
AcDbEntity
  8
OUTLINE
100
AcDbLine
 10
115.0212312054045
 20
-276.031380549437
 30
0.0
 11
115.0212312054045
 21
-302.031380549437
 31
0.0
  0
LINE
  5
1E7
330
70
100
AcDbEntity
  8
OUTLINE
100
AcDbLine
 10
-680.7787687945983
 20
436.8686194505626
 30
0.0
 11
-611.7787687945837
 21
428.8686194505644
 31
0.0
  0
LINE
  5
1E8
330
70
100
AcDbEntity
  8
OUTLINE
100
AcDbLine
 10
442.021231205419
 20
436.8686194505626
 30
0.0
 11
373.0212312054191
 21
428.8686194505644
 31
0.0
  0
LINE
  5
1E9
330
70
100
AcDbEntity
  8
OUTLINE
100
AcDbLine
 10
-611.7787687945837
 20
428.8686194505644
 30
0.0
 11
-606.3787687945896
 21
428.8686194505644
 31
0.0
  0
LINE
  5
1EA
330
70
100
AcDbEntity
  8
OUTLINE
100
AcDbLine
 10
373.0212312054191
 20
428.8686194505644
 30
0.0
 11
367.6212312054104
 21
428.8686194505644
 31
0.0
  0
LINE
  5
1EB
330
70
100
AcDbEntity
  8
OUTLINE
100
AcDbLine
 10
-688.2787687945984
 20
436.8686194505626
 30
0.0
 11
-680.7787687945983
 21
436.8686194505626
 31
0.0
  0
LINE
  5
1EC
330
70
100
AcDbEntity
  8
OUTLINE
100
AcDbLine
 10
449.521231205419
 20
436.8686194505626
 30
0.0
 11
442.021231205419
 21
436.8686194505626
 31
0.0
  0
LINE
  5
1ED
330
70
100
AcDbEntity
  8
OUTLINE
100
AcDbLine
 10
-353.7787687945838
 20
-302.031380549437
 30
0.0
 11
-353.7787687945838
 21
-276.031380549437
 31
0.0
  0
LINE
  5
1EE
330
70
100
AcDbEntity
  8
OUTLINE
100
AcDbLine
 10
-354.5787687945867
 20
-301.2313805494378
 30
0.0
 11
-354.5787687945867
 21
-292.8313805494363
 31
0.0
  0
LINE
  5
1EF
330
70
100
AcDbEntity
  8
OUTLINE
100
AcDbLine
 10
-355.3787687945896
 20
-291.2313805494378
 30
0.0
 11
-355.3787687945896
 21
-301.2313805494378
 31
0.0
  0
LINE
  5
1F0
330
70
100
AcDbEntity
  8
OUTLINE
100
AcDbLine
 10
-355.3787687945896
 20
-291.2313805494378
 30
0.0
 11
-355.3787687945896
 21
-283.2313805494377
 31
0.0
  0
LINE
  5
1F1
330
70
100
AcDbEntity
  8
OUTLINE
100
AcDbLine
 10
-356.1787687945925
 20
-301.2313805494378
 30
0.0
 11
-356.1787687945925
 21
-294.531380549437
 31
0.0
  0
LINE
  5
1F2
330
70
100
AcDbEntity
  8
OUTLINE
100
AcDbLine
 10
-688.2787687945984
 20
628.8686194505644
 30
0.0
 11
-680.7787687945983
 21
628.8686194505644
 31
0.0
  0
LINE
  5
1F3
330
70
100
AcDbEntity
  8
OUTLINE
100
AcDbLine
 10
-611.7787687945837
 20
636.8686194505626
 30
0.0
 11
-606.3787687945896
 21
636.8686194505626
 31
0.0
  0
LINE
  5
1F4
330
70
100
AcDbEntity
  8
OUTLINE
100
AcDbLine
 10
-622.2787687945984
 20
657.468619450563
 30
0.0
 11
-606.3787687945896
 21
657.468619450563
 31
0.0
  0
LINE
  5
1F5
330
70
100
AcDbEntity
  8
OUTLINE
100
AcDbLine
 10
340.0212312054045
 20
660.2686194505622
 30
0.0
 11
-578.7787687945837
 21
660.2686194505622
 31
0.0
  0
LINE
  5
1F6
330
70
100
AcDbEntity
  8
OUTLINE
100
AcDbLine
 10
-680.7787687945983
 20
628.8686194505644
 30
0.0
 11
-611.7787687945837
 21
636.8686194505626
 31
0.0
  0
LINE
  5
1F7
330
70
100
AcDbEntity
  8
OUTLINE
100
AcDbLine
 10
-578.7787687945837
 20
660.0686194505633
 30
0.0
 11
-578.7787687945837
 21
704.2686194505622
 31
0.0
  0
LINE
  5
1F8
330
70
100
AcDbEntity
  8
OUTLINE
100
AcDbLine
 10
371.5212312054191
 20
707.468619450563
 30
0.0
 11
383.5212312054046
 21
707.468619450563
 31
0.0
  0
LINE
  5
1F9
330
70
100
AcDbEntity
  8
OUTLINE
100
AcDbLine
 10
358.5212312054046
 20
707.468619450563
 30
0.0
 11
340.0212312054045
 21
707.468619450563
 31
0.0
  0
LINE
  5
1FA
330
70
100
AcDbEntity
  8
OUTLINE
100
AcDbLine
 10
-578.7787687945837
 20
707.468619450563
 30
0.0
 11
-597.2787687945984
 21
707.468619450563
 31
0.0
  0
LINE
  5
1FB
330
70
100
AcDbEntity
  8
OUTLINE
100
AcDbLine
 10
-610.2787687945838
 20
707.468619450563
 30
0.0
 11
-622.2787687945984
 21
707.468619450563
 31
0.0
  0
LINE
  5
1FC
330
70
100
AcDbEntity
  8
OUTLINE
100
AcDbLine
 10
-597.2787687945984
 20
-330.531380549437
 30
0.0
 11
-597.2787687945984
 21
-333.7313805494377
 31
0.0
  0
LINE
  5
1FD
330
70
100
AcDbEntity
  8
OUTLINE
100
AcDbLine
 10
-597.2787687945984
 20
-330.5143582454366
 30
0.0
 11
-597.2787687945984
 21
-313.7313805494378
 31
0.0
  0
LINE
  5
1FE
330
70
100
AcDbEntity
  8
OUTLINE
100
AcDbLine
 10
-597.2787687945984
 20
687.4686194505629
 30
0.0
 11
-597.2787687945984
 21
704.2515971465618
 31
0.0
  0
LINE
  5
1FF
330
70
100
AcDbEntity
  8
OUTLINE
100
AcDbLine
 10
-597.2787687945984
 20
704.2686194505622
 30
0.0
 11
-597.2787687945984
 21
707.468619450563
 31
0.0
  0
LINE
  5
200
330
70
100
AcDbEntity
  8
OUTLINE
100
AcDbLine
 10
-606.5787687945867
 20
428.8686194505644
 30
0.0
 11
-606.5787687945867
 21
-55.13138054943738
 31
0.0
  0
LINE
  5
201
330
70
100
AcDbEntity
  8
OUTLINE
100
AcDbLine
 10
-606.9787687945809
 20
-263.7313805494378
 30
0.0
 11
-606.9787687945809
 21
-280.531380549437
 31
0.0
  0
LINE
  5
202
330
70
100
AcDbEntity
  8
OUTLINE
100
AcDbLine
 10
-606.9787687945809
 20
637.4686194505629
 30
0.0
 11
-606.9787687945809
 21
654.2686194505622
 31
0.0
  0
LINE
  5
203
330
70
100
AcDbEntity
  8
OUTLINE
100
AcDbLine
 10
-610.2787687945838
 20
-333.7313805494377
 30
0.0
 11
-610.2787687945838
 21
-313.7313805494378
 31
0.0
  0
LINE
  5
204
330
70
100
AcDbEntity
  8
OUTLINE
100
AcDbLine
 10
-610.2787687945838
 20
687.4686194505629
 30
0.0
 11
-610.2787687945838
 21
707.468619450563
 31
0.0
  0
LINE
  5
205
330
70
100
AcDbEntity
  8
OUTLINE
100
AcDbLine
 10
-622.2787687945984
 20
-333.7313805494377
 30
0.0
 11
-622.2787687945984
 21
-283.7313805494377
 31
0.0
  0
LINE
  5
206
330
70
100
AcDbEntity
  8
OUTLINE
100
AcDbLine
 10
-622.2787687945984
 20
657.468619450563
 30
0.0
 11
-622.2787687945984
 21
707.468619450563
 31
0.0
  0
LINE
  5
207
330
70
100
AcDbEntity
  8
OUTLINE
100
AcDbLine
 10
-689.378768794575
 20
-254.031380549437
 30
0.0
 11
-689.378768794575
 21
-64.23138054943774
 31
0.0
  0
LINE
  5
208
330
70
100
AcDbEntity
  8
OUTLINE
100
AcDbLine
 10
-689.378768794575
 20
437.9686194505629
 30
0.0
 11
-689.378768794575
 21
627.7686194505622
 31
0.0
  0
ARC
  5
209
330
70
100
AcDbEntity
  8
OUTLINE
100
AcDbCircle
 10
449.521231205419
 20
-254.031380549437
 30
0.0
 40
1.1
100
AcDbArc
 50
270.0
 51
0.0
  0
ARC
  5
20A
330
70
100
AcDbEntity
  8
OUTLINE
100
AcDbCircle
 10
365.0212312054045
 20
-313.7313805494378
 30
0.0
 40
6.5
100
AcDbArc
 50
0.0
 51
180.0
  0
ARC
  5
20B
330
70
100
AcDbEntity
  8
OUTLINE
100
AcDbCircle
 10
371.4212312064173
 20
-280.531380549437
 30
0.0
 40
3.2
100
AcDbArc
 50
180.0
 51
269.5537889352105
  0
ARC
  5
20C
330
70
100
AcDbEntity
  8
OUTLINE
100
AcDbCircle
 10
449.521231205419
 20
-64.23138054943774
 30
0.0
 40
1.1
100
AcDbArc
 50
0.0
 51
90.0
  0
ARC
  5
20D
330
70
100
AcDbEntity
  8
OUTLINE
100
AcDbCircle
 10
115.0212312054045
 20
-292.8313805494363
 30
0.0
 40
0.8
100
AcDbArc
 50
0.0
 51
90.0
  0
ARC
  5
20E
330
70
100
AcDbEntity
  8
OUTLINE
100
AcDbCircle
 10
116.6212312053958
 20
-301.2313805494378
 30
0.0
 40
0.8
100
AcDbArc
 50
180.0
 51
0.0
  0
ARC
  5
20F
330
70
100
AcDbEntity
  8
OUTLINE
100
AcDbCircle
 10
449.521231205419
 20
437.9686194505629
 30
0.0
 40
1.1
100
AcDbArc
 50
270.0
 51
0.0
  0
ARC
  5
210
330
70
100
AcDbEntity
  8
OUTLINE
100
AcDbCircle
 10
365.0212312054045
 20
687.4686194505629
 30
0.0
 40
6.5
100
AcDbArc
 50
180.0
 51
0.0
  0
ARC
  5
211
330
70
100
AcDbEntity
  8
OUTLINE
100
AcDbCircle
 10
-355.3787687945896
 20
-301.2313805494378
 30
0.0
 40
0.8
100
AcDbArc
 50
180.0
 51
0.0
  0
ARC
  5
212
330
70
100
AcDbEntity
  8
OUTLINE
100
AcDbCircle
 10
-353.7787687945838
 20
-292.8313805494363
 30
0.0
 40
0.8
100
AcDbArc
 50
90.0
 51
180.0
  0
ARC
  5
213
330
70
100
AcDbEntity
  8
OUTLINE
100
AcDbCircle
 10
-603.7787687945837
 20
-313.7313805494378
 30
0.0
 40
6.5
100
AcDbArc
 50
0.0
 51
180.0
  0
ARC
  5
214
330
70
100
AcDbEntity
  8
OUTLINE
100
AcDbCircle
 10
-610.178768794578
 20
-280.531380549437
 30
0.0
 40
3.2
100
AcDbArc
 50
270.4462110647895
 51
359.9999999995831
  0
ARC
  5
215
330
70
100
AcDbEntity
  8
OUTLINE
100
AcDbCircle
 10
-688.2787687945984
 20
-254.031380549437
 30
0.0
 40
1.1
100
AcDbArc
 50
180.0
 51
270.0
  0
ARC
  5
216
330
70
100
AcDbEntity
  8
OUTLINE
100
AcDbCircle
 10
-688.2787687945984
 20
-64.23138054943774
 30
0.0
 40
1.1
100
AcDbArc
 50
90.0
 51
180.0
  0
ARC
  5
217
330
70
100
AcDbEntity
  8
OUTLINE
100
AcDbCircle
 10
-688.2787687945984
 20
437.9686194505629
 30
0.0
 40
1.1
100
AcDbArc
 50
180.0
 51
270.0
  0
ARC
  5
218
330
70
100
AcDbEntity
  8
OUTLINE
100
AcDbCircle
 10
-610.178768794578
 20
654.2686194505622
 30
0.0
 40
3.2
100
AcDbArc
 50
0.0
 51
89.5537889354189
  0
ARC
  5
219
330
70
100
AcDbEntity
  8
OUTLINE
100
AcDbCircle
 10
-603.7787687945837
 20
687.4686194505629
 30
0.0
 40
6.5
100
AcDbArc
 50
180.0
 51
0.0
  0
ARC
  5
21A
330
70
100
AcDbEntity
  8
OUTLINE
100
AcDbCircle
 10
-688.2787687945984
 20
627.7686194505622
 30
0.0
 40
1.1
100
AcDbArc
 50
90.0
 51
180.0
  0
CIRCLE
  5
21B
330
70
100
AcDbEntity
  8
ARRANGE
  6
Continuous
 62
     1
100
AcDbCircle
 10
-119.3787687945896
 20
186.8686194505626
 30
0.0
 40
50.0
  0
LINE
  5
21E
330
70
100
AcDbEntity
  8
ARRANGE
  6
Continuous
 62
     1
100
AcDbLine
 10
-169.4161188259186
 20
137.3462663002374
 30
0.0
 11
-69.34141876326066
 21
236.3909726008878
 31
0.0
  0
LINE
  5
21F
330
70
100
AcDbEntity
  8
ARRANGE
  6
Continuous
 62
     1
100
AcDbLine
 10
-169.3425321050908
 20
236.4652142485484
 30
0.0
 11
-69.41500548408839
 21
137.2720246525805
 31
0.0
  0
LINE
  5
220
330
70
100
AcDbEntity
  8
SERVICESPACE
100
AcDbLine
 10
105.6243162076225
 20
-440.1313805494392
 30
0.0
 11
-344.3756837923775
 21
-890.1313805494392
 31
0.0
  0
LINE
  5
221
330
70
100
AcDbEntity
  8
SERVICESPACE
100
AcDbLine
 10
-344.3756837923775
 20
-440.1313805494392
 30
0.0
 11
105.6243162076225
 21
-890.1313805494392
 31
0.0
  0
CIRCLE
  5
222
330
70
100
AcDbEntity
  8
FIX
  6
Continuous
 62
    11
100
AcDbCircle
 10
-603.7787687945837
 20
-313.7313805494378
 30
0.0
 40
15.47544973867843
  0
CIRCLE
  5
225
330
70
100
AcDbEntity
  8
FIX
  6
Continuous
 62
    11
100
AcDbCircle
 10
-603.7787687945837
 20
687.4686194505629
 30
0.0
 40
15.47544973867843
  0
CIRCLE
  5
226
330
70
100
AcDbEntity
  8
FIX
  6
Continuous
 62
    11
100
AcDbCircle
 10
365.0212312054045
 20
687.4686194505629
 30
0.0
 40
15.47544973867843
  0
CIRCLE
  5
227
330
70
100
AcDbEntity
  8
FIX
  6
Continuous
 62
    11
100
AcDbCircle
 10
365.0212312054045
 20
-313.7313805494378
 30
0.0
 40
15.47544973867843
  0
LINE
  5
228
330
70
100
AcDbEntity
  8
OUTLINE
100
AcDbLine
 10
-578.7787687945837
 20
-333.7313805494377
 30
0.0
 11
-578.7787687945837
 21
-289.531380549437
 31
0.0
  0
LINE
  5
229
330
70
100
AcDbEntity
  8
DETAIL
100
AcDbLine
 10
-140.3787687945896
 20
-40.53138054943701
 30
0.0
 11
-98.37876879458963
 21
-40.53138054943701
 31
0.0
  0
LWPOLYLINE
  5
22A
330
70
100
AcDbEntity
  8
DETAIL
100
AcDbPolyline
 90
       12
 70
     0
 43
0.0
 10
-155.9461549191892
 20
-61.79782009003611
 10
-155.4993442326868
 20
-61.56258986693683
 10
-154.9590237644897
 20
-61.2377255710362
 10
-154.4402294568881
 20
-60.87943280823674
 10
-153.9449953591884
 20
-60.48911582643632
 10
-153.4752081322895
 20
-60.06822164463665
 10
-153.0327593359889
 20
-59.61843543353643
 10
-152.6194559872874
 20
-59.14150880853594
 10
-152.236989595387
 20
-58.639392118037
 10
-151.8869411975884
 20
-58.1141064997355
 10
-151.570702309089
 20
-57.56777536743538
 10
-151.2895654156873
 20
-57.00258273093641
  0
LWPOLYLINE
  5
22B
330
70
100
AcDbEntity
  8
DETAIL
100
AcDbPolyline
 90
        4
 70
     0
 43
0.0
 10
-151.2895654156873
 20
-57.00258273093641
 10
-151.044648583289
 20
-56.42083680093674
 10
-150.8369564443874
 20
-55.82491558353649
 10
-150.8140637721899
 20
-55.75089880023551
  0
LINE
  5
22C
330
70
100
AcDbEntity
  8
DETAIL
100
AcDbLine
 10
-150.3787687945896
 20
-52.85150031583544
 30
0.0
 11
-150.3787687945896
 21
-50.53138054943701
 31
0.0
  0
LINE
  5
22D
330
70
100
AcDbEntity
  8
DETAIL
100
AcDbLine
 10
-135.8075420613877
 20
-200.6375573584355
 30
0.0
 11
-135.3848031177895
 21
-235.2374890498359
 31
0.0
  0
LWPOLYLINE
  5
22E
330
70
100
AcDbEntity
  8
DETAIL
100
AcDbPolyline
 90
       29
 70
     0
 43
0.0
 10
-135.8075421207886
 20
-200.6375524606355
 10
-135.8099203472902
 20
-200.5493507874362
 10
-135.8254852536902
 20
-200.3448451885361
 10
-135.85488147869
 20
-200.1426552477369
 10
-135.8975684234883
 20
-199.9446898017358
 10
-135.9527875789881
 20
-199.7524285583367
 10
-136.0195626062868
 20
-199.5672395200363
 10
-136.0967330426883
 20
-199.3903217115366
 10
-136.1829286902884
 20
-199.2227926087362
 10
-136.2767425286893
 20
-199.0653911067365
 10
-136.3762138677903
 20
-198.9193356012365
 10
-136.4793303336901
 20
-198.7853745582361
 10
-136.5838566697875
 20
-198.6641285536352
 10
-136.6871788994886
 20
-198.5562399753362
 10
-136.7879039897871
 20
-198.460866604737
 10
-136.8841166754882
 20
-198.3777134034353
 10
-136.975340153489
 20
-198.3053257139363
 10
-137.0613186260871
 20
-198.2423820460353
 10
-137.1403526283884
 20
-198.1887566852365
 10
-137.2110308263891
 20
-198.144082413437
 10
-137.2724140130867
 20
-198.1077370094354
 10
-137.3229761398888
 20
-198.0795125207369
 10
-137.3637247420902
 20
-198.0579259900369
 10
-137.3951688747893
 20
-198.0420235069359
 10
-137.4182644397897
 20
-198.0308110400365
 10
-137.4341996872881
 20
-198.0233504761363
 10
-137.4433198756869
 20
-198.0192158512363
 10
-137.4463775638887
 20
-198.0178663136357
 10
-137.4456740300902
 20
-198.0181687476361
  0
LINE
  5
22F
330
70
100
AcDbEntity
  8
DETAIL
100
AcDbLine
 10
-102.9499955278897
 20
-200.6375573584355
 30
0.0
 11
-103.3727344713897
 21
-235.2374890498359
 31
0.0
  0
LINE
  5
230
330
70
100
AcDbEntity
  8
DETAIL
100
AcDbLine
 10
-88.37876879458963
 20
-50.53138054943701
 30
0.0
 11
-88.37876879458963
 21
-52.85150031583544
 31
0.0
  0
LWPOLYLINE
  5
231
330
70
100
AcDbEntity
  8
DETAIL
100
AcDbPolyline
 90
        3
 70
     0
 43
0.0
 10
-87.95589907168869
 20
-55.70985187543556
 10
-87.92381210758867
 20
-55.814591334336
 10
-87.71678250578952
 20
-56.41069060833615
  0
LWPOLYLINE
  5
232
330
70
100
AcDbEntity
  8
DETAIL
100
AcDbPolyline
 90
       13
 70
     0
 43
0.0
 10
-87.71678250578952
 20
-56.41069060833615
 10
-87.472511505488
 20
-56.99267117543604
 10
-87.19199991758978
 20
-57.55815302593692
 10
-86.87636074018701
 20
-58.10482417613639
 10
-86.52688266888981
 20
-58.63049707543542
 10
-86.14495239268762
 20
-59.1330464491366
 10
-85.73214536818886
 20
-59.61044823693555
 10
-85.29014967988951
 20
-60.06074953413554
 10
-84.820767844687
 20
-60.48219391523526
 10
-84.32588672228849
 20
-60.87309195833586
 10
-83.80739623688896
 20
-61.23198945553667
 10
-83.2673307451896
 20
-61.55747419823637
 10
-82.81138267008827
 20
-61.79782009013615
  0
LWPOLYLINE
  5
233
330
70
100
AcDbEntity
  8
DETAIL
100
AcDbPolyline
 90
       31
 70
     0
 43
0.0
 10
-101.3227350278885
 20
-198.0227173048369
 10
-101.3183996886891
 20
-198.0209205136361
 10
-101.3125721251872
 20
-198.0184701872367
 10
-101.3112976373868
 20
-198.0179252545367
 10
-101.3150055998903
 20
-198.0195673248363
 10
-101.3239541353887
 20
-198.0236341661366
 10
-101.3387229472882
 20
-198.0305499383357
 10
-101.3596426483873
 20
-198.0406788195359
 10
-101.3874995248898
 20
-198.0546784401358
 10
-101.4227155473872
 20
-198.0731273346355
 10
-101.4663373734893
 20
-198.0970667676356
 10
-101.5191373005891
 20
-198.1275948413367
 10
-101.5817015790871
 20
-198.1659461018353
 10
-101.6546960045871
 20
-198.2137152812356
 10
-101.7375754576878
 20
-198.2720415421354
 10
-101.83038107219
 20
-198.3428126023355
 10
-101.9307022993871
 20
-198.426333969137
 10
-102.0368639645876
 20
-198.5235166376369
 10
-102.1459807077899
 20
-198.6341192714353
 10
-102.2555085140902
 20
-198.7578995741369
 10
-102.3629881363868
 20
-198.8943352949354
 10
-102.4660192337887
 20
-199.0424805376369
 10
-102.562741622989
 20
-199.2016182988354
 10
-102.6512151241895
 20
-199.3703350071355
 10
-102.7303506469888
 20
-199.5482845754359
 10
-102.7989438107888
 20
-199.7346859817353
 10
-102.8558701919883
 20
-199.928570877737
 10
-102.9001309011892
 20
-200.1288466773367
 10
-102.9308682327882
 20
-200.3343176320359
 10
-102.9473669605886
 20
-200.5434897430368
 10
-102.9499954731891
 20
-200.6375528412355
  0
LINE
  5
234
330
70
100
AcDbEntity
  8
DETAIL
100
AcDbLine
 10
-134.8848404329892
 20
-235.7313805494359
 30
0.0
 11
-103.8726971562882
 21
-235.7313805494359
 31
0.0
  0
CIRCLE
  5
235
330
70
100
AcDbEntity
  8
DETAIL
100
AcDbCircle
 10
-119.3787687945896
 20
-135.7313805494359
 30
0.0
 40
64.85440495929999
  0
ARC
  5
236
330
70
100
AcDbEntity
  8
DETAIL
100
AcDbCircle
 10
-119.3787687945896
 20
-135.7313805494359
 30
0.0
 40
82.482392607
100
AcDbArc
 50
116.3169039741337
 51
258.6484066279572
  0
ARC
  5
237
330
70
100
AcDbEntity
  8
DETAIL
100
AcDbCircle
 10
-119.3787687945896
 20
-135.7313805494359
 30
0.0
 40
82.482392607
100
AcDbArc
 50
281.3515933720428
 51
63.68309602586627
  0
ARC
  5
238
330
70
100
AcDbEntity
  8
DETAIL
100
AcDbCircle
 10
-160.3830084238889
 20
-52.85152663373628
 30
0.0
 40
10.0042396293
100
AcDbArc
 50
337.6909500150124
 51
0.0001507269003866
  0
ARC
  5
239
330
70
100
AcDbEntity
  8
DETAIL
100
AcDbCircle
 10
-78.37455978488833
 20
-52.85153161023663
 30
0.0
 40
10.0042090097
100
AcDbArc
 50
179.9998207713172
 51
202.309094565293
  0
ARC
  5
23A
330
70
100
AcDbEntity
  8
DETAIL
100
AcDbCircle
 10
-160.3825639669903
 20
-52.83209654653546
 30
0.0
 40
10.0037948717
100
AcDbArc
 50
343.0361108733216
 51
359.8889679163712
  0
ARC
  5
23B
330
70
100
AcDbEntity
  8
DETAIL
100
AcDbCircle
 10
-78.37499010849024
 20
-52.83209849653577
 30
0.0
 40
10.0037783883
100
AcDbArc
 50
180.1110222562503
 51
196.7182784330411
  0
ARC
  5
23C
330
70
100
AcDbEntity
  8
DETAIL
100
AcDbCircle
 10
-140.3787687945896
 20
-50.53138054943701
 30
0.0
 40
10.0
100
AcDbArc
 50
90.0
 51
180.0
  0
ARC
  5
23D
330
70
100
AcDbEntity
  8
DETAIL
100
AcDbCircle
 10
-98.37876879458963
 20
-50.53138054943701
 30
0.0
 40
10.0
100
AcDbArc
 50
0.0
 51
90.0
  0
CIRCLE
  5
23E
330
70
100
AcDbEntity
  8
DETAIL
100
AcDbCircle
 10
-134.5357766633878
 20
-54.73138054943593
 30
0.0
 40
9.9652421982
  0
CIRCLE
  5
23F
330
70
100
AcDbEntity
  8
DETAIL
100
AcDbCircle
 10
-104.5357766633878
 20
-54.73138054943593
 30
0.0
 40
9.9652421982
  0
ARC
  5
240
330
70
100
AcDbEntity
  8
DETAIL
100
AcDbCircle
 10
-103.8726971562882
 20
-235.2313805494359
 30
0.0
 40
0.5
100
AcDbArc
 50
270.0
 51
359.2999999999429
  0
ARC
  5
241
330
70
100
AcDbEntity
  8
DETAIL
100
AcDbCircle
 10
-134.8848404329892
 20
-235.2313805494359
 30
0.0
 40
0.5
100
AcDbArc
 50
180.700000000057
 51
270.0
  0
LINE
  5
242
330
70
100
AcDbEntity
  8
AM_7
100
AcDbLine
 10
-225.3846954216588
 20
-135.1974874042753
 30
0.0
 11
-5.568231038663725
 21
-135.1974874042753
 31
0.0
1001
GENIUS_GENOBJ-N-CEN_13
1002
{
1000
OWNER
1000
GEN
1002
}
1001
GENIUS_GENODEF_13
1002
{
1000
HIER
1070
     0
1002
}
1002
{
1000
MANEDIT
1070
     0
1002
}
1002
{
1000
NOSEL
1070
     0
1002
}
1002
{
1000
BEHIND
1070
     0
1002
}
1002
{
1000
OTHER
1070
     0
1002
}
1002
{
1000
REACTOR
1002
}
1001
GENIUS_GENCEN_19
1002
{
1040
5.0
1002
}
  0
LINE
  5
244
330
70
100
AcDbEntity
  8
AM_7
100
AcDbLine
 10
-119.3787687945896
 20
-7.898623420724106
 30
0.0
 11
-119.3787687945896
 21
-263.5641376781478
 31
0.0
1001
GENIUS_GENODEF_13
1002
{
1000
HIER
1070
     0
1002
}
1002
{
1000
MANEDIT
1070
     0
1002
}
1002
{
1000
NOSEL
1070
     0
1002
}
1002
{
1000
BEHIND
1070
     0
1002
}
1002
{
1000
OTHER
1070
     0
1002
}
1002
{
1000
REACTOR
1002
}
1001
GENIUS_GENOBJ-N-CEN_13
1002
{
1000
OWNER
1000
GEN
1002
}
1001
GENIUS_GENCEN_19
1002
{
1040
5.0
1002
}
  0
TEXT
  5
257
330
70
100
AcDbEntity
  8
ETC
  6
Continuous
 62
    61
100
AcDbText
 10
-516.2843838779608
 20
1715.277608576421
 30
0.0
 40
80.0
  1
LGH-50RVS-E_6
 50
0.0000029998804485
 41
0.8
  7
STANDARD_MODELNAME
100
AcDbText
  0
HATCH
  5
25A
330
70
100
AcDbEntity
  8
NOTE
100
AcDbHatch
 10
0.0
 20
0.0
 30
0.0
210
0.0
220
0.0
230
1.0
  2
SOLID
 70
     1
 71
     0
 91
        1
 92
        7
 72
     0
 73
     1
 93
        7
 10
878.5216613347202
 20
540.6051443461815
 10
878.5216613347202
 20
494.0124014890848
 10
820.2807327632891
 20
494.0124014890848
 10
820.2807327632891
 20
476.5280356996277
 10
782.4241291919151
 20
517.3087729176309
 10
820.2807327632891
 20
558.089510135655
 10
820.2807327632891
 20
540.6051443461815
 97
        0
 75
     1
 76
     1
 47
0.027963770637363
 98
        1
 10
839.0180420267842
 20
525.7015724079533
1001
GradientColor1ACI
1070
     5
1001
GradientColor2ACI
1070
     2
1001
ACAD
1010
0.0
1020
0.0
1030
0.0
  0
LINE
  5
25B
330
70
100
AcDbEntity
  8
NOTE
  6
Continuous
370
    25
100
AcDbLine
 10
820.2807327632891
 20
558.089510135655
 30
0.0
 11
820.2807327632891
 21
540.6051443461815
 31
0.0
  0
LINE
  5
25C
330
70
100
AcDbEntity
  8
NOTE
  6
Continuous
370
    25
100
AcDbLine
 10
878.5216613347202
 20
540.6051443461815
 30
0.0
 11
878.5216613347202
 21
494.0124014890848
 31
0.0
  0
LINE
  5
25D
330
70
100
AcDbEntity
  8
NOTE
  6
Continuous
370
    25
100
AcDbLine
 10
878.5216613347202
 20
540.6051443461815
 30
0.0
 11
820.2807327632891
 21
540.6051443461815
 31
0.0
  0
LINE
  5
25E
330
70
100
AcDbEntity
  8
NOTE
  6
Continuous
370
    25
100
AcDbLine
 10
820.2807327632891
 20
558.089510135655
 30
0.0
 11
782.4241291919151
 21
517.3087729176309
 31
0.0
  0
LINE
  5
25F
330
70
100
AcDbEntity
  8
NOTE
  6
Continuous
370
    25
100
AcDbLine
 10
820.2807327632891
 20
494.0124014890848
 30
0.0
 11
820.2807327632891
 21
476.5280356996277
 31
0.0
  0
LINE
  5
260
330
70
100
AcDbEntity
  8
NOTE
  6
Continuous
370
    25
100
AcDbLine
 10
820.2807327632891
 20
476.5280356996277
 30
0.0
 11
782.4241291919151
 21
517.3087729176309
 31
0.0
  0
LINE
  5
261
330
70
100
AcDbEntity
  8
NOTE
  6
Continuous
370
    25
100
AcDbLine
 10
878.5216613347202
 20
494.0124014890848
 30
0.0
 11
820.2807327632891
 21
494.0124014890848
 31
0.0
  0
MTEXT
  5
262
102
{ACAD_XDICTIONARY
360
5E7
102
}
330
70
100
AcDbEntity
  8
NOTE
100
AcDbMText
 10
184.886322789569
 20
-490.5052902311517
 30
0.0
 40
70.0
 41
601.6095272670918
 71
     3
 72
     5
  1
Inspection\Popening\P{\T0.9;450 × 450\P}or more
 73
     1
 44
1.0
1001
ACAD
1000
ACAD_MTEXT_COLUMN_INFO_BEGIN
1070
    75
1070
     2
1070
    79
1070
     0
1070
    76
1070
     1
1070
    78
1070
     0
1070
    48
1040
601.6095272670918
1070
    49
1040
350.0
1070
    50
1070
     1
1040
595.3399702025012
1000
ACAD_MTEXT_COLUMN_INFO_END
1000
MTEXTBEGIN
1070
    73
1070
     1
1070
    44
1040
1.0
1070
    74
1070
     0
1000
MTEXTEND
  0
DIMENSION
  5
263
330
70
100
AcDbEntity
  8
SIZE
100
AcDbDimension
  2
*D17
 10
-603.7787687945183
 20
824.3072803462833
 30
0.0
 11
-8.238536940431004
 21
824.3072803462833
 31
0.0
 70
   160
  1
 
 71
     5
 42
968.8000000257453
  3
JIS2$0
100
AcDbAlignedDimension
 13
365.0212312312269
 23
713.3993587074878
 33
0.0
 14
-603.7787687945183
 24
713.3993587074878
 34
0.0
 50
180.0
100
AcDbRotatedDimension
1001
ACAD_DIMASSOC_OVERRIDDEN_DIMLFAC
1040
15.0
1001
ACAD_DIMASSOC_CALC_DIMLFAC
1040
-19.9999999889444
1001
ACAD_DIMASSOC_DIMLFAC
1040
-19.9999999889444
1001
ACAD_DSTYLE_DIMINSPECT
1070
   396
1000
100%
1070
   395
1000

1070
   394
1070
    33
1070
   393
1070
     0
1001
ACAD
1000
DSTYLE
1002
{
1070
    41
1040
30.0
1070
   343
1005
26C
1070
   342
1005
0
1070
   173
1070
     1
1070
   344
1005
26C
1070
     3
1000

1070
   144
1040
19.9999999889444
1070
   271
1070
     0
1002
}
  0
DIMENSION
  5
276
330
70
100
AcDbEntity
  8
SIZE
100
AcDbDimension
  2
*D18
 10
-486.1787687913984
 20
912.3277368223147
 30
0.0
 11
-546.278768792994
 21
912.3277368223147
 31
0.0
 70
   160
  1
 
 71
     5
 42
120.2000000031912
  3
JIS2$0
100
AcDbAlignedDimension
 13
-606.3787687945896
 23
658.8686194941324
 33
0.0
 14
-486.1787687913984
 24
777.1402310707358
 34
0.0
 50
180.0
100
AcDbRotatedDimension
1001
ACAD_DIMASSOC_OVERRIDDEN_DIMLFAC
1040
15.0
1001
ACAD_DIMASSOC_CALC_DIMLFAC
1040
-19.9999999889444
1001
ACAD_DIMASSOC_DIMLFAC
1040
-19.9999999889444
1001
ACAD_DSTYLE_DIMINSPECT
1070
   396
1000
100%
1070
   395
1000

1070
   394
1070
    33
1070
   393
1070
     0
1001
ACAD
1000
DSTYLE
1002
{
1070
    41
1040
30.0
1070
   144
1040
19.9999999889444
1070
   173
1070
     1
1070
   271
1070
     0
1070
   279
1070
     1
1070
   342
1005
0
1070
   343
1005
26C
1070
   344
1005
26C
1002
}
  0
DIMENSION
  5
282
330
70
100
AcDbEntity
  8
SIZE
100
AcDbDimension
  2
*D19
 10
-963.5294763502988
 20
-980.1200492796722
 30
0.0
 11
-963.5294763502988
 21
-680.3131640336141
 31
0.0
 70
   160
  1
 
 71
     5
 42
693.7886687486768
  3
JIS2$0
100
AcDbAlignedDimension
 13
-605.1787687945489
 23
-286.3313805309949
 33
0.0
 14
-606.3787687945896
 24
-980.1200492796715
 34
0.0
 50
90.0
100
AcDbRotatedDimension
1001
ACAD_DIMASSOC_OVERRIDDEN_DIMLFAC
1040
15.0
1001
ACAD_DIMASSOC_CALC_DIMLFAC
1040
-19.9999999889444
1001
ACAD_DIMASSOC_DIMLFAC
1040
-19.9999999889444
1001
ACAD_DSTYLE_DIMINSPECT
1070
   396
1000
100%
1070
   395
1000

1070
   394
1070
    33
1070
   393
1070
     0
1001
ACAD
1000
DSTYLE
1002
{
1070
    41
1040
30.0
1070
   343
1005
26C
1070
   342
1005
0
1070
   173
1070
     1
1070
   344
1005
26C
1070
   144
1040
19.9999999889444
1070
   271
1070
     0
1002
}
  0
DIMENSION
  5
28E
330
70
100
AcDbEntity
  8
SIZE
100
AcDbDimension
  2
*D20
 10
-706.3524317324845
 20
-440.1313805350854
 30
0.0
 11
-706.3524317324845
 21
-363.23138053304
 31
0.0
 70
   160
  1
 
 71
     5
 42
153.8000000040903
  3
JIS2$0
100
AcDbAlignedDimension
 13
-605.1787687945489
 23
-286.3313805309949
 33
0.0
 14
-344.375683785418
 24
-440.131380535085
 34
0.0
 50
90.0
100
AcDbRotatedDimension
1001
ACAD_DIMASSOC_OVERRIDDEN_DIMLFAC
1040
15.0
1001
ACAD_DIMASSOC_CALC_DIMLFAC
1040
-19.9999999889444
1001
ACAD_DIMASSOC_DIMLFAC
1040
-19.9999999889444
1001
ACAD_DSTYLE_DIMINSPECT
1070
   396
1000
100%
1070
   395
1000

1070
   394
1070
    33
1070
   393
1070
     0
1001
ACAD
1000
DSTYLE
1002
{
1070
    41
1040
30.0
1070
   144
1040
19.9999999889444
1070
   173
1070
     1
1070
   271
1070
     0
1070
   342
1005
0
1070
   343
1005
26C
1070
   344
1005
26C
1002
}
1001
ACAD_DSTYLE_DIMFLIPARROW_WHICH_SYMBOL
1070
   386
1070
     3
  0
DIMENSION
  5
29E
330
70
100
AcDbEntity
  8
SIZE
100
AcDbDimension
  2
*D21
 10
-964.0686216344132
 20
660.0686194941633
 30
0.0
 11
-964.0686216344128
 21
163.0811707977122
 31
0.0
 70
   160
  1
 
 71
     5
 42
946.4000000251584
  3
JIS2$0
100
AcDbAlignedDimension
 13
-605.1787687945489
 23
-286.3313805309949
 33
0.0
 14
-605.1787687945489
 24
660.0686194941631
 34
0.0
 50
90.0
100
AcDbRotatedDimension
1001
ACAD_DIMASSOC_OVERRIDDEN_DIMLFAC
1040
15.0
1001
ACAD_DIMASSOC_CALC_DIMLFAC
1040
-19.9999999889444
1001
ACAD_DIMASSOC_DIMLFAC
1040
-19.9999999889444
1001
ACAD_DSTYLE_DIMINSPECT
1070
   396
1000
100%
1070
   395
1000

1070
   394
1070
    33
1070
   393
1070
     0
1001
ACAD
1000
DSTYLE
1002
{
1070
    41
1040
30.0
1070
   343
1005
26C
1070
   342
1005
0
1070
   173
1070
     1
1070
   344
1005
26C
1070
     3
1000

1070
   144
1040
19.9999999889444
1070
   271
1070
     0
1002
}
  0
DIMENSION
  5
2AA
330
70
100
AcDbEntity
  8
SIZE
100
AcDbDimension
  2
*D22
 10
-825.4719550310422
 20
532.8686194907828
 30
0.0
 11
-825.4719550310419
 21
159.581170796278
 31
0.0
 70
   160
  1
 
 71
     5
 42
692.0000000183964
  3
JIS2$0
100
AcDbAlignedDimension
 13
-709.78945206362
 23
-159.1313805276136
 33
0.0
 14
-716.0357274837533
 24
532.8686194907827
 34
0.0
 50
90.0
100
AcDbRotatedDimension
1001
ACAD_DIMASSOC_OVERRIDDEN_DIMLFAC
1040
15.0
1001
ACAD_DIMASSOC_CALC_DIMLFAC
1040
-19.9999999889444
1001
ACAD_DIMASSOC_DIMLFAC
1040
-19.9999999889444
1001
ACAD_DSTYLE_DIMINSPECT
1070
   396
1000
100%
1070
   395
1000

1070
   394
1070
    33
1070
   393
1070
     0
1001
ACAD
1000
DSTYLE
1002
{
1070
     3
1000

1070
   144
1040
19.9999999889444
1070
   271
1070
     0
1002
}
  0
MTEXT
  5
2B6
102
{ACAD_XDICTIONARY
360
5E9
102
}
330
70
100
AcDbEntity
  8
NOTE
  6
Continuous
370
    25
100
AcDbMText
 10
925.99387547514
 20
391.7887252531232
 30
0.0
 40
80.0
 41
0.0
 71
     9
 72
     1
  1
RA\P{\W0.9;\T0.9;(return air)}
  7
AUDIT_D_191004085756-470174
 11
0.9999999999999992
 21
-0.0000000437113903
 31
0.0
 73
     1
 44
0.7319999860680622
1001
ACAD
1000
MTEXTBEGIN
1070
    73
1070
     1
1070
    44
1040
0.7319999860680622
1070
    74
1070
     0
1000
MTEXTEND
  0
MTEXT
  5
2B7
102
{ACAD_XDICTIONARY
360
5EB
102
}
330
70
100
AcDbEntity
  8
NOTE
  6
Continuous
370
    25
100
AcDbMText
 10
890.4107845741364
 20
-318.5321357819653
 30
0.0
 40
80.0
 41
0.0
 71
     9
 72
     1
  1
SA\P{\W0.9;\T0.9;(supply air)}
  7
AUDIT_D_191004085756-470174
 11
0.9999999999999992
 21
-0.0000000437113903
 31
0.0
 73
     1
 44
0.7319999860680622
1001
ACAD
1000
MTEXTBEGIN
1070
    73
1070
     1
1070
    44
1040
0.7319999860680622
1070
    74
1070
     0
1000
MTEXTEND
  0
LINE
  5
2B8
330
70
100
AcDbEntity
  8
NOTE
  6
Continuous
370
    25
100
AcDbLine
 10
813.4598120909631
 20
-221.1012835925089
 30
0.0
 11
813.4598120909631
 21
-203.6169178030363
 31
0.0
  0
LINE
  5
2B9
330
70
100
AcDbEntity
  8
NOTE
  6
Continuous
370
    25
100
AcDbLine
 10
755.2188835195392
 20
-203.6169178030363
 30
0.0
 11
755.2188835195392
 21
-157.0241749459387
 31
0.0
  0
LINE
  5
2BA
330
70
100
AcDbEntity
  8
NOTE
  6
Continuous
370
    25
100
AcDbLine
 10
755.2188835195392
 20
-203.6169178030363
 30
0.0
 11
813.4598120909631
 21
-203.6169178030363
 31
0.0
  0
LINE
  5
2BB
330
70
100
AcDbEntity
  8
NOTE
  6
Continuous
370
    25
100
AcDbLine
 10
813.4598120909631
 20
-221.1012835925089
 30
0.0
 11
851.3164156623442
 21
-180.3205463744857
 31
0.0
  0
LINE
  5
2BC
330
70
100
AcDbEntity
  8
NOTE
  6
Continuous
370
    25
100
AcDbLine
 10
813.4598120909631
 20
-157.0241749459387
 30
0.0
 11
813.4598120909631
 21
-139.5398091564816
 31
0.0
  0
LINE
  5
2BD
330
70
100
AcDbEntity
  8
NOTE
  6
Continuous
370
    25
100
AcDbLine
 10
813.4598120909631
 20
-139.5398091564816
 30
0.0
 11
851.3164156623442
 21
-180.3205463744857
 31
0.0
  0
LINE
  5
2BE
330
70
100
AcDbEntity
  8
NOTE
  6
Continuous
370
    25
100
AcDbLine
 10
755.2188835195392
 20
-157.0241749459387
 30
0.0
 11
813.4598120909631
 21
-157.0241749459387
 31
0.0
  0
MTEXT
  5
2BF
102
{ACAD_XDICTIONARY
360
5ED
102
}
330
70
100
AcDbEntity
  8
NOTE
  6
Continuous
370
    25
100
AcDbMText
 10
-1190.079579759304
 20
383.7108395496512
 30
0.0
 40
80.0
 41
0.0
 71
     9
 72
     1
  1
{\W0.9;\T0.9;EA\P(exhaust air outlet)}
  7
AUDIT_D_191004085756-470174
 11
0.9999999999999992
 21
-0.0000000437113903
 31
0.0
 73
     1
 44
0.7319999860680622
1001
ACAD
1000
MTEXTBEGIN
1070
    73
1070
     1
1070
    44
1040
0.7319999860680622
1070
    74
1070
     0
1000
MTEXTEND
  0
HATCH
  5
2C0
330
70
100
AcDbEntity
  8
NOTE
100
AcDbHatch
 10
0.0
 20
0.0
 30
0.0
210
0.0
220
0.0
230
1.0
  2
SOLID
 70
     1
 71
     0
 91
        1
 92
        7
 72
     0
 73
     1
 93
        7
 10
-1010.891494385761
 20
543.0310811967597
 10
-1010.891494385761
 20
496.4383383396629
 10
-1069.132422957185
 20
496.4383383396629
 10
-1069.132422957185
 20
478.9539725502058
 10
-1106.989026528574
 20
519.734709768209
 10
-1069.132422957185
 20
560.5154469862331
 10
-1069.132422957185
 20
543.0310811967597
 97
        0
 75
     1
 76
     1
 47
0.027963770637363
 98
        1
 10
-1050.39511369369
 20
528.1275092585315
1001
GradientColor1ACI
1070
     5
1001
GradientColor2ACI
1070
     2
1001
ACAD
1010
0.0
1020
0.0
1030
0.0
  0
LINE
  5
2C1
330
70
100
AcDbEntity
  8
NOTE
  6
Continuous
370
    25
100
AcDbLine
 10
-1069.132422957185
 20
560.5154469862331
 30
0.0
 11
-1069.132422957185
 21
543.0310811967597
 31
0.0
  0
LINE
  5
2C2
330
70
100
AcDbEntity
  8
NOTE
  6
Continuous
370
    25
100
AcDbLine
 10
-1010.891494385761
 20
543.0310811967597
 30
0.0
 11
-1010.891494385761
 21
496.4383383396629
 31
0.0
  0
LINE
  5
2C3
330
70
100
AcDbEntity
  8
NOTE
  6
Continuous
370
    25
100
AcDbLine
 10
-1010.891494385761
 20
543.0310811967597
 30
0.0
 11
-1069.132422957185
 21
543.0310811967597
 31
0.0
  0
LINE
  5
2C4
330
70
100
AcDbEntity
  8
NOTE
  6
Continuous
370
    25
100
AcDbLine
 10
-1069.132422957185
 20
560.5154469862331
 30
0.0
 11
-1106.989026528574
 21
519.734709768209
 31
0.0
  0
LINE
  5
2C5
330
70
100
AcDbEntity
  8
NOTE
  6
Continuous
370
    25
100
AcDbLine
 10
-1069.132422957185
 20
496.4383383396629
 30
0.0
 11
-1069.132422957185
 21
478.9539725502058
 31
0.0
  0
LINE
  5
2C6
330
70
100
AcDbEntity
  8
NOTE
  6
Continuous
370
    25
100
AcDbLine
 10
-1069.132422957185
 20
478.9539725502058
 30
0.0
 11
-1106.989026528574
 21
519.734709768209
 31
0.0
  0
LINE
  5
2C7
330
70
100
AcDbEntity
  8
NOTE
  6
Continuous
370
    25
100
AcDbLine
 10
-1010.891494385761
 20
496.4383383396629
 30
0.0
 11
-1069.132422957185
 21
496.4383383396629
 31
0.0
  0
LINE
  5
2C8
330
70
100
AcDbEntity
  8
NOTE
  6
Continuous
370
    25
100
AcDbLine
 10
-1051.169053608386
 20
-194.731448273455
 30
0.0
 11
-1051.169053608386
 21
-177.2470824839815
 31
0.0
  0
LINE
  5
2C9
330
70
100
AcDbEntity
  8
NOTE
  6
Continuous
370
    25
100
AcDbLine
 10
-1109.409982179824
 20
-177.2470824839815
 30
0.0
 11
-1109.409982179824
 21
-130.6543396268848
 31
0.0
  0
LINE
  5
2CA
330
70
100
AcDbEntity
  8
NOTE
  6
Continuous
370
    25
100
AcDbLine
 10
-1109.409982179824
 20
-177.2470824839815
 30
0.0
 11
-1051.169053608386
 21
-177.2470824839815
 31
0.0
  0
LINE
  5
2CB
330
70
100
AcDbEntity
  8
NOTE
  6
Continuous
370
    25
100
AcDbLine
 10
-1051.169053608386
 20
-194.731448273455
 30
0.0
 11
-1013.312450037019
 21
-153.9507110554309
 31
0.0
  0
LINE
  5
2CC
330
70
100
AcDbEntity
  8
NOTE
  6
Continuous
370
    25
100
AcDbLine
 10
-1051.169053608386
 20
-130.6543396268848
 30
0.0
 11
-1051.169053608386
 21
-113.1699738374268
 31
0.0
  0
LINE
  5
2CD
330
70
100
AcDbEntity
  8
NOTE
  6
Continuous
370
    25
100
AcDbLine
 10
-1051.169053608386
 20
-113.1699738374268
 30
0.0
 11
-1013.312450037019
 21
-153.9507110554309
 31
0.0
  0
LINE
  5
2CE
330
70
100
AcDbEntity
  8
NOTE
  6
Continuous
370
    25
100
AcDbLine
 10
-1109.409982179824
 20
-130.6543396268848
 30
0.0
 11
-1051.169053608386
 21
-130.6543396268848
 31
0.0
  0
MTEXT
  5
2CF
102
{ACAD_XDICTIONARY
360
5EF
102
}
330
70
100
AcDbEntity
  8
NOTE
  6
Continuous
370
    25
100
AcDbMText
 10
-1171.182994185614
 20
-269.5842126649891
 30
0.0
 40
80.0
 41
0.0
 71
     9
 72
     1
  1
OA\P{\W0.9;\T0.9;(outside air intake)}
  7
AUDIT_D_191004085756-470174
 11
0.9999999999999992
 21
-0.0000000437113903
 31
0.0
 73
     1
 44
0.7319999860680622
1001
ACAD
1000
MTEXTBEGIN
1070
    73
1070
     1
1070
    44
1040
0.7319999860680622
1070
    74
1070
     0
1000
MTEXTEND
  0
DIMENSION
  5
2D0
330
70
100
AcDbEntity
  8
SIZE
100
AcDbDimension
  2
*D23
 10
641.2563532549159
 20
-333.7313805322551
 30
0.0
 11
641.2563532549157
 21
-473.0647138656017
 31
0.0
 70
   160
  1
 
 71
     5
 42
20.00000000053205
  3
JIS2$0
100
AcDbAlignedDimension
 13
380.81926994879
 23
-313.731380531723
 33
0.0
 14
383.5212312317217
 24
-333.7313805322551
 34
0.0
 50
90.0
100
AcDbRotatedDimension
1001
ACAD_DIMASSOC_OVERRIDDEN_DIMLFAC
1040
15.0
1001
ACAD_DIMASSOC_CALC_DIMLFAC
1040
-19.9999999889444
1001
ACAD_DIMASSOC_DIMLFAC
1040
-19.9999999889444
1001
ACAD_DSTYLE_DIMINSPECT
1070
   396
1000
100%
1070
   395
1000

1070
   394
1070
    33
1070
   393
1070
     0
1001
ACAD
1000
DSTYLE
1002
{
1070
    41
1040
30.0
1070
   343
1005
26C
1070
   342
1005
0
1070
   173
1070
     1
1070
   344
1005
26C
1070
     3
1000

1070
   144
1040
19.9999999889444
1070
   271
1070
     0
1002
}
  0
DIMENSION
  5
2DE
330
70
100
AcDbEntity
  8
SIZE
100
AcDbDimension
  2
*D24
 10
641.2563532549157
 20
687.4686194948924
 30
0.0
 11
641.2563532549157
 21
162.2811707962714
 31
0.0
 70
   160
  1
 
 71
     5
 42
1001.200000026615
  3
JIS2$0
100
AcDbAlignedDimension
 13
380.81926994879
 23
-313.731380531723
 33
0.0
 14
380.81926994879
 24
687.4686194948922
 34
0.0
 50
90.0
100
AcDbRotatedDimension
1001
ACAD_DIMASSOC_OVERRIDDEN_DIMLFAC
1040
15.0
1001
ACAD_DIMASSOC_CALC_DIMLFAC
1040
-19.9999999889444
1001
ACAD_DIMASSOC_DIMLFAC
1040
-19.9999999889444
1001
ACAD_DSTYLE_DIMINSPECT
1070
   396
1000
100%
1070
   395
1000

1070
   394
1070
    33
1070
   393
1070
     0
1001
ACAD
1000
DSTYLE
1002
{
1070
    41
1040
30.0
1070
   343
1005
26C
1070
   342
1005
0
1070
   173
1070
     1
1070
   344
1005
26C
1070
     3
1000

1070
   144
1040
19.9999999889444
1070
   271
1070
     0
1002
}
  0
DIMENSION
  5
2EA
330
70
100
AcDbEntity
  8
SIZE
100
AcDbDimension
  2
*D25
 10
-486.1787687913984
 20
-606.0126289401686
 30
0.0
 11
-546.278768792994
 21
-606.0126289401686
 31
0.0
 70
   160
  1
 
 71
     5
 42
120.2000000031912
  3
JIS2$0
100
AcDbAlignedDimension
 13
-606.3787687945896
 23
-600.6864926904523
 33
0.0
 14
-486.1787687913984
 24
-408.006207612881
 34
0.0
 50
180.0
100
AcDbRotatedDimension
1001
ACAD_DIMASSOC_OVERRIDDEN_DIMLFAC
1040
15.0
1001
ACAD_DIMASSOC_CALC_DIMLFAC
1040
-19.9999999889444
1001
ACAD_DIMASSOC_DIMLFAC
1040
-19.9999999889444
1001
ACAD_DSTYLE_DIMINSPECT
1070
   396
1000
100%
1070
   395
1000

1070
   394
1070
    33
1070
   393
1070
     0
1001
ACAD
1000
DSTYLE
1002
{
1070
    41
1040
30.0
1070
   343
1005
26C
1070
   342
1005
0
1070
   173
1070
     1
1070
   344
1005
26C
1070
    46
1040
1.0
1070
   144
1040
19.9999999889444
1070
   271
1070
     0
1070
   279
1070
     1
1002
}
  0
MTEXT
  5
2F6
102
{ACAD_XDICTIONARY
360
5F1
102
}
330
70
100
AcDbEntity
  8
NOTE
100
AcDbMText
 10
-1035.019621518166
 20
-480.5529674734502
 30
0.0
 40
70.0
 41
1053.82655628388
 71
     3
 72
     5
  1
{\W0.9;Heat exchanger\T0.9;,\PAir filter,\PHigh-Efficiency filter,\PFan,drain pan\Pmaintenance space}
 73
     1
 44
1.0
1001
ACAD
1000
ACAD_MTEXT_COLUMN_INFO_BEGIN
1070
    75
1070
     2
1070
    79
1070
     0
1070
    76
1070
     1
1070
    78
1070
     0
1070
    48
1040
1053.82655628388
1070
    49
1040
350.0
1070
    50
1070
     1
1040
576.8689520986911
1000
ACAD_MTEXT_COLUMN_INFO_END
1000
MTEXTBEGIN
1070
    73
1070
     1
1070
    44
1040
1.0
1070
    74
1070
     0
1000
MTEXTEND
  0
MTEXT
  5
2F7
330
70
100
AcDbEntity
  8
SIZE
100
AcDbMText
 10
-522.1697567975698
 20
-563.9772471911951
 30
0.0
 40
40.0
 41
242.2450763362503
 71
     3
 72
     5
  1
120
 73
     1
 44
1.0
1001
ACAD
1000
ACAD_MTEXT_COLUMN_INFO_BEGIN
1070
    75
1070
     2
1070
    79
1070
     0
1070
    76
1070
     1
1070
    78
1070
     0
1070
    48
1040
242.2450763362503
1070
    49
1040
17.5
1070
    50
1070
     1
1040
0.0
1000
ACAD_MTEXT_COLUMN_INFO_END
1000
MTEXTBEGIN
1070
    73
1070
     1
1070
    44
1040
1.0
1070
    74
1070
     0
1000
MTEXTEND
  0
MTEXT
  5
2F8
102
{ACAD_XDICTIONARY
360
5F3
102
}
330
70
100
AcDbEntity
  8
SIZE
100
AcDbMText
 10
-718.0130496043475
 20
-492.0630760830013
 30
0.0
 40
40.0
 41
242.2450763362503
 71
     7
 72
     5
  1
{\W3.657883; }150\P{\W4.157883; }to\P{\W3.657883; }250
 11
-0.0000000000000001
 21
1.0
 31
0.0
 73
     1
 44
1.0
1001
ACAD
1000
ACAD_MTEXT_COLUMN_INFO_BEGIN
1070
    75
1070
     2
1070
    79
1070
     0
1070
    76
1070
     1
1070
    78
1070
     0
1070
    48
1040
242.2450763362503
1070
    49
1040
17.5
1070
    50
1070
     1
1040
0.0
1000
ACAD_MTEXT_COLUMN_INFO_END
1000
MTEXTBEGIN
1070
    73
1070
     1
1070
    44
1040
1.0
1070
    74
1070
     0
1000
MTEXTEND
  0
MTEXT
  5
2F9
102
{ACAD_XDICTIONARY
360
5F5
102
}
330
70
100
AcDbEntity
  8
SIZE
100
AcDbMText
 10
-848.6069014455988
 20
64.48729570679052
 30
0.0
 40
40.0
 41
242.2450763362503
 71
     7
 72
     5
  1
{\W3.657883; }692
 11
-0.0000000000000001
 21
1.0
 31
0.0
 73
     1
 44
1.0
1001
ACAD
1000
ACAD_MTEXT_COLUMN_INFO_BEGIN
1070
    75
1070
     2
1070
    79
1070
     0
1070
    76
1070
     1
1070
    78
1070
     0
1070
    48
1040
242.2450763362503
1070
    49
1040
17.5
1070
    50
1070
     1
1040
0.0
1000
ACAD_MTEXT_COLUMN_INFO_END
1000
MTEXTBEGIN
1070
    73
1070
     1
1070
    44
1040
1.0
1070
    74
1070
     0
1000
MTEXTEND
  0
MTEXT
  5
2FA
330
70
100
AcDbEntity
  8
SIZE
100
AcDbMText
 10
-987.7557269635635
 20
159.243893550492
 30
0.0
 40
40.0
 41
242.2450763362503
 71
     7
 72
     5
  1
946
 11
-0.0000000000000001
 21
1.0
 31
0.0
 73
     1
 44
1.0
1001
ACAD
1000
ACAD_MTEXT_COLUMN_INFO_BEGIN
1070
    75
1070
     2
1070
    79
1070
     0
1070
    76
1070
     1
1070
    78
1070
     0
1070
    48
1040
242.2450763362503
1070
    49
1040
17.5
1070
    50
1070
     1
1040
0.0
1000
ACAD_MTEXT_COLUMN_INFO_END
1000
MTEXTBEGIN
1070
    73
1070
     1
1070
    44
1040
1.0
1070
    74
1070
     0
1000
MTEXTEND
  0
MTEXT
  5
2FB
330
70
100
AcDbEntity
  8
SIZE
100
AcDbMText
 10
-969.7247388955565
 20
-737.6870750571274
 30
0.0
 40
40.0
 41
522.3160316270441
 71
     7
 72
     5
  1
More than 600
 11
-0.0000000000000001
 21
1.0
 31
0.0
 73
     1
 44
1.0
1001
ACAD
1000
ACAD_MTEXT_COLUMN_INFO_BEGIN
1070
    75
1070
     2
1070
    79
1070
     0
1070
    76
1070
     1
1070
    78
1070
     0
1070
    48
1040
522.3160316270441
1070
    49
1040
17.5
1070
    50
1070
     1
1040
47.55940520792018
1000
ACAD_MTEXT_COLUMN_INFO_END
1000
MTEXTBEGIN
1070
    73
1070
     1
1070
    44
1040
1.0
1070
    74
1070
     0
1000
MTEXTEND
  0
MTEXT
  5
2FC
330
70
100
AcDbEntity
  8
SIZE
100
AcDbMText
 10
618.6594809502003
 20
-432.7121530521894
 30
0.0
 40
40.0
 41
242.2450763362503
 71
     7
 72
     5
  1
20
 11
-0.0000000000000001
 21
1.0
 31
0.0
 73
     1
 44
1.0
1001
ACAD
1000
ACAD_MTEXT_COLUMN_INFO_BEGIN
1070
    75
1070
     2
1070
    79
1070
     0
1070
    76
1070
     1
1070
    78
1070
     0
1070
    48
1040
242.2450763362503
1070
    49
1040
17.5
1070
    50
1070
     1
1040
0.0
1000
ACAD_MTEXT_COLUMN_INFO_END
1000
MTEXTBEGIN
1070
    73
1070
     1
1070
    44
1040
1.0
1070
    74
1070
     0
1000
MTEXTEND
  0
MTEXT
  5
2FD
330
70
100
AcDbEntity
  8
SIZE
100
AcDbMText
 10
623.436377420594
 20
89.16811575524617
 30
0.0
 40
40.0
 41
242.2450763362503
 71
     7
 72
     5
  1
1001
 11
-0.0000000000000001
 21
1.0
 31
0.0
 73
     1
 44
1.0
1001
ACAD
1000
ACAD_MTEXT_COLUMN_INFO_BEGIN
1070
    75
1070
     2
1070
    79
1070
     0
1070
    76
1070
     1
1070
    78
1070
     0
1070
    48
1040
242.2450763362503
1070
    49
1040
17.5
1070
    50
1070
     1
1040
0.0
1000
ACAD_MTEXT_COLUMN_INFO_END
1000
MTEXTBEGIN
1070
    73
1070
     1
1070
    44
1040
1.0
1070
    74
1070
     0
1000
MTEXTEND
  0
MTEXT
  5
2FE
330
70
100
AcDbEntity
  8
SIZE
100
AcDbMText
 10
-40.90816404400356
 20
881.4004112616727
 30
0.0
 40
40.0
 41
242.2450763362503
 71
     3
 72
     5
  1
969
 73
     1
 44
1.0
1001
ACAD
1000
ACAD_MTEXT_COLUMN_INFO_BEGIN
1070
    75
1070
     2
1070
    79
1070
     0
1070
    76
1070
     1
1070
    78
1070
     0
1070
    48
1040
242.2450763362503
1070
    49
1040
17.5
1070
    50
1070
     1
1040
0.0
1000
ACAD_MTEXT_COLUMN_INFO_END
1000
MTEXTBEGIN
1070
    73
1070
     1
1070
    44
1040
1.0
1070
    74
1070
     0
1000
MTEXTEND
  0
MTEXT
  5
2FF
330
70
100
AcDbEntity
  8
SIZE
100
AcDbMText
 10
-507.7623223281098
 20
978.7070816534301
 30
0.0
 40
40.0
 41
242.2450763362503
 71
     3
 72
     5
  1
120
 73
     1
 44
1.0
1001
ACAD
1000
ACAD_MTEXT_COLUMN_INFO_BEGIN
1070
    75
1070
     2
1070
    79
1070
     0
1070
    76
1070
     1
1070
    78
1070
     0
1070
    48
1040
242.2450763362503
1070
    49
1040
17.5
1070
    50
1070
     1
1040
0.0
1000
ACAD_MTEXT_COLUMN_INFO_END
1000
MTEXTBEGIN
1070
    73
1070
     1
1070
    44
1040
1.0
1070
    74
1070
     0
1000
MTEXTEND
  0
DIMENSION
  5
300
330
70
100
AcDbEntity
  8
SIZE
100
AcDbDimension
  2
*D26
 10
550.1760847630614
 20
-399.5313805494381
 30
0.0
 11
550.1760847630612
 21
-505.6942977291082
 31
0.0
 70
   160
  1
 
 71
     5
 42
113.2000000000008
  3
JIS2$0
100
AcDbAlignedDimension
 13
318.7212312054162
 23
-286.3313805494372
 33
0.0
 14
318.7212312054162
 24
-399.5313805494379
 34
0.0
 50
90.0
100
AcDbRotatedDimension
1001
ACAD_DIMASSOC_CALC_DIMLFAC
1040
-1.0
1001
ACAD_DIMASSOC_DIMLFAC
1040
-1.0
1001
ACAD_DIMASSOC_OVERRIDDEN_DIMLFAC
1040
-1.0
1001
ACAD_DSTYLE_DIMINSPECT
1070
   396
1000
100%
1070
   395
1000

1070
   394
1070
    33
1070
   393
1070
     0
1001
ACAD
1000
DSTYLE
1002
{
1070
    41
1040
30.0
1070
   144
1040
1.0
1070
   173
1070
     1
1070
   342
1005
0
1070
   343
1005
26C
1070
   344
1005
26C
1002
}
  0
MTEXT
  5
30D
330
70
100
AcDbEntity
  8
SIZE
100
AcDbMText
 10
541.4257382727591
 20
-502.831271435175
 30
0.0
 40
40.0
 41
242.2450763362503
 71
     7
 72
     5
  1
115
 11
-0.0000000000000001
 21
1.0
 31
0.0
 73
     1
 44
1.0
1001
ACAD
1000
ACAD_MTEXT_COLUMN_INFO_BEGIN
1070
    75
1070
     2
1070
    79
1070
     0
1070
    76
1070
     1
1070
    78
1070
     0
1070
    48
1040
242.2450763362503
1070
    49
1040
17.5
1070
    50
1070
     1
1040
0.0
1000
ACAD_MTEXT_COLUMN_INFO_END
1000
MTEXTBEGIN
1070
    73
1070
     1
1070
    44
1040
1.0
1070
    74
1070
     0
1000
MTEXTEND
  0
DIMENSION
  5
30E
330
70
100
AcDbEntity
  8
SIZE
100
AcDbDimension
  2
*D27
 10
535.3513073596769
 20
436.8686194505612
 30
0.0
 11
535.3513073596769
 21
532.8686194505613
 31
0.0
 70
   160
  1
 
 71
     5
 42
192.0000000000009
  3
JIS2$0
100
AcDbAlignedDimension
 13
449.5212312054482
 23
628.8686194505619
 33
0.0
 14
449.5212312054482
 24
436.868619450561
 34
0.0
 50
90.0
100
AcDbRotatedDimension
1001
ACAD_DIMASSOC_CALC_DIMLFAC
1040
-1.0
1001
ACAD_DIMASSOC_DIMLFAC
1040
-1.0
1001
ACAD_DIMASSOC_OVERRIDDEN_DIMLFAC
1040
-1.0
1001
ACAD_DSTYLE_DIMINSPECT
1070
   396
1000
100%
1070
   395
1000

1070
   394
1070
    33
1070
   393
1070
     0
1001
ACAD
1000
DSTYLE
1002
{
1070
   343
1005
26C
1070
   342
1005
0
1070
   173
1070
     1
1070
   344
1005
26C
1070
    41
1040
30.0
1070
   144
1040
1.0
1002
}
  0
DIMENSION
  5
31A
330
70
100
AcDbEntity
  8
SIZE
100
AcDbDimension
  2
*D28
 10
596.1517040601286
 20
428.8686194505622
 30
0.0
 11
596.1517040601286
 21
532.8686194505613
 31
0.0
 70
   160
  1
 
 71
     5
 42
207.999999999999
  3
JIS2$0
100
AcDbAlignedDimension
 13
373.0212312054375
 23
636.868619450561
 33
0.0
 14
373.0212312054339
 24
428.8686194505619
 34
0.0
 50
90.0
100
AcDbRotatedDimension
1001
ACAD_DIMASSOC_CALC_DIMLFAC
1040
-1.0
1001
ACAD_DIMASSOC_DIMLFAC
1040
-1.0
1001
ACAD_DIMASSOC_OVERRIDDEN_DIMLFAC
1040
-1.0
1001
ACAD_DSTYLE_DIMINSPECT
1070
   396
1000
100%
1070
   395
1000

1070
   394
1070
    33
1070
   393
1070
     0
1001
ACAD
1000
DSTYLE
1002
{
1070
   343
1005
26C
1070
   342
1005
0
1070
   173
1070
     1
1070
   344
1005
26C
1070
    41
1040
30.0
1070
   144
1040
1.0
1002
}
  0
MTEXT
  5
326
330
70
100
AcDbEntity
  8
SIZE
100
AcDbMText
 10
485.1990805351852
 20
474.1216132536313
 30
0.0
 40
40.0
 41
242.2450763362503
 71
     1
 72
     5
  1
φ192
 11
0.0000000000000001
 21
1.0
 31
0.0
 73
     1
 44
1.0
1001
ACAD
1000
ACAD_MTEXT_COLUMN_INFO_BEGIN
1070
    75
1070
     2
1070
    79
1070
     0
1070
    76
1070
     1
1070
    78
1070
     0
1070
    48
1040
242.2450763362503
1070
    49
1040
17.5
1070
    50
1070
     1
1040
0.0
1000
ACAD_MTEXT_COLUMN_INFO_END
1000
MTEXTBEGIN
1070
    73
1070
     1
1070
    44
1040
1.0
1070
    74
1070
     0
1000
MTEXTEND
  0
MTEXT
  5
327
330
70
100
AcDbEntity
  8
SIZE
100
AcDbMText
 10
547.5994884608553
 20
471.9896376995014
 30
0.0
 40
40.0
 41
242.2450763362503
 71
     1
 72
     5
  1
φ208
 11
0.0000000000000001
 21
1.0
 31
0.0
 73
     1
 44
1.0
1001
ACAD
1000
ACAD_MTEXT_COLUMN_INFO_BEGIN
1070
    75
1070
     2
1070
    79
1070
     0
1070
    76
1070
     1
1070
    78
1070
     0
1070
    48
1040
242.2450763362503
1070
    49
1040
17.5
1070
    50
1070
     1
1040
0.0
1000
ACAD_MTEXT_COLUMN_INFO_END
1000
MTEXTBEGIN
1070
    73
1070
     1
1070
    44
1040
1.0
1070
    74
1070
     0
1000
MTEXTEND
  0
INSERT
  5
328
330
70
100
AcDbEntity
  8
0
100
AcDbBlockReference
  2
CustomObjectsInViewport1_0
 10
0.0
 20
0.0
 30
0.0
  0
ENDSEC
  0
SECTION
  2
OBJECTS
  0
DICTIONARY
  5
C
330
0
100
AcDbDictionary
281
     1
  3
ACAD_2007HEADERVARS_RT
350
5F9
  3
ACAD_CIP_PREVIOUS_PRODUCT_INFO
350
582
  3
ACAD_COLOR
350
63
  3
ACAD_DETAILVIEWSTYLE
350
6A
  3
ACAD_FIELDLIST
350
5D5
  3
ACAD_GROUP
350
D
  3
ACAD_LAYOUT
350
62
  3
ACAD_MATERIAL
350
10
  3
ACAD_MLEADERSTYLE
350
66
  3
ACAD_MLINESTYLE
350
5F
  3
ACAD_PLOTSETTINGS
350
61
  3
ACAD_PLOTSTYLENAME
350
E
  3
ACAD_SCALELIST
350
42
  3
ACAD_SECTIONVIEWSTYLE
350
68
  3
ACAD_TABLESTYLE
350
64
  3
ACAD_VISUALSTYLE
350
29
  3
ACDB_RECOMPOSE_DATA
350
5F7
  3
AcDbVariableDictionary
350
56A
  3
AcmDictionary
350
5A3
  3
AMG
350
583
  3
ASE_INDEX_DICTIONARY
350
567
  3
DWGPROPS
350
5F8
  0
DICTIONARY
  5
C4
330
C3
100
AcDbDictionary
280
     1
281
     1
  3
ADSK_XREC_LAYER_RECONCILED
360
C5
  0
DICTIONARY
  5
C8
330
C7
100
AcDbDictionary
280
     1
281
     1
  0
DICTIONARY
  5
19B
330
19A
100
AcDbDictionary
280
     1
281
     1
  0
DICTIONARY
  5
1A4
330
1A3
100
AcDbDictionary
280
     1
281
     1
  0
DICTIONARY
  5
1AE
330
1AD
100
AcDbDictionary
280
     1
281
     1
  0
DICTIONARY
  5
1B8
330
1B7
100
AcDbDictionary
280
     1
281
     1
  0
DICTIONARY
  5
21D
330
21C
100
AcDbDictionary
280
     1
281
     1
  0
DICTIONARY
  5
224
330
223
100
AcDbDictionary
280
     1
281
     1
  0
DICTIONARY
  5
259
330
258
100
AcDbDictionary
280
     1
281
     1
  0
DICTIONARY
  5
265
330
264
100
AcDbDictionary
280
     1
281
     1
  0
DICTIONARY
  5
255
330
70
100
AcDbDictionary
280
     1
281
     1
  3
ACAD_SORTENTS
360
256
  0
DICTIONARY
  5
5E7
330
262
100
AcDbDictionary
280
     1
281
     1
  3
ACAD_MTEXT_2008_RT
360
5E8
  0
DICTIONARY
  5
5E9
330
2B6
100
AcDbDictionary
280
     1
281
     1
  3
ACAD_MTEXT_2008_RT
360
5EA
  0
DICTIONARY
  5
5EB
330
2B7
100
AcDbDictionary
280
     1
281
     1
  3
ACAD_MTEXT_2008_RT
360
5EC
  0
DICTIONARY
  5
5ED
330
2BF
100
AcDbDictionary
280
     1
281
     1
  3
ACAD_MTEXT_2008_RT
360
5EE
  0
DICTIONARY
  5
5EF
330
2CF
100
AcDbDictionary
280
     1
281
     1
  3
ACAD_MTEXT_2008_RT
360
5F0
  0
DICTIONARY
  5
5F1
330
2F6
100
AcDbDictionary
280
     1
281
     1
  3
ACAD_MTEXT_2008_RT
360
5F2
  0
DICTIONARY
  5
5F3
330
2F8
100
AcDbDictionary
280
     1
281
     1
  3
ACAD_MTEXT_2008_RT
360
5F4
  3
ACAD_MTEXT_RT
360
650
  0
DICTIONARY
  5
5F5
330
2F9
100
AcDbDictionary
280
     1
281
     1
  3
ACAD_MTEXT_2008_RT
360
5F6
  3
ACAD_MTEXT_RT
360
651
  0
DICTIONARY
  5
5F9
102
{ACAD_REACTORS
330
C
102
}
330
C
100
AcDbDictionary
281
     1
  3
DIMARCSYM
350
5FA
  3
DIMLTEX1
350
5FC
  3
DIMLTEX2
350
5FD
  3
DIMLTYPE
350
5FB
  0
XRECORD
  5
582
102
{ACAD_REACTORS
330
C
102
}
330
C
100
AcDbXrecord
280
     1
300
AMECH_PP
300
2019
300
87089AMECH_PP_2019_0F
  0
DICTIONARY
  5
63
102
{ACAD_REACTORS
330
C
102
}
330
C
100
AcDbDictionary
281
     1
  0
DICTIONARY
  5
6A
102
{ACAD_REACTORS
330
C
102
}
330
C
100
AcDbDictionary
281
     1
  3
Imperial24
350
6B
  3
Metric50
350
577
  0
FIELDLIST
  5
5D5
102
{ACAD_REACTORS
330
C
102
}
330
C
100
AcDbIdSet
 90
        3
330
5D3
330
5D4
330
5D6
100
AcDbFieldList
  0
DICTIONARY
  5
D
102
{ACAD_REACTORS
330
C
102
}
330
C
100
AcDbDictionary
281
     1
  0
DICTIONARY
  5
62
102
{ACAD_REACTORS
330
C
102
}
330
C
100
AcDbDictionary
281
     1
  3
Model
350
73
  3
レイアウト1
350
6F
  3
レイアウト2
350
77
  0
DICTIONARY
  5
10
102
{ACAD_REACTORS
330
C
102
}
330
C
100
AcDbDictionary
281
     1
  3
ByBlock
350
19
  3
ByLayer
350
11
  3
Global
350
21
  0
DICTIONARY
  5
66
102
{ACAD_REACTORS
330
C
102
}
330
C
100
AcDbDictionary
281
     1
  3
Standard
350
67
  0
DICTIONARY
  5
5F
102
{ACAD_REACTORS
330
C
102
}
330
C
100
AcDbDictionary
281
     1
  3
Standard
350
60
  0
DICTIONARY
  5
61
102
{ACAD_REACTORS
330
C
102
}
330
C
100
AcDbDictionary
281
     1
  0
ACDBDICTIONARYWDFLT
  5
E
102
{ACAD_REACTORS
330
C
102
}
330
C
100
AcDbDictionary
281
     1
  3
Normal
350
F
100
AcDbDictionaryWithDefault
340
F
  0
DICTIONARY
  5
42
102
{ACAD_REACTORS
330
C
102
}
330
C
100
AcDbDictionary
281
     1
  3
*A1
350
BE
  3
*A2
350
BF
  3
*A3
350
C0
  3
*A4
350
C1
  3
A0
350
43
  3
A1
350
44
  3
A2
350
45
  3
A3
350
46
  3
A4
350
47
  3
A5
350
48
  3
A6
350
49
  3
A7
350
4A
  3
A8
350
4B
  3
A9
350
4C
  3
B0
350
4D
  3
B1
350
4E
  3
B2
350
4F
  3
B3
350
50
  3
B4
350
51
  3
B5
350
52
  3
B6
350
53
  0
DICTIONARY
  5
68
102
{ACAD_REACTORS
330
C
102
}
330
C
100
AcDbDictionary
281
     1
  3
Imperial24
350
69
  3
Metric50
350
576
  0
DICTIONARY
  5
64
102
{ACAD_REACTORS
330
C
102
}
330
C
100
AcDbDictionary
281
     1
  3
Standard
350
65
  0
DICTIONARY
  5
29
102
{ACAD_REACTORS
330
C
102
}
330
C
100
AcDbDictionary
281
     1
  3
2dWireframe
350
2F
  3
Basic
350
2E
  3
Brighten
350
35
  3
ColorChange
350
39
  3
Conceptual
350
32
  3
Dim
350
34
  3
EdgeColorOff
350
41
  3
Facepattern
350
38
  3
Flat
350
2A
  3
FlatWithEdges
350
2B
  3
Gouraud
350
2C
  3
GouraudWithEdges
350
2D
  3
Hidden
350
31
  3
JitterOff
350
3F
  3
Linepattern
350
37
  3
OverhangOff
350
40
  3
Realistic
350
33
  3
Shaded
350
3E
  3
Shaded with edges
350
3D
  3
Shades of Gray
350
3A
  3
Sketchy
350
3B
  3
Thicken
350
36
  3
Wireframe
350
30
  3
X-Ray
350
3C
  0
XRECORD
  5
5F7
102
{ACAD_REACTORS
330
C
102
}
330
C
100
AcDbXrecord
280
     1
 90
        1
330
65
330
262
330
2B6
330
2B7
330
2BF
330
2CF
330
2F6
330
2F7
330
2F8
330
2F9
330
2FA
330
2FB
330
2FC
330
2FD
330
2FE
330
2FF
330
30D
330
326
330
327
  0
DICTIONARY
  5
56A
102
{ACAD_REACTORS
330
C
102
}
330
C
100
AcDbDictionary
281
     1
  3
ANNOALLVISIBLE
350
570
  3
CANNOSCALE
350
571
  3
CMLEADERSTYLE
350
56C
  3
CTABLESTYLE
350
56B
  3
CVIEWDETAILSTYLE
350
56D
  3
CVIEWSECTIONSTYLE
350
56E
  3
DIMASSOC
350
5E2
  3
HIDETEXT
350
5E0
  3
INDEXCTL
350
5DF
  3
LAYEREVAL
350
573
  3
LAYERNOTIFY
350
574
  3
LIGHTINGUNITS
350
572
  3
MSLTSCALE
350
56F
  3
SORTENTS
350
5DE
  3
XCLIPFRAME
350
5E1
  0
DICTIONARY
  5
5A3
102
{ACAD_REACTORS
330
C
102
}
330
C
100
AcDbDictionary
281
     1
  3
AcmStdDictionary
350
5AA
  0
DICTIONARY
  5
583
102
{ACAD_REACTORS
330
C
102
}
330
C
100
AcDbDictionary
281
     1
  3
AcMgSettings
350
584
  0
DICTIONARY
  5
567
102
{ACAD_REACTORS
330
C
102
}
330
C
100
AcDbDictionary
281
     1
  3
ASEBlockHierarchyIndexRecord
350
569
1001
DCO15
1040
2031906364.0
  0
XRECORD
  5
5F8
102
{ACAD_REACTORS
330
C
102
}
330
C
100
AcDbXrecord
280
     1
  1
DWGPROPS COOKIE
  2

  3

  4

  6

  7

  8
GM29624
  9

300
=
301
=
302
=
303
=
304
=
305
=
306
=
307
=
308
=
309
=
 40
0.0000347222222222
 41
2459320.646608797
 42
2459320.64662037
  1

 90
        0
  0
XRECORD
  5
C5
102
{ACAD_REACTORS
330
C4
102
}
330
C4
100
AcDbXrecord
280
     1
290
     1
  0
SORTENTSTABLE
  5
256
102
{ACAD_REACTORS
330
255
102
}
330
255
100
AcDbSortentsTable
330
70
  0
XRECORD
  5
5E8
102
{ACAD_REACTORS
330
5E7
102
}
330
5E7
100
AcDbXrecord
280
     1
 40
97271.0
  1
\pxse0.85714,qc;Inspection\Popening\P{\T0.9;450 × 450\P}or more
  0
XRECORD
  5
5EA
102
{ACAD_REACTORS
330
5E9
102
}
330
5E9
100
AcDbXrecord
280
     1
 40
39540.0
  1
\pxql;RA\P{\W0.9;\T0.9;(return air)}
  0
XRECORD
  5
5EC
102
{ACAD_REACTORS
330
5EB
102
}
330
5EB
100
AcDbXrecord
280
     1
 40
39812.0
  1
\pxql;SA\P{\W0.9;\T0.9;(supply air)}
  0
XRECORD
  5
5EE
102
{ACAD_REACTORS
330
5ED
102
}
330
5ED
100
AcDbXrecord
280
     1
 40
67475.0
  1
\pxqr;{\W0.9;\T0.9;EA\P(exhaust air outlet)}
  0
XRECORD
  5
5F0
102
{ACAD_REACTORS
330
5EF
102
}
330
5EF
100
AcDbXrecord
280
     1
 40
65752.0
  1
\pxqr;OA\P{\W0.9;\T0.9;(outside air intake)}
  0
XRECORD
  5
5F2
102
{ACAD_REACTORS
330
5F1
102
}
330
5F1
100
AcDbXrecord
280
     1
 40
486114.0
  1
\pxse0.8;{\W0.9;Heat exchanger\T0.9;,\PAir filter,\PHigh-Efficiency filter,\PFan,drain pan\Pmaintenance space}
  0
XRECORD
  5
5F4
102
{ACAD_REACTORS
330
5F3
102
}
330
5F3
100
AcDbXrecord
280
     1
 40
69644.0
  1
\pxqc;150\Pto\P250
  0
XRECORD
  5
650
102
{ACAD_REACTORS
330
5F3
102
}
330
5F3
100
AcDbXrecord
280
     1
 40
100123.0
  1
\pi87.7892;150\P\pi99.7892;to\P\pi87.7892;250
  0
XRECORD
  5
5F6
102
{ACAD_REACTORS
330
5F5
102
}
330
5F5
100
AcDbXrecord
280
     1
 40
5990.0
  1
\pxqc;692
  0
XRECORD
  5
651
102
{ACAD_REACTORS
330
5F5
102
}
330
5F5
100
AcDbXrecord
280
     1
 40
9208.0
  1
\pi87.7892;692
  0
XRECORD
  5
5FA
102
{ACAD_REACTORS
330
5F9
102
}
330
5F9
100
AcDbXrecord
280
     1
 70
     1
  0
XRECORD
  5
5FC
102
{ACAD_REACTORS
330
5F9
102
}
330
5F9
100
AcDbXrecord
280
     1
340
5B
  0
XRECORD
  5
5FD
102
{ACAD_REACTORS
330
5F9
102
}
330
5F9
100
AcDbXrecord
280
     1
340
5B
  0
XRECORD
  5
5FB
102
{ACAD_REACTORS
330
5F9
102
}
330
5F9
100
AcDbXrecord
280
     1
340
5B
  0
ACDBDETAILVIEWSTYLE
  5
6B
102
{ACAD_XDICTIONARY
360
637
102
}
102
{ACAD_REACTORS
330
6A
330
5C8
102
}
330
6A
100
AcDbModelDocViewStyle
 70
     0
  3
Imperial24
290
     0
100
AcDbDetailViewStyle
 70
     0
 71
     0
 90
        3
 71
     1
340
55
 40
0.24
340
0
 40
0.24
300

 40
0.36
280
     3
 71
     2
340
5D
 90
       25
 71
     3
340
55
 40
0.24
 90
        1
 40
0.75
 90
        1
300
%<\AcVar ViewType \f "%tc1">% %<\AcVar ViewDetailId>%\PSCALE %<\AcVar ViewScale \f "%sn">%
 71
     4
340
5D
 90
       25
340
5D
 90
       25
280
     0
  0
ACDBDETAILVIEWSTYLE
  5
577
102
{ACAD_XDICTIONARY
360
654
102
}
102
{ACAD_REACTORS
330
6A
330
5C9
102
}
330
6A
100
AcDbModelDocViewStyle
 70
     0
  3
Metric50
290
     0
100
AcDbDetailViewStyle
 70
     0
 71
     0
 90
        3
 71
     1
340
55
 40
5.0
340
0
 40
5.0
300

 40
0.0
280
     1
 71
     2
340
5D
 90
       25
 71
     3
340
55
 40
5.0
 90
        0
 40
15.0
 90
        1
300
%<\AcVar ViewDetailId>% (%<\AcVar ViewScale \f "%sn">%)
 71
     4
340
5D
 90
       25
340
5D
 90
       25
280
     0
  0
LAYOUT
  5
73
102
{ACAD_XDICTIONARY
360
63B
102
}
102
{ACAD_REACTORS
330
62
102
}
330
62
100
AcDbPlotSettings
  1

  2
なし
  4
ISO_A4_(210.00_x_297.00_MM)
  6

 40
7.5
 41
20.0
 42
7.5
 43
20.0
 44
210.0
 45
297.0
 46
0.0
 47
0.0
 48
0.0
 49
0.0
140
0.0
141
0.0
142
1.0
143
25.91469455092872
 70
 11952
 72
     1
 73
     1
 74
     0
  7
monochrome.ctb
 75
     0
147
0.0385881453487617
148
3622.339351693935
149
1246.744801890161
100
AcDbLayout
  1
Model
 70
     1
 71
     0
 10
0.0
 20
0.0
 11
12.0
 21
9.0
 12
0.0
 22
0.0
 32
0.0
 14
0.0
 24
0.0
 34
0.0
 15
0.0
 25
0.0
 35
0.0
146
0.0
 13
0.0
 23
0.0
 33
0.0
 16
1.0
 26
0.0
 36
0.0
 17
0.0
 27
1.0
 37
0.0
 76
     0
330
70
1001
ACAD_PSEXT
1000
なし
1000
なし
1000
適切ではありません
1000
新しいプロッタ環境設定名を選択しない限り、レイアウトは印刷されません。
1070
     0
  0
LAYOUT
  5
6F
102
{ACAD_XDICTIONARY
360
639
102
}
102
{ACAD_REACTORS
330
62
102
}
330
62
100
AcDbPlotSettings
  1

  2
AutoCAD PDF (General Documentation).pc3
  4

  6

 40
0.0
 41
0.0
 42
0.0
 43
0.0
 44
0.0
 45
0.0
 46
0.0
 47
0.0
 48
0.0
 49
0.0
140
0.0
141
0.0
142
1.0
143
1.0
 70
   688
 72
     0
 73
     0
 74
     5
  7
monochrome.ctb
 75
    16
147
1.0
148
0.0
149
0.0
100
AcDbLayout
  1
レイアウト1
 70
     1
 71
     1
 10
0.0
 20
0.0
 11
12.0
 21
9.0
 12
0.0
 22
0.0
 32
0.0
 14
1.000000000000000E+20
 24
1.000000000000000E+20
 34
1.000000000000000E+20
 15
-1.000000000000000E+20
 25
-1.000000000000000E+20
 35
-1.000000000000000E+20
146
0.0
 13
0.0
 23
0.0
 33
0.0
 16
1.0
 26
0.0
 36
0.0
 17
0.0
 27
1.0
 37
0.0
 76
     0
330
6C
  0
LAYOUT
  5
77
102
{ACAD_XDICTIONARY
360
63D
102
}
102
{ACAD_REACTORS
330
62
102
}
330
62
100
AcDbPlotSettings
  1

  2
AutoCAD PDF (General Documentation).pc3
  4

  6

 40
0.0
 41
0.0
 42
0.0
 43
0.0
 44
0.0
 45
0.0
 46
0.0
 47
0.0
 48
0.0
 49
0.0
140
0.0
141
0.0
142
1.0
143
1.0
 70
   688
 72
     0
 73
     0
 74
     5
  7
monochrome.ctb
 75
    16
147
1.0
148
0.0
149
0.0
100
AcDbLayout
  1
レイアウト2
 70
     1
 71
     2
 10
0.0
 20
0.0
 11
12.0
 21
9.0
 12
0.0
 22
0.0
 32
0.0
 14
0.0
 24
0.0
 34
0.0
 15
0.0
 25
0.0
 35
0.0
146
0.0
 13
0.0
 23
0.0
 33
0.0
 16
1.0
 26
0.0
 36
0.0
 17
0.0
 27
1.0
 37
0.0
 76
     0
330
74
  0
MATERIAL
  5
19
102
{ACAD_XDICTIONARY
360
1A
102
}
102
{ACAD_REACTORS
330
10
102
}
330
10
100
AcDbMaterial
  1
ByBlock
 72
     0
 43
0.0208333333333333
 43
0.0
 43
0.0
 43
0.0
 43
0.0
 43
0.0208333333333333
 43
0.0
 43
0.0
 43
0.0
 43
0.0
 43
1.0
 43
0.0
 43
0.0
 43
0.0
 43
0.0
 43
1.0
 77
     0
 47
0.0208333333333333
 47
0.0
 47
0.0
 47
0.0
 47
0.0
 47
0.0208333333333333
 47
0.0
 47
0.0
 47
0.0
 47
0.0
 47
1.0
 47
0.0
 47
0.0
 47
0.0
 47
0.0
 47
1.0
171
     0
 49
0.0208333333333333
 49
0.0
 49
0.0
 49
0.0
 49
0.0
 49
0.0208333333333333
 49
0.0
 49
0.0
 49
0.0
 49
0.0
 49
1.0
 49
0.0
 49
0.0
 49
0.0
 49
0.0
 49
1.0
175
     0
142
0.0208333333333333
142
0.0
142
0.0
142
0.0
142
0.0
142
0.0208333333333333
142
0.0
142
0.0
142
0.0
142
0.0
142
1.0
142
0.0
142
0.0
142
0.0
142
0.0
142
1.0
179
     0
144
0.0208333333333333
144
0.0
144
0.0
144
0.0
144
0.0
144
0.0208333333333333
144
0.0
144
0.0
144
0.0
144
0.0
144
1.0
144
0.0
144
0.0
144
0.0
144
0.0
144
1.0
147
0.0208333333333333
147
0.0
147
0.0
147
0.0
147
0.0
147
0.0208333333333333
147
0.0
147
0.0
147
0.0
147
0.0
147
1.0
147
0.0
147
0.0
147
0.0
147
0.0
147
1.0
  0
MATERIAL
  5
11
102
{ACAD_XDICTIONARY
360
12
102
}
102
{ACAD_REACTORS
330
10
102
}
330
10
100
AcDbMaterial
  1
ByLayer
 72
     0
 43
0.0208333333333333
 43
0.0
 43
0.0
 43
0.0
 43
0.0
 43
0.0208333333333333
 43
0.0
 43
0.0
 43
0.0
 43
0.0
 43
1.0
 43
0.0
 43
0.0
 43
0.0
 43
0.0
 43
1.0
 77
     0
 47
0.0208333333333333
 47
0.0
 47
0.0
 47
0.0
 47
0.0
 47
0.0208333333333333
 47
0.0
 47
0.0
 47
0.0
 47
0.0
 47
1.0
 47
0.0
 47
0.0
 47
0.0
 47
0.0
 47
1.0
171
     0
 49
0.0208333333333333
 49
0.0
 49
0.0
 49
0.0
 49
0.0
 49
0.0208333333333333
 49
0.0
 49
0.0
 49
0.0
 49
0.0
 49
1.0
 49
0.0
 49
0.0
 49
0.0
 49
0.0
 49
1.0
175
     0
142
0.0208333333333333
142
0.0
142
0.0
142
0.0
142
0.0
142
0.0208333333333333
142
0.0
142
0.0
142
0.0
142
0.0
142
1.0
142
0.0
142
0.0
142
0.0
142
0.0
142
1.0
179
     0
144
0.0208333333333333
144
0.0
144
0.0
144
0.0
144
0.0
144
0.0208333333333333
144
0.0
144
0.0
144
0.0
144
0.0
144
1.0
144
0.0
144
0.0
144
0.0
144
0.0
144
1.0
147
0.0208333333333333
147
0.0
147
0.0
147
0.0
147
0.0
147
0.0208333333333333
147
0.0
147
0.0
147
0.0
147
0.0
147
1.0
147
0.0
147
0.0
147
0.0
147
0.0
147
1.0
  0
MATERIAL
  5
21
102
{ACAD_XDICTIONARY
360
22
102
}
102
{ACAD_REACTORS
330
10
102
}
330
10
100
AcDbMaterial
  1
Global
 72
     0
 43
0.0208333333333333
 43
0.0
 43
0.0
 43
0.0
 43
0.0
 43
0.0208333333333333
 43
0.0
 43
0.0
 43
0.0
 43
0.0
 43
1.0
 43
0.0
 43
0.0
 43
0.0
 43
0.0
 43
1.0
 77
     0
 47
0.0208333333333333
 47
0.0
 47
0.0
 47
0.0
 47
0.0
 47
0.0208333333333333
 47
0.0
 47
0.0
 47
0.0
 47
0.0
 47
1.0
 47
0.0
 47
0.0
 47
0.0
 47
0.0
 47
1.0
171
     0
 49
0.0208333333333333
 49
0.0
 49
0.0
 49
0.0
 49
0.0
 49
0.0208333333333333
 49
0.0
 49
0.0
 49
0.0
 49
0.0
 49
1.0
 49
0.0
 49
0.0
 49
0.0
 49
0.0
 49
1.0
175
     0
142
0.0208333333333333
142
0.0
142
0.0
142
0.0
142
0.0
142
0.0208333333333333
142
0.0
142
0.0
142
0.0
142
0.0
142
1.0
142
0.0
142
0.0
142
0.0
142
0.0
142
1.0
179
     0
144
0.0208333333333333
144
0.0
144
0.0
144
0.0
144
0.0
144
0.0208333333333333
144
0.0
144
0.0
144
0.0
144
0.0
144
1.0
144
0.0
144
0.0
144
0.0
144
0.0
144
1.0
147
0.0208333333333333
147
0.0
147
0.0
147
0.0
147
0.0
147
0.0208333333333333
147
0.0
147
0.0
147
0.0
147
0.0
147
1.0
147
0.0
147
0.0
147
0.0
147
0.0
147
1.0
  0
MLEADERSTYLE
  5
67
102
{ACAD_XDICTIONARY
360
633
102
}
102
{ACAD_REACTORS
330
66
102
}
330
66
100
AcDbMLeaderStyle
170
     2
171
     1
172
     0
 90
        2
 40
0.0
 41
0.0
173
     1
 91
-1056964608
340
5B
 92
       -2
290
     1
 42
0.09
291
     1
 43
0.36
  3
Standard
 44
0.18
300

342
55
174
     1
178
     6
175
     1
176
     0
 93
-1056964608
 45
0.18
292
     0
297
     0
 46
0.18
 94
-1056964608
 47
1.0
 49
1.0
140
1.0
293
     1
141
0.0
294
     1
177
     0
142
1.0
295
     0
296
     0
143
0.125
1001
ACAD_MLEADERVER
1070
     2
  0
MLINESTYLE
  5
60
102
{ACAD_REACTORS
330
5F
102
}
330
5F
100
AcDbMlineStyle
  2
STANDARD
 70
     0
  3

 62
   256
 51
90.0
 52
90.0
 71
     2
 49
0.5
 62
   256
  6
BYLAYER
 49
-0.5
 62
   256
  6
BYLAYER
  0
ACDBPLACEHOLDER
  5
F
102
{ACAD_REACTORS
330
E
102
}
330
E
  0
SCALE
  5
BE
102
{ACAD_REACTORS
330
42
102
}
330
42
100
AcDbScale
 70
     0
300
1:38
140
1.0
141
38.0
290
     0
  0
SCALE
  5
BF
102
{ACAD_REACTORS
330
42
102
}
330
42
100
AcDbScale
 70
     0
300
1:35
140
1.0
141
35.0
290
     0
  0
SCALE
  5
C0
102
{ACAD_REACTORS
330
42
102
}
330
42
100
AcDbScale
 70
     0
300
1:33
140
1.0
141
33.0
290
     0
  0
SCALE
  5
C1
102
{ACAD_REACTORS
330
42
102
}
330
42
100
AcDbScale
 70
     0
300
IMAGE
140
1.0
141
3.0
290
     0
  0
SCALE
  5
43
102
{ACAD_REACTORS
330
42
102
}
330
42
100
AcDbScale
 70
     0
300
1:1
140
1.0
141
1.0
290
     1
  0
SCALE
  5
44
102
{ACAD_REACTORS
330
42
102
}
330
42
100
AcDbScale
 70
     0
300
1:2
140
1.0
141
2.0
290
     0
  0
SCALE
  5
45
102
{ACAD_REACTORS
330
42
102
}
330
42
100
AcDbScale
 70
     0
300
1:4
140
1.0
141
4.0
290
     0
  0
SCALE
  5
46
102
{ACAD_REACTORS
330
42
102
}
330
42
100
AcDbScale
 70
     0
300
1:5
140
1.0
141
5.0
290
     0
  0
SCALE
  5
47
102
{ACAD_REACTORS
330
42
102
}
330
42
100
AcDbScale
 70
     0
300
1:8
140
1.0
141
8.0
290
     0
  0
SCALE
  5
48
102
{ACAD_REACTORS
330
42
102
}
330
42
100
AcDbScale
 70
     0
300
1:10
140
1.0
141
10.0
290
     0
  0
SCALE
  5
49
102
{ACAD_REACTORS
330
42
102
}
330
42
100
AcDbScale
 70
     0
300
1:16
140
1.0
141
16.0
290
     0
  0
SCALE
  5
4A
102
{ACAD_REACTORS
330
42
102
}
330
42
100
AcDbScale
 70
     0
300
1:20
140
1.0
141
20.0
290
     0
  0
SCALE
  5
4B
102
{ACAD_REACTORS
330
42
102
}
330
42
100
AcDbScale
 70
     0
300
1:30
140
1.0
141
30.0
290
     0
  0
SCALE
  5
4C
102
{ACAD_REACTORS
330
42
102
}
330
42
100
AcDbScale
 70
     0
300
1:40
140
1.0
141
40.0
290
     0
  0
SCALE
  5
4D
102
{ACAD_REACTORS
330
42
102
}
330
42
100
AcDbScale
 70
     0
300
1:50
140
1.0
141
50.0
290
     0
  0
SCALE
  5
4E
102
{ACAD_REACTORS
330
42
102
}
330
42
100
AcDbScale
 70
     0
300
1:100
140
1.0
141
100.0
290
     0
  0
SCALE
  5
4F
102
{ACAD_REACTORS
330
42
102
}
330
42
100
AcDbScale
 70
     0
300
2:1
140
2.0
141
1.0
290
     0
  0
SCALE
  5
50
102
{ACAD_REACTORS
330
42
102
}
330
42
100
AcDbScale
 70
     0
300
4:1
140
4.0
141
1.0
290
     0
  0
SCALE
  5
51
102
{ACAD_REACTORS
330
42
102
}
330
42
100
AcDbScale
 70
     0
300
8:1
140
8.0
141
1.0
290
     0
  0
SCALE
  5
52
102
{ACAD_REACTORS
330
42
102
}
330
42
100
AcDbScale
 70
     0
300
10:1
140
10.0
141
1.0
290
     0
  0
SCALE
  5
53
102
{ACAD_REACTORS
330
42
102
}
330
42
100
AcDbScale
 70
     0
300
100:1
140
100.0
141
1.0
290
     0
  0
ACDBSECTIONVIEWSTYLE
  5
69
102
{ACAD_XDICTIONARY
360
635
102
}
102
{ACAD_REACTORS
330
68
330
5C6
102
}
330
68
100
AcDbModelDocViewStyle
 70
     0
  3
Imperial24
290
     0
100
AcDbSectionViewStyle
 70
     0
 71
     0
 90
       78
 71
     1
340
55
 40
0.24
340
0
340
0
 40
0.24
300
I, O, Q, S, X, Z
 40
0.48
 90
        3
 40
0.18
 90
        1
 71
     2
340
5D
 90
       25
340
5D
 90
       50
 40
0.24
 40
0.0
 40
0.24
 71
     3
340
55
 40
0.24
 90
        1
 40
0.75
 90
        1
300
%<\AcVar ViewType \f "%tc1">% %<\AcVar ViewSectionStartId>%-%<\AcVar ViewSectionEndId>%\PSCALE %<\AcVar ViewScale \f "%sn">%
 71
     4
300
ANSI31
 40
1.0
 90
        0
290
     0
290
     0
 90
        6
 40
0.0
 40
1.570796326794896
 40
0.2617993877991494
 40
1.308996938995747
 40
-0.2617993877991494
 40
1.832595714594046
  0
ACDBSECTIONVIEWSTYLE
  5
576
102
{ACAD_XDICTIONARY
360
652
102
}
102
{ACAD_REACTORS
330
68
330
5C7
102
}
330
68
100
AcDbModelDocViewStyle
 70
     0
  3
Metric50
290
     0
100
AcDbSectionViewStyle
 70
     0
 71
     0
 90
      102
 71
     1
340
55
 40
5.0
340
0
340
0
 40
5.0
300
I, O, Q, S, X, Z
 40
10.0
 90
        0
 40
2.5
 90
        0
 71
     2
340
5D
 90
       25
340
5D
 90
       50
 40
5.0
 40
2.5
 40
5.0
 71
     3
340
55
 40
5.0
 90
        0
 40
15.0
 90
        1
300
%<\AcVar ViewSectionStartId>%-%<\AcVar ViewSectionEndId>% (%<\AcVar ViewScale \f "%sn">%)
 71
     4
300
ANSI31
 40
1.0
 90
        0
290
     0
290
     0
 90
        6
 40
0.0
 40
1.570796326794896
 40
0.2617993877991494
 40
1.308996938995747
 40
-0.2617993877991494
 40
1.832595714594046
  0
TABLESTYLE
  5
65
102
{ACAD_XDICTIONARY
360
5E5
102
}
102
{ACAD_REACTORS
330
64
102
}
330
64
100
AcDbTableStyle
  3
Standard
 70
     0
 71
     3
 40
1.5
 41
1.5
280
     0
281
     0
  7
STANDARD
140
3.5
170
     2
 62
     0
 63
     7
283
     0
274
    -2
284
     1
 64
     0
275
    -2
285
     1
 65
     0
276
    -2
286
     1
 66
     0
277
    -2
287
     1
 67
     0
278
    -2
288
     1
 68
     0
279
    -2
289
     1
 69
     0
  7
STANDARD
140
3.5
170
     5
 62
     0
 63
     7
283
     0
274
    -2
284
     1
 64
     0
275
    -2
285
     1
 65
     0
276
    -2
286
     1
 66
     0
277
    -2
287
     1
 67
     0
278
    -2
288
     1
 68
     0
279
    -2
289
     1
 69
     0
  7
STANDARD
140
3.5
170
     5
 62
     0
 63
     7
283
     0
274
    -2
284
     1
 64
     0
275
    -2
285
     1
 65
     0
276
    -2
286
     1
 66
     0
277
    -2
287
     1
 67
     0
278
    -2
288
     1
 68
     0
279
    -2
289
     1
 69
     0
  0
VISUALSTYLE
  5
2F
102
{ACAD_XDICTIONARY
360
60B
102
}
102
{ACAD_REACTORS
330
29
102
}
330
29
100
AcDbVisualStyle
  2
2dWireframe
 70
     4
 71
     0
 72
     2
 73
     0
 90
        0
 40
-0.6
 41
-30.0
 62
     5
 63
     7
 74
     1
 91
        4
 64
     7
 65
   257
 75
     1
175
     1
 42
1.0
 92
        0
 66
   257
 43
1.0
 76
     1
 77
     6
 78
     2
 67
     7
 79
     5
170
     0
171
     0
290
     0
174
     0
 93
        1
 44
0.0
173
     0
291
     0
 45
0.0
1001
ACAD
1000
AcDbSavedByObjectVersion
1070
     0
  0
VISUALSTYLE
  5
2E
102
{ACAD_XDICTIONARY
360
609
102
}
102
{ACAD_REACTORS
330
29
102
}
330
29
100
AcDbVisualStyle
  2
Basic
 70
     7
 71
     1
 72
     0
 73
     1
 90
        0
 40
-0.6
 41
-30.0
 62
     5
 63
     7
 74
     0
 91
        4
 64
     7
 65
   257
 75
     1
175
     1
 42
1.0
 92
        8
 66
     7
 43
1.0
 76
     1
 77
     6
 78
     2
 67
     7
 79
     5
170
     0
171
     0
290
     0
174
     0
 93
        1
 44
0.0
173
     0
291
     1
 45
0.0
1001
ACAD
1000
AcDbSavedByObjectVersion
1070
     0
  0
VISUALSTYLE
  5
35
102
{ACAD_XDICTIONARY
360
617
102
}
102
{ACAD_REACTORS
330
29
102
}
330
29
100
AcDbVisualStyle
  2
Brighten
 70
    12
 71
     2
 72
     2
 73
     0
 90
        0
 40
-0.6
 41
-30.0
 62
     5
 63
     7
 74
     1
 91
        4
 64
     7
 65
   257
 75
     1
175
     1
 42
1.0
 92
        8
 66
     7
 43
1.0
 76
     1
 77
     6
 78
     2
 67
     7
 79
     5
170
     0
171
     0
290
     0
174
     0
 93
        1
 44
50.0
173
     0
291
     1
 45
0.0
1001
ACAD
1000
AcDbSavedByObjectVersion
1070
     0
  0
VISUALSTYLE
  5
39
102
{ACAD_XDICTIONARY
360
61F
102
}
102
{ACAD_REACTORS
330
29
102
}
330
29
100
AcDbVisualStyle
  2
ColorChange
 70
    16
 71
     2
 72
     2
 73
     3
 90
        0
 40
-0.6
 41
-30.0
 62
     5
 63
     8
 74
     1
 91
        4
 64
     7
 65
   257
 75
     1
175
     1
 42
1.0
 92
        8
 66
     8
 43
1.0
 76
     1
 77
     6
 78
     2
 67
     7
 79
     5
170
     0
171
     0
290
     0
174
     0
 93
        1
 44
0.0
173
     0
291
     1
 45
0.0
1001
ACAD
1000
AcDbSavedByObjectVersion
1070
     0
  0
VISUALSTYLE
  5
32
102
{ACAD_XDICTIONARY
360
611
102
}
102
{ACAD_REACTORS
330
29
102
}
330
29
100
AcDbVisualStyle
  2
Conceptual
 70
     9
 71
     3
 72
     2
 73
     0
 90
        0
 40
-0.6
 41
-30.0
 62
     5
 63
     7
 74
     2
 91
        2
 64
     7
 65
   257
 75
     1
175
     1
 42
179.0
 92
        8
 66
     7
 43
1.0
 76
     1
 77
     6
 78
     2
 67
     7
 79
     3
170
     0
171
     0
290
     0
174
     0
 93
        1
 44
0.0
173
     0
291
     0
 45
0.0
1001
ACAD
1000
AcDbSavedByObjectVersion
1070
     0
  0
VISUALSTYLE
  5
34
102
{ACAD_XDICTIONARY
360
615
102
}
102
{ACAD_REACTORS
330
29
102
}
330
29
100
AcDbVisualStyle
  2
Dim
 70
    11
 71
     2
 72
     2
 73
     0
 90
        0
 40
-0.6
 41
-30.0
 62
     5
 63
     7
 74
     1
 91
        4
 64
     7
 65
   257
 75
     1
175
     1
 42
1.0
 92
        8
 66
     7
 43
1.0
 76
     1
 77
     6
 78
     2
 67
     7
 79
     5
170
     0
171
     0
290
     0
174
     0
 93
        1
 44
-50.0
173
     0
291
     1
 45
0.0
1001
ACAD
1000
AcDbSavedByObjectVersion
1070
     0
  0
VISUALSTYLE
  5
41
102
{ACAD_XDICTIONARY
360
62F
102
}
102
{ACAD_REACTORS
330
29
102
}
330
29
100
AcDbVisualStyle
  2
EdgeColorOff
 70
    22
 71
     2
 72
     2
 73
     0
 90
        0
 40
-0.6
 41
-30.0
 62
     5
 63
     7
 74
     1
 91
        4
 64
     7
 65
   257
 75
     1
175
     1
 42
1.0
 92
        8
 66
     7
 43
1.0
 76
     1
 77
     6
 78
     2
 67
     7
 79
     5
170
     0
171
     0
290
     0
174
     0
 93
        1
 44
0.0
173
     0
291
     1
 45
0.0
1001
ACAD
1000
AcDbSavedByObjectVersion
1070
     0
  0
VISUALSTYLE
  5
38
102
{ACAD_XDICTIONARY
360
61D
102
}
102
{ACAD_REACTORS
330
29
102
}
330
29
100
AcDbVisualStyle
  2
Facepattern
 70
    15
 71
     2
 72
     2
 73
     0
 90
        0
 40
-0.6
 41
-30.0
 62
     5
 63
     7
 74
     1
 91
        4
 64
     7
 65
   257
 75
     1
175
     1
 42
1.0
 92
        8
 66
     7
 43
1.0
 76
     1
 77
     6
 78
     2
 67
     7
 79
     5
170
     0
171
     0
290
     0
174
     0
 93
        1
 44
0.0
173
     0
291
     1
 45
0.0
1001
ACAD
1000
AcDbSavedByObjectVersion
1070
     0
  0
VISUALSTYLE
  5
2A
102
{ACAD_XDICTIONARY
360
601
102
}
102
{ACAD_REACTORS
330
29
102
}
330
29
100
AcDbVisualStyle
  2
Flat
 70
     0
 71
     2
 72
     1
 73
     1
 90
        2
 40
-0.6
 41
30.0
 62
     5
 63
     7
 74
     0
 91
        0
 64
     7
 65
   257
 75
     1
175
     1
 42
1.0
 92
        8
 66
     7
 43
1.0
 76
     1
 77
     6
 78
     2
 67
     7
 79
     5
170
     0
171
     0
290
     0
174
     0
 93
       13
 44
0.0
173
     0
291
     1
 45
0.0
1001
ACAD
1000
AcDbSavedByObjectVersion
1070
     0
  0
VISUALSTYLE
  5
2B
102
{ACAD_XDICTIONARY
360
603
102
}
102
{ACAD_REACTORS
330
29
102
}
330
29
100
AcDbVisualStyle
  2
FlatWithEdges
 70
     1
 71
     2
 72
     1
 73
     1
 90
        2
 40
-0.6
 41
30.0
 62
     5
 63
     7
 74
     1
 91
        0
 64
     7
 65
   257
 75
     1
175
     1
 42
1.0
 92
        0
 66
   257
 43
1.0
 76
     1
 77
     6
 78
     2
 67
     7
 79
     5
170
     0
171
     0
290
     0
174
     0
 93
       13
 44
0.0
173
     0
291
     1
 45
0.0
1001
ACAD
1000
AcDbSavedByObjectVersion
1070
     0
  0
VISUALSTYLE
  5
2C
102
{ACAD_XDICTIONARY
360
605
102
}
102
{ACAD_REACTORS
330
29
102
}
330
29
100
AcDbVisualStyle
  2
Gouraud
 70
     2
 71
     2
 72
     2
 73
     1
 90
        2
 40
-0.6
 41
30.0
 62
     5
 63
     7
 74
     0
 91
        0
 64
     7
 65
   257
 75
     1
175
     1
 42
1.0
 92
        0
 66
     7
 43
1.0
 76
     1
 77
     6
 78
     2
 67
     7
 79
     5
170
     0
171
     0
290
     0
174
     0
 93
       13
 44
0.0
173
     0
291
     1
 45
0.0
1001
ACAD
1000
AcDbSavedByObjectVersion
1070
     0
  0
VISUALSTYLE
  5
2D
102
{ACAD_XDICTIONARY
360
607
102
}
102
{ACAD_REACTORS
330
29
102
}
330
29
100
AcDbVisualStyle
  2
GouraudWithEdges
 70
     3
 71
     2
 72
     2
 73
     1
 90
        2
 40
-0.6
 41
30.0
 62
     5
 63
     7
 74
     1
 91
        0
 64
     7
 65
   257
 75
     1
175
     1
 42
1.0
 92
        0
 66
   257
 43
1.0
 76
     1
 77
     6
 78
     2
 67
     7
 79
     5
170
     0
171
     0
290
     0
174
     0
 93
       13
 44
0.0
173
     0
291
     1
 45
0.0
1001
ACAD
1000
AcDbSavedByObjectVersion
1070
     0
  0
VISUALSTYLE
  5
31
102
{ACAD_XDICTIONARY
360
60F
102
}
102
{ACAD_REACTORS
330
29
102
}
330
29
100
AcDbVisualStyle
  2
Hidden
 70
     6
 71
     1
 72
     2
 73
     2
 90
        0
 40
-0.6
 41
-30.0
 62
     5
 63
     7
 74
     2
 91
        2
 64
     7
 65
   257
 75
     2
175
     1
 42
40.0
 92
        0
 66
   257
 43
1.0
 76
     1
 77
     6
 78
     2
 67
     7
 79
     3
170
     0
171
     0
290
     0
174
     0
 93
        1
 44
0.0
173
     0
291
     0
 45
0.0
1001
ACAD
1000
AcDbSavedByObjectVersion
1070
     0
  0
VISUALSTYLE
  5
3F
102
{ACAD_XDICTIONARY
360
62B
102
}
102
{ACAD_REACTORS
330
29
102
}
330
29
100
AcDbVisualStyle
  2
JitterOff
 70
    20
 71
     2
 72
     2
 73
     0
 90
        0
 40
-0.6
 41
-30.0
 62
     5
 63
     7
 74
     1
 91
        4
 64
     7
 65
   257
 75
     1
175
     1
 42
1.0
 92
       10
 66
     7
 43
1.0
 76
     1
 77
     6
 78
     2
 67
     7
 79
     5
170
     0
171
     0
290
     0
174
     0
 93
        1
 44
0.0
173
     0
291
     1
 45
0.0
1001
ACAD
1000
AcDbSavedByObjectVersion
1070
     0
  0
VISUALSTYLE
  5
37
102
{ACAD_XDICTIONARY
360
61B
102
}
102
{ACAD_REACTORS
330
29
102
}
330
29
100
AcDbVisualStyle
  2
Linepattern
 70
    14
 71
     2
 72
     2
 73
     0
 90
        0
 40
-0.6
 41
-30.0
 62
     5
 63
     7
 74
     1
 91
        4
 64
     7
 65
   257
 75
     7
175
     7
 42
1.0
 92
        8
 66
     7
 43
1.0
 76
     1
 77
     6
 78
     2
 67
     7
 79
     5
170
     0
171
     0
290
     0
174
     0
 93
        1
 44
0.0
173
     0
291
     1
 45
0.0
1001
ACAD
1000
AcDbSavedByObjectVersion
1070
     0
  0
VISUALSTYLE
  5
40
102
{ACAD_XDICTIONARY
360
62D
102
}
102
{ACAD_REACTORS
330
29
102
}
330
29
100
AcDbVisualStyle
  2
OverhangOff
 70
    21
 71
     2
 72
     2
 73
     0
 90
        0
 40
-0.6
 41
-30.0
 62
     5
 63
     7
 74
     1
 91
        4
 64
     7
 65
   257
 75
     1
175
     1
 42
1.0
 92
        9
 66
     7
 43
1.0
 76
     1
 77
     6
 78
     2
 67
     7
 79
     5
170
     0
171
     0
290
     0
174
     0
 93
        1
 44
0.0
173
     0
291
     1
 45
0.0
1001
ACAD
1000
AcDbSavedByObjectVersion
1070
     0
  0
VISUALSTYLE
  5
33
102
{ACAD_XDICTIONARY
360
613
102
}
102
{ACAD_REACTORS
330
29
102
}
330
29
100
AcDbVisualStyle
  2
Realistic
 70
     8
 71
     2
 72
     3
 73
     0
 90
        2
 40
-0.6
 41
30.0
 62
     5
 63
     7
 74
     0
 91
        0
 64
     7
 65
   257
 75
     1
175
     1
 42
1.0
 92
        8
 66
   257
 43
1.0
 76
     1
 77
     6
 78
     2
 67
     7
 79
     3
170
     0
171
     0
290
     0
174
     0
 93
       13
 44
0.0
173
     0
291
     0
 45
0.0
1001
ACAD
1000
AcDbSavedByObjectVersion
1070
     0
  0
VISUALSTYLE
  5
3E
102
{ACAD_XDICTIONARY
360
629
102
}
102
{ACAD_REACTORS
330
29
102
}
330
29
100
AcDbVisualStyle
  2
Shaded
 70
    27
 71
     2
 72
     2
 73
     1
 90
        2
 40
-0.6
 41
30.0
 62
     5
 63
     7
 74
     0
 91
        4
 64
     7
 65
   257
 75
     1
175
     1
 42
1.0
 92
        8
 66
   257
 43
1.0
 76
     1
 77
     6
 78
     2
 67
     8
 79
     3
170
     0
171
     0
290
     0
174
     0
 93
        5
 44
0.0
173
     0
291
     0
 45
0.0
1001
ACAD
1000
AcDbSavedByObjectVersion
1070
     0
  0
VISUALSTYLE
  5
3D
102
{ACAD_XDICTIONARY
360
627
102
}
102
{ACAD_REACTORS
330
29
102
}
330
29
100
AcDbVisualStyle
  2
Shaded with edges
 70
    26
 71
     2
 72
     2
 73
     1
 90
        2
 40
-0.6
 41
30.0
 62
     5
 63
     7
 74
     1
 91
        2
 64
     7
 65
   257
 75
     2
175
     1
 42
1.0
 92
        8
 66
   257
 43
1.0
 76
     1
 77
     6
 78
     2
 67
     7
 79
     3
170
     0
171
     0
290
     0
174
     0
 93
        5
 44
0.0
173
     0
291
     0
 45
0.0
1001
ACAD
1000
AcDbSavedByObjectVersion
1070
     0
  0
VISUALSTYLE
  5
3A
102
{ACAD_XDICTIONARY
360
621
102
}
102
{ACAD_REACTORS
330
29
102
}
330
29
100
AcDbVisualStyle
  2
Shades of Gray
 70
    23
 71
     2
 72
     2
 73
     3
 90
        0
 40
-0.6
 41
-30.0
 62
     5
 63
     7
 74
     2
 91
        2
 64
     7
 65
     7
 75
     1
175
     1
 42
40.0
 92
        8
 66
     7
 43
1.0
 76
     1
 77
     6
 78
     2
 67
     7
 79
     3
170
     0
171
     0
290
     0
174
     0
 93
        1
 44
0.0
173
     0
291
     0
 45
0.0
1001
ACAD
1000
AcDbSavedByObjectVersion
1070
     0
  0
VISUALSTYLE
  5
3B
102
{ACAD_XDICTIONARY
360
623
102
}
102
{ACAD_REACTORS
330
29
102
}
330
29
100
AcDbVisualStyle
  2
Sketchy
 70
    24
 71
     1
 72
     2
 73
     2
 90
        0
 40
-0.6
 41
-30.0
 62
     5
 63
     7
 74
     2
 91
        2
 64
     7
 65
     7
 75
     1
175
     1
 42
40.0
 92
       11
 66
     7
 43
1.0
 76
     1
 77
     6
 78
     2
 67
     7
 79
     6
170
     0
171
     0
290
     0
174
     0
 93
        1
 44
0.0
173
     0
291
     0
 45
0.0
1001
ACAD
1000
AcDbSavedByObjectVersion
1070
     0
  0
VISUALSTYLE
  5
36
102
{ACAD_XDICTIONARY
360
619
102
}
102
{ACAD_REACTORS
330
29
102
}
330
29
100
AcDbVisualStyle
  2
Thicken
 70
    13
 71
     2
 72
     2
 73
     0
 90
        0
 40
-0.6
 41
-30.0
 62
     5
 63
     7
 74
     1
 91
        4
 64
     7
 65
   257
 75
     1
175
     1
 42
1.0
 92
       12
 66
     7
 43
1.0
 76
     1
 77
     6
 78
     2
 67
     7
 79
     5
170
     0
171
     0
290
     0
174
     0
 93
        1
 44
0.0
173
     0
291
     1
 45
0.0
1001
ACAD
1000
AcDbSavedByObjectVersion
1070
     0
  0
VISUALSTYLE
  5
30
102
{ACAD_XDICTIONARY
360
60D
102
}
102
{ACAD_REACTORS
330
29
102
}
330
29
100
AcDbVisualStyle
  2
Wireframe
 70
     5
 71
     0
 72
     2
 73
     0
 90
        0
 40
-0.6
 41
-30.0
 62
     5
 63
     7
 74
     1
 91
        4
 64
     7
 65
   257
 75
     1
175
     1
 42
1.0
 92
        0
 66
   257
 43
1.0
 76
     1
 77
     6
 78
     2
 67
     7
 79
     3
170
     0
171
     0
290
     0
174
     0
 93
        1
 44
0.0
173
     0
291
     0
 45
0.0
1001
ACAD
1000
AcDbSavedByObjectVersion
1070
     0
  0
VISUALSTYLE
  5
3C
102
{ACAD_XDICTIONARY
360
625
102
}
102
{ACAD_REACTORS
330
29
102
}
330
29
100
AcDbVisualStyle
  2
X-Ray
 70
    25
 71
     2
 72
     2
 73
     1
 90
        1
 40
0.5
 41
-30.0
 62
     5
 63
     7
 74
     1
 91
        0
 64
     7
 65
   257
 75
     1
175
     1
 42
1.0
 92
        8
 66
     7
 43
1.0
 76
     1
 77
     6
 78
     2
 67
     7
 79
     3
170
     0
171
     0
290
     0
174
     0
 93
       13
 44
0.0
173
     0
291
     0
 45
0.0
1001
ACAD
1000
AcDbSavedByObjectVersion
1070
     0
  0
DICTIONARYVAR
  5
570
102
{ACAD_REACTORS
330
56A
102
}
330
56A
100
DictionaryVariables
280
     0
  1
1
  0
DICTIONARYVAR
  5
571
102
{ACAD_REACTORS
330
56A
102
}
330
56A
100
DictionaryVariables
280
     0
  1
1:1
  0
DICTIONARYVAR
  5
56C
102
{ACAD_REACTORS
330
56A
102
}
330
56A
100
DictionaryVariables
280
     0
  1
STANDARD
  0
DICTIONARYVAR
  5
56B
102
{ACAD_REACTORS
330
56A
102
}
330
56A
100
DictionaryVariables
280
     0
  1
STANDARD
  0
DICTIONARYVAR
  5
56D
102
{ACAD_REACTORS
330
56A
102
}
330
56A
100
DictionaryVariables
280
     0
  1
ISO 128-34_2001
  0
DICTIONARYVAR
  5
56E
102
{ACAD_REACTORS
330
56A
102
}
330
56A
100
DictionaryVariables
280
     0
  1
ISO 128-40_2001(E)
  0
DICTIONARYVAR
  5
5E2
102
{ACAD_REACTORS
330
56A
102
}
330
56A
100
DictionaryVariables
280
     0
  1
2
  0
DICTIONARYVAR
  5
5E0
102
{ACAD_REACTORS
330
56A
102
}
330
56A
100
DictionaryVariables
280
     0
  1
1
  0
DICTIONARYVAR
  5
5DF
102
{ACAD_REACTORS
330
56A
102
}
330
56A
100
DictionaryVariables
280
     0
  1
0
  0
DICTIONARYVAR
  5
573
102
{ACAD_REACTORS
330
56A
102
}
330
56A
100
DictionaryVariables
280
     0
  1
1
  0
DICTIONARYVAR
  5
574
102
{ACAD_REACTORS
330
56A
102
}
330
56A
100
DictionaryVariables
280
     0
  1
15
  0
DICTIONARYVAR
  5
572
102
{ACAD_REACTORS
330
56A
102
}
330
56A
100
DictionaryVariables
280
     0
  1
0
  0
DICTIONARYVAR
  5
56F
102
{ACAD_REACTORS
330
56A
102
}
330
56A
100
DictionaryVariables
280
     0
  1
0
  0
DICTIONARYVAR
  5
5DE
102
{ACAD_REACTORS
330
56A
102
}
330
56A
100
DictionaryVariables
280
     0
  1
127
  0
DICTIONARYVAR
  5
5E1
102
{ACAD_REACTORS
330
56A
102
}
330
56A
100
DictionaryVariables
280
     0
  1
0
  0
DICTIONARY
  5
5AA
102
{ACAD_REACTORS
330
5A3
102
}
330
5A3
100
AcDbDictionary
281
     1
  0
DICTIONARY
  5
584
102
{ACAD_REACTORS
330
583
102
}
330
583
100
AcDbDictionary
281
     1
  3
DWGSETTINGS
350
585
  3
TRANSSETTINGS
350
586
  0
XRECORD
  5
569
102
{ACAD_REACTORS
330
567
102
}
330
567
100
AcDbXrecord
280
     1
330
502
330
503
330
50A
330
50B
330
512
330
513
330
51A
330
51D
330
526
330
527
330
52E
330
52F
330
538
330
539
330
540
330
541
330
548
330
549
330
551
330
552
330
559
330
55A
330
561
330
562
  0
DICTIONARY
  5
637
330
6B
100
AcDbDictionary
280
     1
281
     1
  3
ACAD_XREC_ROUNDTRIP
360
638
  0
DICTIONARY
  5
654
330
577
100
AcDbDictionary
280
     1
281
     1
  3
ACAD_XREC_ROUNDTRIP
360
655
  0
DICTIONARY
  5
63B
330
73
100
AcDbDictionary
280
     1
281
     1
  3
ACAD_XREC_ROUNDTRIP
360
63C
  0
DICTIONARY
  5
639
330
6F
100
AcDbDictionary
280
     1
281
     1
  3
ACAD_XREC_ROUNDTRIP
360
63A
  0
DICTIONARY
  5
63D
330
77
100
AcDbDictionary
280
     1
281
     1
  3
ACAD_XREC_ROUNDTRIP
360
63E
  0
DICTIONARY
  5
1A
330
19
100
AcDbDictionary
280
     1
281
     1
  3
ACAD_XREC_ROUNDTRIP
360
5FF
  3
BUMPTILE
360
1C
  3
DIFFUSETILE
360
1B
  3
OPACITYTILE
360
1F
  3
REFLECTIONTILE
360
1E
  3
REFRACTIONTILE
360
20
  3
SPECULARTILE
360
1D
  0
DICTIONARY
  5
12
330
11
100
AcDbDictionary
280
     1
281
     1
  3
ACAD_XREC_ROUNDTRIP
360
5FE
  3
BUMPTILE
360
14
  3
DIFFUSETILE
360
13
  3
OPACITYTILE
360
17
  3
REFLECTIONTILE
360
16
  3
REFRACTIONTILE
360
18
  3
SPECULARTILE
360
15
  0
DICTIONARY
  5
22
330
21
100
AcDbDictionary
280
     1
281
     1
  3
ACAD_XREC_ROUNDTRIP
360
600
  3
BUMPTILE
360
24
  3
DIFFUSETILE
360
23
  3
OPACITYTILE
360
27
  3
REFLECTIONTILE
360
26
  3
REFRACTIONTILE
360
28
  3
SPECULARTILE
360
25
  0
DICTIONARY
  5
633
330
67
100
AcDbDictionary
280
     1
281
     1
  3
ACAD_XREC_ROUNDTRIP
360
634
  0
DICTIONARY
  5
635
330
69
100
AcDbDictionary
280
     1
281
     1
  3
ACAD_XREC_ROUNDTRIP
360
636
  0
DICTIONARY
  5
652
330
576
100
AcDbDictionary
280
     1
281
     1
  3
ACAD_XREC_ROUNDTRIP
360
653
  0
DICTIONARY
  5
5E5
330
65
100
AcDbDictionary
280
     1
281
     1
  3
ACAD_ROUNDTRIP_2008_TABLESTYLE_CELLSTYLEMAP
360
5E6
  3
ACAD_XREC_ROUNDTRIP
360
631
  0
DICTIONARY
  5
60B
330
2F
100
AcDbDictionary
280
     1
281
     1
  3
ACAD_XREC_ROUNDTRIP
360
60C
  0
DICTIONARY
  5
609
330
2E
100
AcDbDictionary
280
     1
281
     1
  3
ACAD_XREC_ROUNDTRIP
360
60A
  0
DICTIONARY
  5
617
330
35
100
AcDbDictionary
280
     1
281
     1
  3
ACAD_XREC_ROUNDTRIP
360
618
  0
DICTIONARY
  5
61F
330
39
100
AcDbDictionary
280
     1
281
     1
  3
ACAD_XREC_ROUNDTRIP
360
620
  0
DICTIONARY
  5
611
330
32
100
AcDbDictionary
280
     1
281
     1
  3
ACAD_XREC_ROUNDTRIP
360
612
  0
DICTIONARY
  5
615
330
34
100
AcDbDictionary
280
     1
281
     1
  3
ACAD_XREC_ROUNDTRIP
360
616
  0
DICTIONARY
  5
62F
330
41
100
AcDbDictionary
280
     1
281
     1
  3
ACAD_XREC_ROUNDTRIP
360
630
  0
DICTIONARY
  5
61D
330
38
100
AcDbDictionary
280
     1
281
     1
  3
ACAD_XREC_ROUNDTRIP
360
61E
  0
DICTIONARY
  5
601
330
2A
100
AcDbDictionary
280
     1
281
     1
  3
ACAD_XREC_ROUNDTRIP
360
602
  0
DICTIONARY
  5
603
330
2B
100
AcDbDictionary
280
     1
281
     1
  3
ACAD_XREC_ROUNDTRIP
360
604
  0
DICTIONARY
  5
605
330
2C
100
AcDbDictionary
280
     1
281
     1
  3
ACAD_XREC_ROUNDTRIP
360
606
  0
DICTIONARY
  5
607
330
2D
100
AcDbDictionary
280
     1
281
     1
  3
ACAD_XREC_ROUNDTRIP
360
608
  0
DICTIONARY
  5
60F
330
31
100
AcDbDictionary
280
     1
281
     1
  3
ACAD_XREC_ROUNDTRIP
360
610
  0
DICTIONARY
  5
62B
330
3F
100
AcDbDictionary
280
     1
281
     1
  3
ACAD_XREC_ROUNDTRIP
360
62C
  0
DICTIONARY
  5
61B
330
37
100
AcDbDictionary
280
     1
281
     1
  3
ACAD_XREC_ROUNDTRIP
360
61C
  0
DICTIONARY
  5
62D
330
40
100
AcDbDictionary
280
     1
281
     1
  3
ACAD_XREC_ROUNDTRIP
360
62E
  0
DICTIONARY
  5
613
330
33
100
AcDbDictionary
280
     1
281
     1
  3
ACAD_XREC_ROUNDTRIP
360
614
  0
DICTIONARY
  5
629
330
3E
100
AcDbDictionary
280
     1
281
     1
  3
ACAD_XREC_ROUNDTRIP
360
62A
  0
DICTIONARY
  5
627
330
3D
100
AcDbDictionary
280
     1
281
     1
  3
ACAD_XREC_ROUNDTRIP
360
628
  0
DICTIONARY
  5
621
330
3A
100
AcDbDictionary
280
     1
281
     1
  3
ACAD_XREC_ROUNDTRIP
360
622
  0
DICTIONARY
  5
623
330
3B
100
AcDbDictionary
280
     1
281
     1
  3
ACAD_XREC_ROUNDTRIP
360
624
  0
DICTIONARY
  5
619
330
36
100
AcDbDictionary
280
     1
281
     1
  3
ACAD_XREC_ROUNDTRIP
360
61A
  0
DICTIONARY
  5
60D
330
30
100
AcDbDictionary
280
     1
281
     1
  3
ACAD_XREC_ROUNDTRIP
360
60E
  0
DICTIONARY
  5
625
330
3C
100
AcDbDictionary
280
     1
281
     1
  3
ACAD_XREC_ROUNDTRIP
360
626
  0
XRECORD
  5
638
102
{ACAD_REACTORS
330
637
102
}
330
637
100
AcDbXrecord
280
     1
102
DISPLAYNAME
  1
Imperial24
102
FLAGS
 90
        0
  0
XRECORD
  5
655
102
{ACAD_REACTORS
330
654
102
}
330
654
100
AcDbXrecord
280
     1
102
DISPLAYNAME
  1
Metric50
102
FLAGS
 90
        0
  0
XRECORD
  5
63C
102
{ACAD_REACTORS
330
63B
102
}
330
63B
100
AcDbXrecord
280
     1
102
SHADEPLOT
 70
     0
102
SHADEPLOTRESLEVEL
 70
     2
102
SHADEPLOTCUSTOMDPI
 70
   300
  0
XRECORD
  5
63A
102
{ACAD_REACTORS
330
639
102
}
330
639
100
AcDbXrecord
280
     1
102
SHADEPLOT
 70
     0
102
SHADEPLOTRESLEVEL
 70
     2
102
SHADEPLOTCUSTOMDPI
 70
   300
  0
XRECORD
  5
63E
102
{ACAD_REACTORS
330
63D
102
}
330
63D
100
AcDbXrecord
280
     1
102
SHADEPLOT
 70
     0
102
SHADEPLOTRESLEVEL
 70
     2
102
SHADEPLOTCUSTOMDPI
 70
   300
  0
XRECORD
  5
5FF
102
{ACAD_REACTORS
330
1A
102
}
330
1A
100
AcDbXrecord
280
     1
102
MATERIAL
148
0.0
149
0.0
149
0.0
 93
        0
 94
      127
282
     0
 72
     0
 77
     0
171
     0
175
     0
179
     0
273
     0
  0
XRECORD
  5
1C
102
{ACAD_REACTORS
330
1A
102
}
330
1A
100
AcDbXrecord
280
     1
270
     1
271
     1
  0
XRECORD
  5
1B
102
{ACAD_REACTORS
330
1A
102
}
330
1A
100
AcDbXrecord
280
     1
270
     1
271
     1
  0
XRECORD
  5
1F
102
{ACAD_REACTORS
330
1A
102
}
330
1A
100
AcDbXrecord
280
     1
270
     1
271
     1
  0
XRECORD
  5
1E
102
{ACAD_REACTORS
330
1A
102
}
330
1A
100
AcDbXrecord
280
     1
270
     1
271
     1
  0
XRECORD
  5
20
102
{ACAD_REACTORS
330
1A
102
}
330
1A
100
AcDbXrecord
280
     1
270
     1
271
     1
  0
XRECORD
  5
1D
102
{ACAD_REACTORS
330
1A
102
}
330
1A
100
AcDbXrecord
280
     1
270
     1
271
     1
  0
XRECORD
  5
5FE
102
{ACAD_REACTORS
330
12
102
}
330
12
100
AcDbXrecord
280
     1
102
MATERIAL
148
0.0
149
0.0
149
0.0
 93
        0
 94
      127
282
     0
 72
     0
 77
     0
171
     0
175
     0
179
     0
273
     0
  0
XRECORD
  5
14
102
{ACAD_REACTORS
330
12
102
}
330
12
100
AcDbXrecord
280
     1
270
     1
271
     1
  0
XRECORD
  5
13
102
{ACAD_REACTORS
330
12
102
}
330
12
100
AcDbXrecord
280
     1
270
     1
271
     1
  0
XRECORD
  5
17
102
{ACAD_REACTORS
330
12
102
}
330
12
100
AcDbXrecord
280
     1
270
     1
271
     1
  0
XRECORD
  5
16
102
{ACAD_REACTORS
330
12
102
}
330
12
100
AcDbXrecord
280
     1
270
     1
271
     1
  0
XRECORD
  5
18
102
{ACAD_REACTORS
330
12
102
}
330
12
100
AcDbXrecord
280
     1
270
     1
271
     1
  0
XRECORD
  5
15
102
{ACAD_REACTORS
330
12
102
}
330
12
100
AcDbXrecord
280
     1
270
     1
271
     1
  0
XRECORD
  5
600
102
{ACAD_REACTORS
330
22
102
}
330
22
100
AcDbXrecord
280
     1
102
MATERIAL
148
0.0
149
0.0
149
0.0
 93
        0
 94
      127
282
     0
 72
     0
 77
     0
171
     0
175
     0
179
     0
273
     0
  0
XRECORD
  5
24
102
{ACAD_REACTORS
330
22
102
}
330
22
100
AcDbXrecord
280
     1
270
     1
271
     1
  0
XRECORD
  5
23
102
{ACAD_REACTORS
330
22
102
}
330
22
100
AcDbXrecord
280
     1
270
     1
271
     1
  0
XRECORD
  5
27
102
{ACAD_REACTORS
330
22
102
}
330
22
100
AcDbXrecord
280
     1
270
     1
271
     1
  0
XRECORD
  5
26
102
{ACAD_REACTORS
330
22
102
}
330
22
100
AcDbXrecord
280
     1
270
     1
271
     1
  0
XRECORD
  5
28
102
{ACAD_REACTORS
330
22
102
}
330
22
100
AcDbXrecord
280
     1
270
     1
271
     1
  0
XRECORD
  5
25
102
{ACAD_REACTORS
330
22
102
}
330
22
100
AcDbXrecord
280
     1
270
     1
271
     1
  0
XRECORD
  5
634
102
{ACAD_REACTORS
330
633
102
}
330
633
100
AcDbXrecord
280
     1
102
ACAD_ROUNDTRIP_2012_MLEADER_STYLE
298
     1
  0
XRECORD
  5
636
102
{ACAD_REACTORS
330
635
102
}
330
635
100
AcDbXrecord
280
     1
102
DISPLAYNAME
  1
Imperial24
102
FLAGS
 90
        0
  0
XRECORD
  5
653
102
{ACAD_REACTORS
330
652
102
}
330
652
100
AcDbXrecord
280
     1
102
DISPLAYNAME
  1
Metric50
102
FLAGS
 90
        0
  0
CELLSTYLEMAP
  5
5E6
102
{ACAD_REACTORS
330
5E5
102
}
330
5E5
100
AcDbCellStyleMap
 90
        3
300
CELLSTYLE
  1
TABLEFORMAT_BEGIN
 90
        5
170
     1
 91
        0
 92
    32768
 62
   257
 93
        1
300
CONTENTFORMAT
  1
CONTENTFORMAT_BEGIN
 90
        0
 91
        0
 92
      512
 93
        0
300

 40
0.0
140
1.0
 94
        5
 62
     0
340
55
144
3.5
309
CONTENTFORMAT_END
171
     1
301
MARGIN
  1
CELLMARGIN_BEGIN
 40
1.5
 40
1.5
 40
1.5
 40
1.5
 40
4.5
 40
4.5
309
CELLMARGIN_END
 94
        6
 95
        1
302
GRIDFORMAT
  1
GRIDFORMAT_BEGIN
 90
        0
 91
        1
 62
     0
 92
       -2
340
5B
 93
        0
 40
1.125
309
GRIDFORMAT_END
 95
        2
302
GRIDFORMAT
  1
GRIDFORMAT_BEGIN
 90
        0
 91
        1
 62
     0
 92
       -2
340
5B
 93
        0
 40
1.125
309
GRIDFORMAT_END
 95
        4
302
GRIDFORMAT
  1
GRIDFORMAT_BEGIN
 90
        0
 91
        1
 62
     0
 92
       -2
340
5B
 93
        0
 40
1.125
309
GRIDFORMAT_END
 95
        8
302
GRIDFORMAT
  1
GRIDFORMAT_BEGIN
 90
        0
 91
        1
 62
     0
 92
       -2
340
5B
 93
        0
 40
1.125
309
GRIDFORMAT_END
 95
       16
302
GRIDFORMAT
  1
GRIDFORMAT_BEGIN
 90
        0
 91
        1
 62
     0
 92
       -2
340
5B
 93
        0
 40
1.125
309
GRIDFORMAT_END
 95
       32
302
GRIDFORMAT
  1
GRIDFORMAT_BEGIN
 90
        0
 91
        1
 62
     0
 92
       -2
340
5B
 93
        0
 40
1.125
309
GRIDFORMAT_END
309
TABLEFORMAT_END
  1
CELLSTYLE_BEGIN
 90
        1
 91
        1
300
_TITLE
309
CELLSTYLE_END
300
CELLSTYLE
  1
TABLEFORMAT_BEGIN
 90
        5
170
     1
 91
        0
 92
        0
 62
   257
 93
        1
300
CONTENTFORMAT
  1
CONTENTFORMAT_BEGIN
 90
        0
 91
        0
 92
      512
 93
        0
300

 40
0.0
140
1.0
 94
        5
 62
     0
340
55
144
3.5
309
CONTENTFORMAT_END
171
     1
301
MARGIN
  1
CELLMARGIN_BEGIN
 40
1.5
 40
1.5
 40
1.5
 40
1.5
 40
4.5
 40
4.5
309
CELLMARGIN_END
 94
        6
 95
        1
302
GRIDFORMAT
  1
GRIDFORMAT_BEGIN
 90
        0
 91
        1
 62
     0
 92
       -2
340
5B
 93
        0
 40
1.125
309
GRIDFORMAT_END
 95
        2
302
GRIDFORMAT
  1
GRIDFORMAT_BEGIN
 90
        0
 91
        1
 62
     0
 92
       -2
340
5B
 93
        0
 40
1.125
309
GRIDFORMAT_END
 95
        4
302
GRIDFORMAT
  1
GRIDFORMAT_BEGIN
 90
        0
 91
        1
 62
     0
 92
       -2
340
5B
 93
        0
 40
1.125
309
GRIDFORMAT_END
 95
        8
302
GRIDFORMAT
  1
GRIDFORMAT_BEGIN
 90
        0
 91
        1
 62
     0
 92
       -2
340
5B
 93
        0
 40
1.125
309
GRIDFORMAT_END
 95
       16
302
GRIDFORMAT
  1
GRIDFORMAT_BEGIN
 90
        0
 91
        1
 62
     0
 92
       -2
340
5B
 93
        0
 40
1.125
309
GRIDFORMAT_END
 95
       32
302
GRIDFORMAT
  1
GRIDFORMAT_BEGIN
 90
        0
 91
        1
 62
     0
 92
       -2
340
5B
 93
        0
 40
1.125
309
GRIDFORMAT_END
309
TABLEFORMAT_END
  1
CELLSTYLE_BEGIN
 90
        2
 91
        1
300
_HEADER
309
CELLSTYLE_END
300
CELLSTYLE
  1
TABLEFORMAT_BEGIN
 90
        5
170
     1
 91
        0
 92
        0
 62
   257
 93
        1
300
CONTENTFORMAT
  1
CONTENTFORMAT_BEGIN
 90
        0
 91
        0
 92
      512
 93
        0
300

 40
0.0
140
1.0
 94
        2
 62
     0
340
55
144
3.5
309
CONTENTFORMAT_END
171
     1
301
MARGIN
  1
CELLMARGIN_BEGIN
 40
1.5
 40
1.5
 40
1.5
 40
1.5
 40
4.5
 40
4.5
309
CELLMARGIN_END
 94
        6
 95
        1
302
GRIDFORMAT
  1
GRIDFORMAT_BEGIN
 90
        0
 91
        1
 62
     0
 92
       -2
340
5B
 93
        0
 40
1.125
309
GRIDFORMAT_END
 95
        2
302
GRIDFORMAT
  1
GRIDFORMAT_BEGIN
 90
        0
 91
        1
 62
     0
 92
       -2
340
5B
 93
        0
 40
1.125
309
GRIDFORMAT_END
 95
        4
302
GRIDFORMAT
  1
GRIDFORMAT_BEGIN
 90
        0
 91
        1
 62
     0
 92
       -2
340
5B
 93
        0
 40
1.125
309
GRIDFORMAT_END
 95
        8
302
GRIDFORMAT
  1
GRIDFORMAT_BEGIN
 90
        0
 91
        1
 62
     0
 92
       -2
340
5B
 93
        0
 40
1.125
309
GRIDFORMAT_END
 95
       16
302
GRIDFORMAT
  1
GRIDFORMAT_BEGIN
 90
        0
 91
        1
 62
     0
 92
       -2
340
5B
 93
        0
 40
1.125
309
GRIDFORMAT_END
 95
       32
302
GRIDFORMAT
  1
GRIDFORMAT_BEGIN
 90
        0
 91
        1
 62
     0
 92
       -2
340
5B
 93
        0
 40
1.125
309
GRIDFORMAT_END
309
TABLEFORMAT_END
  1
CELLSTYLE_BEGIN
 90
        3
 91
        2
300
_DATA
309
CELLSTYLE_END
  0
XRECORD
  5
631
102
{ACAD_REACTORS
330
5E5
102
}
330
5E5
100
AcDbXrecord
280
     1
102
ACAD_ROUNDTRIP_PRE2007_TABLESTYLE
 90
      512
 91
        0
  1

 92
      512
 93
        0
  2

 94
      512
 95
        0
  3

  0
XRECORD
  5
60C
102
{ACAD_REACTORS
330
60B
102
}
330
60B
100
AcDbXrecord
280
     1
102
RTVSPost2010Prop28
280
     1
102
RTVSPost2010PropOp28
 70
     1
102
RTVSPost2010Prop29
280
     1
102
RTVSPost2010PropOp29
 70
     1
102
RTVSPost2010Prop30
280
     0
102
RTVSPost2010PropOp30
 70
     1
102
RTVSPost2010Prop31
280
     0
102
RTVSPost2010PropOp31
 70
     1
102
RTVSPost2010Prop32
280
     0
102
RTVSPost2010PropOp32
 70
     1
102
RTVSPost2010Prop33
280
     0
102
RTVSPost2010PropOp33
 70
     1
102
RTVSPost2010Prop34
280
     0
102
RTVSPost2010PropOp34
 70
     1
102
RTVSPost2010Prop35
280
     0
102
RTVSPost2010PropOp35
 70
     1
102
RTVSPost2010Prop36
280
     0
102
RTVSPost2010PropOp36
 70
     1
102
RTVSPost2010Prop37
 90
       50
102
RTVSPost2010PropOp37
 70
     1
102
RTVSPost2010Prop38
140
0.0
102
RTVSPost2010PropOp38
 70
     1
102
RTVSPost2010Prop39
140
1.0
102
RTVSPost2010PropOp39
 70
     1
102
RTVSPost2010Prop40
 90
        0
102
RTVSPost2010PropOp40
 70
     1
102
RTVSPost2010Prop41ColorIndex
 90
       18
102
RTVSPost2010Prop41ColorRGB
 90
        0
102
RTVSPost2010PropOp41
 70
     1
102
RTVSPost2010Prop42
 90
       50
102
RTVSPost2010PropOp42
 70
     1
102
RTVSPost2010Prop43
 90
        3
102
RTVSPost2010PropOp43
 70
     1
102
RTVSPost2010Prop44ColorIndex
 90
        5
102
RTVSPost2010Prop44ColorRGB
 90
      255
102
RTVSPost2010PropOp44
 70
     1
102
RTVSPost2010Prop45
280
     0
102
RTVSPost2010PropOp45
 70
     1
102
RTVSPost2010Prop46
 90
       50
102
RTVSPost2010PropOp46
 70
     1
102
RTVSPost2010Prop47
 90
       50
102
RTVSPost2010PropOp47
 70
     1
102
RTVSPost2010Prop48
 90
       50
102
RTVSPost2010PropOp48
 70
     1
102
RTVSPost2010Prop49
280
     0
102
RTVSPost2010PropOp49
 70
     1
102
RTVSPost2010Prop50
 90
       50
102
RTVSPost2010PropOp50
 70
     1
102
RTVSPost2010Prop51ColorIndex
 90
      256
102
RTVSPost2010Prop51ColorRGB
 90
-16777216
102
RTVSPost2010PropOp51
 70
     0
102
RTVSPost2010Prop52
140
1.0
102
RTVSPost2010PropOp52
 70
     0
102
RTVSPost2010Prop53
 90
        2
102
RTVSPost2010PropOp53
 70
     1
102
RTVSPost2010Prop54
  1
strokes_ogs.tif
102
RTVSPost2010PropOp54
 70
     1
102
RTVSPost2010Prop55
280
     0
102
RTVSPost2010PropOp55
 70
     1
102
RTVSPost2010Prop56
140
1.0
102
RTVSPost2010PropOp56
 70
     1
102
RTVSPost2010Prop57
140
1.0
102
RTVSPost2010PropOp57
 70
     1
102
RTVSPropertyOp0
 70
     1
102
RTVSPropertyOp1
 70
     1
102
RTVSPropertyOp2
 70
     1
102
RTVSPropertyOp3
 70
     1
102
RTVSPropertyOp4
 70
     1
102
RTVSPropertyOp5
 70
     1
102
RTVSPropertyOp6
 70
     1
102
RTVSPropertyOp7
 70
     1
102
RTVSPropertyOp8
 70
     1
102
RTVSPropertyOp9
 70
     1
102
RTVSPropertyOp10
 70
     1
102
RTVSPropertyOp11
 70
     1
102
RTVSPropertyOp12
 70
     1
102
RTVSPropertyOp13
 70
     1
102
RTVSPropertyOp14
 70
     1
102
RTVSPropertyOp15
 70
     1
102
RTVSPropertyOp16
 70
     1
102
RTVSPropertyOp17
 70
     1
102
RTVSPropertyOp18
 70
     1
102
RTVSPropertyOp19
 70
     1
102
RTVSPropertyOp20
 70
     1
102
RTVSPropertyOp21
 70
     1
102
RTVSPropertyOp22
 70
     1
102
RTVSPropertyOp23
 70
     1
102
RTVSPropertyOp24
 70
     1
102
RTVSPropertyOp25
 70
     1
102
RTVSPropertyOp26
 70
     1
102
RTVSPropertyOp27
 70
     1
102
RTVSPropertyOp28
 70
     1
102
RTVSPropertyOp29
 70
     1
102
RTVSPropertyOp30
 70
     1
102
RTVSPropertyOp31
 70
     1
102
RTVSPropertyOp32
 70
     1
102
RTVSPropertyOp33
 70
     1
102
RTVSPropertyOp34
 70
     1
102
RTVSPropertyOp35
 70
     1
102
RTVSPropertyOp36
 70
     1
102
RTVSPropertyOp37
 70
     1
102
RTVSPropertyOp38
 70
     1
102
RTVSPropertyOp39
 70
     1
102
RTVSPropertyOp40
 70
     1
102
RTVSPropertyOp41
 70
     1
102
RTVSPropertyOp42
 70
     1
102
RTVSPropertyOp43
 70
     1
102
RTVSPropertyOp44
 70
     1
102
RTVSPropertyOp45
 70
     1
102
RTVSPropertyOp46
 70
     1
102
RTVSPropertyOp47
 70
     1
102
RTVSPropertyOp48
 70
     1
102
RTVSPropertyOp49
 70
     1
102
RTVSPropertyOp50
 70
     1
102
RTVSPropertyOp51
 70
     0
102
RTVSPropertyOp52
 70
     0
102
RTVSPropertyOp53
 70
     1
102
RTVSPropertyOp54
 70
     1
102
RTVSPropertyOp55
 70
     1
102
RTVSPropertyOp56
 70
     1
102
RTVSPropertyOp57
 70
     1
102
RTVSPropertyOp58
 70
     1
102
RTVSPropertyOp59
 70
     1
102
RTVSPropertyOp60
 70
     1
102
RTVSPropertyOp61
 70
     1
102
RTVSPropertyOp62
 70
     1
  0
XRECORD
  5
60A
102
{ACAD_REACTORS
330
609
102
}
330
609
100
AcDbXrecord
280
     1
102
RTVSPost2010Prop28
280
     0
102
RTVSPost2010PropOp28
 70
     1
102
RTVSPost2010Prop29
280
     1
102
RTVSPost2010PropOp29
 70
     1
102
RTVSPost2010Prop30
280
     1
102
RTVSPost2010PropOp30
 70
     1
102
RTVSPost2010Prop31
280
     0
102
RTVSPost2010PropOp31
 70
     1
102
RTVSPost2010Prop32
280
     0
102
RTVSPost2010PropOp32
 70
     1
102
RTVSPost2010Prop33
280
     0
102
RTVSPost2010PropOp33
 70
     1
102
RTVSPost2010Prop34
280
     0
102
RTVSPost2010PropOp34
 70
     1
102
RTVSPost2010Prop35
280
     0
102
RTVSPost2010PropOp35
 70
     1
102
RTVSPost2010Prop36
280
     0
102
RTVSPost2010PropOp36
 70
     1
102
RTVSPost2010Prop37
 90
       50
102
RTVSPost2010PropOp37
 70
     1
102
RTVSPost2010Prop38
140
0.0
102
RTVSPost2010PropOp38
 70
     1
102
RTVSPost2010Prop39
140
1.0
102
RTVSPost2010PropOp39
 70
     1
102
RTVSPost2010Prop40
 90
        0
102
RTVSPost2010PropOp40
 70
     1
102
RTVSPost2010Prop41ColorIndex
 90
       18
102
RTVSPost2010Prop41ColorRGB
 90
        0
102
RTVSPost2010PropOp41
 70
     1
102
RTVSPost2010Prop42
 90
       50
102
RTVSPost2010PropOp42
 70
     1
102
RTVSPost2010Prop43
 90
        3
102
RTVSPost2010PropOp43
 70
     1
102
RTVSPost2010Prop44ColorIndex
 90
        5
102
RTVSPost2010Prop44ColorRGB
 90
      255
102
RTVSPost2010PropOp44
 70
     1
102
RTVSPost2010Prop45
280
     0
102
RTVSPost2010PropOp45
 70
     1
102
RTVSPost2010Prop46
 90
       50
102
RTVSPost2010PropOp46
 70
     1
102
RTVSPost2010Prop47
 90
       50
102
RTVSPost2010PropOp47
 70
     1
102
RTVSPost2010Prop48
 90
       50
102
RTVSPost2010PropOp48
 70
     1
102
RTVSPost2010Prop49
280
     0
102
RTVSPost2010PropOp49
 70
     1
102
RTVSPost2010Prop50
 90
       50
102
RTVSPost2010PropOp50
 70
     1
102
RTVSPost2010Prop51ColorIndex
 90
      256
102
RTVSPost2010Prop51ColorRGB
 90
-16777216
102
RTVSPost2010PropOp51
 70
     0
102
RTVSPost2010Prop52
140
1.0
102
RTVSPost2010PropOp52
 70
     0
102
RTVSPost2010Prop53
 90
        2
102
RTVSPost2010PropOp53
 70
     1
102
RTVSPost2010Prop54
  1
strokes_ogs.tif
102
RTVSPost2010PropOp54
 70
     1
102
RTVSPost2010Prop55
280
     0
102
RTVSPost2010PropOp55
 70
     1
102
RTVSPost2010Prop56
140
1.0
102
RTVSPost2010PropOp56
 70
     1
102
RTVSPost2010Prop57
140
1.0
102
RTVSPost2010PropOp57
 70
     1
102
RTVSPropertyOp0
 70
     1
102
RTVSPropertyOp1
 70
     1
102
RTVSPropertyOp2
 70
     1
102
RTVSPropertyOp3
 70
     1
102
RTVSPropertyOp4
 70
     1
102
RTVSPropertyOp5
 70
     1
102
RTVSPropertyOp6
 70
     1
102
RTVSPropertyOp7
 70
     1
102
RTVSPropertyOp8
 70
     1
102
RTVSPropertyOp9
 70
     1
102
RTVSPropertyOp10
 70
     1
102
RTVSPropertyOp11
 70
     1
102
RTVSPropertyOp12
 70
     1
102
RTVSPropertyOp13
 70
     1
102
RTVSPropertyOp14
 70
     1
102
RTVSPropertyOp15
 70
     1
102
RTVSPropertyOp16
 70
     1
102
RTVSPropertyOp17
 70
     1
102
RTVSPropertyOp18
 70
     1
102
RTVSPropertyOp19
 70
     1
102
RTVSPropertyOp20
 70
     1
102
RTVSPropertyOp21
 70
     1
102
RTVSPropertyOp22
 70
     1
102
RTVSPropertyOp23
 70
     1
102
RTVSPropertyOp24
 70
     1
102
RTVSPropertyOp25
 70
     1
102
RTVSPropertyOp26
 70
     1
102
RTVSPropertyOp27
 70
     1
102
RTVSPropertyOp28
 70
     1
102
RTVSPropertyOp29
 70
     1
102
RTVSPropertyOp30
 70
     1
102
RTVSPropertyOp31
 70
     1
102
RTVSPropertyOp32
 70
     1
102
RTVSPropertyOp33
 70
     1
102
RTVSPropertyOp34
 70
     1
102
RTVSPropertyOp35
 70
     1
102
RTVSPropertyOp36
 70
     1
102
RTVSPropertyOp37
 70
     1
102
RTVSPropertyOp38
 70
     1
102
RTVSPropertyOp39
 70
     1
102
RTVSPropertyOp40
 70
     1
102
RTVSPropertyOp41
 70
     1
102
RTVSPropertyOp42
 70
     1
102
RTVSPropertyOp43
 70
     1
102
RTVSPropertyOp44
 70
     1
102
RTVSPropertyOp45
 70
     1
102
RTVSPropertyOp46
 70
     1
102
RTVSPropertyOp47
 70
     1
102
RTVSPropertyOp48
 70
     1
102
RTVSPropertyOp49
 70
     1
102
RTVSPropertyOp50
 70
     1
102
RTVSPropertyOp51
 70
     0
102
RTVSPropertyOp52
 70
     0
102
RTVSPropertyOp53
 70
     1
102
RTVSPropertyOp54
 70
     1
102
RTVSPropertyOp55
 70
     1
102
RTVSPropertyOp56
 70
     1
102
RTVSPropertyOp57
 70
     1
102
RTVSPropertyOp58
 70
     1
102
RTVSPropertyOp59
 70
     1
102
RTVSPropertyOp60
 70
     1
102
RTVSPropertyOp61
 70
     1
102
RTVSPropertyOp62
 70
     1
  0
XRECORD
  5
618
102
{ACAD_REACTORS
330
617
102
}
330
617
100
AcDbXrecord
280
     1
102
RTVSPost2010Prop28
280
     0
102
RTVSPost2010PropOp28
 70
     1
102
RTVSPost2010Prop29
280
     1
102
RTVSPost2010PropOp29
 70
     1
102
RTVSPost2010Prop30
280
     1
102
RTVSPost2010PropOp30
 70
     1
102
RTVSPost2010Prop31
280
     0
102
RTVSPost2010PropOp31
 70
     1
102
RTVSPost2010Prop32
280
     0
102
RTVSPost2010PropOp32
 70
     1
102
RTVSPost2010Prop33
280
     0
102
RTVSPost2010PropOp33
 70
     1
102
RTVSPost2010Prop34
280
     0
102
RTVSPost2010PropOp34
 70
     1
102
RTVSPost2010Prop35
280
     0
102
RTVSPost2010PropOp35
 70
     1
102
RTVSPost2010Prop36
280
     0
102
RTVSPost2010PropOp36
 70
     1
102
RTVSPost2010Prop37
 90
       50
102
RTVSPost2010PropOp37
 70
     1
102
RTVSPost2010Prop38
140
0.0
102
RTVSPost2010PropOp38
 70
     1
102
RTVSPost2010Prop39
140
1.0
102
RTVSPost2010PropOp39
 70
     1
102
RTVSPost2010Prop40
 90
        0
102
RTVSPost2010PropOp40
 70
     1
102
RTVSPost2010Prop41ColorIndex
 90
       18
102
RTVSPost2010Prop41ColorRGB
 90
        0
102
RTVSPost2010PropOp41
 70
     1
102
RTVSPost2010Prop42
 90
       50
102
RTVSPost2010PropOp42
 70
     1
102
RTVSPost2010Prop43
 90
        3
102
RTVSPost2010PropOp43
 70
     1
102
RTVSPost2010Prop44ColorIndex
 90
        5
102
RTVSPost2010Prop44ColorRGB
 90
      255
102
RTVSPost2010PropOp44
 70
     1
102
RTVSPost2010Prop45
280
     0
102
RTVSPost2010PropOp45
 70
     1
102
RTVSPost2010Prop46
 90
       50
102
RTVSPost2010PropOp46
 70
     1
102
RTVSPost2010Prop47
 90
       50
102
RTVSPost2010PropOp47
 70
     1
102
RTVSPost2010Prop48
 90
       50
102
RTVSPost2010PropOp48
 70
     1
102
RTVSPost2010Prop49
280
     0
102
RTVSPost2010PropOp49
 70
     1
102
RTVSPost2010Prop50
 90
       50
102
RTVSPost2010PropOp50
 70
     1
102
RTVSPost2010Prop51ColorIndex
 90
      256
102
RTVSPost2010Prop51ColorRGB
 90
-16777216
102
RTVSPost2010PropOp51
 70
     0
102
RTVSPost2010Prop52
140
1.0
102
RTVSPost2010PropOp52
 70
     0
102
RTVSPost2010Prop53
 90
        2
102
RTVSPost2010PropOp53
 70
     1
102
RTVSPost2010Prop54
  1
strokes_ogs.tif
102
RTVSPost2010PropOp54
 70
     1
102
RTVSPost2010Prop55
280
     0
102
RTVSPost2010PropOp55
 70
     1
102
RTVSPost2010Prop56
140
1.0
102
RTVSPost2010PropOp56
 70
     1
102
RTVSPost2010Prop57
140
1.0
102
RTVSPost2010PropOp57
 70
     1
102
RTVSPropertyOp0
 70
     1
102
RTVSPropertyOp1
 70
     1
102
RTVSPropertyOp2
 70
     1
102
RTVSPropertyOp3
 70
     1
102
RTVSPropertyOp4
 70
     1
102
RTVSPropertyOp5
 70
     1
102
RTVSPropertyOp6
 70
     1
102
RTVSPropertyOp7
 70
     1
102
RTVSPropertyOp8
 70
     1
102
RTVSPropertyOp9
 70
     1
102
RTVSPropertyOp10
 70
     1
102
RTVSPropertyOp11
 70
     1
102
RTVSPropertyOp12
 70
     1
102
RTVSPropertyOp13
 70
     1
102
RTVSPropertyOp14
 70
     1
102
RTVSPropertyOp15
 70
     1
102
RTVSPropertyOp16
 70
     1
102
RTVSPropertyOp17
 70
     1
102
RTVSPropertyOp18
 70
     1
102
RTVSPropertyOp19
 70
     1
102
RTVSPropertyOp20
 70
     1
102
RTVSPropertyOp21
 70
     1
102
RTVSPropertyOp22
 70
     1
102
RTVSPropertyOp23
 70
     1
102
RTVSPropertyOp24
 70
     1
102
RTVSPropertyOp25
 70
     1
102
RTVSPropertyOp26
 70
     1
102
RTVSPropertyOp27
 70
     1
102
RTVSPropertyOp28
 70
     1
102
RTVSPropertyOp29
 70
     1
102
RTVSPropertyOp30
 70
     1
102
RTVSPropertyOp31
 70
     1
102
RTVSPropertyOp32
 70
     1
102
RTVSPropertyOp33
 70
     1
102
RTVSPropertyOp34
 70
     1
102
RTVSPropertyOp35
 70
     1
102
RTVSPropertyOp36
 70
     1
102
RTVSPropertyOp37
 70
     1
102
RTVSPropertyOp38
 70
     1
102
RTVSPropertyOp39
 70
     1
102
RTVSPropertyOp40
 70
     1
102
RTVSPropertyOp41
 70
     1
102
RTVSPropertyOp42
 70
     1
102
RTVSPropertyOp43
 70
     1
102
RTVSPropertyOp44
 70
     1
102
RTVSPropertyOp45
 70
     1
102
RTVSPropertyOp46
 70
     1
102
RTVSPropertyOp47
 70
     1
102
RTVSPropertyOp48
 70
     1
102
RTVSPropertyOp49
 70
     1
102
RTVSPropertyOp50
 70
     1
102
RTVSPropertyOp51
 70
     0
102
RTVSPropertyOp52
 70
     0
102
RTVSPropertyOp53
 70
     1
102
RTVSPropertyOp54
 70
     1
102
RTVSPropertyOp55
 70
     1
102
RTVSPropertyOp56
 70
     1
102
RTVSPropertyOp57
 70
     1
102
RTVSPropertyOp58
 70
     1
102
RTVSPropertyOp59
 70
     1
102
RTVSPropertyOp60
 70
     1
102
RTVSPropertyOp61
 70
     1
102
RTVSPropertyOp62
 70
     1
  0
XRECORD
  5
620
102
{ACAD_REACTORS
330
61F
102
}
330
61F
100
AcDbXrecord
280
     1
102
RTVSPost2010Prop28
280
     0
102
RTVSPost2010PropOp28
 70
     1
102
RTVSPost2010Prop29
280
     1
102
RTVSPost2010PropOp29
 70
     1
102
RTVSPost2010Prop30
280
     1
102
RTVSPost2010PropOp30
 70
     1
102
RTVSPost2010Prop31
280
     0
102
RTVSPost2010PropOp31
 70
     1
102
RTVSPost2010Prop32
280
     0
102
RTVSPost2010PropOp32
 70
     1
102
RTVSPost2010Prop33
280
     0
102
RTVSPost2010PropOp33
 70
     1
102
RTVSPost2010Prop34
280
     0
102
RTVSPost2010PropOp34
 70
     1
102
RTVSPost2010Prop35
280
     0
102
RTVSPost2010PropOp35
 70
     1
102
RTVSPost2010Prop36
280
     0
102
RTVSPost2010PropOp36
 70
     1
102
RTVSPost2010Prop37
 90
       50
102
RTVSPost2010PropOp37
 70
     1
102
RTVSPost2010Prop38
140
0.0
102
RTVSPost2010PropOp38
 70
     1
102
RTVSPost2010Prop39
140
1.0
102
RTVSPost2010PropOp39
 70
     1
102
RTVSPost2010Prop40
 90
        0
102
RTVSPost2010PropOp40
 70
     1
102
RTVSPost2010Prop41ColorIndex
 90
       18
102
RTVSPost2010Prop41ColorRGB
 90
        0
102
RTVSPost2010PropOp41
 70
     1
102
RTVSPost2010Prop42
 90
       50
102
RTVSPost2010PropOp42
 70
     1
102
RTVSPost2010Prop43
 90
        3
102
RTVSPost2010PropOp43
 70
     1
102
RTVSPost2010Prop44ColorIndex
 90
        5
102
RTVSPost2010Prop44ColorRGB
 90
      255
102
RTVSPost2010PropOp44
 70
     1
102
RTVSPost2010Prop45
280
     0
102
RTVSPost2010PropOp45
 70
     1
102
RTVSPost2010Prop46
 90
       50
102
RTVSPost2010PropOp46
 70
     1
102
RTVSPost2010Prop47
 90
       50
102
RTVSPost2010PropOp47
 70
     1
102
RTVSPost2010Prop48
 90
       50
102
RTVSPost2010PropOp48
 70
     1
102
RTVSPost2010Prop49
280
     0
102
RTVSPost2010PropOp49
 70
     1
102
RTVSPost2010Prop50
 90
       50
102
RTVSPost2010PropOp50
 70
     1
102
RTVSPost2010Prop51ColorIndex
 90
      256
102
RTVSPost2010Prop51ColorRGB
 90
-16777216
102
RTVSPost2010PropOp51
 70
     0
102
RTVSPost2010Prop52
140
1.0
102
RTVSPost2010PropOp52
 70
     0
102
RTVSPost2010Prop53
 90
        2
102
RTVSPost2010PropOp53
 70
     1
102
RTVSPost2010Prop54
  1
strokes_ogs.tif
102
RTVSPost2010PropOp54
 70
     1
102
RTVSPost2010Prop55
280
     0
102
RTVSPost2010PropOp55
 70
     1
102
RTVSPost2010Prop56
140
1.0
102
RTVSPost2010PropOp56
 70
     1
102
RTVSPost2010Prop57
140
1.0
102
RTVSPost2010PropOp57
 70
     1
102
RTVSPropertyOp0
 70
     1
102
RTVSPropertyOp1
 70
     1
102
RTVSPropertyOp2
 70
     1
102
RTVSPropertyOp3
 70
     1
102
RTVSPropertyOp4
 70
     1
102
RTVSPropertyOp5
 70
     1
102
RTVSPropertyOp6
 70
     1
102
RTVSPropertyOp7
 70
     1
102
RTVSPropertyOp8
 70
     1
102
RTVSPropertyOp9
 70
     1
102
RTVSPropertyOp10
 70
     1
102
RTVSPropertyOp11
 70
     1
102
RTVSPropertyOp12
 70
     1
102
RTVSPropertyOp13
 70
     1
102
RTVSPropertyOp14
 70
     1
102
RTVSPropertyOp15
 70
     1
102
RTVSPropertyOp16
 70
     1
102
RTVSPropertyOp17
 70
     1
102
RTVSPropertyOp18
 70
     1
102
RTVSPropertyOp19
 70
     1
102
RTVSPropertyOp20
 70
     1
102
RTVSPropertyOp21
 70
     1
102
RTVSPropertyOp22
 70
     1
102
RTVSPropertyOp23
 70
     1
102
RTVSPropertyOp24
 70
     1
102
RTVSPropertyOp25
 70
     1
102
RTVSPropertyOp26
 70
     1
102
RTVSPropertyOp27
 70
     1
102
RTVSPropertyOp28
 70
     1
102
RTVSPropertyOp29
 70
     1
102
RTVSPropertyOp30
 70
     1
102
RTVSPropertyOp31
 70
     1
102
RTVSPropertyOp32
 70
     1
102
RTVSPropertyOp33
 70
     1
102
RTVSPropertyOp34
 70
     1
102
RTVSPropertyOp35
 70
     1
102
RTVSPropertyOp36
 70
     1
102
RTVSPropertyOp37
 70
     1
102
RTVSPropertyOp38
 70
     1
102
RTVSPropertyOp39
 70
     1
102
RTVSPropertyOp40
 70
     1
102
RTVSPropertyOp41
 70
     1
102
RTVSPropertyOp42
 70
     1
102
RTVSPropertyOp43
 70
     1
102
RTVSPropertyOp44
 70
     1
102
RTVSPropertyOp45
 70
     1
102
RTVSPropertyOp46
 70
     1
102
RTVSPropertyOp47
 70
     1
102
RTVSPropertyOp48
 70
     1
102
RTVSPropertyOp49
 70
     1
102
RTVSPropertyOp50
 70
     1
102
RTVSPropertyOp51
 70
     0
102
RTVSPropertyOp52
 70
     0
102
RTVSPropertyOp53
 70
     1
102
RTVSPropertyOp54
 70
     1
102
RTVSPropertyOp55
 70
     1
102
RTVSPropertyOp56
 70
     1
102
RTVSPropertyOp57
 70
     1
102
RTVSPropertyOp58
 70
     1
102
RTVSPropertyOp59
 70
     1
102
RTVSPropertyOp60
 70
     1
102
RTVSPropertyOp61
 70
     1
102
RTVSPropertyOp62
 70
     1
  0
XRECORD
  5
612
102
{ACAD_REACTORS
330
611
102
}
330
611
100
AcDbXrecord
280
     1
102
RTVSPost2010Prop28
280
     0
102
RTVSPost2010PropOp28
 70
     1
102
RTVSPost2010Prop29
280
     1
102
RTVSPost2010PropOp29
 70
     1
102
RTVSPost2010Prop30
280
     1
102
RTVSPost2010PropOp30
 70
     1
102
RTVSPost2010Prop31
280
     0
102
RTVSPost2010PropOp31
 70
     1
102
RTVSPost2010Prop32
280
     0
102
RTVSPost2010PropOp32
 70
     1
102
RTVSPost2010Prop33
280
     0
102
RTVSPost2010PropOp33
 70
     1
102
RTVSPost2010Prop34
280
     0
102
RTVSPost2010PropOp34
 70
     1
102
RTVSPost2010Prop35
280
     0
102
RTVSPost2010PropOp35
 70
     1
102
RTVSPost2010Prop36
280
     0
102
RTVSPost2010PropOp36
 70
     1
102
RTVSPost2010Prop37
 90
       50
102
RTVSPost2010PropOp37
 70
     1
102
RTVSPost2010Prop38
140
0.0
102
RTVSPost2010PropOp38
 70
     1
102
RTVSPost2010Prop39
140
1.0
102
RTVSPost2010PropOp39
 70
     1
102
RTVSPost2010Prop40
 90
        0
102
RTVSPost2010PropOp40
 70
     1
102
RTVSPost2010Prop41ColorIndex
 90
       18
102
RTVSPost2010Prop41ColorRGB
 90
        0
102
RTVSPost2010PropOp41
 70
     1
102
RTVSPost2010Prop42
 90
       50
102
RTVSPost2010PropOp42
 70
     1
102
RTVSPost2010Prop43
 90
        3
102
RTVSPost2010PropOp43
 70
     1
102
RTVSPost2010Prop44ColorIndex
 90
        5
102
RTVSPost2010Prop44ColorRGB
 90
      255
102
RTVSPost2010PropOp44
 70
     1
102
RTVSPost2010Prop45
280
     0
102
RTVSPost2010PropOp45
 70
     1
102
RTVSPost2010Prop46
 90
       50
102
RTVSPost2010PropOp46
 70
     1
102
RTVSPost2010Prop47
 90
       50
102
RTVSPost2010PropOp47
 70
     1
102
RTVSPost2010Prop48
 90
       50
102
RTVSPost2010PropOp48
 70
     1
102
RTVSPost2010Prop49
280
     0
102
RTVSPost2010PropOp49
 70
     1
102
RTVSPost2010Prop50
 90
       50
102
RTVSPost2010PropOp50
 70
     1
102
RTVSPost2010Prop51ColorIndex
 90
      256
102
RTVSPost2010Prop51ColorRGB
 90
-16777216
102
RTVSPost2010PropOp51
 70
     0
102
RTVSPost2010Prop52
140
1.0
102
RTVSPost2010PropOp52
 70
     0
102
RTVSPost2010Prop53
 90
        2
102
RTVSPost2010PropOp53
 70
     1
102
RTVSPost2010Prop54
  1
strokes_ogs.tif
102
RTVSPost2010PropOp54
 70
     1
102
RTVSPost2010Prop55
280
     0
102
RTVSPost2010PropOp55
 70
     1
102
RTVSPost2010Prop56
140
1.0
102
RTVSPost2010PropOp56
 70
     1
102
RTVSPost2010Prop57
140
1.0
102
RTVSPost2010PropOp57
 70
     1
102
RTVSPropertyOp0
 70
     1
102
RTVSPropertyOp1
 70
     1
102
RTVSPropertyOp2
 70
     1
102
RTVSPropertyOp3
 70
     1
102
RTVSPropertyOp4
 70
     1
102
RTVSPropertyOp5
 70
     1
102
RTVSPropertyOp6
 70
     1
102
RTVSPropertyOp7
 70
     1
102
RTVSPropertyOp8
 70
     1
102
RTVSPropertyOp9
 70
     1
102
RTVSPropertyOp10
 70
     1
102
RTVSPropertyOp11
 70
     1
102
RTVSPropertyOp12
 70
     1
102
RTVSPropertyOp13
 70
     1
102
RTVSPropertyOp14
 70
     1
102
RTVSPropertyOp15
 70
     1
102
RTVSPropertyOp16
 70
     1
102
RTVSPropertyOp17
 70
     1
102
RTVSPropertyOp18
 70
     1
102
RTVSPropertyOp19
 70
     1
102
RTVSPropertyOp20
 70
     1
102
RTVSPropertyOp21
 70
     1
102
RTVSPropertyOp22
 70
     1
102
RTVSPropertyOp23
 70
     1
102
RTVSPropertyOp24
 70
     1
102
RTVSPropertyOp25
 70
     1
102
RTVSPropertyOp26
 70
     1
102
RTVSPropertyOp27
 70
     1
102
RTVSPropertyOp28
 70
     1
102
RTVSPropertyOp29
 70
     1
102
RTVSPropertyOp30
 70
     1
102
RTVSPropertyOp31
 70
     1
102
RTVSPropertyOp32
 70
     1
102
RTVSPropertyOp33
 70
     1
102
RTVSPropertyOp34
 70
     1
102
RTVSPropertyOp35
 70
     1
102
RTVSPropertyOp36
 70
     1
102
RTVSPropertyOp37
 70
     1
102
RTVSPropertyOp38
 70
     1
102
RTVSPropertyOp39
 70
     1
102
RTVSPropertyOp40
 70
     1
102
RTVSPropertyOp41
 70
     1
102
RTVSPropertyOp42
 70
     1
102
RTVSPropertyOp43
 70
     1
102
RTVSPropertyOp44
 70
     1
102
RTVSPropertyOp45
 70
     1
102
RTVSPropertyOp46
 70
     1
102
RTVSPropertyOp47
 70
     1
102
RTVSPropertyOp48
 70
     1
102
RTVSPropertyOp49
 70
     1
102
RTVSPropertyOp50
 70
     1
102
RTVSPropertyOp51
 70
     0
102
RTVSPropertyOp52
 70
     0
102
RTVSPropertyOp53
 70
     1
102
RTVSPropertyOp54
 70
     1
102
RTVSPropertyOp55
 70
     1
102
RTVSPropertyOp56
 70
     1
102
RTVSPropertyOp57
 70
     1
102
RTVSPropertyOp58
 70
     1
102
RTVSPropertyOp59
 70
     1
102
RTVSPropertyOp60
 70
     1
102
RTVSPropertyOp61
 70
     1
102
RTVSPropertyOp62
 70
     1
  0
XRECORD
  5
616
102
{ACAD_REACTORS
330
615
102
}
330
615
100
AcDbXrecord
280
     1
102
RTVSPost2010Prop28
280
     0
102
RTVSPost2010PropOp28
 70
     1
102
RTVSPost2010Prop29
280
     1
102
RTVSPost2010PropOp29
 70
     1
102
RTVSPost2010Prop30
280
     1
102
RTVSPost2010PropOp30
 70
     1
102
RTVSPost2010Prop31
280
     0
102
RTVSPost2010PropOp31
 70
     1
102
RTVSPost2010Prop32
280
     0
102
RTVSPost2010PropOp32
 70
     1
102
RTVSPost2010Prop33
280
     0
102
RTVSPost2010PropOp33
 70
     1
102
RTVSPost2010Prop34
280
     0
102
RTVSPost2010PropOp34
 70
     1
102
RTVSPost2010Prop35
280
     0
102
RTVSPost2010PropOp35
 70
     1
102
RTVSPost2010Prop36
280
     0
102
RTVSPost2010PropOp36
 70
     1
102
RTVSPost2010Prop37
 90
       50
102
RTVSPost2010PropOp37
 70
     1
102
RTVSPost2010Prop38
140
0.0
102
RTVSPost2010PropOp38
 70
     1
102
RTVSPost2010Prop39
140
1.0
102
RTVSPost2010PropOp39
 70
     1
102
RTVSPost2010Prop40
 90
        0
102
RTVSPost2010PropOp40
 70
     1
102
RTVSPost2010Prop41ColorIndex
 90
       18
102
RTVSPost2010Prop41ColorRGB
 90
        0
102
RTVSPost2010PropOp41
 70
     1
102
RTVSPost2010Prop42
 90
       50
102
RTVSPost2010PropOp42
 70
     1
102
RTVSPost2010Prop43
 90
        3
102
RTVSPost2010PropOp43
 70
     1
102
RTVSPost2010Prop44ColorIndex
 90
        5
102
RTVSPost2010Prop44ColorRGB
 90
      255
102
RTVSPost2010PropOp44
 70
     1
102
RTVSPost2010Prop45
280
     0
102
RTVSPost2010PropOp45
 70
     1
102
RTVSPost2010Prop46
 90
       50
102
RTVSPost2010PropOp46
 70
     1
102
RTVSPost2010Prop47
 90
       50
102
RTVSPost2010PropOp47
 70
     1
102
RTVSPost2010Prop48
 90
       50
102
RTVSPost2010PropOp48
 70
     1
102
RTVSPost2010Prop49
280
     0
102
RTVSPost2010PropOp49
 70
     1
102
RTVSPost2010Prop50
 90
       50
102
RTVSPost2010PropOp50
 70
     1
102
RTVSPost2010Prop51ColorIndex
 90
      256
102
RTVSPost2010Prop51ColorRGB
 90
-16777216
102
RTVSPost2010PropOp51
 70
     0
102
RTVSPost2010Prop52
140
1.0
102
RTVSPost2010PropOp52
 70
     0
102
RTVSPost2010Prop53
 90
        2
102
RTVSPost2010PropOp53
 70
     1
102
RTVSPost2010Prop54
  1
strokes_ogs.tif
102
RTVSPost2010PropOp54
 70
     1
102
RTVSPost2010Prop55
280
     0
102
RTVSPost2010PropOp55
 70
     1
102
RTVSPost2010Prop56
140
1.0
102
RTVSPost2010PropOp56
 70
     1
102
RTVSPost2010Prop57
140
1.0
102
RTVSPost2010PropOp57
 70
     1
102
RTVSPropertyOp0
 70
     1
102
RTVSPropertyOp1
 70
     1
102
RTVSPropertyOp2
 70
     1
102
RTVSPropertyOp3
 70
     1
102
RTVSPropertyOp4
 70
     1
102
RTVSPropertyOp5
 70
     1
102
RTVSPropertyOp6
 70
     1
102
RTVSPropertyOp7
 70
     1
102
RTVSPropertyOp8
 70
     1
102
RTVSPropertyOp9
 70
     1
102
RTVSPropertyOp10
 70
     1
102
RTVSPropertyOp11
 70
     1
102
RTVSPropertyOp12
 70
     1
102
RTVSPropertyOp13
 70
     1
102
RTVSPropertyOp14
 70
     1
102
RTVSPropertyOp15
 70
     1
102
RTVSPropertyOp16
 70
     1
102
RTVSPropertyOp17
 70
     1
102
RTVSPropertyOp18
 70
     1
102
RTVSPropertyOp19
 70
     1
102
RTVSPropertyOp20
 70
     1
102
RTVSPropertyOp21
 70
     1
102
RTVSPropertyOp22
 70
     1
102
RTVSPropertyOp23
 70
     1
102
RTVSPropertyOp24
 70
     1
102
RTVSPropertyOp25
 70
     1
102
RTVSPropertyOp26
 70
     1
102
RTVSPropertyOp27
 70
     1
102
RTVSPropertyOp28
 70
     1
102
RTVSPropertyOp29
 70
     1
102
RTVSPropertyOp30
 70
     1
102
RTVSPropertyOp31
 70
     1
102
RTVSPropertyOp32
 70
     1
102
RTVSPropertyOp33
 70
     1
102
RTVSPropertyOp34
 70
     1
102
RTVSPropertyOp35
 70
     1
102
RTVSPropertyOp36
 70
     1
102
RTVSPropertyOp37
 70
     1
102
RTVSPropertyOp38
 70
     1
102
RTVSPropertyOp39
 70
     1
102
RTVSPropertyOp40
 70
     1
102
RTVSPropertyOp41
 70
     1
102
RTVSPropertyOp42
 70
     1
102
RTVSPropertyOp43
 70
     1
102
RTVSPropertyOp44
 70
     1
102
RTVSPropertyOp45
 70
     1
102
RTVSPropertyOp46
 70
     1
102
RTVSPropertyOp47
 70
     1
102
RTVSPropertyOp48
 70
     1
102
RTVSPropertyOp49
 70
     1
102
RTVSPropertyOp50
 70
     1
102
RTVSPropertyOp51
 70
     0
102
RTVSPropertyOp52
 70
     0
102
RTVSPropertyOp53
 70
     1
102
RTVSPropertyOp54
 70
     1
102
RTVSPropertyOp55
 70
     1
102
RTVSPropertyOp56
 70
     1
102
RTVSPropertyOp57
 70
     1
102
RTVSPropertyOp58
 70
     1
102
RTVSPropertyOp59
 70
     1
102
RTVSPropertyOp60
 70
     1
102
RTVSPropertyOp61
 70
     1
102
RTVSPropertyOp62
 70
     1
  0
XRECORD
  5
630
102
{ACAD_REACTORS
330
62F
102
}
330
62F
100
AcDbXrecord
280
     1
102
RTVSPost2010Prop28
280
     0
102
RTVSPost2010PropOp28
 70
     0
102
RTVSPost2010Prop29
280
     1
102
RTVSPost2010PropOp29
 70
     0
102
RTVSPost2010Prop30
280
     1
102
RTVSPost2010PropOp30
 70
     0
102
RTVSPost2010Prop31
280
     0
102
RTVSPost2010PropOp31
 70
     0
102
RTVSPost2010Prop32
280
     0
102
RTVSPost2010PropOp32
 70
     0
102
RTVSPost2010Prop33
280
     0
102
RTVSPost2010PropOp33
 70
     0
102
RTVSPost2010Prop34
280
     0
102
RTVSPost2010PropOp34
 70
     0
102
RTVSPost2010Prop35
280
     0
102
RTVSPost2010PropOp35
 70
     0
102
RTVSPost2010Prop36
280
     0
102
RTVSPost2010PropOp36
 70
     0
102
RTVSPost2010Prop37
 90
       50
102
RTVSPost2010PropOp37
 70
     0
102
RTVSPost2010Prop38
140
0.0
102
RTVSPost2010PropOp38
 70
     0
102
RTVSPost2010Prop39
140
1.0
102
RTVSPost2010PropOp39
 70
     0
102
RTVSPost2010Prop40
 90
        0
102
RTVSPost2010PropOp40
 70
     0
102
RTVSPost2010Prop41ColorIndex
 90
       18
102
RTVSPost2010Prop41ColorRGB
 90
        0
102
RTVSPost2010PropOp41
 70
     0
102
RTVSPost2010Prop42
 90
       50
102
RTVSPost2010PropOp42
 70
     0
102
RTVSPost2010Prop43
 90
        3
102
RTVSPost2010PropOp43
 70
     0
102
RTVSPost2010Prop44ColorIndex
 90
        5
102
RTVSPost2010Prop44ColorRGB
 90
      255
102
RTVSPost2010PropOp44
 70
     0
102
RTVSPost2010Prop45
280
     0
102
RTVSPost2010PropOp45
 70
     0
102
RTVSPost2010Prop46
 90
       50
102
RTVSPost2010PropOp46
 70
     0
102
RTVSPost2010Prop47
 90
       50
102
RTVSPost2010PropOp47
 70
     0
102
RTVSPost2010Prop48
 90
       50
102
RTVSPost2010PropOp48
 70
     0
102
RTVSPost2010Prop49
280
     0
102
RTVSPost2010PropOp49
 70
     0
102
RTVSPost2010Prop50
 90
       50
102
RTVSPost2010PropOp50
 70
     0
102
RTVSPost2010Prop51ColorIndex
 90
      256
102
RTVSPost2010Prop51ColorRGB
 90
-16777216
102
RTVSPost2010PropOp51
 70
     0
102
RTVSPost2010Prop52
140
1.0
102
RTVSPost2010PropOp52
 70
     0
102
RTVSPost2010Prop53
 90
        2
102
RTVSPost2010PropOp53
 70
     0
102
RTVSPost2010Prop54
  1
strokes_ogs.tif
102
RTVSPost2010PropOp54
 70
     0
102
RTVSPost2010Prop55
280
     0
102
RTVSPost2010PropOp55
 70
     0
102
RTVSPost2010Prop56
140
1.0
102
RTVSPost2010PropOp56
 70
     0
102
RTVSPost2010Prop57
140
1.0
102
RTVSPost2010PropOp57
 70
     0
102
RTVSPropertyOp0
 70
     0
102
RTVSPropertyOp1
 70
     0
102
RTVSPropertyOp2
 70
     0
102
RTVSPropertyOp3
 70
     0
102
RTVSPropertyOp4
 70
     0
102
RTVSPropertyOp5
 70
     0
102
RTVSPropertyOp6
 70
     0
102
RTVSPropertyOp7
 70
     0
102
RTVSPropertyOp8
 70
     0
102
RTVSPropertyOp9
 70
     0
102
RTVSPropertyOp10
 70
     0
102
RTVSPropertyOp11
 70
     0
102
RTVSPropertyOp12
 70
     0
102
RTVSPropertyOp13
 70
     0
102
RTVSPropertyOp14
 70
     2
102
RTVSPropertyOp15
 70
     0
102
RTVSPropertyOp16
 70
     0
102
RTVSPropertyOp17
 70
     0
102
RTVSPropertyOp18
 70
     0
102
RTVSPropertyOp19
 70
     0
102
RTVSPropertyOp20
 70
     0
102
RTVSPropertyOp21
 70
     0
102
RTVSPropertyOp22
 70
     0
102
RTVSPropertyOp23
 70
     0
102
RTVSPropertyOp24
 70
     0
102
RTVSPropertyOp25
 70
     0
102
RTVSPropertyOp26
 70
     0
102
RTVSPropertyOp27
 70
     0
102
RTVSPropertyOp28
 70
     0
102
RTVSPropertyOp29
 70
     0
102
RTVSPropertyOp30
 70
     0
102
RTVSPropertyOp31
 70
     0
102
RTVSPropertyOp32
 70
     0
102
RTVSPropertyOp33
 70
     0
102
RTVSPropertyOp34
 70
     0
102
RTVSPropertyOp35
 70
     0
102
RTVSPropertyOp36
 70
     0
102
RTVSPropertyOp37
 70
     0
102
RTVSPropertyOp38
 70
     0
102
RTVSPropertyOp39
 70
     0
102
RTVSPropertyOp40
 70
     0
102
RTVSPropertyOp41
 70
     0
102
RTVSPropertyOp42
 70
     0
102
RTVSPropertyOp43
 70
     0
102
RTVSPropertyOp44
 70
     0
102
RTVSPropertyOp45
 70
     0
102
RTVSPropertyOp46
 70
     0
102
RTVSPropertyOp47
 70
     0
102
RTVSPropertyOp48
 70
     0
102
RTVSPropertyOp49
 70
     0
102
RTVSPropertyOp50
 70
     0
102
RTVSPropertyOp51
 70
     0
102
RTVSPropertyOp52
 70
     0
102
RTVSPropertyOp53
 70
     0
102
RTVSPropertyOp54
 70
     0
102
RTVSPropertyOp55
 70
     0
102
RTVSPropertyOp56
 70
     0
102
RTVSPropertyOp57
 70
     0
102
RTVSPropertyOp58
 70
     1
102
RTVSPropertyOp59
 70
     1
102
RTVSPropertyOp60
 70
     1
102
RTVSPropertyOp61
 70
     1
102
RTVSPropertyOp62
 70
     1
  0
XRECORD
  5
61E
102
{ACAD_REACTORS
330
61D
102
}
330
61D
100
AcDbXrecord
280
     1
102
RTVSPost2010Prop28
280
     0
102
RTVSPost2010PropOp28
 70
     1
102
RTVSPost2010Prop29
280
     1
102
RTVSPost2010PropOp29
 70
     1
102
RTVSPost2010Prop30
280
     1
102
RTVSPost2010PropOp30
 70
     1
102
RTVSPost2010Prop31
280
     0
102
RTVSPost2010PropOp31
 70
     1
102
RTVSPost2010Prop32
280
     0
102
RTVSPost2010PropOp32
 70
     1
102
RTVSPost2010Prop33
280
     0
102
RTVSPost2010PropOp33
 70
     1
102
RTVSPost2010Prop34
280
     0
102
RTVSPost2010PropOp34
 70
     1
102
RTVSPost2010Prop35
280
     0
102
RTVSPost2010PropOp35
 70
     1
102
RTVSPost2010Prop36
280
     0
102
RTVSPost2010PropOp36
 70
     1
102
RTVSPost2010Prop37
 90
       50
102
RTVSPost2010PropOp37
 70
     1
102
RTVSPost2010Prop38
140
0.0
102
RTVSPost2010PropOp38
 70
     1
102
RTVSPost2010Prop39
140
1.0
102
RTVSPost2010PropOp39
 70
     1
102
RTVSPost2010Prop40
 90
        0
102
RTVSPost2010PropOp40
 70
     1
102
RTVSPost2010Prop41ColorIndex
 90
       18
102
RTVSPost2010Prop41ColorRGB
 90
        0
102
RTVSPost2010PropOp41
 70
     1
102
RTVSPost2010Prop42
 90
       50
102
RTVSPost2010PropOp42
 70
     1
102
RTVSPost2010Prop43
 90
        3
102
RTVSPost2010PropOp43
 70
     1
102
RTVSPost2010Prop44ColorIndex
 90
        5
102
RTVSPost2010Prop44ColorRGB
 90
      255
102
RTVSPost2010PropOp44
 70
     1
102
RTVSPost2010Prop45
280
     0
102
RTVSPost2010PropOp45
 70
     1
102
RTVSPost2010Prop46
 90
       50
102
RTVSPost2010PropOp46
 70
     1
102
RTVSPost2010Prop47
 90
       50
102
RTVSPost2010PropOp47
 70
     1
102
RTVSPost2010Prop48
 90
       50
102
RTVSPost2010PropOp48
 70
     1
102
RTVSPost2010Prop49
280
     0
102
RTVSPost2010PropOp49
 70
     1
102
RTVSPost2010Prop50
 90
       50
102
RTVSPost2010PropOp50
 70
     1
102
RTVSPost2010Prop51ColorIndex
 90
      256
102
RTVSPost2010Prop51ColorRGB
 90
-16777216
102
RTVSPost2010PropOp51
 70
     0
102
RTVSPost2010Prop52
140
1.0
102
RTVSPost2010PropOp52
 70
     0
102
RTVSPost2010Prop53
 90
        2
102
RTVSPost2010PropOp53
 70
     1
102
RTVSPost2010Prop54
  1
strokes_ogs.tif
102
RTVSPost2010PropOp54
 70
     1
102
RTVSPost2010Prop55
280
     0
102
RTVSPost2010PropOp55
 70
     1
102
RTVSPost2010Prop56
140
1.0
102
RTVSPost2010PropOp56
 70
     1
102
RTVSPost2010Prop57
140
1.0
102
RTVSPost2010PropOp57
 70
     1
102
RTVSPropertyOp0
 70
     1
102
RTVSPropertyOp1
 70
     1
102
RTVSPropertyOp2
 70
     1
102
RTVSPropertyOp3
 70
     1
102
RTVSPropertyOp4
 70
     1
102
RTVSPropertyOp5
 70
     1
102
RTVSPropertyOp6
 70
     1
102
RTVSPropertyOp7
 70
     1
102
RTVSPropertyOp8
 70
     1
102
RTVSPropertyOp9
 70
     1
102
RTVSPropertyOp10
 70
     1
102
RTVSPropertyOp11
 70
     1
102
RTVSPropertyOp12
 70
     1
102
RTVSPropertyOp13
 70
     1
102
RTVSPropertyOp14
 70
     1
102
RTVSPropertyOp15
 70
     1
102
RTVSPropertyOp16
 70
     1
102
RTVSPropertyOp17
 70
     1
102
RTVSPropertyOp18
 70
     1
102
RTVSPropertyOp19
 70
     1
102
RTVSPropertyOp20
 70
     1
102
RTVSPropertyOp21
 70
     1
102
RTVSPropertyOp22
 70
     1
102
RTVSPropertyOp23
 70
     1
102
RTVSPropertyOp24
 70
     1
102
RTVSPropertyOp25
 70
     1
102
RTVSPropertyOp26
 70
     1
102
RTVSPropertyOp27
 70
     1
102
RTVSPropertyOp28
 70
     1
102
RTVSPropertyOp29
 70
     1
102
RTVSPropertyOp30
 70
     1
102
RTVSPropertyOp31
 70
     1
102
RTVSPropertyOp32
 70
     1
102
RTVSPropertyOp33
 70
     1
102
RTVSPropertyOp34
 70
     1
102
RTVSPropertyOp35
 70
     1
102
RTVSPropertyOp36
 70
     1
102
RTVSPropertyOp37
 70
     1
102
RTVSPropertyOp38
 70
     1
102
RTVSPropertyOp39
 70
     1
102
RTVSPropertyOp40
 70
     1
102
RTVSPropertyOp41
 70
     1
102
RTVSPropertyOp42
 70
     1
102
RTVSPropertyOp43
 70
     1
102
RTVSPropertyOp44
 70
     1
102
RTVSPropertyOp45
 70
     1
102
RTVSPropertyOp46
 70
     1
102
RTVSPropertyOp47
 70
     1
102
RTVSPropertyOp48
 70
     1
102
RTVSPropertyOp49
 70
     1
102
RTVSPropertyOp50
 70
     1
102
RTVSPropertyOp51
 70
     0
102
RTVSPropertyOp52
 70
     0
102
RTVSPropertyOp53
 70
     1
102
RTVSPropertyOp54
 70
     1
102
RTVSPropertyOp55
 70
     1
102
RTVSPropertyOp56
 70
     1
102
RTVSPropertyOp57
 70
     1
102
RTVSPropertyOp58
 70
     1
102
RTVSPropertyOp59
 70
     1
102
RTVSPropertyOp60
 70
     1
102
RTVSPropertyOp61
 70
     1
102
RTVSPropertyOp62
 70
     1
  0
XRECORD
  5
602
102
{ACAD_REACTORS
330
601
102
}
330
601
100
AcDbXrecord
280
     1
102
RTVSPost2010Prop28
280
     0
102
RTVSPost2010PropOp28
 70
     1
102
RTVSPost2010Prop29
280
     1
102
RTVSPost2010PropOp29
 70
     1
102
RTVSPost2010Prop30
280
     1
102
RTVSPost2010PropOp30
 70
     1
102
RTVSPost2010Prop31
280
     0
102
RTVSPost2010PropOp31
 70
     1
102
RTVSPost2010Prop32
280
     0
102
RTVSPost2010PropOp32
 70
     1
102
RTVSPost2010Prop33
280
     0
102
RTVSPost2010PropOp33
 70
     1
102
RTVSPost2010Prop34
280
     0
102
RTVSPost2010PropOp34
 70
     1
102
RTVSPost2010Prop35
280
     0
102
RTVSPost2010PropOp35
 70
     1
102
RTVSPost2010Prop36
280
     0
102
RTVSPost2010PropOp36
 70
     1
102
RTVSPost2010Prop37
 90
       50
102
RTVSPost2010PropOp37
 70
     1
102
RTVSPost2010Prop38
140
0.0
102
RTVSPost2010PropOp38
 70
     1
102
RTVSPost2010Prop39
140
1.0
102
RTVSPost2010PropOp39
 70
     1
102
RTVSPost2010Prop40
 90
        0
102
RTVSPost2010PropOp40
 70
     1
102
RTVSPost2010Prop41ColorIndex
 90
       18
102
RTVSPost2010Prop41ColorRGB
 90
        0
102
RTVSPost2010PropOp41
 70
     1
102
RTVSPost2010Prop42
 90
       50
102
RTVSPost2010PropOp42
 70
     1
102
RTVSPost2010Prop43
 90
        3
102
RTVSPost2010PropOp43
 70
     1
102
RTVSPost2010Prop44ColorIndex
 90
        5
102
RTVSPost2010Prop44ColorRGB
 90
      255
102
RTVSPost2010PropOp44
 70
     1
102
RTVSPost2010Prop45
280
     0
102
RTVSPost2010PropOp45
 70
     1
102
RTVSPost2010Prop46
 90
       50
102
RTVSPost2010PropOp46
 70
     1
102
RTVSPost2010Prop47
 90
       50
102
RTVSPost2010PropOp47
 70
     1
102
RTVSPost2010Prop48
 90
       50
102
RTVSPost2010PropOp48
 70
     1
102
RTVSPost2010Prop49
280
     0
102
RTVSPost2010PropOp49
 70
     1
102
RTVSPost2010Prop50
 90
       50
102
RTVSPost2010PropOp50
 70
     1
102
RTVSPost2010Prop51ColorIndex
 90
      256
102
RTVSPost2010Prop51ColorRGB
 90
-16777216
102
RTVSPost2010PropOp51
 70
     0
102
RTVSPost2010Prop52
140
1.0
102
RTVSPost2010PropOp52
 70
     0
102
RTVSPost2010Prop53
 90
        2
102
RTVSPost2010PropOp53
 70
     1
102
RTVSPost2010Prop54
  1
strokes_ogs.tif
102
RTVSPost2010PropOp54
 70
     1
102
RTVSPost2010Prop55
280
     0
102
RTVSPost2010PropOp55
 70
     1
102
RTVSPost2010Prop56
140
1.0
102
RTVSPost2010PropOp56
 70
     1
102
RTVSPost2010Prop57
140
1.0
102
RTVSPost2010PropOp57
 70
     1
102
RTVSPropertyOp0
 70
     1
102
RTVSPropertyOp1
 70
     1
102
RTVSPropertyOp2
 70
     1
102
RTVSPropertyOp3
 70
     1
102
RTVSPropertyOp4
 70
     1
102
RTVSPropertyOp5
 70
     1
102
RTVSPropertyOp6
 70
     1
102
RTVSPropertyOp7
 70
     1
102
RTVSPropertyOp8
 70
     1
102
RTVSPropertyOp9
 70
     1
102
RTVSPropertyOp10
 70
     1
102
RTVSPropertyOp11
 70
     1
102
RTVSPropertyOp12
 70
     1
102
RTVSPropertyOp13
 70
     1
102
RTVSPropertyOp14
 70
     1
102
RTVSPropertyOp15
 70
     1
102
RTVSPropertyOp16
 70
     1
102
RTVSPropertyOp17
 70
     1
102
RTVSPropertyOp18
 70
     1
102
RTVSPropertyOp19
 70
     1
102
RTVSPropertyOp20
 70
     1
102
RTVSPropertyOp21
 70
     1
102
RTVSPropertyOp22
 70
     1
102
RTVSPropertyOp23
 70
     1
102
RTVSPropertyOp24
 70
     1
102
RTVSPropertyOp25
 70
     1
102
RTVSPropertyOp26
 70
     1
102
RTVSPropertyOp27
 70
     1
102
RTVSPropertyOp28
 70
     1
102
RTVSPropertyOp29
 70
     1
102
RTVSPropertyOp30
 70
     1
102
RTVSPropertyOp31
 70
     1
102
RTVSPropertyOp32
 70
     1
102
RTVSPropertyOp33
 70
     1
102
RTVSPropertyOp34
 70
     1
102
RTVSPropertyOp35
 70
     1
102
RTVSPropertyOp36
 70
     1
102
RTVSPropertyOp37
 70
     1
102
RTVSPropertyOp38
 70
     1
102
RTVSPropertyOp39
 70
     1
102
RTVSPropertyOp40
 70
     1
102
RTVSPropertyOp41
 70
     1
102
RTVSPropertyOp42
 70
     1
102
RTVSPropertyOp43
 70
     1
102
RTVSPropertyOp44
 70
     1
102
RTVSPropertyOp45
 70
     1
102
RTVSPropertyOp46
 70
     1
102
RTVSPropertyOp47
 70
     1
102
RTVSPropertyOp48
 70
     1
102
RTVSPropertyOp49
 70
     1
102
RTVSPropertyOp50
 70
     1
102
RTVSPropertyOp51
 70
     0
102
RTVSPropertyOp52
 70
     0
102
RTVSPropertyOp53
 70
     1
102
RTVSPropertyOp54
 70
     1
102
RTVSPropertyOp55
 70
     1
102
RTVSPropertyOp56
 70
     1
102
RTVSPropertyOp57
 70
     1
102
RTVSPropertyOp58
 70
     1
102
RTVSPropertyOp59
 70
     1
102
RTVSPropertyOp60
 70
     1
102
RTVSPropertyOp61
 70
     1
102
RTVSPropertyOp62
 70
     1
  0
XRECORD
  5
604
102
{ACAD_REACTORS
330
603
102
}
330
603
100
AcDbXrecord
280
     1
102
RTVSPost2010Prop28
280
     0
102
RTVSPost2010PropOp28
 70
     1
102
RTVSPost2010Prop29
280
     1
102
RTVSPost2010PropOp29
 70
     1
102
RTVSPost2010Prop30
280
     1
102
RTVSPost2010PropOp30
 70
     1
102
RTVSPost2010Prop31
280
     0
102
RTVSPost2010PropOp31
 70
     1
102
RTVSPost2010Prop32
280
     0
102
RTVSPost2010PropOp32
 70
     1
102
RTVSPost2010Prop33
280
     0
102
RTVSPost2010PropOp33
 70
     1
102
RTVSPost2010Prop34
280
     0
102
RTVSPost2010PropOp34
 70
     1
102
RTVSPost2010Prop35
280
     0
102
RTVSPost2010PropOp35
 70
     1
102
RTVSPost2010Prop36
280
     0
102
RTVSPost2010PropOp36
 70
     1
102
RTVSPost2010Prop37
 90
       50
102
RTVSPost2010PropOp37
 70
     1
102
RTVSPost2010Prop38
140
0.0
102
RTVSPost2010PropOp38
 70
     1
102
RTVSPost2010Prop39
140
1.0
102
RTVSPost2010PropOp39
 70
     1
102
RTVSPost2010Prop40
 90
        0
102
RTVSPost2010PropOp40
 70
     1
102
RTVSPost2010Prop41ColorIndex
 90
       18
102
RTVSPost2010Prop41ColorRGB
 90
        0
102
RTVSPost2010PropOp41
 70
     1
102
RTVSPost2010Prop42
 90
       50
102
RTVSPost2010PropOp42
 70
     1
102
RTVSPost2010Prop43
 90
        3
102
RTVSPost2010PropOp43
 70
     1
102
RTVSPost2010Prop44ColorIndex
 90
        5
102
RTVSPost2010Prop44ColorRGB
 90
      255
102
RTVSPost2010PropOp44
 70
     1
102
RTVSPost2010Prop45
280
     0
102
RTVSPost2010PropOp45
 70
     1
102
RTVSPost2010Prop46
 90
       50
102
RTVSPost2010PropOp46
 70
     1
102
RTVSPost2010Prop47
 90
       50
102
RTVSPost2010PropOp47
 70
     1
102
RTVSPost2010Prop48
 90
       50
102
RTVSPost2010PropOp48
 70
     1
102
RTVSPost2010Prop49
280
     0
102
RTVSPost2010PropOp49
 70
     1
102
RTVSPost2010Prop50
 90
       50
102
RTVSPost2010PropOp50
 70
     1
102
RTVSPost2010Prop51ColorIndex
 90
      256
102
RTVSPost2010Prop51ColorRGB
 90
-16777216
102
RTVSPost2010PropOp51
 70
     0
102
RTVSPost2010Prop52
140
1.0
102
RTVSPost2010PropOp52
 70
     0
102
RTVSPost2010Prop53
 90
        2
102
RTVSPost2010PropOp53
 70
     1
102
RTVSPost2010Prop54
  1
strokes_ogs.tif
102
RTVSPost2010PropOp54
 70
     1
102
RTVSPost2010Prop55
280
     0
102
RTVSPost2010PropOp55
 70
     1
102
RTVSPost2010Prop56
140
1.0
102
RTVSPost2010PropOp56
 70
     1
102
RTVSPost2010Prop57
140
1.0
102
RTVSPost2010PropOp57
 70
     1
102
RTVSPropertyOp0
 70
     1
102
RTVSPropertyOp1
 70
     1
102
RTVSPropertyOp2
 70
     1
102
RTVSPropertyOp3
 70
     1
102
RTVSPropertyOp4
 70
     1
102
RTVSPropertyOp5
 70
     1
102
RTVSPropertyOp6
 70
     1
102
RTVSPropertyOp7
 70
     1
102
RTVSPropertyOp8
 70
     1
102
RTVSPropertyOp9
 70
     1
102
RTVSPropertyOp10
 70
     1
102
RTVSPropertyOp11
 70
     1
102
RTVSPropertyOp12
 70
     1
102
RTVSPropertyOp13
 70
     1
102
RTVSPropertyOp14
 70
     1
102
RTVSPropertyOp15
 70
     1
102
RTVSPropertyOp16
 70
     1
102
RTVSPropertyOp17
 70
     1
102
RTVSPropertyOp18
 70
     1
102
RTVSPropertyOp19
 70
     1
102
RTVSPropertyOp20
 70
     1
102
RTVSPropertyOp21
 70
     1
102
RTVSPropertyOp22
 70
     1
102
RTVSPropertyOp23
 70
     1
102
RTVSPropertyOp24
 70
     1
102
RTVSPropertyOp25
 70
     1
102
RTVSPropertyOp26
 70
     1
102
RTVSPropertyOp27
 70
     1
102
RTVSPropertyOp28
 70
     1
102
RTVSPropertyOp29
 70
     1
102
RTVSPropertyOp30
 70
     1
102
RTVSPropertyOp31
 70
     1
102
RTVSPropertyOp32
 70
     1
102
RTVSPropertyOp33
 70
     1
102
RTVSPropertyOp34
 70
     1
102
RTVSPropertyOp35
 70
     1
102
RTVSPropertyOp36
 70
     1
102
RTVSPropertyOp37
 70
     1
102
RTVSPropertyOp38
 70
     1
102
RTVSPropertyOp39
 70
     1
102
RTVSPropertyOp40
 70
     1
102
RTVSPropertyOp41
 70
     1
102
RTVSPropertyOp42
 70
     1
102
RTVSPropertyOp43
 70
     1
102
RTVSPropertyOp44
 70
     1
102
RTVSPropertyOp45
 70
     1
102
RTVSPropertyOp46
 70
     1
102
RTVSPropertyOp47
 70
     1
102
RTVSPropertyOp48
 70
     1
102
RTVSPropertyOp49
 70
     1
102
RTVSPropertyOp50
 70
     1
102
RTVSPropertyOp51
 70
     0
102
RTVSPropertyOp52
 70
     0
102
RTVSPropertyOp53
 70
     1
102
RTVSPropertyOp54
 70
     1
102
RTVSPropertyOp55
 70
     1
102
RTVSPropertyOp56
 70
     1
102
RTVSPropertyOp57
 70
     1
102
RTVSPropertyOp58
 70
     1
102
RTVSPropertyOp59
 70
     1
102
RTVSPropertyOp60
 70
     1
102
RTVSPropertyOp61
 70
     1
102
RTVSPropertyOp62
 70
     1
  0
XRECORD
  5
606
102
{ACAD_REACTORS
330
605
102
}
330
605
100
AcDbXrecord
280
     1
102
RTVSPost2010Prop28
280
     0
102
RTVSPost2010PropOp28
 70
     1
102
RTVSPost2010Prop29
280
     1
102
RTVSPost2010PropOp29
 70
     1
102
RTVSPost2010Prop30
280
     1
102
RTVSPost2010PropOp30
 70
     1
102
RTVSPost2010Prop31
280
     0
102
RTVSPost2010PropOp31
 70
     1
102
RTVSPost2010Prop32
280
     0
102
RTVSPost2010PropOp32
 70
     1
102
RTVSPost2010Prop33
280
     0
102
RTVSPost2010PropOp33
 70
     1
102
RTVSPost2010Prop34
280
     0
102
RTVSPost2010PropOp34
 70
     1
102
RTVSPost2010Prop35
280
     0
102
RTVSPost2010PropOp35
 70
     1
102
RTVSPost2010Prop36
280
     0
102
RTVSPost2010PropOp36
 70
     1
102
RTVSPost2010Prop37
 90
       50
102
RTVSPost2010PropOp37
 70
     1
102
RTVSPost2010Prop38
140
0.0
102
RTVSPost2010PropOp38
 70
     1
102
RTVSPost2010Prop39
140
1.0
102
RTVSPost2010PropOp39
 70
     1
102
RTVSPost2010Prop40
 90
        0
102
RTVSPost2010PropOp40
 70
     1
102
RTVSPost2010Prop41ColorIndex
 90
       18
102
RTVSPost2010Prop41ColorRGB
 90
        0
102
RTVSPost2010PropOp41
 70
     1
102
RTVSPost2010Prop42
 90
       50
102
RTVSPost2010PropOp42
 70
     1
102
RTVSPost2010Prop43
 90
        3
102
RTVSPost2010PropOp43
 70
     1
102
RTVSPost2010Prop44ColorIndex
 90
        5
102
RTVSPost2010Prop44ColorRGB
 90
      255
102
RTVSPost2010PropOp44
 70
     1
102
RTVSPost2010Prop45
280
     0
102
RTVSPost2010PropOp45
 70
     1
102
RTVSPost2010Prop46
 90
       50
102
RTVSPost2010PropOp46
 70
     1
102
RTVSPost2010Prop47
 90
       50
102
RTVSPost2010PropOp47
 70
     1
102
RTVSPost2010Prop48
 90
       50
102
RTVSPost2010PropOp48
 70
     1
102
RTVSPost2010Prop49
280
     0
102
RTVSPost2010PropOp49
 70
     1
102
RTVSPost2010Prop50
 90
       50
102
RTVSPost2010PropOp50
 70
     1
102
RTVSPost2010Prop51ColorIndex
 90
      256
102
RTVSPost2010Prop51ColorRGB
 90
-16777216
102
RTVSPost2010PropOp51
 70
     0
102
RTVSPost2010Prop52
140
1.0
102
RTVSPost2010PropOp52
 70
     0
102
RTVSPost2010Prop53
 90
        2
102
RTVSPost2010PropOp53
 70
     1
102
RTVSPost2010Prop54
  1
strokes_ogs.tif
102
RTVSPost2010PropOp54
 70
     1
102
RTVSPost2010Prop55
280
     0
102
RTVSPost2010PropOp55
 70
     1
102
RTVSPost2010Prop56
140
1.0
102
RTVSPost2010PropOp56
 70
     1
102
RTVSPost2010Prop57
140
1.0
102
RTVSPost2010PropOp57
 70
     1
102
RTVSPropertyOp0
 70
     1
102
RTVSPropertyOp1
 70
     1
102
RTVSPropertyOp2
 70
     1
102
RTVSPropertyOp3
 70
     1
102
RTVSPropertyOp4
 70
     1
102
RTVSPropertyOp5
 70
     1
102
RTVSPropertyOp6
 70
     1
102
RTVSPropertyOp7
 70
     1
102
RTVSPropertyOp8
 70
     1
102
RTVSPropertyOp9
 70
     1
102
RTVSPropertyOp10
 70
     1
102
RTVSPropertyOp11
 70
     1
102
RTVSPropertyOp12
 70
     1
102
RTVSPropertyOp13
 70
     1
102
RTVSPropertyOp14
 70
     1
102
RTVSPropertyOp15
 70
     1
102
RTVSPropertyOp16
 70
     1
102
RTVSPropertyOp17
 70
     1
102
RTVSPropertyOp18
 70
     1
102
RTVSPropertyOp19
 70
     1
102
RTVSPropertyOp20
 70
     1
102
RTVSPropertyOp21
 70
     1
102
RTVSPropertyOp22
 70
     1
102
RTVSPropertyOp23
 70
     1
102
RTVSPropertyOp24
 70
     1
102
RTVSPropertyOp25
 70
     1
102
RTVSPropertyOp26
 70
     1
102
RTVSPropertyOp27
 70
     1
102
RTVSPropertyOp28
 70
     1
102
RTVSPropertyOp29
 70
     1
102
RTVSPropertyOp30
 70
     1
102
RTVSPropertyOp31
 70
     1
102
RTVSPropertyOp32
 70
     1
102
RTVSPropertyOp33
 70
     1
102
RTVSPropertyOp34
 70
     1
102
RTVSPropertyOp35
 70
     1
102
RTVSPropertyOp36
 70
     1
102
RTVSPropertyOp37
 70
     1
102
RTVSPropertyOp38
 70
     1
102
RTVSPropertyOp39
 70
     1
102
RTVSPropertyOp40
 70
     1
102
RTVSPropertyOp41
 70
     1
102
RTVSPropertyOp42
 70
     1
102
RTVSPropertyOp43
 70
     1
102
RTVSPropertyOp44
 70
     1
102
RTVSPropertyOp45
 70
     1
102
RTVSPropertyOp46
 70
     1
102
RTVSPropertyOp47
 70
     1
102
RTVSPropertyOp48
 70
     1
102
RTVSPropertyOp49
 70
     1
102
RTVSPropertyOp50
 70
     1
102
RTVSPropertyOp51
 70
     0
102
RTVSPropertyOp52
 70
     0
102
RTVSPropertyOp53
 70
     1
102
RTVSPropertyOp54
 70
     1
102
RTVSPropertyOp55
 70
     1
102
RTVSPropertyOp56
 70
     1
102
RTVSPropertyOp57
 70
     1
102
RTVSPropertyOp58
 70
     1
102
RTVSPropertyOp59
 70
     1
102
RTVSPropertyOp60
 70
     1
102
RTVSPropertyOp61
 70
     1
102
RTVSPropertyOp62
 70
     1
  0
XRECORD
  5
608
102
{ACAD_REACTORS
330
607
102
}
330
607
100
AcDbXrecord
280
     1
102
RTVSPost2010Prop28
280
     0
102
RTVSPost2010PropOp28
 70
     1
102
RTVSPost2010Prop29
280
     1
102
RTVSPost2010PropOp29
 70
     1
102
RTVSPost2010Prop30
280
     1
102
RTVSPost2010PropOp30
 70
     1
102
RTVSPost2010Prop31
280
     0
102
RTVSPost2010PropOp31
 70
     1
102
RTVSPost2010Prop32
280
     0
102
RTVSPost2010PropOp32
 70
     1
102
RTVSPost2010Prop33
280
     0
102
RTVSPost2010PropOp33
 70
     1
102
RTVSPost2010Prop34
280
     0
102
RTVSPost2010PropOp34
 70
     1
102
RTVSPost2010Prop35
280
     0
102
RTVSPost2010PropOp35
 70
     1
102
RTVSPost2010Prop36
280
     0
102
RTVSPost2010PropOp36
 70
     1
102
RTVSPost2010Prop37
 90
       50
102
RTVSPost2010PropOp37
 70
     1
102
RTVSPost2010Prop38
140
0.0
102
RTVSPost2010PropOp38
 70
     1
102
RTVSPost2010Prop39
140
1.0
102
RTVSPost2010PropOp39
 70
     1
102
RTVSPost2010Prop40
 90
        0
102
RTVSPost2010PropOp40
 70
     1
102
RTVSPost2010Prop41ColorIndex
 90
       18
102
RTVSPost2010Prop41ColorRGB
 90
        0
102
RTVSPost2010PropOp41
 70
     1
102
RTVSPost2010Prop42
 90
       50
102
RTVSPost2010PropOp42
 70
     1
102
RTVSPost2010Prop43
 90
        3
102
RTVSPost2010PropOp43
 70
     1
102
RTVSPost2010Prop44ColorIndex
 90
        5
102
RTVSPost2010Prop44ColorRGB
 90
      255
102
RTVSPost2010PropOp44
 70
     1
102
RTVSPost2010Prop45
280
     0
102
RTVSPost2010PropOp45
 70
     1
102
RTVSPost2010Prop46
 90
       50
102
RTVSPost2010PropOp46
 70
     1
102
RTVSPost2010Prop47
 90
       50
102
RTVSPost2010PropOp47
 70
     1
102
RTVSPost2010Prop48
 90
       50
102
RTVSPost2010PropOp48
 70
     1
102
RTVSPost2010Prop49
280
     0
102
RTVSPost2010PropOp49
 70
     1
102
RTVSPost2010Prop50
 90
       50
102
RTVSPost2010PropOp50
 70
     1
102
RTVSPost2010Prop51ColorIndex
 90
      256
102
RTVSPost2010Prop51ColorRGB
 90
-16777216
102
RTVSPost2010PropOp51
 70
     0
102
RTVSPost2010Prop52
140
1.0
102
RTVSPost2010PropOp52
 70
     0
102
RTVSPost2010Prop53
 90
        2
102
RTVSPost2010PropOp53
 70
     1
102
RTVSPost2010Prop54
  1
strokes_ogs.tif
102
RTVSPost2010PropOp54
 70
     1
102
RTVSPost2010Prop55
280
     0
102
RTVSPost2010PropOp55
 70
     1
102
RTVSPost2010Prop56
140
1.0
102
RTVSPost2010PropOp56
 70
     1
102
RTVSPost2010Prop57
140
1.0
102
RTVSPost2010PropOp57
 70
     1
102
RTVSPropertyOp0
 70
     1
102
RTVSPropertyOp1
 70
     1
102
RTVSPropertyOp2
 70
     1
102
RTVSPropertyOp3
 70
     1
102
RTVSPropertyOp4
 70
     1
102
RTVSPropertyOp5
 70
     1
102
RTVSPropertyOp6
 70
     1
102
RTVSPropertyOp7
 70
     1
102
RTVSPropertyOp8
 70
     1
102
RTVSPropertyOp9
 70
     1
102
RTVSPropertyOp10
 70
     1
102
RTVSPropertyOp11
 70
     1
102
RTVSPropertyOp12
 70
     1
102
RTVSPropertyOp13
 70
     1
102
RTVSPropertyOp14
 70
     1
102
RTVSPropertyOp15
 70
     1
102
RTVSPropertyOp16
 70
     1
102
RTVSPropertyOp17
 70
     1
102
RTVSPropertyOp18
 70
     1
102
RTVSPropertyOp19
 70
     1
102
RTVSPropertyOp20
 70
     1
102
RTVSPropertyOp21
 70
     1
102
RTVSPropertyOp22
 70
     1
102
RTVSPropertyOp23
 70
     1
102
RTVSPropertyOp24
 70
     1
102
RTVSPropertyOp25
 70
     1
102
RTVSPropertyOp26
 70
     1
102
RTVSPropertyOp27
 70
     1
102
RTVSPropertyOp28
 70
     1
102
RTVSPropertyOp29
 70
     1
102
RTVSPropertyOp30
 70
     1
102
RTVSPropertyOp31
 70
     1
102
RTVSPropertyOp32
 70
     1
102
RTVSPropertyOp33
 70
     1
102
RTVSPropertyOp34
 70
     1
102
RTVSPropertyOp35
 70
     1
102
RTVSPropertyOp36
 70
     1
102
RTVSPropertyOp37
 70
     1
102
RTVSPropertyOp38
 70
     1
102
RTVSPropertyOp39
 70
     1
102
RTVSPropertyOp40
 70
     1
102
RTVSPropertyOp41
 70
     1
102
RTVSPropertyOp42
 70
     1
102
RTVSPropertyOp43
 70
     1
102
RTVSPropertyOp44
 70
     1
102
RTVSPropertyOp45
 70
     1
102
RTVSPropertyOp46
 70
     1
102
RTVSPropertyOp47
 70
     1
102
RTVSPropertyOp48
 70
     1
102
RTVSPropertyOp49
 70
     1
102
RTVSPropertyOp50
 70
     1
102
RTVSPropertyOp51
 70
     0
102
RTVSPropertyOp52
 70
     0
102
RTVSPropertyOp53
 70
     1
102
RTVSPropertyOp54
 70
     1
102
RTVSPropertyOp55
 70
     1
102
RTVSPropertyOp56
 70
     1
102
RTVSPropertyOp57
 70
     1
102
RTVSPropertyOp58
 70
     1
102
RTVSPropertyOp59
 70
     1
102
RTVSPropertyOp60
 70
     1
102
RTVSPropertyOp61
 70
     1
102
RTVSPropertyOp62
 70
     1
  0
XRECORD
  5
610
102
{ACAD_REACTORS
330
60F
102
}
330
60F
100
AcDbXrecord
280
     1
102
RTVSPost2010Prop28
280
     0
102
RTVSPost2010PropOp28
 70
     1
102
RTVSPost2010Prop29
280
     1
102
RTVSPost2010PropOp29
 70
     1
102
RTVSPost2010Prop30
280
     1
102
RTVSPost2010PropOp30
 70
     1
102
RTVSPost2010Prop31
280
     0
102
RTVSPost2010PropOp31
 70
     1
102
RTVSPost2010Prop32
280
     0
102
RTVSPost2010PropOp32
 70
     1
102
RTVSPost2010Prop33
280
     0
102
RTVSPost2010PropOp33
 70
     1
102
RTVSPost2010Prop34
280
     0
102
RTVSPost2010PropOp34
 70
     1
102
RTVSPost2010Prop35
280
     0
102
RTVSPost2010PropOp35
 70
     1
102
RTVSPost2010Prop36
280
     0
102
RTVSPost2010PropOp36
 70
     1
102
RTVSPost2010Prop37
 90
       50
102
RTVSPost2010PropOp37
 70
     1
102
RTVSPost2010Prop38
140
0.0
102
RTVSPost2010PropOp38
 70
     1
102
RTVSPost2010Prop39
140
1.0
102
RTVSPost2010PropOp39
 70
     1
102
RTVSPost2010Prop40
 90
        0
102
RTVSPost2010PropOp40
 70
     1
102
RTVSPost2010Prop41ColorIndex
 90
       18
102
RTVSPost2010Prop41ColorRGB
 90
        0
102
RTVSPost2010PropOp41
 70
     1
102
RTVSPost2010Prop42
 90
       50
102
RTVSPost2010PropOp42
 70
     1
102
RTVSPost2010Prop43
 90
        3
102
RTVSPost2010PropOp43
 70
     1
102
RTVSPost2010Prop44ColorIndex
 90
        5
102
RTVSPost2010Prop44ColorRGB
 90
      255
102
RTVSPost2010PropOp44
 70
     1
102
RTVSPost2010Prop45
280
     0
102
RTVSPost2010PropOp45
 70
     1
102
RTVSPost2010Prop46
 90
       50
102
RTVSPost2010PropOp46
 70
     1
102
RTVSPost2010Prop47
 90
       50
102
RTVSPost2010PropOp47
 70
     1
102
RTVSPost2010Prop48
 90
       50
102
RTVSPost2010PropOp48
 70
     1
102
RTVSPost2010Prop49
280
     0
102
RTVSPost2010PropOp49
 70
     1
102
RTVSPost2010Prop50
 90
       50
102
RTVSPost2010PropOp50
 70
     1
102
RTVSPost2010Prop51ColorIndex
 90
      256
102
RTVSPost2010Prop51ColorRGB
 90
-16777216
102
RTVSPost2010PropOp51
 70
     0
102
RTVSPost2010Prop52
140
1.0
102
RTVSPost2010PropOp52
 70
     0
102
RTVSPost2010Prop53
 90
        2
102
RTVSPost2010PropOp53
 70
     1
102
RTVSPost2010Prop54
  1
strokes_ogs.tif
102
RTVSPost2010PropOp54
 70
     1
102
RTVSPost2010Prop55
280
     0
102
RTVSPost2010PropOp55
 70
     1
102
RTVSPost2010Prop56
140
1.0
102
RTVSPost2010PropOp56
 70
     1
102
RTVSPost2010Prop57
140
1.0
102
RTVSPost2010PropOp57
 70
     1
102
RTVSPropertyOp0
 70
     1
102
RTVSPropertyOp1
 70
     1
102
RTVSPropertyOp2
 70
     1
102
RTVSPropertyOp3
 70
     1
102
RTVSPropertyOp4
 70
     1
102
RTVSPropertyOp5
 70
     1
102
RTVSPropertyOp6
 70
     1
102
RTVSPropertyOp7
 70
     1
102
RTVSPropertyOp8
 70
     1
102
RTVSPropertyOp9
 70
     1
102
RTVSPropertyOp10
 70
     1
102
RTVSPropertyOp11
 70
     1
102
RTVSPropertyOp12
 70
     1
102
RTVSPropertyOp13
 70
     1
102
RTVSPropertyOp14
 70
     1
102
RTVSPropertyOp15
 70
     1
102
RTVSPropertyOp16
 70
     1
102
RTVSPropertyOp17
 70
     1
102
RTVSPropertyOp18
 70
     1
102
RTVSPropertyOp19
 70
     1
102
RTVSPropertyOp20
 70
     1
102
RTVSPropertyOp21
 70
     1
102
RTVSPropertyOp22
 70
     1
102
RTVSPropertyOp23
 70
     1
102
RTVSPropertyOp24
 70
     1
102
RTVSPropertyOp25
 70
     1
102
RTVSPropertyOp26
 70
     1
102
RTVSPropertyOp27
 70
     1
102
RTVSPropertyOp28
 70
     1
102
RTVSPropertyOp29
 70
     1
102
RTVSPropertyOp30
 70
     1
102
RTVSPropertyOp31
 70
     1
102
RTVSPropertyOp32
 70
     1
102
RTVSPropertyOp33
 70
     1
102
RTVSPropertyOp34
 70
     1
102
RTVSPropertyOp35
 70
     1
102
RTVSPropertyOp36
 70
     1
102
RTVSPropertyOp37
 70
     1
102
RTVSPropertyOp38
 70
     1
102
RTVSPropertyOp39
 70
     1
102
RTVSPropertyOp40
 70
     1
102
RTVSPropertyOp41
 70
     1
102
RTVSPropertyOp42
 70
     1
102
RTVSPropertyOp43
 70
     1
102
RTVSPropertyOp44
 70
     1
102
RTVSPropertyOp45
 70
     1
102
RTVSPropertyOp46
 70
     1
102
RTVSPropertyOp47
 70
     1
102
RTVSPropertyOp48
 70
     1
102
RTVSPropertyOp49
 70
     1
102
RTVSPropertyOp50
 70
     1
102
RTVSPropertyOp51
 70
     0
102
RTVSPropertyOp52
 70
     0
102
RTVSPropertyOp53
 70
     1
102
RTVSPropertyOp54
 70
     1
102
RTVSPropertyOp55
 70
     1
102
RTVSPropertyOp56
 70
     1
102
RTVSPropertyOp57
 70
     1
102
RTVSPropertyOp58
 70
     1
102
RTVSPropertyOp59
 70
     1
102
RTVSPropertyOp60
 70
     1
102
RTVSPropertyOp61
 70
     1
102
RTVSPropertyOp62
 70
     1
  0
XRECORD
  5
62C
102
{ACAD_REACTORS
330
62B
102
}
330
62B
100
AcDbXrecord
280
     1
102
RTVSPost2010Prop28
280
     0
102
RTVSPost2010PropOp28
 70
     0
102
RTVSPost2010Prop29
280
     1
102
RTVSPost2010PropOp29
 70
     0
102
RTVSPost2010Prop30
280
     1
102
RTVSPost2010PropOp30
 70
     0
102
RTVSPost2010Prop31
280
     0
102
RTVSPost2010PropOp31
 70
     0
102
RTVSPost2010Prop32
280
     0
102
RTVSPost2010PropOp32
 70
     0
102
RTVSPost2010Prop33
280
     0
102
RTVSPost2010PropOp33
 70
     0
102
RTVSPost2010Prop34
280
     0
102
RTVSPost2010PropOp34
 70
     0
102
RTVSPost2010Prop35
280
     0
102
RTVSPost2010PropOp35
 70
     0
102
RTVSPost2010Prop36
280
     0
102
RTVSPost2010PropOp36
 70
     0
102
RTVSPost2010Prop37
 90
       50
102
RTVSPost2010PropOp37
 70
     0
102
RTVSPost2010Prop38
140
0.0
102
RTVSPost2010PropOp38
 70
     0
102
RTVSPost2010Prop39
140
1.0
102
RTVSPost2010PropOp39
 70
     0
102
RTVSPost2010Prop40
 90
        0
102
RTVSPost2010PropOp40
 70
     0
102
RTVSPost2010Prop41ColorIndex
 90
       18
102
RTVSPost2010Prop41ColorRGB
 90
        0
102
RTVSPost2010PropOp41
 70
     0
102
RTVSPost2010Prop42
 90
       50
102
RTVSPost2010PropOp42
 70
     0
102
RTVSPost2010Prop43
 90
        3
102
RTVSPost2010PropOp43
 70
     0
102
RTVSPost2010Prop44ColorIndex
 90
        5
102
RTVSPost2010Prop44ColorRGB
 90
      255
102
RTVSPost2010PropOp44
 70
     0
102
RTVSPost2010Prop45
280
     0
102
RTVSPost2010PropOp45
 70
     0
102
RTVSPost2010Prop46
 90
       50
102
RTVSPost2010PropOp46
 70
     0
102
RTVSPost2010Prop47
 90
       50
102
RTVSPost2010PropOp47
 70
     0
102
RTVSPost2010Prop48
 90
       50
102
RTVSPost2010PropOp48
 70
     0
102
RTVSPost2010Prop49
280
     0
102
RTVSPost2010PropOp49
 70
     0
102
RTVSPost2010Prop50
 90
       50
102
RTVSPost2010PropOp50
 70
     0
102
RTVSPost2010Prop51ColorIndex
 90
      256
102
RTVSPost2010Prop51ColorRGB
 90
-16777216
102
RTVSPost2010PropOp51
 70
     0
102
RTVSPost2010Prop52
140
1.0
102
RTVSPost2010PropOp52
 70
     0
102
RTVSPost2010Prop53
 90
        2
102
RTVSPost2010PropOp53
 70
     0
102
RTVSPost2010Prop54
  1
strokes_ogs.tif
102
RTVSPost2010PropOp54
 70
     0
102
RTVSPost2010Prop55
280
     0
102
RTVSPost2010PropOp55
 70
     0
102
RTVSPost2010Prop56
140
1.0
102
RTVSPost2010PropOp56
 70
     0
102
RTVSPost2010Prop57
140
1.0
102
RTVSPost2010PropOp57
 70
     0
102
RTVSPropertyOp0
 70
     0
102
RTVSPropertyOp1
 70
     0
102
RTVSPropertyOp2
 70
     0
102
RTVSPropertyOp3
 70
     0
102
RTVSPropertyOp4
 70
     0
102
RTVSPropertyOp5
 70
     0
102
RTVSPropertyOp6
 70
     0
102
RTVSPropertyOp7
 70
     0
102
RTVSPropertyOp8
 70
     0
102
RTVSPropertyOp9
 70
     0
102
RTVSPropertyOp10
 70
     0
102
RTVSPropertyOp11
 70
     0
102
RTVSPropertyOp12
 70
     0
102
RTVSPropertyOp13
 70
     0
102
RTVSPropertyOp14
 70
     2
102
RTVSPropertyOp15
 70
     0
102
RTVSPropertyOp16
 70
     0
102
RTVSPropertyOp17
 70
     0
102
RTVSPropertyOp18
 70
     0
102
RTVSPropertyOp19
 70
     0
102
RTVSPropertyOp20
 70
     0
102
RTVSPropertyOp21
 70
     0
102
RTVSPropertyOp22
 70
     0
102
RTVSPropertyOp23
 70
     0
102
RTVSPropertyOp24
 70
     0
102
RTVSPropertyOp25
 70
     0
102
RTVSPropertyOp26
 70
     0
102
RTVSPropertyOp27
 70
     0
102
RTVSPropertyOp28
 70
     0
102
RTVSPropertyOp29
 70
     0
102
RTVSPropertyOp30
 70
     0
102
RTVSPropertyOp31
 70
     0
102
RTVSPropertyOp32
 70
     0
102
RTVSPropertyOp33
 70
     0
102
RTVSPropertyOp34
 70
     0
102
RTVSPropertyOp35
 70
     0
102
RTVSPropertyOp36
 70
     0
102
RTVSPropertyOp37
 70
     0
102
RTVSPropertyOp38
 70
     0
102
RTVSPropertyOp39
 70
     0
102
RTVSPropertyOp40
 70
     0
102
RTVSPropertyOp41
 70
     0
102
RTVSPropertyOp42
 70
     0
102
RTVSPropertyOp43
 70
     0
102
RTVSPropertyOp44
 70
     0
102
RTVSPropertyOp45
 70
     0
102
RTVSPropertyOp46
 70
     0
102
RTVSPropertyOp47
 70
     0
102
RTVSPropertyOp48
 70
     0
102
RTVSPropertyOp49
 70
     0
102
RTVSPropertyOp50
 70
     0
102
RTVSPropertyOp51
 70
     0
102
RTVSPropertyOp52
 70
     0
102
RTVSPropertyOp53
 70
     0
102
RTVSPropertyOp54
 70
     0
102
RTVSPropertyOp55
 70
     0
102
RTVSPropertyOp56
 70
     0
102
RTVSPropertyOp57
 70
     0
102
RTVSPropertyOp58
 70
     1
102
RTVSPropertyOp59
 70
     1
102
RTVSPropertyOp60
 70
     1
102
RTVSPropertyOp61
 70
     1
102
RTVSPropertyOp62
 70
     1
  0
XRECORD
  5
61C
102
{ACAD_REACTORS
330
61B
102
}
330
61B
100
AcDbXrecord
280
     1
102
RTVSPost2010Prop28
280
     0
102
RTVSPost2010PropOp28
 70
     1
102
RTVSPost2010Prop29
280
     1
102
RTVSPost2010PropOp29
 70
     1
102
RTVSPost2010Prop30
280
     1
102
RTVSPost2010PropOp30
 70
     1
102
RTVSPost2010Prop31
280
     0
102
RTVSPost2010PropOp31
 70
     1
102
RTVSPost2010Prop32
280
     0
102
RTVSPost2010PropOp32
 70
     1
102
RTVSPost2010Prop33
280
     0
102
RTVSPost2010PropOp33
 70
     1
102
RTVSPost2010Prop34
280
     0
102
RTVSPost2010PropOp34
 70
     1
102
RTVSPost2010Prop35
280
     0
102
RTVSPost2010PropOp35
 70
     1
102
RTVSPost2010Prop36
280
     0
102
RTVSPost2010PropOp36
 70
     1
102
RTVSPost2010Prop37
 90
       50
102
RTVSPost2010PropOp37
 70
     1
102
RTVSPost2010Prop38
140
0.0
102
RTVSPost2010PropOp38
 70
     1
102
RTVSPost2010Prop39
140
1.0
102
RTVSPost2010PropOp39
 70
     1
102
RTVSPost2010Prop40
 90
        0
102
RTVSPost2010PropOp40
 70
     1
102
RTVSPost2010Prop41ColorIndex
 90
       18
102
RTVSPost2010Prop41ColorRGB
 90
        0
102
RTVSPost2010PropOp41
 70
     1
102
RTVSPost2010Prop42
 90
       50
102
RTVSPost2010PropOp42
 70
     1
102
RTVSPost2010Prop43
 90
        3
102
RTVSPost2010PropOp43
 70
     1
102
RTVSPost2010Prop44ColorIndex
 90
        5
102
RTVSPost2010Prop44ColorRGB
 90
      255
102
RTVSPost2010PropOp44
 70
     1
102
RTVSPost2010Prop45
280
     0
102
RTVSPost2010PropOp45
 70
     1
102
RTVSPost2010Prop46
 90
       50
102
RTVSPost2010PropOp46
 70
     1
102
RTVSPost2010Prop47
 90
       50
102
RTVSPost2010PropOp47
 70
     1
102
RTVSPost2010Prop48
 90
       50
102
RTVSPost2010PropOp48
 70
     1
102
RTVSPost2010Prop49
280
     0
102
RTVSPost2010PropOp49
 70
     1
102
RTVSPost2010Prop50
 90
       50
102
RTVSPost2010PropOp50
 70
     1
102
RTVSPost2010Prop51ColorIndex
 90
      256
102
RTVSPost2010Prop51ColorRGB
 90
-16777216
102
RTVSPost2010PropOp51
 70
     0
102
RTVSPost2010Prop52
140
1.0
102
RTVSPost2010PropOp52
 70
     0
102
RTVSPost2010Prop53
 90
        2
102
RTVSPost2010PropOp53
 70
     1
102
RTVSPost2010Prop54
  1
strokes_ogs.tif
102
RTVSPost2010PropOp54
 70
     1
102
RTVSPost2010Prop55
280
     0
102
RTVSPost2010PropOp55
 70
     1
102
RTVSPost2010Prop56
140
1.0
102
RTVSPost2010PropOp56
 70
     1
102
RTVSPost2010Prop57
140
1.0
102
RTVSPost2010PropOp57
 70
     1
102
RTVSPropertyOp0
 70
     1
102
RTVSPropertyOp1
 70
     1
102
RTVSPropertyOp2
 70
     1
102
RTVSPropertyOp3
 70
     1
102
RTVSPropertyOp4
 70
     1
102
RTVSPropertyOp5
 70
     1
102
RTVSPropertyOp6
 70
     1
102
RTVSPropertyOp7
 70
     1
102
RTVSPropertyOp8
 70
     1
102
RTVSPropertyOp9
 70
     1
102
RTVSPropertyOp10
 70
     1
102
RTVSPropertyOp11
 70
     1
102
RTVSPropertyOp12
 70
     1
102
RTVSPropertyOp13
 70
     1
102
RTVSPropertyOp14
 70
     1
102
RTVSPropertyOp15
 70
     1
102
RTVSPropertyOp16
 70
     1
102
RTVSPropertyOp17
 70
     1
102
RTVSPropertyOp18
 70
     1
102
RTVSPropertyOp19
 70
     1
102
RTVSPropertyOp20
 70
     1
102
RTVSPropertyOp21
 70
     1
102
RTVSPropertyOp22
 70
     1
102
RTVSPropertyOp23
 70
     1
102
RTVSPropertyOp24
 70
     1
102
RTVSPropertyOp25
 70
     1
102
RTVSPropertyOp26
 70
     1
102
RTVSPropertyOp27
 70
     1
102
RTVSPropertyOp28
 70
     1
102
RTVSPropertyOp29
 70
     1
102
RTVSPropertyOp30
 70
     1
102
RTVSPropertyOp31
 70
     1
102
RTVSPropertyOp32
 70
     1
102
RTVSPropertyOp33
 70
     1
102
RTVSPropertyOp34
 70
     1
102
RTVSPropertyOp35
 70
     1
102
RTVSPropertyOp36
 70
     1
102
RTVSPropertyOp37
 70
     1
102
RTVSPropertyOp38
 70
     1
102
RTVSPropertyOp39
 70
     1
102
RTVSPropertyOp40
 70
     1
102
RTVSPropertyOp41
 70
     1
102
RTVSPropertyOp42
 70
     1
102
RTVSPropertyOp43
 70
     1
102
RTVSPropertyOp44
 70
     1
102
RTVSPropertyOp45
 70
     1
102
RTVSPropertyOp46
 70
     1
102
RTVSPropertyOp47
 70
     1
102
RTVSPropertyOp48
 70
     1
102
RTVSPropertyOp49
 70
     1
102
RTVSPropertyOp50
 70
     1
102
RTVSPropertyOp51
 70
     0
102
RTVSPropertyOp52
 70
     0
102
RTVSPropertyOp53
 70
     1
102
RTVSPropertyOp54
 70
     1
102
RTVSPropertyOp55
 70
     1
102
RTVSPropertyOp56
 70
     1
102
RTVSPropertyOp57
 70
     1
102
RTVSPropertyOp58
 70
     1
102
RTVSPropertyOp59
 70
     1
102
RTVSPropertyOp60
 70
     1
102
RTVSPropertyOp61
 70
     1
102
RTVSPropertyOp62
 70
     1
  0
XRECORD
  5
62E
102
{ACAD_REACTORS
330
62D
102
}
330
62D
100
AcDbXrecord
280
     1
102
RTVSPost2010Prop28
280
     0
102
RTVSPost2010PropOp28
 70
     0
102
RTVSPost2010Prop29
280
     1
102
RTVSPost2010PropOp29
 70
     0
102
RTVSPost2010Prop30
280
     1
102
RTVSPost2010PropOp30
 70
     0
102
RTVSPost2010Prop31
280
     0
102
RTVSPost2010PropOp31
 70
     0
102
RTVSPost2010Prop32
280
     0
102
RTVSPost2010PropOp32
 70
     0
102
RTVSPost2010Prop33
280
     0
102
RTVSPost2010PropOp33
 70
     0
102
RTVSPost2010Prop34
280
     0
102
RTVSPost2010PropOp34
 70
     0
102
RTVSPost2010Prop35
280
     0
102
RTVSPost2010PropOp35
 70
     0
102
RTVSPost2010Prop36
280
     0
102
RTVSPost2010PropOp36
 70
     0
102
RTVSPost2010Prop37
 90
       50
102
RTVSPost2010PropOp37
 70
     0
102
RTVSPost2010Prop38
140
0.0
102
RTVSPost2010PropOp38
 70
     0
102
RTVSPost2010Prop39
140
1.0
102
RTVSPost2010PropOp39
 70
     0
102
RTVSPost2010Prop40
 90
        0
102
RTVSPost2010PropOp40
 70
     0
102
RTVSPost2010Prop41ColorIndex
 90
       18
102
RTVSPost2010Prop41ColorRGB
 90
        0
102
RTVSPost2010PropOp41
 70
     0
102
RTVSPost2010Prop42
 90
       50
102
RTVSPost2010PropOp42
 70
     0
102
RTVSPost2010Prop43
 90
        3
102
RTVSPost2010PropOp43
 70
     0
102
RTVSPost2010Prop44ColorIndex
 90
        5
102
RTVSPost2010Prop44ColorRGB
 90
      255
102
RTVSPost2010PropOp44
 70
     0
102
RTVSPost2010Prop45
280
     0
102
RTVSPost2010PropOp45
 70
     0
102
RTVSPost2010Prop46
 90
       50
102
RTVSPost2010PropOp46
 70
     0
102
RTVSPost2010Prop47
 90
       50
102
RTVSPost2010PropOp47
 70
     0
102
RTVSPost2010Prop48
 90
       50
102
RTVSPost2010PropOp48
 70
     0
102
RTVSPost2010Prop49
280
     0
102
RTVSPost2010PropOp49
 70
     0
102
RTVSPost2010Prop50
 90
       50
102
RTVSPost2010PropOp50
 70
     0
102
RTVSPost2010Prop51ColorIndex
 90
      256
102
RTVSPost2010Prop51ColorRGB
 90
-16777216
102
RTVSPost2010PropOp51
 70
     0
102
RTVSPost2010Prop52
140
1.0
102
RTVSPost2010PropOp52
 70
     0
102
RTVSPost2010Prop53
 90
        2
102
RTVSPost2010PropOp53
 70
     0
102
RTVSPost2010Prop54
  1
strokes_ogs.tif
102
RTVSPost2010PropOp54
 70
     0
102
RTVSPost2010Prop55
280
     0
102
RTVSPost2010PropOp55
 70
     0
102
RTVSPost2010Prop56
140
1.0
102
RTVSPost2010PropOp56
 70
     0
102
RTVSPost2010Prop57
140
1.0
102
RTVSPost2010PropOp57
 70
     0
102
RTVSPropertyOp0
 70
     0
102
RTVSPropertyOp1
 70
     0
102
RTVSPropertyOp2
 70
     0
102
RTVSPropertyOp3
 70
     0
102
RTVSPropertyOp4
 70
     0
102
RTVSPropertyOp5
 70
     0
102
RTVSPropertyOp6
 70
     0
102
RTVSPropertyOp7
 70
     0
102
RTVSPropertyOp8
 70
     0
102
RTVSPropertyOp9
 70
     0
102
RTVSPropertyOp10
 70
     0
102
RTVSPropertyOp11
 70
     0
102
RTVSPropertyOp12
 70
     0
102
RTVSPropertyOp13
 70
     0
102
RTVSPropertyOp14
 70
     2
102
RTVSPropertyOp15
 70
     0
102
RTVSPropertyOp16
 70
     0
102
RTVSPropertyOp17
 70
     0
102
RTVSPropertyOp18
 70
     0
102
RTVSPropertyOp19
 70
     0
102
RTVSPropertyOp20
 70
     0
102
RTVSPropertyOp21
 70
     0
102
RTVSPropertyOp22
 70
     0
102
RTVSPropertyOp23
 70
     0
102
RTVSPropertyOp24
 70
     0
102
RTVSPropertyOp25
 70
     0
102
RTVSPropertyOp26
 70
     0
102
RTVSPropertyOp27
 70
     0
102
RTVSPropertyOp28
 70
     0
102
RTVSPropertyOp29
 70
     0
102
RTVSPropertyOp30
 70
     0
102
RTVSPropertyOp31
 70
     0
102
RTVSPropertyOp32
 70
     0
102
RTVSPropertyOp33
 70
     0
102
RTVSPropertyOp34
 70
     0
102
RTVSPropertyOp35
 70
     0
102
RTVSPropertyOp36
 70
     0
102
RTVSPropertyOp37
 70
     0
102
RTVSPropertyOp38
 70
     0
102
RTVSPropertyOp39
 70
     0
102
RTVSPropertyOp40
 70
     0
102
RTVSPropertyOp41
 70
     0
102
RTVSPropertyOp42
 70
     0
102
RTVSPropertyOp43
 70
     0
102
RTVSPropertyOp44
 70
     0
102
RTVSPropertyOp45
 70
     0
102
RTVSPropertyOp46
 70
     0
102
RTVSPropertyOp47
 70
     0
102
RTVSPropertyOp48
 70
     0
102
RTVSPropertyOp49
 70
     0
102
RTVSPropertyOp50
 70
     0
102
RTVSPropertyOp51
 70
     0
102
RTVSPropertyOp52
 70
     0
102
RTVSPropertyOp53
 70
     0
102
RTVSPropertyOp54
 70
     0
102
RTVSPropertyOp55
 70
     0
102
RTVSPropertyOp56
 70
     0
102
RTVSPropertyOp57
 70
     0
102
RTVSPropertyOp58
 70
     1
102
RTVSPropertyOp59
 70
     1
102
RTVSPropertyOp60
 70
     1
102
RTVSPropertyOp61
 70
     1
102
RTVSPropertyOp62
 70
     1
  0
XRECORD
  5
614
102
{ACAD_REACTORS
330
613
102
}
330
613
100
AcDbXrecord
280
     1
102
RTVSPost2010Prop28
280
     0
102
RTVSPost2010PropOp28
 70
     1
102
RTVSPost2010Prop29
280
     1
102
RTVSPost2010PropOp29
 70
     1
102
RTVSPost2010Prop30
280
     1
102
RTVSPost2010PropOp30
 70
     1
102
RTVSPost2010Prop31
280
     0
102
RTVSPost2010PropOp31
 70
     1
102
RTVSPost2010Prop32
280
     0
102
RTVSPost2010PropOp32
 70
     1
102
RTVSPost2010Prop33
280
     0
102
RTVSPost2010PropOp33
 70
     1
102
RTVSPost2010Prop34
280
     0
102
RTVSPost2010PropOp34
 70
     1
102
RTVSPost2010Prop35
280
     0
102
RTVSPost2010PropOp35
 70
     1
102
RTVSPost2010Prop36
280
     0
102
RTVSPost2010PropOp36
 70
     1
102
RTVSPost2010Prop37
 90
       50
102
RTVSPost2010PropOp37
 70
     1
102
RTVSPost2010Prop38
140
0.0
102
RTVSPost2010PropOp38
 70
     1
102
RTVSPost2010Prop39
140
1.0
102
RTVSPost2010PropOp39
 70
     1
102
RTVSPost2010Prop40
 90
        0
102
RTVSPost2010PropOp40
 70
     1
102
RTVSPost2010Prop41ColorIndex
 90
       18
102
RTVSPost2010Prop41ColorRGB
 90
        0
102
RTVSPost2010PropOp41
 70
     1
102
RTVSPost2010Prop42
 90
       50
102
RTVSPost2010PropOp42
 70
     1
102
RTVSPost2010Prop43
 90
        3
102
RTVSPost2010PropOp43
 70
     1
102
RTVSPost2010Prop44ColorIndex
 90
        5
102
RTVSPost2010Prop44ColorRGB
 90
      255
102
RTVSPost2010PropOp44
 70
     1
102
RTVSPost2010Prop45
280
     0
102
RTVSPost2010PropOp45
 70
     1
102
RTVSPost2010Prop46
 90
       50
102
RTVSPost2010PropOp46
 70
     1
102
RTVSPost2010Prop47
 90
       50
102
RTVSPost2010PropOp47
 70
     1
102
RTVSPost2010Prop48
 90
       50
102
RTVSPost2010PropOp48
 70
     1
102
RTVSPost2010Prop49
280
     0
102
RTVSPost2010PropOp49
 70
     1
102
RTVSPost2010Prop50
 90
       50
102
RTVSPost2010PropOp50
 70
     1
102
RTVSPost2010Prop51ColorIndex
 90
      256
102
RTVSPost2010Prop51ColorRGB
 90
-16777216
102
RTVSPost2010PropOp51
 70
     0
102
RTVSPost2010Prop52
140
1.0
102
RTVSPost2010PropOp52
 70
     0
102
RTVSPost2010Prop53
 90
        2
102
RTVSPost2010PropOp53
 70
     1
102
RTVSPost2010Prop54
  1
strokes_ogs.tif
102
RTVSPost2010PropOp54
 70
     1
102
RTVSPost2010Prop55
280
     0
102
RTVSPost2010PropOp55
 70
     1
102
RTVSPost2010Prop56
140
1.0
102
RTVSPost2010PropOp56
 70
     1
102
RTVSPost2010Prop57
140
1.0
102
RTVSPost2010PropOp57
 70
     1
102
RTVSPropertyOp0
 70
     1
102
RTVSPropertyOp1
 70
     1
102
RTVSPropertyOp2
 70
     1
102
RTVSPropertyOp3
 70
     1
102
RTVSPropertyOp4
 70
     1
102
RTVSPropertyOp5
 70
     1
102
RTVSPropertyOp6
 70
     1
102
RTVSPropertyOp7
 70
     1
102
RTVSPropertyOp8
 70
     1
102
RTVSPropertyOp9
 70
     1
102
RTVSPropertyOp10
 70
     1
102
RTVSPropertyOp11
 70
     1
102
RTVSPropertyOp12
 70
     1
102
RTVSPropertyOp13
 70
     1
102
RTVSPropertyOp14
 70
     1
102
RTVSPropertyOp15
 70
     1
102
RTVSPropertyOp16
 70
     1
102
RTVSPropertyOp17
 70
     1
102
RTVSPropertyOp18
 70
     1
102
RTVSPropertyOp19
 70
     1
102
RTVSPropertyOp20
 70
     1
102
RTVSPropertyOp21
 70
     1
102
RTVSPropertyOp22
 70
     1
102
RTVSPropertyOp23
 70
     1
102
RTVSPropertyOp24
 70
     1
102
RTVSPropertyOp25
 70
     1
102
RTVSPropertyOp26
 70
     1
102
RTVSPropertyOp27
 70
     1
102
RTVSPropertyOp28
 70
     1
102
RTVSPropertyOp29
 70
     1
102
RTVSPropertyOp30
 70
     1
102
RTVSPropertyOp31
 70
     1
102
RTVSPropertyOp32
 70
     1
102
RTVSPropertyOp33
 70
     1
102
RTVSPropertyOp34
 70
     1
102
RTVSPropertyOp35
 70
     1
102
RTVSPropertyOp36
 70
     1
102
RTVSPropertyOp37
 70
     1
102
RTVSPropertyOp38
 70
     1
102
RTVSPropertyOp39
 70
     1
102
RTVSPropertyOp40
 70
     1
102
RTVSPropertyOp41
 70
     1
102
RTVSPropertyOp42
 70
     1
102
RTVSPropertyOp43
 70
     1
102
RTVSPropertyOp44
 70
     1
102
RTVSPropertyOp45
 70
     1
102
RTVSPropertyOp46
 70
     1
102
RTVSPropertyOp47
 70
     1
102
RTVSPropertyOp48
 70
     1
102
RTVSPropertyOp49
 70
     1
102
RTVSPropertyOp50
 70
     1
102
RTVSPropertyOp51
 70
     0
102
RTVSPropertyOp52
 70
     0
102
RTVSPropertyOp53
 70
     1
102
RTVSPropertyOp54
 70
     1
102
RTVSPropertyOp55
 70
     1
102
RTVSPropertyOp56
 70
     1
102
RTVSPropertyOp57
 70
     1
102
RTVSPropertyOp58
 70
     1
102
RTVSPropertyOp59
 70
     1
102
RTVSPropertyOp60
 70
     1
102
RTVSPropertyOp61
 70
     1
102
RTVSPropertyOp62
 70
     1
  0
XRECORD
  5
62A
102
{ACAD_REACTORS
330
629
102
}
330
629
100
AcDbXrecord
280
     1
102
RTVSPost2010Prop28
280
     0
102
RTVSPost2010PropOp28
 70
     1
102
RTVSPost2010Prop29
280
     1
102
RTVSPost2010PropOp29
 70
     1
102
RTVSPost2010Prop30
280
     1
102
RTVSPost2010PropOp30
 70
     1
102
RTVSPost2010Prop31
280
     0
102
RTVSPost2010PropOp31
 70
     1
102
RTVSPost2010Prop32
280
     0
102
RTVSPost2010PropOp32
 70
     1
102
RTVSPost2010Prop33
280
     0
102
RTVSPost2010PropOp33
 70
     1
102
RTVSPost2010Prop34
280
     0
102
RTVSPost2010PropOp34
 70
     1
102
RTVSPost2010Prop35
280
     0
102
RTVSPost2010PropOp35
 70
     1
102
RTVSPost2010Prop36
280
     0
102
RTVSPost2010PropOp36
 70
     1
102
RTVSPost2010Prop37
 90
       50
102
RTVSPost2010PropOp37
 70
     1
102
RTVSPost2010Prop38
140
0.0
102
RTVSPost2010PropOp38
 70
     1
102
RTVSPost2010Prop39
140
1.0
102
RTVSPost2010PropOp39
 70
     1
102
RTVSPost2010Prop40
 90
        0
102
RTVSPost2010PropOp40
 70
     1
102
RTVSPost2010Prop41ColorIndex
 90
       18
102
RTVSPost2010Prop41ColorRGB
 90
        0
102
RTVSPost2010PropOp41
 70
     1
102
RTVSPost2010Prop42
 90
       50
102
RTVSPost2010PropOp42
 70
     1
102
RTVSPost2010Prop43
 90
        3
102
RTVSPost2010PropOp43
 70
     1
102
RTVSPost2010Prop44ColorIndex
 90
        5
102
RTVSPost2010Prop44ColorRGB
 90
      255
102
RTVSPost2010PropOp44
 70
     1
102
RTVSPost2010Prop45
280
     0
102
RTVSPost2010PropOp45
 70
     1
102
RTVSPost2010Prop46
 90
       50
102
RTVSPost2010PropOp46
 70
     1
102
RTVSPost2010Prop47
 90
       50
102
RTVSPost2010PropOp47
 70
     1
102
RTVSPost2010Prop48
 90
       50
102
RTVSPost2010PropOp48
 70
     1
102
RTVSPost2010Prop49
280
     0
102
RTVSPost2010PropOp49
 70
     1
102
RTVSPost2010Prop50
 90
       50
102
RTVSPost2010PropOp50
 70
     1
102
RTVSPost2010Prop51ColorIndex
 90
      256
102
RTVSPost2010Prop51ColorRGB
 90
-16777216
102
RTVSPost2010PropOp51
 70
     0
102
RTVSPost2010Prop52
140
1.0
102
RTVSPost2010PropOp52
 70
     0
102
RTVSPost2010Prop53
 90
        2
102
RTVSPost2010PropOp53
 70
     1
102
RTVSPost2010Prop54
  1
strokes_ogs.tif
102
RTVSPost2010PropOp54
 70
     1
102
RTVSPost2010Prop55
280
     0
102
RTVSPost2010PropOp55
 70
     1
102
RTVSPost2010Prop56
140
1.0
102
RTVSPost2010PropOp56
 70
     1
102
RTVSPost2010Prop57
140
1.0
102
RTVSPost2010PropOp57
 70
     1
102
RTVSPropertyOp0
 70
     1
102
RTVSPropertyOp1
 70
     1
102
RTVSPropertyOp2
 70
     1
102
RTVSPropertyOp3
 70
     1
102
RTVSPropertyOp4
 70
     1
102
RTVSPropertyOp5
 70
     1
102
RTVSPropertyOp6
 70
     1
102
RTVSPropertyOp7
 70
     1
102
RTVSPropertyOp8
 70
     1
102
RTVSPropertyOp9
 70
     1
102
RTVSPropertyOp10
 70
     1
102
RTVSPropertyOp11
 70
     1
102
RTVSPropertyOp12
 70
     1
102
RTVSPropertyOp13
 70
     1
102
RTVSPropertyOp14
 70
     1
102
RTVSPropertyOp15
 70
     1
102
RTVSPropertyOp16
 70
     1
102
RTVSPropertyOp17
 70
     1
102
RTVSPropertyOp18
 70
     1
102
RTVSPropertyOp19
 70
     1
102
RTVSPropertyOp20
 70
     1
102
RTVSPropertyOp21
 70
     1
102
RTVSPropertyOp22
 70
     1
102
RTVSPropertyOp23
 70
     1
102
RTVSPropertyOp24
 70
     1
102
RTVSPropertyOp25
 70
     1
102
RTVSPropertyOp26
 70
     1
102
RTVSPropertyOp27
 70
     1
102
RTVSPropertyOp28
 70
     1
102
RTVSPropertyOp29
 70
     1
102
RTVSPropertyOp30
 70
     1
102
RTVSPropertyOp31
 70
     1
102
RTVSPropertyOp32
 70
     1
102
RTVSPropertyOp33
 70
     1
102
RTVSPropertyOp34
 70
     1
102
RTVSPropertyOp35
 70
     1
102
RTVSPropertyOp36
 70
     1
102
RTVSPropertyOp37
 70
     1
102
RTVSPropertyOp38
 70
     1
102
RTVSPropertyOp39
 70
     1
102
RTVSPropertyOp40
 70
     1
102
RTVSPropertyOp41
 70
     1
102
RTVSPropertyOp42
 70
     1
102
RTVSPropertyOp43
 70
     1
102
RTVSPropertyOp44
 70
     1
102
RTVSPropertyOp45
 70
     1
102
RTVSPropertyOp46
 70
     1
102
RTVSPropertyOp47
 70
     1
102
RTVSPropertyOp48
 70
     1
102
RTVSPropertyOp49
 70
     1
102
RTVSPropertyOp50
 70
     1
102
RTVSPropertyOp51
 70
     0
102
RTVSPropertyOp52
 70
     0
102
RTVSPropertyOp53
 70
     1
102
RTVSPropertyOp54
 70
     1
102
RTVSPropertyOp55
 70
     1
102
RTVSPropertyOp56
 70
     1
102
RTVSPropertyOp57
 70
     1
102
RTVSPropertyOp58
 70
     1
102
RTVSPropertyOp59
 70
     1
102
RTVSPropertyOp60
 70
     1
102
RTVSPropertyOp61
 70
     1
102
RTVSPropertyOp62
 70
     1
  0
XRECORD
  5
628
102
{ACAD_REACTORS
330
627
102
}
330
627
100
AcDbXrecord
280
     1
102
RTVSPost2010Prop28
280
     0
102
RTVSPost2010PropOp28
 70
     1
102
RTVSPost2010Prop29
280
     1
102
RTVSPost2010PropOp29
 70
     1
102
RTVSPost2010Prop30
280
     1
102
RTVSPost2010PropOp30
 70
     1
102
RTVSPost2010Prop31
280
     0
102
RTVSPost2010PropOp31
 70
     1
102
RTVSPost2010Prop32
280
     0
102
RTVSPost2010PropOp32
 70
     1
102
RTVSPost2010Prop33
280
     0
102
RTVSPost2010PropOp33
 70
     1
102
RTVSPost2010Prop34
280
     0
102
RTVSPost2010PropOp34
 70
     1
102
RTVSPost2010Prop35
280
     0
102
RTVSPost2010PropOp35
 70
     1
102
RTVSPost2010Prop36
280
     0
102
RTVSPost2010PropOp36
 70
     1
102
RTVSPost2010Prop37
 90
       50
102
RTVSPost2010PropOp37
 70
     1
102
RTVSPost2010Prop38
140
0.0
102
RTVSPost2010PropOp38
 70
     1
102
RTVSPost2010Prop39
140
1.0
102
RTVSPost2010PropOp39
 70
     1
102
RTVSPost2010Prop40
 90
        0
102
RTVSPost2010PropOp40
 70
     1
102
RTVSPost2010Prop41ColorIndex
 90
       18
102
RTVSPost2010Prop41ColorRGB
 90
        0
102
RTVSPost2010PropOp41
 70
     1
102
RTVSPost2010Prop42
 90
       50
102
RTVSPost2010PropOp42
 70
     1
102
RTVSPost2010Prop43
 90
        3
102
RTVSPost2010PropOp43
 70
     1
102
RTVSPost2010Prop44ColorIndex
 90
        5
102
RTVSPost2010Prop44ColorRGB
 90
      255
102
RTVSPost2010PropOp44
 70
     1
102
RTVSPost2010Prop45
280
     0
102
RTVSPost2010PropOp45
 70
     1
102
RTVSPost2010Prop46
 90
       50
102
RTVSPost2010PropOp46
 70
     1
102
RTVSPost2010Prop47
 90
       50
102
RTVSPost2010PropOp47
 70
     1
102
RTVSPost2010Prop48
 90
       50
102
RTVSPost2010PropOp48
 70
     1
102
RTVSPost2010Prop49
280
     0
102
RTVSPost2010PropOp49
 70
     1
102
RTVSPost2010Prop50
 90
       50
102
RTVSPost2010PropOp50
 70
     1
102
RTVSPost2010Prop51ColorIndex
 90
      256
102
RTVSPost2010Prop51ColorRGB
 90
-16777216
102
RTVSPost2010PropOp51
 70
     0
102
RTVSPost2010Prop52
140
1.0
102
RTVSPost2010PropOp52
 70
     0
102
RTVSPost2010Prop53
 90
        2
102
RTVSPost2010PropOp53
 70
     1
102
RTVSPost2010Prop54
  1
strokes_ogs.tif
102
RTVSPost2010PropOp54
 70
     1
102
RTVSPost2010Prop55
280
     0
102
RTVSPost2010PropOp55
 70
     1
102
RTVSPost2010Prop56
140
1.0
102
RTVSPost2010PropOp56
 70
     1
102
RTVSPost2010Prop57
140
1.0
102
RTVSPost2010PropOp57
 70
     1
102
RTVSPropertyOp0
 70
     1
102
RTVSPropertyOp1
 70
     1
102
RTVSPropertyOp2
 70
     1
102
RTVSPropertyOp3
 70
     1
102
RTVSPropertyOp4
 70
     1
102
RTVSPropertyOp5
 70
     1
102
RTVSPropertyOp6
 70
     1
102
RTVSPropertyOp7
 70
     1
102
RTVSPropertyOp8
 70
     1
102
RTVSPropertyOp9
 70
     1
102
RTVSPropertyOp10
 70
     1
102
RTVSPropertyOp11
 70
     1
102
RTVSPropertyOp12
 70
     1
102
RTVSPropertyOp13
 70
     1
102
RTVSPropertyOp14
 70
     1
102
RTVSPropertyOp15
 70
     1
102
RTVSPropertyOp16
 70
     1
102
RTVSPropertyOp17
 70
     1
102
RTVSPropertyOp18
 70
     1
102
RTVSPropertyOp19
 70
     1
102
RTVSPropertyOp20
 70
     1
102
RTVSPropertyOp21
 70
     1
102
RTVSPropertyOp22
 70
     1
102
RTVSPropertyOp23
 70
     1
102
RTVSPropertyOp24
 70
     1
102
RTVSPropertyOp25
 70
     1
102
RTVSPropertyOp26
 70
     1
102
RTVSPropertyOp27
 70
     1
102
RTVSPropertyOp28
 70
     1
102
RTVSPropertyOp29
 70
     1
102
RTVSPropertyOp30
 70
     1
102
RTVSPropertyOp31
 70
     1
102
RTVSPropertyOp32
 70
     1
102
RTVSPropertyOp33
 70
     1
102
RTVSPropertyOp34
 70
     1
102
RTVSPropertyOp35
 70
     1
102
RTVSPropertyOp36
 70
     1
102
RTVSPropertyOp37
 70
     1
102
RTVSPropertyOp38
 70
     1
102
RTVSPropertyOp39
 70
     1
102
RTVSPropertyOp40
 70
     1
102
RTVSPropertyOp41
 70
     1
102
RTVSPropertyOp42
 70
     1
102
RTVSPropertyOp43
 70
     1
102
RTVSPropertyOp44
 70
     1
102
RTVSPropertyOp45
 70
     1
102
RTVSPropertyOp46
 70
     1
102
RTVSPropertyOp47
 70
     1
102
RTVSPropertyOp48
 70
     1
102
RTVSPropertyOp49
 70
     1
102
RTVSPropertyOp50
 70
     1
102
RTVSPropertyOp51
 70
     0
102
RTVSPropertyOp52
 70
     0
102
RTVSPropertyOp53
 70
     1
102
RTVSPropertyOp54
 70
     1
102
RTVSPropertyOp55
 70
     1
102
RTVSPropertyOp56
 70
     1
102
RTVSPropertyOp57
 70
     1
102
RTVSPropertyOp58
 70
     1
102
RTVSPropertyOp59
 70
     1
102
RTVSPropertyOp60
 70
     1
102
RTVSPropertyOp61
 70
     1
102
RTVSPropertyOp62
 70
     1
  0
XRECORD
  5
622
102
{ACAD_REACTORS
330
621
102
}
330
621
100
AcDbXrecord
280
     1
102
RTVSPost2010Prop28
280
     0
102
RTVSPost2010PropOp28
 70
     1
102
RTVSPost2010Prop29
280
     1
102
RTVSPost2010PropOp29
 70
     1
102
RTVSPost2010Prop30
280
     1
102
RTVSPost2010PropOp30
 70
     1
102
RTVSPost2010Prop31
280
     0
102
RTVSPost2010PropOp31
 70
     1
102
RTVSPost2010Prop32
280
     0
102
RTVSPost2010PropOp32
 70
     1
102
RTVSPost2010Prop33
280
     0
102
RTVSPost2010PropOp33
 70
     1
102
RTVSPost2010Prop34
280
     0
102
RTVSPost2010PropOp34
 70
     1
102
RTVSPost2010Prop35
280
     0
102
RTVSPost2010PropOp35
 70
     1
102
RTVSPost2010Prop36
280
     0
102
RTVSPost2010PropOp36
 70
     1
102
RTVSPost2010Prop37
 90
       50
102
RTVSPost2010PropOp37
 70
     1
102
RTVSPost2010Prop38
140
0.0
102
RTVSPost2010PropOp38
 70
     1
102
RTVSPost2010Prop39
140
1.0
102
RTVSPost2010PropOp39
 70
     1
102
RTVSPost2010Prop40
 90
        0
102
RTVSPost2010PropOp40
 70
     1
102
RTVSPost2010Prop41ColorIndex
 90
       18
102
RTVSPost2010Prop41ColorRGB
 90
        0
102
RTVSPost2010PropOp41
 70
     1
102
RTVSPost2010Prop42
 90
       50
102
RTVSPost2010PropOp42
 70
     1
102
RTVSPost2010Prop43
 90
        3
102
RTVSPost2010PropOp43
 70
     1
102
RTVSPost2010Prop44ColorIndex
 90
        5
102
RTVSPost2010Prop44ColorRGB
 90
      255
102
RTVSPost2010PropOp44
 70
     1
102
RTVSPost2010Prop45
280
     0
102
RTVSPost2010PropOp45
 70
     1
102
RTVSPost2010Prop46
 90
       50
102
RTVSPost2010PropOp46
 70
     1
102
RTVSPost2010Prop47
 90
       50
102
RTVSPost2010PropOp47
 70
     1
102
RTVSPost2010Prop48
 90
       50
102
RTVSPost2010PropOp48
 70
     1
102
RTVSPost2010Prop49
280
     0
102
RTVSPost2010PropOp49
 70
     1
102
RTVSPost2010Prop50
 90
       50
102
RTVSPost2010PropOp50
 70
     1
102
RTVSPost2010Prop51ColorIndex
 90
      256
102
RTVSPost2010Prop51ColorRGB
 90
-16777216
102
RTVSPost2010PropOp51
 70
     0
102
RTVSPost2010Prop52
140
1.0
102
RTVSPost2010PropOp52
 70
     0
102
RTVSPost2010Prop53
 90
        2
102
RTVSPost2010PropOp53
 70
     1
102
RTVSPost2010Prop54
  1
strokes_ogs.tif
102
RTVSPost2010PropOp54
 70
     1
102
RTVSPost2010Prop55
280
     0
102
RTVSPost2010PropOp55
 70
     1
102
RTVSPost2010Prop56
140
1.0
102
RTVSPost2010PropOp56
 70
     1
102
RTVSPost2010Prop57
140
1.0
102
RTVSPost2010PropOp57
 70
     1
102
RTVSPropertyOp0
 70
     1
102
RTVSPropertyOp1
 70
     1
102
RTVSPropertyOp2
 70
     1
102
RTVSPropertyOp3
 70
     1
102
RTVSPropertyOp4
 70
     1
102
RTVSPropertyOp5
 70
     1
102
RTVSPropertyOp6
 70
     1
102
RTVSPropertyOp7
 70
     1
102
RTVSPropertyOp8
 70
     1
102
RTVSPropertyOp9
 70
     1
102
RTVSPropertyOp10
 70
     1
102
RTVSPropertyOp11
 70
     1
102
RTVSPropertyOp12
 70
     1
102
RTVSPropertyOp13
 70
     1
102
RTVSPropertyOp14
 70
     1
102
RTVSPropertyOp15
 70
     1
102
RTVSPropertyOp16
 70
     1
102
RTVSPropertyOp17
 70
     1
102
RTVSPropertyOp18
 70
     1
102
RTVSPropertyOp19
 70
     1
102
RTVSPropertyOp20
 70
     1
102
RTVSPropertyOp21
 70
     1
102
RTVSPropertyOp22
 70
     1
102
RTVSPropertyOp23
 70
     1
102
RTVSPropertyOp24
 70
     1
102
RTVSPropertyOp25
 70
     1
102
RTVSPropertyOp26
 70
     1
102
RTVSPropertyOp27
 70
     1
102
RTVSPropertyOp28
 70
     1
102
RTVSPropertyOp29
 70
     1
102
RTVSPropertyOp30
 70
     1
102
RTVSPropertyOp31
 70
     1
102
RTVSPropertyOp32
 70
     1
102
RTVSPropertyOp33
 70
     1
102
RTVSPropertyOp34
 70
     1
102
RTVSPropertyOp35
 70
     1
102
RTVSPropertyOp36
 70
     1
102
RTVSPropertyOp37
 70
     1
102
RTVSPropertyOp38
 70
     1
102
RTVSPropertyOp39
 70
     1
102
RTVSPropertyOp40
 70
     1
102
RTVSPropertyOp41
 70
     1
102
RTVSPropertyOp42
 70
     1
102
RTVSPropertyOp43
 70
     1
102
RTVSPropertyOp44
 70
     1
102
RTVSPropertyOp45
 70
     1
102
RTVSPropertyOp46
 70
     1
102
RTVSPropertyOp47
 70
     1
102
RTVSPropertyOp48
 70
     1
102
RTVSPropertyOp49
 70
     1
102
RTVSPropertyOp50
 70
     1
102
RTVSPropertyOp51
 70
     0
102
RTVSPropertyOp52
 70
     0
102
RTVSPropertyOp53
 70
     1
102
RTVSPropertyOp54
 70
     1
102
RTVSPropertyOp55
 70
     1
102
RTVSPropertyOp56
 70
     1
102
RTVSPropertyOp57
 70
     1
102
RTVSPropertyOp58
 70
     1
102
RTVSPropertyOp59
 70
     1
102
RTVSPropertyOp60
 70
     1
102
RTVSPropertyOp61
 70
     1
102
RTVSPropertyOp62
 70
     1
  0
XRECORD
  5
624
102
{ACAD_REACTORS
330
623
102
}
330
623
100
AcDbXrecord
280
     1
102
RTVSPost2010Prop28
280
     0
102
RTVSPost2010PropOp28
 70
     1
102
RTVSPost2010Prop29
280
     1
102
RTVSPost2010PropOp29
 70
     1
102
RTVSPost2010Prop30
280
     1
102
RTVSPost2010PropOp30
 70
     1
102
RTVSPost2010Prop31
280
     0
102
RTVSPost2010PropOp31
 70
     1
102
RTVSPost2010Prop32
280
     0
102
RTVSPost2010PropOp32
 70
     1
102
RTVSPost2010Prop33
280
     0
102
RTVSPost2010PropOp33
 70
     1
102
RTVSPost2010Prop34
280
     0
102
RTVSPost2010PropOp34
 70
     1
102
RTVSPost2010Prop35
280
     0
102
RTVSPost2010PropOp35
 70
     1
102
RTVSPost2010Prop36
280
     0
102
RTVSPost2010PropOp36
 70
     1
102
RTVSPost2010Prop37
 90
       50
102
RTVSPost2010PropOp37
 70
     1
102
RTVSPost2010Prop38
140
0.0
102
RTVSPost2010PropOp38
 70
     1
102
RTVSPost2010Prop39
140
1.0
102
RTVSPost2010PropOp39
 70
     1
102
RTVSPost2010Prop40
 90
        0
102
RTVSPost2010PropOp40
 70
     1
102
RTVSPost2010Prop41ColorIndex
 90
       18
102
RTVSPost2010Prop41ColorRGB
 90
        0
102
RTVSPost2010PropOp41
 70
     1
102
RTVSPost2010Prop42
 90
       50
102
RTVSPost2010PropOp42
 70
     1
102
RTVSPost2010Prop43
 90
        3
102
RTVSPost2010PropOp43
 70
     1
102
RTVSPost2010Prop44ColorIndex
 90
        5
102
RTVSPost2010Prop44ColorRGB
 90
      255
102
RTVSPost2010PropOp44
 70
     1
102
RTVSPost2010Prop45
280
     0
102
RTVSPost2010PropOp45
 70
     1
102
RTVSPost2010Prop46
 90
       50
102
RTVSPost2010PropOp46
 70
     1
102
RTVSPost2010Prop47
 90
       50
102
RTVSPost2010PropOp47
 70
     1
102
RTVSPost2010Prop48
 90
       50
102
RTVSPost2010PropOp48
 70
     1
102
RTVSPost2010Prop49
280
     0
102
RTVSPost2010PropOp49
 70
     1
102
RTVSPost2010Prop50
 90
       50
102
RTVSPost2010PropOp50
 70
     1
102
RTVSPost2010Prop51ColorIndex
 90
      256
102
RTVSPost2010Prop51ColorRGB
 90
-16777216
102
RTVSPost2010PropOp51
 70
     0
102
RTVSPost2010Prop52
140
1.0
102
RTVSPost2010PropOp52
 70
     0
102
RTVSPost2010Prop53
 90
        2
102
RTVSPost2010PropOp53
 70
     1
102
RTVSPost2010Prop54
  1
strokes_ogs.tif
102
RTVSPost2010PropOp54
 70
     1
102
RTVSPost2010Prop55
280
     0
102
RTVSPost2010PropOp55
 70
     1
102
RTVSPost2010Prop56
140
1.0
102
RTVSPost2010PropOp56
 70
     1
102
RTVSPost2010Prop57
140
1.0
102
RTVSPost2010PropOp57
 70
     1
102
RTVSPropertyOp0
 70
     1
102
RTVSPropertyOp1
 70
     1
102
RTVSPropertyOp2
 70
     1
102
RTVSPropertyOp3
 70
     1
102
RTVSPropertyOp4
 70
     1
102
RTVSPropertyOp5
 70
     1
102
RTVSPropertyOp6
 70
     1
102
RTVSPropertyOp7
 70
     1
102
RTVSPropertyOp8
 70
     1
102
RTVSPropertyOp9
 70
     1
102
RTVSPropertyOp10
 70
     1
102
RTVSPropertyOp11
 70
     1
102
RTVSPropertyOp12
 70
     1
102
RTVSPropertyOp13
 70
     1
102
RTVSPropertyOp14
 70
     1
102
RTVSPropertyOp15
 70
     1
102
RTVSPropertyOp16
 70
     1
102
RTVSPropertyOp17
 70
     1
102
RTVSPropertyOp18
 70
     1
102
RTVSPropertyOp19
 70
     1
102
RTVSPropertyOp20
 70
     1
102
RTVSPropertyOp21
 70
     1
102
RTVSPropertyOp22
 70
     1
102
RTVSPropertyOp23
 70
     1
102
RTVSPropertyOp24
 70
     1
102
RTVSPropertyOp25
 70
     1
102
RTVSPropertyOp26
 70
     1
102
RTVSPropertyOp27
 70
     1
102
RTVSPropertyOp28
 70
     1
102
RTVSPropertyOp29
 70
     1
102
RTVSPropertyOp30
 70
     1
102
RTVSPropertyOp31
 70
     1
102
RTVSPropertyOp32
 70
     1
102
RTVSPropertyOp33
 70
     1
102
RTVSPropertyOp34
 70
     1
102
RTVSPropertyOp35
 70
     1
102
RTVSPropertyOp36
 70
     1
102
RTVSPropertyOp37
 70
     1
102
RTVSPropertyOp38
 70
     1
102
RTVSPropertyOp39
 70
     1
102
RTVSPropertyOp40
 70
     1
102
RTVSPropertyOp41
 70
     1
102
RTVSPropertyOp42
 70
     1
102
RTVSPropertyOp43
 70
     1
102
RTVSPropertyOp44
 70
     1
102
RTVSPropertyOp45
 70
     1
102
RTVSPropertyOp46
 70
     1
102
RTVSPropertyOp47
 70
     1
102
RTVSPropertyOp48
 70
     1
102
RTVSPropertyOp49
 70
     1
102
RTVSPropertyOp50
 70
     1
102
RTVSPropertyOp51
 70
     0
102
RTVSPropertyOp52
 70
     0
102
RTVSPropertyOp53
 70
     1
102
RTVSPropertyOp54
 70
     1
102
RTVSPropertyOp55
 70
     1
102
RTVSPropertyOp56
 70
     1
102
RTVSPropertyOp57
 70
     1
102
RTVSPropertyOp58
 70
     1
102
RTVSPropertyOp59
 70
     1
102
RTVSPropertyOp60
 70
     1
102
RTVSPropertyOp61
 70
     1
102
RTVSPropertyOp62
 70
     1
  0
XRECORD
  5
61A
102
{ACAD_REACTORS
330
619
102
}
330
619
100
AcDbXrecord
280
     1
102
RTVSPost2010Prop28
280
     0
102
RTVSPost2010PropOp28
 70
     1
102
RTVSPost2010Prop29
280
     1
102
RTVSPost2010PropOp29
 70
     1
102
RTVSPost2010Prop30
280
     1
102
RTVSPost2010PropOp30
 70
     1
102
RTVSPost2010Prop31
280
     0
102
RTVSPost2010PropOp31
 70
     1
102
RTVSPost2010Prop32
280
     0
102
RTVSPost2010PropOp32
 70
     1
102
RTVSPost2010Prop33
280
     0
102
RTVSPost2010PropOp33
 70
     1
102
RTVSPost2010Prop34
280
     0
102
RTVSPost2010PropOp34
 70
     1
102
RTVSPost2010Prop35
280
     0
102
RTVSPost2010PropOp35
 70
     1
102
RTVSPost2010Prop36
280
     0
102
RTVSPost2010PropOp36
 70
     1
102
RTVSPost2010Prop37
 90
       50
102
RTVSPost2010PropOp37
 70
     1
102
RTVSPost2010Prop38
140
0.0
102
RTVSPost2010PropOp38
 70
     1
102
RTVSPost2010Prop39
140
1.0
102
RTVSPost2010PropOp39
 70
     1
102
RTVSPost2010Prop40
 90
        0
102
RTVSPost2010PropOp40
 70
     1
102
RTVSPost2010Prop41ColorIndex
 90
       18
102
RTVSPost2010Prop41ColorRGB
 90
        0
102
RTVSPost2010PropOp41
 70
     1
102
RTVSPost2010Prop42
 90
       50
102
RTVSPost2010PropOp42
 70
     1
102
RTVSPost2010Prop43
 90
        3
102
RTVSPost2010PropOp43
 70
     1
102
RTVSPost2010Prop44ColorIndex
 90
        5
102
RTVSPost2010Prop44ColorRGB
 90
      255
102
RTVSPost2010PropOp44
 70
     1
102
RTVSPost2010Prop45
280
     0
102
RTVSPost2010PropOp45
 70
     1
102
RTVSPost2010Prop46
 90
       50
102
RTVSPost2010PropOp46
 70
     1
102
RTVSPost2010Prop47
 90
       50
102
RTVSPost2010PropOp47
 70
     1
102
RTVSPost2010Prop48
 90
       50
102
RTVSPost2010PropOp48
 70
     1
102
RTVSPost2010Prop49
280
     0
102
RTVSPost2010PropOp49
 70
     1
102
RTVSPost2010Prop50
 90
       50
102
RTVSPost2010PropOp50
 70
     1
102
RTVSPost2010Prop51ColorIndex
 90
      256
102
RTVSPost2010Prop51ColorRGB
 90
-16777216
102
RTVSPost2010PropOp51
 70
     0
102
RTVSPost2010Prop52
140
1.0
102
RTVSPost2010PropOp52
 70
     0
102
RTVSPost2010Prop53
 90
        2
102
RTVSPost2010PropOp53
 70
     1
102
RTVSPost2010Prop54
  1
strokes_ogs.tif
102
RTVSPost2010PropOp54
 70
     1
102
RTVSPost2010Prop55
280
     0
102
RTVSPost2010PropOp55
 70
     1
102
RTVSPost2010Prop56
140
1.0
102
RTVSPost2010PropOp56
 70
     1
102
RTVSPost2010Prop57
140
1.0
102
RTVSPost2010PropOp57
 70
     1
102
RTVSPropertyOp0
 70
     1
102
RTVSPropertyOp1
 70
     1
102
RTVSPropertyOp2
 70
     1
102
RTVSPropertyOp3
 70
     1
102
RTVSPropertyOp4
 70
     1
102
RTVSPropertyOp5
 70
     1
102
RTVSPropertyOp6
 70
     1
102
RTVSPropertyOp7
 70
     1
102
RTVSPropertyOp8
 70
     1
102
RTVSPropertyOp9
 70
     1
102
RTVSPropertyOp10
 70
     1
102
RTVSPropertyOp11
 70
     1
102
RTVSPropertyOp12
 70
     1
102
RTVSPropertyOp13
 70
     1
102
RTVSPropertyOp14
 70
     1
102
RTVSPropertyOp15
 70
     1
102
RTVSPropertyOp16
 70
     1
102
RTVSPropertyOp17
 70
     1
102
RTVSPropertyOp18
 70
     1
102
RTVSPropertyOp19
 70
     1
102
RTVSPropertyOp20
 70
     1
102
RTVSPropertyOp21
 70
     1
102
RTVSPropertyOp22
 70
     1
102
RTVSPropertyOp23
 70
     1
102
RTVSPropertyOp24
 70
     1
102
RTVSPropertyOp25
 70
     1
102
RTVSPropertyOp26
 70
     1
102
RTVSPropertyOp27
 70
     1
102
RTVSPropertyOp28
 70
     1
102
RTVSPropertyOp29
 70
     1
102
RTVSPropertyOp30
 70
     1
102
RTVSPropertyOp31
 70
     1
102
RTVSPropertyOp32
 70
     1
102
RTVSPropertyOp33
 70
     1
102
RTVSPropertyOp34
 70
     1
102
RTVSPropertyOp35
 70
     1
102
RTVSPropertyOp36
 70
     1
102
RTVSPropertyOp37
 70
     1
102
RTVSPropertyOp38
 70
     1
102
RTVSPropertyOp39
 70
     1
102
RTVSPropertyOp40
 70
     1
102
RTVSPropertyOp41
 70
     1
102
RTVSPropertyOp42
 70
     1
102
RTVSPropertyOp43
 70
     1
102
RTVSPropertyOp44
 70
     1
102
RTVSPropertyOp45
 70
     1
102
RTVSPropertyOp46
 70
     1
102
RTVSPropertyOp47
 70
     1
102
RTVSPropertyOp48
 70
     1
102
RTVSPropertyOp49
 70
     1
102
RTVSPropertyOp50
 70
     1
102
RTVSPropertyOp51
 70
     0
102
RTVSPropertyOp52
 70
     0
102
RTVSPropertyOp53
 70
     1
102
RTVSPropertyOp54
 70
     1
102
RTVSPropertyOp55
 70
     1
102
RTVSPropertyOp56
 70
     1
102
RTVSPropertyOp57
 70
     1
102
RTVSPropertyOp58
 70
     1
102
RTVSPropertyOp59
 70
     1
102
RTVSPropertyOp60
 70
     1
102
RTVSPropertyOp61
 70
     1
102
RTVSPropertyOp62
 70
     1
  0
XRECORD
  5
60E
102
{ACAD_REACTORS
330
60D
102
}
330
60D
100
AcDbXrecord
280
     1
102
RTVSPost2010Prop28
280
     0
102
RTVSPost2010PropOp28
 70
     1
102
RTVSPost2010Prop29
280
     1
102
RTVSPost2010PropOp29
 70
     1
102
RTVSPost2010Prop30
280
     1
102
RTVSPost2010PropOp30
 70
     1
102
RTVSPost2010Prop31
280
     0
102
RTVSPost2010PropOp31
 70
     1
102
RTVSPost2010Prop32
280
     0
102
RTVSPost2010PropOp32
 70
     1
102
RTVSPost2010Prop33
280
     0
102
RTVSPost2010PropOp33
 70
     1
102
RTVSPost2010Prop34
280
     0
102
RTVSPost2010PropOp34
 70
     1
102
RTVSPost2010Prop35
280
     0
102
RTVSPost2010PropOp35
 70
     1
102
RTVSPost2010Prop36
280
     0
102
RTVSPost2010PropOp36
 70
     1
102
RTVSPost2010Prop37
 90
       50
102
RTVSPost2010PropOp37
 70
     1
102
RTVSPost2010Prop38
140
0.0
102
RTVSPost2010PropOp38
 70
     1
102
RTVSPost2010Prop39
140
1.0
102
RTVSPost2010PropOp39
 70
     1
102
RTVSPost2010Prop40
 90
        0
102
RTVSPost2010PropOp40
 70
     1
102
RTVSPost2010Prop41ColorIndex
 90
       18
102
RTVSPost2010Prop41ColorRGB
 90
        0
102
RTVSPost2010PropOp41
 70
     1
102
RTVSPost2010Prop42
 90
       50
102
RTVSPost2010PropOp42
 70
     1
102
RTVSPost2010Prop43
 90
        3
102
RTVSPost2010PropOp43
 70
     1
102
RTVSPost2010Prop44ColorIndex
 90
        5
102
RTVSPost2010Prop44ColorRGB
 90
      255
102
RTVSPost2010PropOp44
 70
     1
102
RTVSPost2010Prop45
280
     0
102
RTVSPost2010PropOp45
 70
     1
102
RTVSPost2010Prop46
 90
       50
102
RTVSPost2010PropOp46
 70
     1
102
RTVSPost2010Prop47
 90
       50
102
RTVSPost2010PropOp47
 70
     1
102
RTVSPost2010Prop48
 90
       50
102
RTVSPost2010PropOp48
 70
     1
102
RTVSPost2010Prop49
280
     0
102
RTVSPost2010PropOp49
 70
     1
102
RTVSPost2010Prop50
 90
       50
102
RTVSPost2010PropOp50
 70
     1
102
RTVSPost2010Prop51ColorIndex
 90
      256
102
RTVSPost2010Prop51ColorRGB
 90
-16777216
102
RTVSPost2010PropOp51
 70
     0
102
RTVSPost2010Prop52
140
1.0
102
RTVSPost2010PropOp52
 70
     0
102
RTVSPost2010Prop53
 90
        2
102
RTVSPost2010PropOp53
 70
     1
102
RTVSPost2010Prop54
  1
strokes_ogs.tif
102
RTVSPost2010PropOp54
 70
     1
102
RTVSPost2010Prop55
280
     0
102
RTVSPost2010PropOp55
 70
     1
102
RTVSPost2010Prop56
140
1.0
102
RTVSPost2010PropOp56
 70
     1
102
RTVSPost2010Prop57
140
1.0
102
RTVSPost2010PropOp57
 70
     1
102
RTVSPropertyOp0
 70
     1
102
RTVSPropertyOp1
 70
     1
102
RTVSPropertyOp2
 70
     1
102
RTVSPropertyOp3
 70
     1
102
RTVSPropertyOp4
 70
     1
102
RTVSPropertyOp5
 70
     1
102
RTVSPropertyOp6
 70
     1
102
RTVSPropertyOp7
 70
     1
102
RTVSPropertyOp8
 70
     1
102
RTVSPropertyOp9
 70
     1
102
RTVSPropertyOp10
 70
     1
102
RTVSPropertyOp11
 70
     1
102
RTVSPropertyOp12
 70
     1
102
RTVSPropertyOp13
 70
     1
102
RTVSPropertyOp14
 70
     1
102
RTVSPropertyOp15
 70
     1
102
RTVSPropertyOp16
 70
     1
102
RTVSPropertyOp17
 70
     1
102
RTVSPropertyOp18
 70
     1
102
RTVSPropertyOp19
 70
     1
102
RTVSPropertyOp20
 70
     1
102
RTVSPropertyOp21
 70
     1
102
RTVSPropertyOp22
 70
     1
102
RTVSPropertyOp23
 70
     1
102
RTVSPropertyOp24
 70
     1
102
RTVSPropertyOp25
 70
     1
102
RTVSPropertyOp26
 70
     1
102
RTVSPropertyOp27
 70
     1
102
RTVSPropertyOp28
 70
     1
102
RTVSPropertyOp29
 70
     1
102
RTVSPropertyOp30
 70
     1
102
RTVSPropertyOp31
 70
     1
102
RTVSPropertyOp32
 70
     1
102
RTVSPropertyOp33
 70
     1
102
RTVSPropertyOp34
 70
     1
102
RTVSPropertyOp35
 70
     1
102
RTVSPropertyOp36
 70
     1
102
RTVSPropertyOp37
 70
     1
102
RTVSPropertyOp38
 70
     1
102
RTVSPropertyOp39
 70
     1
102
RTVSPropertyOp40
 70
     1
102
RTVSPropertyOp41
 70
     1
102
RTVSPropertyOp42
 70
     1
102
RTVSPropertyOp43
 70
     1
102
RTVSPropertyOp44
 70
     1
102
RTVSPropertyOp45
 70
     1
102
RTVSPropertyOp46
 70
     1
102
RTVSPropertyOp47
 70
     1
102
RTVSPropertyOp48
 70
     1
102
RTVSPropertyOp49
 70
     1
102
RTVSPropertyOp50
 70
     1
102
RTVSPropertyOp51
 70
     0
102
RTVSPropertyOp52
 70
     0
102
RTVSPropertyOp53
 70
     1
102
RTVSPropertyOp54
 70
     1
102
RTVSPropertyOp55
 70
     1
102
RTVSPropertyOp56
 70
     1
102
RTVSPropertyOp57
 70
     1
102
RTVSPropertyOp58
 70
     1
102
RTVSPropertyOp59
 70
     1
102
RTVSPropertyOp60
 70
     1
102
RTVSPropertyOp61
 70
     1
102
RTVSPropertyOp62
 70
     1
  0
XRECORD
  5
626
102
{ACAD_REACTORS
330
625
102
}
330
625
100
AcDbXrecord
280
     1
102
RTVSPost2010Prop28
280
     0
102
RTVSPost2010PropOp28
 70
     1
102
RTVSPost2010Prop29
280
     1
102
RTVSPost2010PropOp29
 70
     1
102
RTVSPost2010Prop30
280
     1
102
RTVSPost2010PropOp30
 70
     1
102
RTVSPost2010Prop31
280
     0
102
RTVSPost2010PropOp31
 70
     1
102
RTVSPost2010Prop32
280
     0
102
RTVSPost2010PropOp32
 70
     1
102
RTVSPost2010Prop33
280
     0
102
RTVSPost2010PropOp33
 70
     1
102
RTVSPost2010Prop34
280
     0
102
RTVSPost2010PropOp34
 70
     1
102
RTVSPost2010Prop35
280
     0
102
RTVSPost2010PropOp35
 70
     1
102
RTVSPost2010Prop36
280
     0
102
RTVSPost2010PropOp36
 70
     1
102
RTVSPost2010Prop37
 90
       50
102
RTVSPost2010PropOp37
 70
     1
102
RTVSPost2010Prop38
140
0.0
102
RTVSPost2010PropOp38
 70
     1
102
RTVSPost2010Prop39
140
1.0
102
RTVSPost2010PropOp39
 70
     1
102
RTVSPost2010Prop40
 90
        0
102
RTVSPost2010PropOp40
 70
     1
102
RTVSPost2010Prop41ColorIndex
 90
       18
102
RTVSPost2010Prop41ColorRGB
 90
        0
102
RTVSPost2010PropOp41
 70
     1
102
RTVSPost2010Prop42
 90
       50
102
RTVSPost2010PropOp42
 70
     1
102
RTVSPost2010Prop43
 90
        3
102
RTVSPost2010PropOp43
 70
     1
102
RTVSPost2010Prop44ColorIndex
 90
        5
102
RTVSPost2010Prop44ColorRGB
 90
      255
102
RTVSPost2010PropOp44
 70
     1
102
RTVSPost2010Prop45
280
     0
102
RTVSPost2010PropOp45
 70
     1
102
RTVSPost2010Prop46
 90
       50
102
RTVSPost2010PropOp46
 70
     1
102
RTVSPost2010Prop47
 90
       50
102
RTVSPost2010PropOp47
 70
     1
102
RTVSPost2010Prop48
 90
       50
102
RTVSPost2010PropOp48
 70
     1
102
RTVSPost2010Prop49
280
     0
102
RTVSPost2010PropOp49
 70
     1
102
RTVSPost2010Prop50
 90
       50
102
RTVSPost2010PropOp50
 70
     1
102
RTVSPost2010Prop51ColorIndex
 90
      256
102
RTVSPost2010Prop51ColorRGB
 90
-16777216
102
RTVSPost2010PropOp51
 70
     0
102
RTVSPost2010Prop52
140
1.0
102
RTVSPost2010PropOp52
 70
     0
102
RTVSPost2010Prop53
 90
        2
102
RTVSPost2010PropOp53
 70
     1
102
RTVSPost2010Prop54
  1
strokes_ogs.tif
102
RTVSPost2010PropOp54
 70
     1
102
RTVSPost2010Prop55
280
     0
102
RTVSPost2010PropOp55
 70
     1
102
RTVSPost2010Prop56
140
1.0
102
RTVSPost2010PropOp56
 70
     1
102
RTVSPost2010Prop57
140
1.0
102
RTVSPost2010PropOp57
 70
     1
102
RTVSPropertyOp0
 70
     1
102
RTVSPropertyOp1
 70
     1
102
RTVSPropertyOp2
 70
     1
102
RTVSPropertyOp3
 70
     1
102
RTVSPropertyOp4
 70
     1
102
RTVSPropertyOp5
 70
     1
102
RTVSPropertyOp6
 70
     1
102
RTVSPropertyOp7
 70
     1
102
RTVSPropertyOp8
 70
     1
102
RTVSPropertyOp9
 70
     1
102
RTVSPropertyOp10
 70
     1
102
RTVSPropertyOp11
 70
     1
102
RTVSPropertyOp12
 70
     1
102
RTVSPropertyOp13
 70
     1
102
RTVSPropertyOp14
 70
     1
102
RTVSPropertyOp15
 70
     1
102
RTVSPropertyOp16
 70
     1
102
RTVSPropertyOp17
 70
     1
102
RTVSPropertyOp18
 70
     1
102
RTVSPropertyOp19
 70
     1
102
RTVSPropertyOp20
 70
     1
102
RTVSPropertyOp21
 70
     1
102
RTVSPropertyOp22
 70
     1
102
RTVSPropertyOp23
 70
     1
102
RTVSPropertyOp24
 70
     1
102
RTVSPropertyOp25
 70
     1
102
RTVSPropertyOp26
 70
     1
102
RTVSPropertyOp27
 70
     1
102
RTVSPropertyOp28
 70
     1
102
RTVSPropertyOp29
 70
     1
102
RTVSPropertyOp30
 70
     1
102
RTVSPropertyOp31
 70
     1
102
RTVSPropertyOp32
 70
     1
102
RTVSPropertyOp33
 70
     1
102
RTVSPropertyOp34
 70
     1
102
RTVSPropertyOp35
 70
     1
102
RTVSPropertyOp36
 70
     1
102
RTVSPropertyOp37
 70
     1
102
RTVSPropertyOp38
 70
     1
102
RTVSPropertyOp39
 70
     1
102
RTVSPropertyOp40
 70
     1
102
RTVSPropertyOp41
 70
     1
102
RTVSPropertyOp42
 70
     1
102
RTVSPropertyOp43
 70
     1
102
RTVSPropertyOp44
 70
     1
102
RTVSPropertyOp45
 70
     1
102
RTVSPropertyOp46
 70
     1
102
RTVSPropertyOp47
 70
     1
102
RTVSPropertyOp48
 70
     1
102
RTVSPropertyOp49
 70
     1
102
RTVSPropertyOp50
 70
     1
102
RTVSPropertyOp51
 70
     0
102
RTVSPropertyOp52
 70
     0
102
RTVSPropertyOp53
 70
     1
102
RTVSPropertyOp54
 70
     1
102
RTVSPropertyOp55
 70
     1
102
RTVSPropertyOp56
 70
     1
102
RTVSPropertyOp57
 70
     1
102
RTVSPropertyOp58
 70
     1
102
RTVSPropertyOp59
 70
     1
102
RTVSPropertyOp60
 70
     1
102
RTVSPropertyOp61
 70
     1
102
RTVSPropertyOp62
 70
     1
  0
ENDSEC
  0
EOF
