  0
SECTION
  2
HEADER
  9
$ACADVER
  1
AC1015
  9
$ACADMAINTVER
 70
    18
  9
$DWGCODEPAGE
  3
ANSI_932
  9
$INSBASE
 10
0.0
 20
0.0
 30
0.0
  9
$EXTMIN
 10
-1812.970526727593
 20
-613.2812067629256
 30
-0.0000000000000142
  9
$EXTMAX
 10
2224.128060247626
 20
1047.401520856875
 30
0.0
  9
$LIMMIN
 10
-20.0
 20
-7.5
  9
$LIMMAX
 10
277.0
 20
202.5
  9
$ORTHOMODE
 70
     0
  9
$REGENMODE
 70
     1
  9
$FILLMODE
 70
     1
  9
$QTEXTMODE
 70
     0
  9
$MIRRTEXT
 70
     0
  9
$LTSCALE
 40
1.0
  9
$ATTMODE
 70
     1
  9
$TEXTSIZE
 40
9.0
  9
$TRACEWID
 40
1.0
  9
$TEXTSTYLE
  7
STANDARD
  9
$CLAYER
  8
AM_VIEWS
  9
$CELTYPE
  6
ByLayer
  9
$CECOLOR
 62
   256
  9
$CELTSCALE
 40
1.0
  9
$DISPSILH
 70
     0
  9
$DIMSCALE
 40
1.0
  9
$DIMASZ
 40
1.8
  9
$DIMEXO
 40
1.0
  9
$DIMDLI
 40
10.0
  9
$DIMRND
 40
0.0
  9
$DIMDLE
 40
0.0
  9
$DIMEXE
 40
1.0
  9
$DIMTP
 40
0.1
  9
$DIMTM
 40
0.1
  9
$DIMTXT
 40
3.5
  9
$DIMCEN
 40
0.0
  9
$DIMTSZ
 40
0.0
  9
$DIMTOL
 70
     0
  9
$DIMLIM
 70
     0
  9
$DIMTIH
 70
     0
  9
$DIMTOH
 70
     0
  9
$DIMSE1
 70
     0
  9
$DIMSE2
 70
     0
  9
$DIMTAD
 70
     3
  9
$DIMZIN
 70
     8
  9
$DIMBLK
  1
Open30
  9
$DIMASO
 70
     1
  9
$DIMSHO
 70
     1
  9
$DIMPOST
  1

  9
$DIMAPOST
  1
"
  9
$DIMALT
 70
     0
  9
$DIMALTD
 70
     2
  9
$DIMALTF
 40
0.0393701
  9
$DIMLFAC
 40
1.0
  9
$DIMTOFL
 70
     1
  9
$DIMTVP
 40
0.0
  9
$DIMTIX
 70
     0
  9
$DIMSOXD
 70
     0
  9
$DIMSAH
 70
     0
  9
$DIMBLK1
  1

  9
$DIMBLK2
  1

  9
$DIMSTYLE
  2
JIS2
  9
$DIMCLRD
 70
   256
  9
$DIMCLRE
 70
   256
  9
$DIMCLRT
 70
     2
  9
$DIMTFAC
 40
0.71
  9
$DIMGAP
 40
0.5
  9
$DIMJUST
 70
     0
  9
$DIMSD1
 70
     0
  9
$DIMSD2
 70
     0
  9
$DIMTOLJ
 70
     0
  9
$DIMTZIN
 70
     8
  9
$DIMALTZ
 70
     0
  9
$DIMALTTZ
 70
     0
  9
$DIMUPT
 70
     0
  9
$DIMDEC
 70
     2
  9
$DIMTDEC
 70
     2
  9
$DIMALTU
 70
     2
  9
$DIMALTTD
 70
     2
  9
$DIMTXSTY
  7
STANDARD
  9
$DIMAUNIT
 70
     0
  9
$DIMADEC
 70
     0
  9
$DIMALTRND
 40
0.0
  9
$DIMAZIN
 70
     2
  9
$DIMDSEP
 70
    46
  9
$DIMATFIT
 70
     3
  9
$DIMFRAC
 70
     0
  9
$DIMLDRBLK
  1
Open30
  9
$DIMLUNIT
 70
     2
  9
$DIMLWD
 70
    -1
  9
$DIMLWE
 70
    -1
  9
$DIMTMOVE
 70
     0
  9
$LUNITS
 70
     2
  9
$LUPREC
 70
     2
  9
$SKETCHINC
 40
1.0
  9
$FILLETRAD
 40
2.5
  9
$AUNITS
 70
     0
  9
$AUPREC
 70
     0
  9
$MENU
  1
.
  9
$ELEVATION
 40
0.0
  9
$PELEVATION
 40
0.0
  9
$THICKNESS
 40
0.0
  9
$LIMCHECK
 70
     0
  9
$CHAMFERA
 40
2.5
  9
$CHAMFERB
 40
2.5
  9
$CHAMFERC
 40
20.0
  9
$CHAMFERD
 40
0.0
  9
$SKPOLY
 70
     0
  9
$TDCREATE
 40
2459320.646377315
  9
$TDUCREATE
 40
2459320.271377315
  9
$TDUPDATE
 40
2459320.646388889
  9
$TDUUPDATE
 40
2459320.271388889
  9
$TDINDWG
 40
0.0000578704
  9
$TDUSRTIMER
 40
0.0000578704
  9
$USRTIMER
 70
     1
  9
$ANGBASE
 50
0.0
  9
$ANGDIR
 70
     0
  9
$PDMODE
 70
     0
  9
$PDSIZE
 40
0.0
  9
$PLINEWID
 40
0.0
  9
$SPLFRAME
 70
     0
  9
$SPLINETYPE
 70
     6
  9
$SPLINESEGS
 70
     8
  9
$HANDSEED
  5
62D
  9
$SURFTAB1
 70
     6
  9
$SURFTAB2
 70
     6
  9
$SURFTYPE
 70
     6
  9
$SURFU
 70
     6
  9
$SURFV
 70
     6
  9
$UCSBASE
  2

  9
$UCSNAME
  2

  9
$UCSORG
 10
0.0
 20
0.0
 30
0.0
  9
$UCSXDIR
 10
1.0
 20
0.0
 30
0.0
  9
$UCSYDIR
 10
0.0
 20
1.0
 30
0.0
  9
$UCSORTHOREF
  2

  9
$UCSORTHOVIEW
 70
     0
  9
$UCSORGTOP
 10
0.0
 20
0.0
 30
0.0
  9
$UCSORGBOTTOM
 10
0.0
 20
0.0
 30
0.0
  9
$UCSORGLEFT
 10
0.0
 20
0.0
 30
0.0
  9
$UCSORGRIGHT
 10
0.0
 20
0.0
 30
0.0
  9
$UCSORGFRONT
 10
0.0
 20
0.0
 30
0.0
  9
$UCSORGBACK
 10
0.0
 20
0.0
 30
0.0
  9
$PUCSBASE
  2

  9
$PUCSNAME
  2

  9
$PUCSORG
 10
0.0
 20
0.0
 30
0.0
  9
$PUCSXDIR
 10
1.0
 20
0.0
 30
0.0
  9
$PUCSYDIR
 10
0.0
 20
1.0
 30
0.0
  9
$PUCSORTHOREF
  2

  9
$PUCSORTHOVIEW
 70
     0
  9
$PUCSORGTOP
 10
0.0
 20
0.0
 30
0.0
  9
$PUCSORGBOTTOM
 10
0.0
 20
0.0
 30
0.0
  9
$PUCSORGLEFT
 10
0.0
 20
0.0
 30
0.0
  9
$PUCSORGRIGHT
 10
0.0
 20
0.0
 30
0.0
  9
$PUCSORGFRONT
 10
0.0
 20
0.0
 30
0.0
  9
$PUCSORGBACK
 10
0.0
 20
0.0
 30
0.0
  9
$USERI1
 70
     0
  9
$USERI2
 70
     0
  9
$USERI3
 70
     0
  9
$USERI4
 70
     0
  9
$USERI5
 70
     0
  9
$USERR1
 40
0.0
  9
$USERR2
 40
0.0
  9
$USERR3
 40
0.0
  9
$USERR4
 40
0.0
  9
$USERR5
 40
0.0
  9
$WORLDVIEW
 70
     1
  9
$SHADEDGE
 70
     3
  9
$SHADEDIF
 70
    70
  9
$TILEMODE
 70
     1
  9
$MAXACTVP
 70
    64
  9
$PINSBASE
 10
0.0
 20
0.0
 30
0.0
  9
$PLIMCHECK
 70
     0
  9
$PEXTMIN
 10
1.000000000000000E+20
 20
1.000000000000000E+20
 30
1.000000000000000E+20
  9
$PEXTMAX
 10
-1.000000000000000E+20
 20
-1.000000000000000E+20
 30
-1.000000000000000E+20
  9
$PLIMMIN
 10
0.0
 20
0.0
  9
$PLIMMAX
 10
12.0
 20
9.0
  9
$UNITMODE
 70
     0
  9
$VISRETAIN
 70
     1
  9
$PLINEGEN
 70
     0
  9
$PSLTSCALE
 70
     1
  9
$TREEDEPTH
 70
  3020
  9
$CMLSTYLE
  2
Standard
  9
$CMLJUST
 70
     0
  9
$CMLSCALE
 40
20.0
  9
$PROXYGRAPHICS
 70
     1
  9
$MEASUREMENT
 70
     1
  9
$CELWEIGHT
370
    -1
  9
$ENDCAPS
280
     0
  9
$JOINSTYLE
280
     0
  9
$LWDISPLAY
290
     0
  9
$INSUNITS
 70
     4
  9
$HYPERLINKBASE
  1

  9
$STYLESHEET
  1

  9
$XEDIT
290
     1
  9
$CEPSNTYPE
380
     0
  9
$PSTYLEMODE
290
     1
  9
$FINGERPRINTGUID
  2
{CE9DF4B3-0993-B54A-AB57-984D426A5B51}
  9
$VERSIONGUID
  2
{2CEC2670-3E2A-204D-9EA7-77C09908C7C5}
  9
$EXTNAMES
290
     1
  9
$PSVPSCALE
 40
0.0
  9
$OLESTARTUP
290
     0
  0
ENDSEC
  0
SECTION
  2
CLASSES
  0
CLASS
  1
ACDBDICTIONARYWDFLT
  2
AcDbDictionaryWithDefault
  3
ObjectDBX Classes
 90
        0
280
     0
281
     0
  0
CLASS
  1
MATERIAL
  2
AcDbMaterial
  3
ObjectDBX Classes
 90
     1153
280
     0
281
     0
  0
CLASS
  1
VISUALSTYLE
  2
AcDbVisualStyle
  3
ObjectDBX Classes
 90
     4095
280
     0
281
     0
  0
CLASS
  1
SCALE
  2
AcDbScale
  3
ObjectDBX Classes
 90
     1153
280
     0
281
     0
  0
CLASS
  1
TABLESTYLE
  2
AcDbTableStyle
  3
ObjectDBX Classes
 90
     4095
280
     0
281
     0
  0
CLASS
  1
MLEADERSTYLE
  2
AcDbMLeaderStyle
  3
ACDB_MLEADERSTYLE_CLASS
 90
     4095
280
     0
281
     0
  0
CLASS
  1
ACDBSECTIONVIEWSTYLE
  2
AcDbSectionViewStyle
  3
ObjectDBX Classes
 90
     1025
280
     0
281
     0
  0
CLASS
  1
ACDBDETAILVIEWSTYLE
  2
AcDbDetailViewStyle
  3
ObjectDBX Classes
 90
     1025
280
     0
281
     0
  0
CLASS
  1
ACMESCOPE
  2
AcMeScope
  3
AcMeServices
 90
     1024
280
     0
281
     0
  0
CLASS
  1
ACMECOMMANDHISTORY
  2
AcMeCommandHistory
  3
AcMeServices
 90
     1024
280
     0
281
     0
  0
CLASS
  1
ACIMSYSVARMAN
  2
AcImSysVarManager
  3
AcMeServices
 90
     1024
280
     0
281
     0
  0
CLASS
  1
ACIMINTSYSVAR
  2
AcImIntSysVar
  3
AcMeServices
 90
     1024
280
     0
281
     0
  0
CLASS
  1
ACMESTATEMGR
  2
AcMeStateMgr
  3
AcMeServices
 90
     1024
280
     0
281
     0
  0
CLASS
  1
ACGREFMASTER
  2
AcGrefMaster
  3
AcAttribServices
 90
     1024
280
     0
281
     0
  0
CLASS
  1
SORTENTSTABLE
  2
AcDbSortentsTable
  3
ObjectDBX Classes
 90
        0
280
     0
281
     0
  0
CLASS
  1
DICTIONARYVAR
  2
AcDbDictionaryVar
  3
ObjectDBX Classes
 90
        0
280
     0
281
     0
  0
CLASS
  1
ACME_DOCUMENT
  2
AcMeDbDoc
  3
AcMeServices
 90
     1024
280
     0
281
     0
  0
CLASS
  1
AMGSETTINGSOBJ
  2
AmgSettingsObj
  3
"AcadM|Product Description: AutoCAD Mechanical|Company: Autodesk, Inc."
 90
     1024
280
     0
281
     0
  0
CLASS
  1
ACDBENTITYCACHE
  2
AcMeEntityCache
  3
AcMeServices
 90
     1024
280
     0
281
     0
  0
CLASS
  1
ACME_DATABASE
  2
AcMeDbDatabase
  3
AcMeServices
 90
     1024
280
     0
281
     0
  0
CLASS
  1
ACRFINSADJUSTERMGR
  2
AcRfInsAdjusterMgr
  3
AcMeServices
 90
     1024
280
     0
281
     0
  0
CLASS
  1
ACGREFACADMASTER
  2
AcGrefacadMaster
  3
AcGrefServices
 90
     1024
280
     0
281
     0
  0
CLASS
  1
AMIMASTER
  2
AmiMaster
  3
AmiServices
 90
     1024
280
     0
281
     0
  0
CLASS
  1
AMDTMENUSTATEMGR
  2
AmdtMenuStateMgr
  3
McadcomServices
 90
     1024
280
     0
281
     0
  0
CLASS
  1
AMDTMCOMMENUSTATE
  2
AmdtMcomMenuState
  3
McadcomServices
 90
     1024
280
     0
281
     0
  0
CLASS
  1
MAPIAMMOUDLE
  2
MApiAmModule
  3
MApiAmServices
 90
     1024
280
     0
281
     0
  0
CLASS
  1
ACIMSTRSYSVAR
  2
AcImStrSysVar
  3
AcMeServices
 90
     1024
280
     0
281
     0
  0
CLASS
  1
AMDTAMMENUSTATE
  2
AmdtAmMenuState
  3
DesignerAssemblies_arx
 90
     1024
280
     0
281
     0
  0
CLASS
  1
ACAMPROJECT
  2
AcAmProject
  3
DesignerAssemblies
 90
     1024
280
     0
281
     0
  0
CLASS
  1
ACAMGRCOMPDEF
  2
AcAmGrCompDef
  3
DesignerAssemblies
 90
     1024
280
     0
281
     0
  0
CLASS
  1
ACAMCOMPDEF
  2
AcAmCompDef
  3
DesignerAssemblies
 90
     1024
280
     0
281
     0
  0
CLASS
  1
ACAMCOMPDEFMGR
  2
AcAmCompDefMgr
  3
DesignerAssemblies
 90
     1024
280
     0
281
     0
  0
CLASS
  1
AMCONTEXTMGR
  2
AcAmContextMgr
  3
DesignerAssemblies
 90
     1024
280
     0
281
     0
  0
CLASS
  1
ACAMCONTEXTMODELER
  2
AcAmContextModeler
  3
DesignerAssemblies
 90
     1024
280
     0
281
     0
  0
CLASS
  1
ACMDATADICTIONARY
  2
AcmDataDictionary
  3
"AcmSymBB|Product Description: AutoCAD Mechanical|Company: Autodesk, Inc."
 90
     1024
280
     0
281
     0
  0
CLASS
  1
ACAMGRCOMPDEFSET
  2
AcAmGrCompDefSet
  3
DesignerAssemblies
 90
     1024
280
     0
281
     0
  0
CLASS
  1
AMDTBROWSERDBTAB
  2
AmdtBrowserDbTab
  3
McadcomServices
 90
     1024
280
     0
281
     0
  0
CLASS
  1
CBROWSERAPPOBJECT
  2
CBrowserAppObject
  3
McadcomServices
 90
     1024
280
     0
281
     0
  0
CLASS
  1
DM_PLACEHOLDER
  2
AcDmSelsetPlaceholder
  3
McadcomServices
 90
     1024
280
     0
281
     0
  0
CLASS
  1
ACMSTANDARDISO
  2
AcmStandardISO
  3
"Amdt_StdImp|Product Description: AutoCAD Mechanical|Company: Autodesk, Inc."
 90
     1024
280
     0
281
     0
  0
CLASS
  1
AMDTEDGESTANDARDISO13715
  2
AmdtEdgeStdISO13715
  3
"Amdt_StdImp|Product Description: AutoCAD Mechanical|Company: Autodesk, Inc."
 90
     1024
280
     0
281
     0
  0
CLASS
  1
ACMSURFSTANDARDISO2002
  2
AcmSurfTextStdISO2002
  3
"Amdt_StdImp|Product Description: AutoCAD Mechanical|Company: Autodesk, Inc."
 90
     1024
280
     0
281
     0
  0
CLASS
  1
ACMFCFSTANDARDISO2012
  2
AcmFCFStdISO2012
  3
"Amdt_StdImp|Product Description: AutoCAD Mechanical|Company: Autodesk, Inc."
 90
     1024
280
     0
281
     0
  0
CLASS
  1
ACMWELDSTANDARDISO
  2
AcmWeldingStdISO
  3
"Amdt_StdImp|Product Description: AutoCAD Mechanical|Company: Autodesk, Inc."
 90
     1024
280
     0
281
     0
  0
CLASS
  1
ACMIDSTANDARDISO2012
  2
AcmIdStdISO2012
  3
"Amdt_StdImp|Product Description: AutoCAD Mechanical|Company: Autodesk, Inc."
 90
     1024
280
     0
281
     0
  0
CLASS
  1
ACMDATUMSTANDARDISO2012
  2
AcmDatumStdISO2012
  3
"Amdt_StdImp|Product Description: AutoCAD Mechanical|Company: Autodesk, Inc."
 90
     1024
280
     0
281
     0
  0
CLASS
  1
ACMBOMSTANDARDISO
  2
AcmBOMStdISO
  3
"Amdt_StdImp|Product Description: AutoCAD Mechanical|Company: Autodesk, Inc."
 90
     1024
280
     0
281
     0
  0
CLASS
  1
ACMDETAILSTANDARDISO
  2
AmdtDetailSymStdISO
  3
"Amdt_StdImp|Product Description: AutoCAD Mechanical|Company: Autodesk, Inc."
 90
     1024
280
     0
281
     0
  0
CLASS
  1
ACMSECTIONSTANDARDISO2001
  2
AmdtSectionSymStdISO2001
  3
"Amdt_StdImp|Product Description: AutoCAD Mechanical|Company: Autodesk, Inc."
 90
     1024
280
     0
281
     0
  0
CLASS
  1
ACMCENTERLINESTANDARDISO
  2
AmdtCenterLineStdISO
  3
"Amdt_StdImp|Product Description: AutoCAD Mechanical|Company: Autodesk, Inc."
 90
     1024
280
     0
281
     0
  0
CLASS
  1
ACMTHREADLINESTANDARDISO
  2
AmdtThreadLineStdISO
  3
"Amdt_StdImp|Product Description: AutoCAD Mechanical|Company: Autodesk, Inc."
 90
     1024
280
     0
281
     0
  0
CLASS
  1
ACMNOTESTANDARDISO
  2
AmdtNoteStdISO
  3
"Amdt_StdImp|Product Description: AutoCAD Mechanical|Company: Autodesk, Inc."
 90
     1024
280
     0
281
     0
  0
CLASS
  1
ACMTAPERSTANDARDISO
  2
AcmTaperStdISO
  3
"Amdt_StdImp|Product Description: AutoCAD Mechanical|Company: Autodesk, Inc."
 90
     1024
280
     0
281
     0
  0
CLASS
  1
ACMANOOTATIONVIEWSTANDARDISO
  2
AmdtAnViewStdISO
  3
"Amdt_StdImp|Product Description: AutoCAD Mechanical|Company: Autodesk, Inc."
 90
     1024
280
     0
281
     0
  0
CLASS
  1
ACAMGLAYSTD
  2
AcAmgLayStd
  3
"AmgLay|Product Description: AutoCAD Mechanical|Company: Autodesk, Inc."
 90
     1024
280
     0
281
     0
  0
CLASS
  1
ACAMGTITLESTD
  2
AcAmgTitleStd
  3
"AmgTitle|Product Description: AutoCAD Mechanical|Company: Autodesk, Inc."
 90
     1024
280
     0
281
     0
  0
CLASS
  1
ACAMGDIMSTD
  2
AcAmgDimStd
  3
"AmgDim|Product Description: AutoCAD Mechanical|Company: Autodesk, Inc."
 90
     1024
280
     0
281
     0
  0
CLASS
  1
AMGOBJPROPCFG
  2
AmgObjPropCfg
  3
"AmgLay|Product Description: AutoCAD Mechanical|Company: Autodesk, Inc."
 90
     1024
280
     0
281
     0
  0
CLASS
  1
ACAMGHOLECHARTSTDISO
  2
AcAmgHoleChartStdISO
  3
"AmgDim" "Product Description: AutoCAD Mechanical|Company: Autodesk, Inc."
 90
     1024
280
     0
281
     0
  0
CLASS
  1
ACMSECTIONSTANDARDCUSTOM
  2
AmdtSectionSymStdCustom
  3
"Amdt_StdImp|Product Description: AutoCAD Mechanical|Company: Autodesk, Inc."
 90
     1024
280
     0
281
     0
  0
CLASS
  1
ACMDETAILTANDARDCUSTOM
  2
AmdtDetailSymStdCustom
  3
"Amdt_StdImp|Product Description: AutoCAD Mechanical|Company: Autodesk, Inc."
 90
     1024
280
     0
281
     0
  0
CLASS
  1
FIELD
  2
AcDbField
  3
ObjectDBX Classes
 90
     1152
280
     0
281
     0
  0
CLASS
  1
FIELDLIST
  2
AcDbFieldList
  3
ObjectDBX Classes
 90
     1152
280
     0
281
     0
  0
CLASS
  1
AMDTNOTETEMPLATEDB
  2
AmdtNoteTemplateDB
  3
"AcmSymBB" "Product Description: AutoCAD Mechanical|Company: Autodesk, Inc."
 90
     1024
280
     0
281
     0
  0
CLASS
  1
CELLSTYLEMAP
  2
AcDbCellStyleMap
  3
ObjectDBX Classes
 90
     1152
280
     0
281
     0
  0
CLASS
  1
ACDBPLACEHOLDER
  2
AcDbPlaceHolder
  3
ObjectDBX Classes
 90
        0
280
     0
281
     0
  0
CLASS
  1
LAYOUT
  2
AcDbLayout
  3
ObjectDBX Classes
 90
        0
280
     0
281
     0
  0
ENDSEC
  0
SECTION
  2
TABLES
  0
TABLE
  2
VPORT
  5
8
330
0
100
AcDbSymbolTable
 70
     1
  0
VPORT
  5
57
330
8
100
AcDbSymbolTableRecord
100
AcDbViewportTableRecord
  2
*Active
 70
     0
 10
0.0
 20
0.0
 11
1.0
 21
1.0
 12
324.9059921688431
 22
243.5016077948768
 13
0.0
 23
0.0
 14
10.0
 24
10.0
 15
10.0
 25
10.0
 16
0.0
 26
0.0
 36
1.0
 17
0.0
 27
0.0
 37
0.0
 40
1933.046791672023
 41
2.180967238689547
 42
50.0
 43
0.0
 44
0.0
 50
0.0
 51
0.0
 71
     0
 72
  1000
 73
     1
 74
     1
 75
     0
 76
     0
 77
     0
 78
     0
281
     0
 65
     1
110
0.0
120
0.0
130
0.0
111
1.0
121
0.0
131
0.0
112
0.0
122
1.0
132
0.0
 79
     0
146
0.0
1001
ACAD_NAV_VCDISPLAY
1070
     3
  0
ENDTAB
  0
TABLE
  2
LTYPE
  5
5
330
0
100
AcDbSymbolTable
 70
    20
  0
LTYPE
  5
5B
330
5
100
AcDbSymbolTableRecord
100
AcDbLinetypeTableRecord
  2
ByBlock
 70
     0
  3

 72
    65
 73
     0
 40
0.0
  0
LTYPE
  5
5C
330
5
100
AcDbSymbolTableRecord
100
AcDbLinetypeTableRecord
  2
ByLayer
 70
     0
  3

 72
    65
 73
     0
 40
0.0
  0
LTYPE
  5
5D
330
5
100
AcDbSymbolTableRecord
100
AcDbLinetypeTableRecord
  2
Continuous
 70
     0
  3
Solid line
 72
    65
 73
     0
 40
0.0
  0
LTYPE
  5
81
330
5
100
AcDbSymbolTableRecord
100
AcDbLinetypeTableRecord
  2
HIDDEN
 70
     0
  3
Hidden __ __ __ __ __ __ __ __ __ __ __ __ __ _
 72
    65
 73
     2
 40
9.524999999999998
 49
6.349999999999999
 74
     0
 49
-3.174999999999999
 74
     0
  0
LTYPE
  5
82
330
5
100
AcDbSymbolTableRecord
100
AcDbLinetypeTableRecord
  2
PHANTOM2
 70
     0
  3
Phantom (.5x) ___ _ _ ___ _ _ ___ _ _ ___ _ _
 72
    65
 73
     6
 40
31.75
 49
15.875
 74
     0
 49
-3.174999999999999
 74
     0
 49
3.174999999999999
 74
     0
 49
-3.174999999999999
 74
     0
 49
3.174999999999999
 74
     0
 49
-3.174999999999999
 74
     0
  0
LTYPE
  5
83
330
5
100
AcDbSymbolTableRecord
100
AcDbLinetypeTableRecord
  2
CENTER
 70
     0
  3
Center ____ _ ____ _ ____ _ ____ _ ____ _ ____
 72
    65
 73
     4
 40
50.8
 49
31.75
 74
     0
 49
-6.349999999999999
 74
     0
 49
6.349999999999999
 74
     0
 49
-6.349999999999999
 74
     0
  0
LTYPE
  5
9C
330
5
100
AcDbSymbolTableRecord
100
AcDbLinetypeTableRecord
  2
AM_ISO02W050
 70
     0
  3
__ __ __ __ __ __ __ __ __ __ __ __ __ __ __
 72
    65
 73
     2
 40
7.5
 49
6.0
 74
     0
 49
-1.5
 74
     0
  0
LTYPE
  5
9D
330
5
100
AcDbSymbolTableRecord
100
AcDbLinetypeTableRecord
  2
AM_ISO08W050
 70
     0
  3
____ . ____ . ____ . ____ . ____ . ____ . ____
 72
    65
 73
     4
 40
18.0
 49
12.0
 74
     0
 49
-1.5
 74
     0
 49
3.0
 74
     0
 49
-1.5
 74
     0
  0
LTYPE
  5
9E
330
5
100
AcDbSymbolTableRecord
100
AcDbLinetypeTableRecord
  2
AM_ISO09W050
 70
     0
  3
_____ . . _____ . . _____ . . ____ .. ____
 72
    65
 73
     6
 40
22.5
 49
12.0
 74
     0
 49
-1.5
 74
     0
 49
3.0
 74
     0
 49
-1.5
 74
     0
 49
3.0
 74
     0
 49
-1.5
 74
     0
  0
LTYPE
  5
9F
330
5
100
AcDbSymbolTableRecord
100
AcDbLinetypeTableRecord
  2
Amconstr
 70
     0
  3
_______________________
 72
    65
 73
     2
 40
9999.0
 49
9999.0
 74
     0
 49
0.0
 74
     0
  0
LTYPE
  5
A0
330
5
100
AcDbSymbolTableRecord
100
AcDbLinetypeTableRecord
  2
AM_ISO08W050x2
 70
     0
  3
__ . __ . __ . __ . __ . __
 72
    65
 73
     4
 40
9.0
 49
6.0
 74
     0
 49
-0.75
 74
     0
 49
1.5
 74
     0
 49
-0.75
 74
     0
  0
LTYPE
  5
A1
330
5
100
AcDbSymbolTableRecord
100
AcDbLinetypeTableRecord
  2
AM_ISO02W050x2
 70
     0
  3
 _ _ _ _ _ _ _ _ _ _ _ _
 72
    65
 73
     2
 40
3.75
 49
3.0
 74
     0
 49
-0.75
 74
     0
  0
LTYPE
  5
A2
330
5
100
AcDbSymbolTableRecord
100
AcDbLinetypeTableRecord
  2
Amzigzag
 70
     0
  3
/\/-/\/-/\/-/\/-/\/-/\/
 72
    65
 73
     2
 40
11.0001
 49
0.0001
 74
     4
 75
   136
340
96
 46
0.04
 50
0.0
 44
0.0
 45
0.0
 49
-11.0
 74
     0
  0
LTYPE
  5
A3
330
5
100
AcDbSymbolTableRecord
100
AcDbLinetypeTableRecord
  2
ACJISWELD
 70
     0
  3
_ _ _ _ _
 72
    65
 73
     2
 40
2.0
 49
2.0
 74
     0
 49
-1.0
 74
     0
  0
LTYPE
  5
A4
330
5
100
AcDbSymbolTableRecord
100
AcDbLinetypeTableRecord
  2
ACJISTGL
 70
     0
  3
_ _ _ _ _
 72
    65
 73
     2
 40
3.0
 49
2.0
 74
     0
 49
-1.0
 74
     0
  0
LTYPE
  5
A5
330
5
100
AcDbSymbolTableRecord
100
AcDbLinetypeTableRecord
  2
ACJISTGB
 70
     0
  3
__ . . __ . .
 72
    65
 73
     6
 40
9.0
 49
4.0
 74
     0
 49
-1.0
 74
     0
 49
1.0
 74
     0
 49
-1.0
 74
     0
 49
1.0
 74
     0
 49
-1.0
 74
     0
  0
LTYPE
  5
A6
330
5
100
AcDbSymbolTableRecord
100
AcDbLinetypeTableRecord
  2
DASHDOT
 70
     0
  3
Dash dot __ . __ . __ . __ . __ . __ . __ . __
 72
    65
 73
     4
 40
25.4
 49
12.7
 74
     0
 49
-6.349999999999999
 74
     0
 49
0.0
 74
     0
 49
-6.349999999999999
 74
     0
  0
LTYPE
  5
A7
330
5
100
AcDbSymbolTableRecord
100
AcDbLinetypeTableRecord
  2
DASHED
 70
     0
  3
Dashed __ __ __ __ __ __ __ __ __ __ __ __ __ _
 72
    65
 73
     2
 40
19.05
 49
12.7
 74
     0
 49
-6.349999999999999
 74
     0
  0
LTYPE
  5
A8
330
5
100
AcDbSymbolTableRecord
100
AcDbLinetypeTableRecord
  2
PHANTOM
 70
     0
  3
Phantom ______  __  __  ______  __  __  ______
 72
    65
 73
     6
 40
63.5
 49
31.75
 74
     0
 49
-6.349999999999999
 74
     0
 49
6.349999999999999
 74
     0
 49
-6.349999999999999
 74
     0
 49
6.349999999999999
 74
     0
 49
-6.349999999999999
 74
     0
  0
LTYPE
  5
5A1
330
5
100
AcDbSymbolTableRecord
100
AcDbLinetypeTableRecord
  2
ACISOWELD
 70
     0
  3
_ _ _ _ _
 72
    65
 73
     2
 40
2.0
 49
2.0
 74
     0
 49
-1.0
 74
     0
  0
LTYPE
  5
5A2
330
5
100
AcDbSymbolTableRecord
100
AcDbLinetypeTableRecord
  2
ACISOTGL
 70
     0
  3
_ _ _ _ _
 72
    65
 73
     2
 40
3.0
 49
2.0
 74
     0
 49
-1.0
 74
     0
  0
LTYPE
  5
5A3
330
5
100
AcDbSymbolTableRecord
100
AcDbLinetypeTableRecord
  2
ACISOTGB
 70
     0
  3
__ . . __ . .
 72
    65
 73
     6
 40
9.0
 49
4.0
 74
     0
 49
-1.0
 74
     0
 49
1.0
 74
     0
 49
-1.0
 74
     0
 49
1.0
 74
     0
 49
-1.0
 74
     0
  0
ENDTAB
  0
TABLE
  2
LAYER
  5
2
330
0
100
AcDbSymbolTable
 70
    12
  0
LAYER
  5
54
330
2
100
AcDbSymbolTableRecord
100
AcDbLayerTableRecord
  2
0
 70
     0
 62
     7
  6
Continuous
370
    -3
390
F
1001
AcAecLayerStandard
1000

1000

  0
LAYER
  5
79
330
2
100
AcDbSymbolTableRecord
100
AcDbLayerTableRecord
  2
Defpoints
 70
     0
 62
     7
  6
Continuous
290
     0
370
    -3
390
F
1001
AcAecLayerStandard
1000

1000

  0
LAYER
  5
C3
102
{ACAD_XDICTIONARY
360
C4
102
}
330
2
100
AcDbSymbolTableRecord
100
AcDbLayerTableRecord
  2
AM_VIEWS
 70
     0
 62
    -1
  6
Continuous
290
     0
370
    13
390
F
1001
AcAecLayerStandard
1000

1000

  0
LAYER
  5
C7
102
{ACAD_XDICTIONARY
360
C8
102
}
330
2
100
AcDbSymbolTableRecord
100
AcDbLayerTableRecord
  2
DETAIL
 70
     0
 62
     5
  6
Continuous
370
    -3
390
F
  0
LAYER
  5
192
102
{ACAD_XDICTIONARY
360
193
102
}
330
2
100
AcDbSymbolTableRecord
100
AcDbLayerTableRecord
  2
BASIS
 70
     0
 62
     6
  6
DASHDOT
370
    -3
390
F
  0
LAYER
  5
195
102
{ACAD_XDICTIONARY
360
196
102
}
330
2
100
AcDbSymbolTableRecord
100
AcDbLayerTableRecord
  2
NOTE
 70
     0
 62
     4
  6
Continuous
370
    -3
390
F
  0
LAYER
  5
1D4
102
{ACAD_XDICTIONARY
360
1D5
102
}
330
2
100
AcDbSymbolTableRecord
100
AcDbLayerTableRecord
  2
ARRANGE
 70
     0
 62
     1
  6
Continuous
370
    -3
390
F
  0
LAYER
  5
1DB
102
{ACAD_XDICTIONARY
360
1DC
102
}
330
2
100
AcDbSymbolTableRecord
100
AcDbLayerTableRecord
  2
OUTLINE
 70
     0
 62
     3
  6
Continuous
370
    -3
390
F
  0
LAYER
  5
21E
102
{ACAD_XDICTIONARY
360
21F
102
}
330
2
100
AcDbSymbolTableRecord
100
AcDbLayerTableRecord
  2
FIX
 70
     0
 62
    11
  6
Continuous
370
    -3
390
F
  0
LAYER
  5
221
330
2
100
AcDbSymbolTableRecord
100
AcDbLayerTableRecord
  2
AM_7
 70
     0
 62
     4
  6
AM_ISO08W050
370
    13
390
F
1001
AcAecLayerStandard
1000

1000

  0
LAYER
  5
24C
102
{ACAD_XDICTIONARY
360
24D
102
}
330
2
100
AcDbSymbolTableRecord
100
AcDbLayerTableRecord
  2
ETC
 70
     0
 62
    61
  6
Continuous
370
    -3
390
F
  0
LAYER
  5
24F
102
{ACAD_XDICTIONARY
360
250
102
}
330
2
100
AcDbSymbolTableRecord
100
AcDbLayerTableRecord
  2
SIZE
 70
     0
 62
    30
  6
Continuous
370
    -3
390
F
  0
ENDTAB
  0
TABLE
  2
STYLE
  5
3
330
0
100
AcDbSymbolTable
 70
     9
  0
STYLE
  5
55
330
3
100
AcDbSymbolTableRecord
100
AcDbTextStyleTableRecord
  2
STANDARD
 70
     0
 40
0.0
 41
1.0
 50
0.0
 71
     0
 42
9.0
  3
exthalf2.shx
  4
extfont2.shx
  0
STYLE
  5
5A
330
3
100
AcDbSymbolTableRecord
100
AcDbTextStyleTableRecord
  2
Annotative
 70
     0
 40
0.0
 41
1.0
 50
0.0
 71
     0
 42
0.2
  3
txt
  4

1001
AcadAnnotative
1000
AnnotativeData
1002
{
1070
     1
1070
     1
1002
}
  0
STYLE
  5
96
330
3
100
AcDbSymbolTableRecord
100
AcDbTextStyleTableRecord
  2

 70
     1
 40
0.0
 41
1.0
 50
0.0
 71
     0
 42
2.5
  3
genltshp.shx
  4
extfont2.shx
  0
STYLE
  5
97
330
3
100
AcDbSymbolTableRecord
100
AcDbTextStyleTableRecord
  2
ACJISGDT
 70
     0
 40
0.0
 41
1.0
 50
0.0
 71
     0
 42
2.5
  3
amgdt.shx
  4
extfont2.shx
  0
STYLE
  5
98
330
3
100
AcDbSymbolTableRecord
100
AcDbTextStyleTableRecord
  2
STANDARD_MODELNAME
 70
     0
 40
80.0
 41
0.8
 50
0.0
 71
     0
 42
64.0
  3
MONOTXT.shx
  4
BIGFONT.shx
  0
STYLE
  5
99
330
3
100
AcDbSymbolTableRecord
100
AcDbTextStyleTableRecord
  2
KAIGAI_STANDARD_1
 70
     0
 40
53.0
 41
0.51
 50
0.0
 71
     0
 42
53.0
  3
MONOTXT.shx
  4
BIGFONT.shx
  0
STYLE
  5
9A
330
3
100
AcDbSymbolTableRecord
100
AcDbTextStyleTableRecord
  2
AUDIT_D_191004085756-470174
 70
     0
 40
0.0
 41
1.0
 50
0.0
 71
     0
 42
0.0
  3
exthalf2
  4
ExtFont2
  0
STYLE
  5
59F
330
3
100
AcDbSymbolTableRecord
100
AcDbTextStyleTableRecord
  2
ACISOTS
 70
     0
 40
0.0
 41
1.0
 50
0.0
 71
     0
 42
0.2
  3
isocp.shx
  4

  0
STYLE
  5
5A0
330
3
100
AcDbSymbolTableRecord
100
AcDbTextStyleTableRecord
  2
ACISOGDT
 70
     0
 40
0.0
 41
1.0
 50
0.0
 71
     0
 42
0.2
  3
amgdt.shx
  4

  0
ENDTAB
  0
TABLE
  2
VIEW
  5
6
330
0
100
AcDbSymbolTable
 70
     0
  0
ENDTAB
  0
TABLE
  2
UCS
  5
7
330
0
100
AcDbSymbolTable
 70
     0
  0
ENDTAB
  0
TABLE
  2
APPID
  5
9
330
0
100
AcDbSymbolTable
 70
    31
  0
APPID
  5
56
330
9
100
AcDbSymbolTableRecord
100
AcDbRegAppTableRecord
  2
ACAD
 70
     0
  0
APPID
  5
5E
330
9
100
AcDbSymbolTableRecord
100
AcDbRegAppTableRecord
  2
AcadAnnotative
 70
     0
  0
APPID
  5
78
330
9
100
AcDbSymbolTableRecord
100
AcDbRegAppTableRecord
  2
ACAD_PSEXT
 70
     0
  0
APPID
  5
7A
330
9
100
AcDbSymbolTableRecord
100
AcDbRegAppTableRecord
  2
MCAD_NO_VIS
 70
     0
  0
APPID
  5
7B
330
9
100
AcDbSymbolTableRecord
100
AcDbRegAppTableRecord
  2
ACAD_TEMP_GRAPHIC
 70
     0
  0
APPID
  5
84
330
9
100
AcDbSymbolTableRecord
100
AcDbRegAppTableRecord
  2
ACAD_DSTYLE_DIMJAG
 70
     0
  0
APPID
  5
85
330
9
100
AcDbSymbolTableRecord
100
AcDbRegAppTableRecord
  2
ACAD_DSTYLE_DIMTALN
 70
     0
  0
APPID
  5
86
330
9
100
AcDbSymbolTableRecord
100
AcDbRegAppTableRecord
  2
ACAD_NAV_VCDISPLAY
 70
     0
  0
APPID
  5
87
330
9
100
AcDbSymbolTableRecord
100
AcDbRegAppTableRecord
  2
ACAD_DSTYLE_DIMBREAK
 70
     0
  0
APPID
  5
88
330
9
100
AcDbSymbolTableRecord
100
AcDbRegAppTableRecord
  2
AcAecLayerStandard
 70
     0
  0
APPID
  5
89
330
9
100
AcDbSymbolTableRecord
100
AcDbRegAppTableRecord
  2
GENIUS_GENODEF_13
 70
     0
  0
APPID
  5
8A
330
9
100
AcDbSymbolTableRecord
100
AcDbRegAppTableRecord
  2
GENIUS_GENSCREG_15
 70
     0
  0
APPID
  5
8B
330
9
100
AcDbSymbolTableRecord
100
AcDbRegAppTableRecord
  2
GENIUS_GENOBJ-N-SDF_13
 70
     0
  0
APPID
  5
8C
330
9
100
AcDbSymbolTableRecord
100
AcDbRegAppTableRecord
  2
ACAD_DSTYLE_DIMINSPECT
 70
     0
  0
APPID
  5
8D
330
9
100
AcDbSymbolTableRecord
100
AcDbRegAppTableRecord
  2
GENIUS_GENOBJ-N-CEN_13
 70
     0
  0
APPID
  5
8E
330
9
100
AcDbSymbolTableRecord
100
AcDbRegAppTableRecord
  2
GENIUS_GENCEN_19
 70
     0
  0
APPID
  5
8F
330
9
100
AcDbSymbolTableRecord
100
AcDbRegAppTableRecord
  2
ACAD_DIMASSOC_CALC_DIMLFAC
 70
     0
  0
APPID
  5
90
330
9
100
AcDbSymbolTableRecord
100
AcDbRegAppTableRecord
  2
ACAD_DIMASSOC_DIMLFAC
 70
     0
  0
APPID
  5
91
330
9
100
AcDbSymbolTableRecord
100
AcDbRegAppTableRecord
  2
ACAD_DIMASSOC_OVERRIDDEN_DIMLFAC
 70
     0
  0
APPID
  5
92
330
9
100
AcDbSymbolTableRecord
100
AcDbRegAppTableRecord
  2
GradientColor1ACI
 70
     0
  0
APPID
  5
93
330
9
100
AcDbSymbolTableRecord
100
AcDbRegAppTableRecord
  2
GradientColor2ACI
 70
     0
  0
APPID
  5
94
330
9
100
AcDbSymbolTableRecord
100
AcDbRegAppTableRecord
  2
ACAD_DSTYLE_DIMRADIAL_EXTENSION
 70
     0
  0
APPID
  5
95
330
9
100
AcDbSymbolTableRecord
100
AcDbRegAppTableRecord
  2
ACATTRIBSERVICES
 70
     0
  0
APPID
  5
53D
330
9
100
AcDbSymbolTableRecord
100
AcDbRegAppTableRecord
  2
DCO15
 70
     0
  0
APPID
  5
577
330
9
100
AcDbSymbolTableRecord
100
AcDbRegAppTableRecord
  2
DESIGNERASSEMBLIES
 70
     0
  0
APPID
  5
5F7
330
9
100
AcDbSymbolTableRecord
100
AcDbRegAppTableRecord
  2
ACAD_MLEADERVER
 70
     0
  0
APPID
  5
604
330
9
100
AcDbSymbolTableRecord
100
AcDbRegAppTableRecord
  2
ACAD_DSTYLE_DIMARC_LENGTH_SYMBOL
 70
     0
  0
APPID
  5
605
330
9
100
AcDbSymbolTableRecord
100
AcDbRegAppTableRecord
  2
ACAD_DSTYLE_DIM_LINETYPE
 70
     0
  0
APPID
  5
606
330
9
100
AcDbSymbolTableRecord
100
AcDbRegAppTableRecord
  2
ACAD_DSTYLE_DIM_EXT1_LINETYPE
 70
     0
  0
APPID
  5
607
330
9
100
AcDbSymbolTableRecord
100
AcDbRegAppTableRecord
  2
ACAD_DSTYLE_DIM_EXT2_LINETYPE
 70
     0
  0
APPID
  5
608
330
9
100
AcDbSymbolTableRecord
100
AcDbRegAppTableRecord
  2
ACAD_DSTYLE_DIMFLIPARROW_WHICH_SYMBOL
 70
     0
  0
ENDTAB
  0
TABLE
  2
DIMSTYLE
  5
A
330
0
100
AcDbSymbolTable
 70
    19
100
AcDbDimStyleTable
 71
     1
340
AC
  0
DIMSTYLE
105
58
330
A
100
AcDbSymbolTableRecord
100
AcDbDimStyleTableRecord
  2
Standard
 70
     0
340
55
  0
DIMSTYLE
105
59
330
A
100
AcDbSymbolTableRecord
100
AcDbDimStyleTableRecord
  2
Annotative
 70
     0
 40
0.0
 41
2.5
 42
0.625
 43
3.75
 44
1.25
 73
     0
 74
     0
 77
     1
 78
     8
140
2.5
141
2.5
143
0.03937007874016
147
0.625
171
     3
172
     1
271
     2
272
     2
274
     3
278
    44
283
     0
284
     8
340
55
1001
AcadAnnotative
1000
AnnotativeData
1002
{
1070
     1
1070
     1
1002
}
  0
DIMSTYLE
105
AA
330
A
100
AcDbSymbolTableRecord
100
AcDbDimStyleTableRecord
  2
ISO-25
 70
     0
 41
2.5
 42
0.625
 43
3.75
 44
1.25
 73
     0
 74
     0
 77
     1
 78
     8
140
2.5
141
2.5
143
0.03937007874016
147
0.625
171
     3
172
     1
271
     2
272
     2
274
     3
278
    44
283
     0
284
     8
340
55
  0
DIMSTYLE
105
AB
330
A
100
AcDbSymbolTableRecord
100
AcDbDimStyleTableRecord
  2
AM_JIS
 70
     0
  4
"
 41
6.0
 42
1.0
 43
10.0
 44
1.0
 47
0.1
 48
0.1
 73
     0
 74
     0
 77
     3
 78
     8
 79
     2
140
9.0
141
0.0
143
0.0393701
146
0.71
147
1.5
172
     1
176
   256
177
   256
178
     2
271
     2
272
     2
283
     0
284
     8
340
55
371
    -1
372
    -1
1001
ACAD_DSTYLE_DIMBREAK
1070
   391
1040
3.75
1001
ACAD_DSTYLE_DIMJAG
1070
   388
1040
1.5
1001
ACAD_DSTYLE_DIMTALN
1070
   392
1070
     0
1001
ACAD_DSTYLE_DIMARC_LENGTH_SYMBOL
1070
   379
1070
     1
1001
ACAD_DSTYLE_DIM_LINETYPE
1070
   380
1005
5B
1001
ACAD_DSTYLE_DIM_EXT1_LINETYPE
1070
   381
1005
5B
1001
ACAD_DSTYLE_DIM_EXT2_LINETYPE
1070
   382
1005
5B
  0
DIMSTYLE
105
AC
330
A
100
AcDbSymbolTableRecord
100
AcDbDimStyleTableRecord
  2
JIS2
 70
     0
  4
"
 41
1.8
 42
1.0
 43
10.0
 44
1.0
 47
0.1
 48
0.1
 73
     0
 74
     0
 77
     3
 78
     8
 79
     2
140
3.5
141
0.0
143
0.0393701
146
0.71
147
0.5
172
     1
176
   256
177
   256
178
     2
271
     2
272
     2
283
     0
284
     8
340
55
341
AD
342
AD
371
    -1
372
    -1
1001
ACAD_DSTYLE_DIMBREAK
1070
   391
1040
3.75
1001
ACAD_DSTYLE_DIMJAG
1070
   388
1040
1.5
1001
ACAD_DSTYLE_DIMTALN
1070
   392
1070
     0
1001
ACAD_DSTYLE_DIMARC_LENGTH_SYMBOL
1070
   379
1070
     1
1001
ACAD_DSTYLE_DIM_LINETYPE
1070
   380
1005
5B
1001
ACAD_DSTYLE_DIM_EXT1_LINETYPE
1070
   381
1005
5B
1001
ACAD_DSTYLE_DIM_EXT2_LINETYPE
1070
   382
1005
5B
  0
DIMSTYLE
105
B3
102
{ACAD_REACTORS
330
2E1
330
2EB
102
}
330
A
100
AcDbSymbolTableRecord
100
AcDbDimStyleTableRecord
  2
JIS2$3
 70
     0
  4
"
 41
1.8
 42
1.0
 43
10.0
 44
1.0
 47
0.1
 48
0.1
 73
     0
 74
     0
 77
     3
 78
     8
 79
     2
140
3.5
141
0.0
143
0.0393701
146
0.71
147
0.5
172
     1
176
   256
177
   256
178
     2
271
     2
272
     2
283
     0
284
     8
288
     1
289
     2
340
55
341
AD
342
AD
371
    -1
372
    -1
1001
ACAD_DSTYLE_DIMBREAK
1070
   391
1040
3.75
1001
ACAD_DSTYLE_DIMJAG
1070
   388
1040
1.5
1001
ACAD_DSTYLE_DIMTALN
1070
   392
1070
     0
1001
ACAD_DSTYLE_DIMARC_LENGTH_SYMBOL
1070
   379
1070
     1
1001
ACAD_DSTYLE_DIM_LINETYPE
1070
   380
1005
5B
1001
ACAD_DSTYLE_DIM_EXT1_LINETYPE
1070
   381
1005
5B
1001
ACAD_DSTYLE_DIM_EXT2_LINETYPE
1070
   382
1005
5B
  0
DIMSTYLE
105
B4
330
A
100
AcDbSymbolTableRecord
100
AcDbDimStyleTableRecord
  2
JIS2$4
 70
     0
  4
"
 41
1.8
 42
1.0
 43
10.0
 44
1.0
 47
0.1
 48
0.1
 73
     0
 74
     0
 77
     3
 78
     8
 79
     2
140
3.5
141
0.0
143
0.0393701
146
0.71
147
0.5
172
     1
176
   256
177
   256
178
     2
271
     2
272
     2
283
     0
284
     8
289
     2
340
55
341
AD
342
AD
371
    -1
372
    -1
1001
ACAD_DSTYLE_DIMBREAK
1070
   391
1040
3.75
1001
ACAD_DSTYLE_DIMJAG
1070
   388
1040
1.5
1001
ACAD_DSTYLE_DIMTALN
1070
   392
1070
     0
1001
ACAD_DSTYLE_DIMARC_LENGTH_SYMBOL
1070
   379
1070
     1
1001
ACAD_DSTYLE_DIM_LINETYPE
1070
   380
1005
5B
1001
ACAD_DSTYLE_DIM_EXT1_LINETYPE
1070
   381
1005
5B
1001
ACAD_DSTYLE_DIM_EXT2_LINETYPE
1070
   382
1005
5B
  0
DIMSTYLE
105
B5
330
A
100
AcDbSymbolTableRecord
100
AcDbDimStyleTableRecord
  2
JIS2$6
 70
     0
  4
"
 41
1.8
 42
1.0
 43
10.0
 44
1.0
 47
0.1
 48
0.1
 73
     0
 74
     0
 78
     8
 79
     2
140
3.5
141
0.0
143
0.0393701
146
0.71
147
0.5
172
     1
176
   256
177
   256
178
     2
271
     2
272
     2
283
     0
284
     8
340
55
341
AD
342
AD
371
    -1
372
    -1
1001
ACAD_DSTYLE_DIMBREAK
1070
   391
1040
3.75
1001
ACAD_DSTYLE_DIMJAG
1070
   388
1040
1.5
1001
ACAD_DSTYLE_DIMTALN
1070
   392
1070
     0
1001
ACAD_DSTYLE_DIMARC_LENGTH_SYMBOL
1070
   379
1070
     1
1001
ACAD_DSTYLE_DIM_LINETYPE
1070
   380
1005
5B
1001
ACAD_DSTYLE_DIM_EXT1_LINETYPE
1070
   381
1005
5B
1001
ACAD_DSTYLE_DIM_EXT2_LINETYPE
1070
   382
1005
5B
  0
DIMSTYLE
105
B6
330
A
100
AcDbSymbolTableRecord
100
AcDbDimStyleTableRecord
  2
JIS2$7
 70
     0
  4
"
 41
1.8
 42
1.0
 43
10.0
 44
1.0
 47
0.1
 48
0.1
 73
     0
 74
     0
 77
     3
 78
     8
 79
     2
140
3.5
141
0.0
143
0.0393701
146
0.71
147
0.5
172
     1
176
   256
177
   256
178
     2
271
     2
272
     2
283
     0
284
     8
340
55
341
AD
342
AD
371
    -1
372
    -1
1001
ACAD_DSTYLE_DIMBREAK
1070
   391
1040
3.75
1001
ACAD_DSTYLE_DIMJAG
1070
   388
1040
1.5
1001
ACAD_DSTYLE_DIMTALN
1070
   392
1070
     0
1001
ACAD_DSTYLE_DIMARC_LENGTH_SYMBOL
1070
   379
1070
     1
1001
ACAD_DSTYLE_DIM_LINETYPE
1070
   380
1005
5B
1001
ACAD_DSTYLE_DIM_EXT1_LINETYPE
1070
   381
1005
5B
1001
ACAD_DSTYLE_DIM_EXT2_LINETYPE
1070
   382
1005
5B
  0
DIMSTYLE
105
B7
330
A
100
AcDbSymbolTableRecord
100
AcDbDimStyleTableRecord
  2
JIS2$SF
 70
     0
  4
"
 41
1.8
 42
1.0
 43
10.0
 44
1.0
 47
0.1
 48
0.1
 73
     0
 74
     0
 75
     1
 76
     1
 77
     3
 78
     8
 79
     2
140
3.5
141
0.0
143
0.0393701
146
0.71
147
0.5
172
     1
176
   256
177
   256
178
     2
271
     2
272
     2
283
     0
284
     8
340
55
341
AD
342
AD
371
    -1
372
    -1
1001
ACAD_DSTYLE_DIMBREAK
1070
   391
1040
3.75
1001
ACAD_DSTYLE_DIMJAG
1070
   388
1040
1.5
1001
ACAD_DSTYLE_DIMTALN
1070
   392
1070
     0
1001
ACAD_DSTYLE_DIMARC_LENGTH_SYMBOL
1070
   379
1070
     1
1001
ACAD_DSTYLE_DIM_LINETYPE
1070
   380
1005
5B
1001
ACAD_DSTYLE_DIM_EXT1_LINETYPE
1070
   381
1005
5B
1001
ACAD_DSTYLE_DIM_EXT2_LINETYPE
1070
   382
1005
5B
  0
DIMSTYLE
105
B8
330
A
100
AcDbSymbolTableRecord
100
AcDbDimStyleTableRecord
  2
JIS2$SH
 70
     0
  4
"
 41
1.8
 42
1.0
 43
10.0
 44
1.0
 47
0.1
 48
0.1
 73
     0
 74
     0
 75
     1
 76
     1
 77
     3
 78
     8
 79
     2
140
3.5
141
0.0
143
0.0393701
144
2.0
146
0.71
147
0.5
172
     1
173
     1
176
   256
177
   256
178
     2
271
     2
272
     2
283
     0
284
     8
340
55
341
AD
342
AD
343
B9
371
    -1
372
    -1
1001
ACAD_DSTYLE_DIMBREAK
1070
   391
1040
3.75
1001
ACAD_DSTYLE_DIMJAG
1070
   388
1040
1.5
1001
ACAD_DSTYLE_DIMTALN
1070
   392
1070
     0
1001
ACAD_DSTYLE_DIMARC_LENGTH_SYMBOL
1070
   379
1070
     1
1001
ACAD_DSTYLE_DIM_LINETYPE
1070
   380
1005
5B
1001
ACAD_DSTYLE_DIM_EXT1_LINETYPE
1070
   381
1005
5B
1001
ACAD_DSTYLE_DIM_EXT2_LINETYPE
1070
   382
1005
5B
  0
DIMSTYLE
105
BD
102
{ACAD_REACTORS
330
2C7
330
2D4
330
24E
330
263
330
26F
330
27B
330
289
330
295
330
2A3
330
2BA
102
}
330
A
100
AcDbSymbolTableRecord
100
AcDbDimStyleTableRecord
  2
JIS2$0
 70
     0
  4
"
 41
1.8
 42
1.0
 43
10.0
 44
1.0
 47
0.1
 48
0.1
 73
     0
 74
     0
 77
     3
 78
     8
 79
     2
140
3.5
141
0.0
143
0.0393701
146
0.71
147
1.5
172
     1
176
   256
177
   256
178
     2
271
     2
272
     2
283
     0
284
     8
340
55
341
AD
342
AD
371
    -1
372
    -1
1001
ACAD_DSTYLE_DIMBREAK
1070
   391
1040
3.75
1001
ACAD_DSTYLE_DIMJAG
1070
   388
1040
1.5
1001
ACAD_DSTYLE_DIMARC_LENGTH_SYMBOL
1070
   379
1070
     1
1001
ACAD_DSTYLE_DIM_LINETYPE
1070
   380
1005
5B
1001
ACAD_DSTYLE_DIM_EXT1_LINETYPE
1070
   381
1005
5B
1001
ACAD_DSTYLE_DIM_EXT2_LINETYPE
1070
   382
1005
5B
  0
DIMSTYLE
105
592
102
{ACAD_REACTORS
330
580
102
}
330
A
100
AcDbSymbolTableRecord
100
AcDbDimStyleTableRecord
  2
AM_ISO
 70
     0
  4
"
 41
3.5
 42
1.0
 43
10.0
 44
1.0
 47
0.1
 48
0.1
 73
     0
 74
     0
 77
     1
 78
     8
 79
     2
140
3.5
141
0.0
143
0.0393701
146
0.71
147
1.5
172
     1
176
   256
177
   256
178
     2
271
     2
272
     3
274
     4
283
     0
284
     8
340
55
371
    -1
372
    -1
1001
ACAD_DSTYLE_DIMJAG
1070
   388
1040
1.5
1001
ACAD_DSTYLE_DIMBREAK
1070
   391
1040
3.75
1001
ACAD_DSTYLE_DIMARC_LENGTH_SYMBOL
1070
   379
1070
     1
1001
ACAD_DSTYLE_DIM_LINETYPE
1070
   380
1005
5B
1001
ACAD_DSTYLE_DIM_EXT1_LINETYPE
1070
   381
1005
5B
1001
ACAD_DSTYLE_DIM_EXT2_LINETYPE
1070
   382
1005
5B
  0
DIMSTYLE
105
594
330
A
100
AcDbSymbolTableRecord
100
AcDbDimStyleTableRecord
  2
AM_ISO$3
 70
     0
  4
"
 41
3.5
 42
1.0
 43
10.0
 44
1.0
 47
0.1
 48
0.1
 73
     0
 77
     1
 78
     8
 79
     2
140
3.5
141
0.0
143
0.0393701
146
0.71
147
1.5
176
   256
177
   256
178
     2
271
     2
272
     3
274
     4
283
     0
284
     8
288
     1
289
     0
340
55
371
    -1
372
    -1
1001
ACAD_DSTYLE_DIMBREAK
1070
   391
1040
3.75
1001
ACAD_DSTYLE_DIMJAG
1070
   388
1040
1.5
1001
ACAD_DSTYLE_DIMARC_LENGTH_SYMBOL
1070
   379
1070
     1
1001
ACAD_DSTYLE_DIM_LINETYPE
1070
   380
1005
5B
1001
ACAD_DSTYLE_DIM_EXT1_LINETYPE
1070
   381
1005
5B
1001
ACAD_DSTYLE_DIM_EXT2_LINETYPE
1070
   382
1005
5B
  0
DIMSTYLE
105
595
330
A
100
AcDbSymbolTableRecord
100
AcDbDimStyleTableRecord
  2
AM_ISO$4
 70
     0
  4
"
 41
3.5
 42
1.0
 43
10.0
 44
1.0
 47
0.1
 48
0.1
 73
     0
 77
     1
 78
     8
 79
     2
140
3.5
141
0.0
143
0.0393701
146
0.71
147
1.5
176
   256
177
   256
178
     2
271
     2
272
     3
274
     4
283
     0
284
     8
288
     1
289
     0
340
55
371
    -1
372
    -1
1001
ACAD_DSTYLE_DIMBREAK
1070
   391
1040
3.75
1001
ACAD_DSTYLE_DIMJAG
1070
   388
1040
1.5
1001
ACAD_DSTYLE_DIMARC_LENGTH_SYMBOL
1070
   379
1070
     1
1001
ACAD_DSTYLE_DIM_LINETYPE
1070
   380
1005
5B
1001
ACAD_DSTYLE_DIM_EXT1_LINETYPE
1070
   381
1005
5B
1001
ACAD_DSTYLE_DIM_EXT2_LINETYPE
1070
   382
1005
5B
  0
DIMSTYLE
105
596
330
A
100
AcDbSymbolTableRecord
100
AcDbDimStyleTableRecord
  2
AM_ISO$6
 70
     0
  4
"
 41
3.5
 42
1.0
 43
10.0
 44
1.0
 47
0.1
 48
0.1
 73
     0
 74
     0
 78
     8
 79
     2
140
3.5
141
0.0
143
0.0393701
146
0.71
147
1.5
172
     1
176
   256
177
   256
178
     2
271
     2
272
     3
274
     4
283
     0
284
     8
340
55
371
    -1
372
    -1
1001
ACAD_DSTYLE_DIMBREAK
1070
   391
1040
3.75
1001
ACAD_DSTYLE_DIMJAG
1070
   388
1040
1.5
1001
ACAD_DSTYLE_DIMARC_LENGTH_SYMBOL
1070
   379
1070
     1
1001
ACAD_DSTYLE_DIM_LINETYPE
1070
   380
1005
5B
1001
ACAD_DSTYLE_DIM_EXT1_LINETYPE
1070
   381
1005
5B
1001
ACAD_DSTYLE_DIM_EXT2_LINETYPE
1070
   382
1005
5B
  0
DIMSTYLE
105
597
330
A
100
AcDbSymbolTableRecord
100
AcDbDimStyleTableRecord
  2
AM_ISO$7
 70
     0
  4
"
 41
3.5
 42
1.0
 43
10.0
 44
1.0
 47
0.1
 48
0.1
 73
     0
 74
     0
 77
     1
 78
     8
 79
     2
140
3.5
141
0.0
143
0.0393701
146
0.71
147
1.5
172
     1
176
   256
177
   256
178
     2
271
     2
272
     3
274
     4
283
     0
284
     8
340
55
371
    -1
372
    -1
1001
ACAD_DSTYLE_DIMBREAK
1070
   391
1040
3.75
1001
ACAD_DSTYLE_DIMJAG
1070
   388
1040
1.5
1001
ACAD_DSTYLE_DIMARC_LENGTH_SYMBOL
1070
   379
1070
     1
1001
ACAD_DSTYLE_DIM_LINETYPE
1070
   380
1005
5B
1001
ACAD_DSTYLE_DIM_EXT1_LINETYPE
1070
   381
1005
5B
1001
ACAD_DSTYLE_DIM_EXT2_LINETYPE
1070
   382
1005
5B
  0
DIMSTYLE
105
598
330
A
100
AcDbSymbolTableRecord
100
AcDbDimStyleTableRecord
  2
AM_ISO$SF
 70
     0
  4
"
 41
3.5
 42
1.0
 43
10.0
 44
1.0
 47
0.1
 48
0.1
 73
     0
 74
     0
 75
     1
 76
     1
 77
     1
 78
     8
 79
     2
140
3.5
141
0.0
143
0.0393701
146
0.71
147
1.5
172
     1
176
   256
177
   256
178
     2
271
     2
272
     3
274
     4
283
     0
284
     8
340
55
371
    -1
372
    -1
1001
ACAD_DSTYLE_DIMBREAK
1070
   391
1040
3.75
1001
ACAD_DSTYLE_DIMJAG
1070
   388
1040
1.5
1001
ACAD_DSTYLE_DIMARC_LENGTH_SYMBOL
1070
   379
1070
     1
1001
ACAD_DSTYLE_DIM_LINETYPE
1070
   380
1005
5B
1001
ACAD_DSTYLE_DIM_EXT1_LINETYPE
1070
   381
1005
5B
1001
ACAD_DSTYLE_DIM_EXT2_LINETYPE
1070
   382
1005
5B
  0
DIMSTYLE
105
599
330
A
100
AcDbSymbolTableRecord
100
AcDbDimStyleTableRecord
  2
AM_ISO$SH
 70
     0
  4
"
 41
3.5
 42
1.0
 43
10.0
 44
1.0
 47
0.1
 48
0.1
 73
     0
 74
     0
 75
     1
 76
     1
 77
     1
 78
     8
 79
     2
140
3.5
141
0.0
143
0.0393701
144
2.0
146
0.71
147
1.5
172
     1
173
     1
176
   256
177
   256
178
     2
271
     2
272
     3
274
     4
283
     0
284
     8
340
55
343
B9
371
    -1
372
    -1
1001
ACAD_DSTYLE_DIMBREAK
1070
   391
1040
3.75
1001
ACAD_DSTYLE_DIMJAG
1070
   388
1040
1.5
1001
ACAD_DSTYLE_DIMARC_LENGTH_SYMBOL
1070
   379
1070
     1
1001
ACAD_DSTYLE_DIM_LINETYPE
1070
   380
1005
5B
1001
ACAD_DSTYLE_DIM_EXT1_LINETYPE
1070
   381
1005
5B
1001
ACAD_DSTYLE_DIM_EXT2_LINETYPE
1070
   382
1005
5B
  0
ENDTAB
  0
TABLE
  2
BLOCK_RECORD
  5
1
330
0
100
AcDbSymbolTable
 70
    30
  0
BLOCK_RECORD
  5
70
102
{ACAD_XDICTIONARY
360
249
102
}
330
1
100
AcDbSymbolTableRecord
100
AcDbBlockTableRecord
  2
*Model_Space
340
73
  0
BLOCK_RECORD
  5
6C
330
1
100
AcDbSymbolTableRecord
100
AcDbBlockTableRecord
  2
*Paper_Space
340
6F
  0
BLOCK_RECORD
  5
74
330
1
100
AcDbSymbolTableRecord
100
AcDbBlockTableRecord
  2
*Paper_Space0
340
77
  0
BLOCK_RECORD
  5
AD
330
1
100
AcDbSymbolTableRecord
100
AcDbBlockTableRecord
  2
_Open30
340
0
  0
BLOCK_RECORD
  5
B9
330
1
100
AcDbSymbolTableRecord
100
AcDbBlockTableRecord
  2
GENAXEH
340
0
  0
BLOCK_RECORD
  5
257
330
1
100
AcDbSymbolTableRecord
100
AcDbBlockTableRecord
  2
_DotBlank
340
0
102
{BLKREFS
331
60C
331
60F
331
616
331
619
331
620
331
623
331
4E2
331
4E3
331
4EA
331
4EB
331
4F4
331
4F5
331
4FC
331
4FD
331
51A
331
51B
331
522
331
523
331
52A
331
52B
331
531
331
532
331
537
331
538
102
}
  0
BLOCK_RECORD
  5
2F9
330
1
100
AcDbSymbolTableRecord
100
AcDbBlockTableRecord
  2
CustomObjectsInViewport1_0
340
0
102
{BLKREFS
331
2F7
102
}
  0
BLOCK_RECORD
  5
319
330
1
100
AcDbSymbolTableRecord
100
AcDbBlockTableRecord
  2
*D17
340
0
  0
BLOCK_RECORD
  5
326
330
1
100
AcDbSymbolTableRecord
100
AcDbBlockTableRecord
  2
*D18
340
0
  0
BLOCK_RECORD
  5
331
330
1
100
AcDbSymbolTableRecord
100
AcDbBlockTableRecord
  2
*D19
340
0
  0
BLOCK_RECORD
  5
33C
330
1
100
AcDbSymbolTableRecord
100
AcDbBlockTableRecord
  2
*D20
340
0
  0
BLOCK_RECORD
  5
349
330
1
100
AcDbSymbolTableRecord
100
AcDbBlockTableRecord
  2
*D21
340
0
  0
BLOCK_RECORD
  5
354
330
1
100
AcDbSymbolTableRecord
100
AcDbBlockTableRecord
  2
*D22
340
0
  0
BLOCK_RECORD
  5
361
330
1
100
AcDbSymbolTableRecord
100
AcDbBlockTableRecord
  2
*D23
340
0
  0
BLOCK_RECORD
  5
370
330
1
100
AcDbSymbolTableRecord
100
AcDbBlockTableRecord
  2
*D24
340
0
  0
BLOCK_RECORD
  5
37B
330
1
100
AcDbSymbolTableRecord
100
AcDbBlockTableRecord
  2
*D25
340
0
  0
BLOCK_RECORD
  5
386
330
1
100
AcDbSymbolTableRecord
100
AcDbBlockTableRecord
  2
*D26
340
0
  0
BLOCK_RECORD
  5
391
330
1
100
AcDbSymbolTableRecord
100
AcDbBlockTableRecord
  2
*D27
340
0
  0
BLOCK_RECORD
  5
39A
330
1
100
AcDbSymbolTableRecord
100
AcDbBlockTableRecord
  2
*D28
340
0
  0
ENDTAB
  0
ENDSEC
  0
SECTION
  2
BLOCKS
  0
BLOCK
  5
71
330
70
100
AcDbEntity
  8
0
100
AcDbBlockBegin
  2
*Model_Space
 70
     0
 10
0.0
 20
0.0
 30
0.0
  3
*Model_Space
  1

  0
ENDBLK
  5
72
330
70
100
AcDbEntity
  8
0
100
AcDbBlockEnd
  0
BLOCK
  5
6D
330
6C
100
AcDbEntity
 67
     1
  8
0
100
AcDbBlockBegin
  2
*Paper_Space
 70
     0
 10
0.0
 20
0.0
 30
0.0
  3
*Paper_Space
  1

  0
ENDBLK
  5
6E
330
6C
100
AcDbEntity
 67
     1
  8
0
100
AcDbBlockEnd
  0
BLOCK
  5
75
330
74
100
AcDbEntity
 67
     1
  8
0
100
AcDbBlockBegin
  2
*Paper_Space0
 70
     0
 10
0.0
 20
0.0
 30
0.0
  3
*Paper_Space0
  1

  0
ENDBLK
  5
76
330
74
100
AcDbEntity
 67
     1
  8
0
100
AcDbBlockEnd
  0
BLOCK
  5
AE
330
AD
100
AcDbEntity
  8
0
100
AcDbBlockBegin
  2
_Open30
 70
     0
 10
0.0
 20
0.0
 30
0.0
  3
_Open30
  1

  0
LINE
  5
AF
330
AD
100
AcDbEntity
  8
0
  6
ByBlock
 62
     0
370
    -2
100
AcDbLine
 10
-1.0
 20
0.26794919
 30
0.0
 11
0.0
 21
0.0
 31
0.0
  0
LINE
  5
B0
330
AD
100
AcDbEntity
  8
0
  6
ByBlock
 62
     0
370
    -2
100
AcDbLine
 10
0.0
 20
0.0
 30
0.0
 11
-1.0
 21
-0.26794919
 31
0.0
  0
LINE
  5
B1
330
AD
100
AcDbEntity
  8
0
  6
ByBlock
 62
     0
370
    -2
100
AcDbLine
 10
0.0
 20
0.0
 30
0.0
 11
-1.0
 21
0.0
 31
0.0
  0
ENDBLK
  5
B2
330
AD
100
AcDbEntity
  8
0
100
AcDbBlockEnd
  0
BLOCK
  5
BA
330
B9
100
AcDbEntity
  8
0
100
AcDbBlockBegin
  2
GENAXEH
 70
     0
 10
0.0
 20
0.0
 30
0.0
  3
GENAXEH
  1

  0
LINE
  5
BB
330
B9
100
AcDbEntity
  8
0
100
AcDbLine
 10
-1.0
 20
0.0
 30
0.0
 11
1.0
 21
0.0
 31
0.0
  0
ENDBLK
  5
BC
330
B9
100
AcDbEntity
  8
0
100
AcDbBlockEnd
  0
BLOCK
  5
258
330
257
100
AcDbEntity
  8
0
100
AcDbBlockBegin
  2
_DotBlank
 70
     0
 10
0.0
 20
0.0
 30
0.0
  3
_DotBlank
  1

  0
CIRCLE
  5
259
330
257
100
AcDbEntity
  8
0
  6
ByBlock
 62
     0
370
    -2
100
AcDbCircle
 10
0.0
 20
0.0
 30
0.0
 40
0.5
  0
LINE
  5
25A
330
257
100
AcDbEntity
  8
0
  6
ByBlock
 62
     0
370
    -2
100
AcDbLine
 10
-0.5
 20
0.0
 30
0.0
 11
-1.0
 21
0.0
 31
0.0
  0
ENDBLK
  5
25B
330
257
100
AcDbEntity
  8
0
100
AcDbBlockEnd
  0
BLOCK
  5
2FA
330
2F9
100
AcDbEntity
  8
0
100
AcDbBlockBegin
  2
CustomObjectsInViewport1_0
 70
     0
 10
0.0
 20
0.0
 30
0.0
  3
CustomObjectsInViewport1_0
  1

  0
LINE
  5
2FB
330
2F9
100
AcDbEntity
  8
NOTE
100
AcDbLine
 10
-544.5894076710239
 20
-561.4280918283339
 30
0.0
 11
-2.929407671023454
 21
-561.4280918283339
 31
0.0
  0
LINE
  5
2FC
330
2F9
100
AcDbEntity
  8
NOTE
100
AcDbLine
 10
-2.929407671023454
 20
-561.4280918283339
 30
0.0
 11
197.6560120305902
 21
-444.0911874824678
 31
0.0
  0
LWPOLYLINE
  5
2FD
330
2F9
100
AcDbEntity
  8
NOTE
  6
Continuous
100
AcDbPolyline
 90
        2
 70
   129
 43
6.428571428571435
 10
225.5155782119637
 20
-425.9138464127008
 42
1.0
 10
231.9441496405352
 20
-425.9138464127008
 42
1.0
  0
LINE
  5
2FE
330
2F9
100
AcDbEntity
  8
NOTE
  6
Continuous
100
AcDbLine
 10
223.1809618020246
 20
-429.1598001751593
 30
0.0
 11
197.6560120305902
 21
-444.0911874824677
 31
0.0
  0
TEXT
  5
2FF
330
2F9
100
AcDbEntity
  8
NOTE
 62
     2
100
AcDbText
 10
-544.5894076710239
 20
-526.428091828334
 30
0.0
 40
70.0
  1
O.D φ32(VP25)
 41
0.9
100
AcDbText
  0
LINE
  5
300
330
2F9
100
AcDbEntity
  8
NOTE
100
AcDbLine
 10
1288.692509957625
 20
220.4422434084895
 30
0.0
 11
542.9125099576249
 21
220.4422434084895
 31
0.0
  0
LINE
  5
301
330
2F9
100
AcDbEntity
  8
NOTE
100
AcDbLine
 10
542.9125099576249
 20
220.4422434084895
 30
0.0
 11
460.4300000618443
 21
18.99676697233249
 31
0.0
  0
LINE
  5
302
330
2F9
100
AcDbEntity
  8
NOTE
  6
Continuous
100
AcDbLine
 10
460.4300000618443
 20
18.99676697233248
 30
0.0
 11
446.7888766410269
 21
-14.3186911787725
 31
0.0
  0
LINE
  5
303
330
2F9
100
AcDbEntity
  8
NOTE
  6
Continuous
100
AcDbLine
 10
451.5031500357769
 20
22.65189494363053
 30
0.0
 11
446.7888766410269
 21
-14.3186911787725
 31
0.0
  0
LINE
  5
304
330
2F9
100
AcDbEntity
  8
NOTE
  6
Continuous
100
AcDbLine
 10
446.7888766410269
 20
-14.3186911787725
 30
0.0
 11
469.3568500879118
 21
15.34163900103443
 31
0.0
  0
TEXT
  5
305
330
2F9
100
AcDbEntity
  8
NOTE
 62
     2
100
AcDbText
 10
612.9125099576249
 20
255.4422434084896
 30
0.0
 40
70.0
  1
Power supply opening
 41
0.9
100
AcDbText
  0
LINE
  5
306
330
2F9
100
AcDbEntity
  8
NOTE
100
AcDbLine
 10
2146.988060247626
 20
380.5350929230508
 30
0.0
 11
453.9447269142933
 21
380.5350929230508
 31
0.0
  0
LINE
  5
307
330
2F9
100
AcDbEntity
  8
NOTE
100
AcDbLine
 10
453.9447269142933
 20
380.5350929230508
 30
0.0
 11
403.8730854372623
 21
93.82780291236532
 31
0.0
  0
LINE
  5
308
330
2F9
100
AcDbEntity
  8
NOTE
  6
Continuous
100
AcDbLine
 10
403.8730854372623
 20
93.82780291236533
 30
0.0
 11
397.6796516078776
 21
58.36456310829453
 31
0.0
  0
LINE
  5
309
330
2F9
100
AcDbEntity
  8
NOTE
  6
Continuous
100
AcDbLine
 10
394.3707390569858
 20
95.48732849026761
 30
0.0
 11
397.6796516078776
 21
58.36456310829453
 31
0.0
  0
LINE
  5
30A
330
2F9
100
AcDbEntity
  8
NOTE
  6
Continuous
100
AcDbLine
 10
397.6796516078776
 20
58.36456310829453
 30
0.0
 11
413.3754318175387
 21
92.16827733446308
 31
0.0
  0
TEXT
  5
30B
330
2F9
100
AcDbEntity
  8
NOTE
 62
     2
100
AcDbText
 10
523.9447269142933
 20
415.5350929230507
 30
0.0
 40
70.0
  1
Ceiling suspension fixture(4-13 × 20 oval)
 41
0.95
100
AcDbText
  0
LINE
  5
30C
330
2F9
100
AcDbEntity
  8
NOTE
100
AcDbLine
 10
-1812.970526727593
 20
-287.9729133464671
 30
0.0
 11
-752.7038600609266
 21
-287.9729133464671
 31
0.0
  0
LINE
  5
30D
330
2F9
100
AcDbEntity
  8
NOTE
100
AcDbLine
 10
-752.7038600609266
 20
-287.9729133464671
 30
0.0
 11
-654.4648059659492
 21
-232.9108414562949
 31
0.0
  0
LINE
  5
30E
330
2F9
100
AcDbEntity
  8
NOTE
  6
Continuous
100
AcDbLine
 10
-654.4648059659492
 20
-232.9108414562949
 30
0.0
 11
-623.0611603240686
 21
-215.3093915046802
 31
0.0
  0
LINE
  5
30F
330
2F9
100
AcDbEntity
  8
NOTE
  6
Continuous
100
AcDbLine
 10
-649.7485117085885
 20
-241.3254228690838
 30
0.0
 11
-623.0611603240686
 21
-215.3093915046802
 31
0.0
  0
LINE
  5
310
330
2F9
100
AcDbEntity
  8
NOTE
  6
Continuous
100
AcDbLine
 10
-623.0611603240686
 20
-215.3093915046802
 30
0.0
 11
-659.1811002233098
 21
-224.496260043506
 31
0.0
  0
TEXT
  5
311
330
2F9
100
AcDbEntity
  8
NOTE
 62
     2
100
AcDbText
 10
-1812.970526727593
 20
-252.972913346467
 30
0.0
 40
70.0
  1
Alternative duct position
100
AcDbText
  0
LINE
  5
312
330
2F9
100
AcDbEntity
  8
NOTE
100
AcDbLine
 10
1173.339240331178
 20
-556.389255631968
 30
0.0
 11
650.6725736645107
 21
-556.389255631968
 31
0.0
  0
LINE
  5
313
330
2F9
100
AcDbEntity
  8
NOTE
100
AcDbLine
 10
650.6725736645107
 20
-556.389255631968
 30
0.0
 11
499.8044041290422
 21
-273.1588967615057
 31
0.0
  0
LINE
  5
314
330
2F9
100
AcDbEntity
  8
NOTE
  6
Continuous
100
AcDbLine
 10
499.8044041290421
 20
-273.1588967615057
 30
0.0
 11
482.8796516078746
 21
-241.3854368917146
 31
0.0
  0
LINE
  5
315
330
2F9
100
AcDbEntity
  8
NOTE
  6
Continuous
100
AcDbLine
 10
508.3180769646502
 20
-268.6239230325084
 30
0.0
 11
482.8796516078746
 21
-241.3854368917146
 31
0.0
  0
LINE
  5
316
330
2F9
100
AcDbEntity
  8
NOTE
  6
Continuous
100
AcDbLine
 10
482.8796516078746
 20
-241.3854368917146
 30
0.0
 11
491.2907312934342
 21
-277.6938704905031
 31
0.0
  0
TEXT
  5
317
330
2F9
100
AcDbEntity
  8
NOTE
 62
     2
100
AcDbText
 10
720.6725736645112
 20
-521.389255631968
 30
0.0
 40
70.0
  1
Control box
100
AcDbText
  0
ENDBLK
  5
318
330
2F9
100
AcDbEntity
  8
0
100
AcDbBlockEnd
  0
BLOCK
  5
31A
330
319
100
AcDbEntity
  8
0
100
AcDbBlockBegin
  2
*D17
 70
     1
 10
0.0
 20
0.0
 30
0.0
  3
*D17
  1

  0
LINE
  5
609
330
319
100
AcDbEntity
  8
SIZE
  6
ByBlock
100
AcDbLine
 10
370.4796516048559
 20
-372.9354368951808
 30
0.0
 11
370.4796516048559
 21
-599.2812067629256
 31
0.0
  0
LINE
  5
60A
330
319
100
AcDbEntity
  8
SIZE
  6
ByBlock
100
AcDbLine
 10
484.0796516078753
 20
-242.3854368917146
 30
0.0
 11
484.0796516078753
 21
-599.2812067629256
 31
0.0
  0
LINE
  5
60B
330
319
100
AcDbEntity
  8
SIZE
  6
ByBlock
100
AcDbLine
 10
400.4796516048559
 20
-598.2812067629256
 30
0.0
 11
454.0796516078753
 21
-598.2812067629256
 31
0.0
  0
INSERT
  5
60C
330
319
100
AcDbEntity
  8
SIZE
100
AcDbBlockReference
  2
_DotBlank
 10
370.4796516048559
 20
-598.2812067629256
 30
0.0
 41
30.0
 42
30.0
 43
30.0
  0
LINE
  5
60D
330
319
100
AcDbEntity
  8
SIZE
100
AcDbLine
 10
340.4796516048559
 20
-598.2812067629256
 30
0.0
 11
310.4796516048559
 21
-598.2812067629256
 31
0.0
  0
LINE
  5
60E
330
319
100
AcDbEntity
  8
SIZE
  6
ByBlock
100
AcDbLine
 10
370.4796516048559
 20
-598.2812067629256
 30
0.0
 11
400.4796516048559
 21
-598.2812067629256
 31
0.0
  0
INSERT
  5
60F
330
319
100
AcDbEntity
  8
SIZE
100
AcDbBlockReference
  2
_DotBlank
 10
484.0796516078753
 20
-598.2812067629256
 30
0.0
 41
30.0
 42
30.0
 43
30.0
  0
POINT
  5
610
330
319
100
AcDbEntity
  8
Defpoints
 62
     0
100
AcDbPoint
 10
370.4796516048559
 20
-371.9354368951808
 30
0.0
  0
POINT
  5
611
330
319
100
AcDbEntity
  8
Defpoints
 62
     0
100
AcDbPoint
 10
484.0796516078753
 20
-241.3854368917146
 30
0.0
  0
POINT
  5
612
330
319
100
AcDbEntity
  8
Defpoints
 62
     0
100
AcDbPoint
 10
484.0796516078753
 20
-598.2812067629256
 30
0.0
  0
ENDBLK
  5
31B
330
319
100
AcDbEntity
  8
0
100
AcDbBlockEnd
  0
BLOCK
  5
327
330
326
100
AcDbEntity
  8
0
100
AcDbBlockBegin
  2
*D18
 70
     1
 10
0.0
 20
0.0
 30
0.0
  3
*D18
  1

  0
LINE
  5
4DF
330
326
100
AcDbEntity
  8
SIZE
  6
ByBlock
100
AcDbLine
 10
483.8796516078438
 20
19.01456311519178
 30
0.0
 11
647.4606023755842
 21
19.01456311519181
 31
0.0
  0
LINE
  5
4E0
330
326
100
AcDbEntity
  8
SIZE
  6
ByBlock
100
AcDbLine
 10
370.0796516048191
 20
90.16456311709957
 30
0.0
 11
647.4606023755842
 21
90.1645631170996
 31
0.0
  0
LINE
  5
4E1
330
326
100
AcDbEntity
  8
SIZE
  6
ByBlock
100
AcDbLine
 10
646.4606023755842
 20
49.01456311519182
 30
0.0
 11
646.4606023755842
 21
60.1645631170996
 31
0.0
  0
INSERT
  5
4E2
330
326
100
AcDbEntity
  8
SIZE
100
AcDbBlockReference
  2
_DotBlank
 10
646.4606023755842
 20
19.01456311519181
 30
0.0
 41
30.0
 42
30.0
 43
30.0
 50
270.0
  0
INSERT
  5
4E3
330
326
100
AcDbEntity
  8
SIZE
100
AcDbBlockReference
  2
_DotBlank
 10
646.4606023755842
 20
90.1645631170996
 30
0.0
 41
30.0
 42
30.0
 43
30.0
 50
90.0
  0
POINT
  5
4E4
330
326
100
AcDbEntity
  8
Defpoints
 62
     0
100
AcDbPoint
 10
482.8796516078439
 20
19.01456311519178
 30
0.0
  0
POINT
  5
4E5
330
326
100
AcDbEntity
  8
Defpoints
 62
     0
100
AcDbPoint
 10
369.0796516048191
 20
90.16456311709957
 30
0.0
  0
POINT
  5
4E6
330
326
100
AcDbEntity
  8
Defpoints
 62
     0
100
AcDbPoint
 10
646.4606023755842
 20
90.1645631170996
 30
0.0
  0
ENDBLK
  5
328
330
326
100
AcDbEntity
  8
0
100
AcDbBlockEnd
  0
BLOCK
  5
332
330
331
100
AcDbEntity
  8
0
100
AcDbBlockBegin
  2
*D19
 70
     1
 10
0.0
 20
0.0
 30
0.0
  3
*D19
  1

  0
LINE
  5
4E7
330
331
100
AcDbEntity
  8
SIZE
  6
ByBlock
100
AcDbLine
 10
369.8796516048138
 20
-373.5354368952377
 30
0.0
 11
732.3841237503568
 21
-373.5354368952376
 31
0.0
  0
LINE
  5
4E8
330
331
100
AcDbEntity
  8
SIZE
  6
ByBlock
100
AcDbLine
 10
370.0796516048191
 20
90.16456311709957
 30
0.0
 11
732.3841237503566
 21
90.1645631170996
 31
0.0
  0
LINE
  5
4E9
330
331
100
AcDbEntity
  8
SIZE
  6
ByBlock
100
AcDbLine
 10
731.3841237503567
 20
-343.5354368952376
 30
0.0
 11
731.3841237503567
 21
60.16456311709961
 31
0.0
  0
INSERT
  5
4EA
330
331
100
AcDbEntity
  8
SIZE
100
AcDbBlockReference
  2
_DotBlank
 10
731.3841237503567
 20
-373.5354368952376
 30
0.0
 41
30.0
 42
30.0
 43
30.0
 50
270.0
  0
INSERT
  5
4EB
330
331
100
AcDbEntity
  8
SIZE
100
AcDbBlockReference
  2
_DotBlank
 10
731.3841237503567
 20
90.1645631170996
 30
0.0
 41
30.0
 42
30.0
 43
30.0
 50
90.0
  0
POINT
  5
4EC
330
331
100
AcDbEntity
  8
Defpoints
 62
     0
100
AcDbPoint
 10
368.8796516048138
 20
-373.5354368952377
 30
0.0
  0
POINT
  5
4ED
330
331
100
AcDbEntity
  8
Defpoints
 62
     0
100
AcDbPoint
 10
369.0796516048191
 20
90.16456311709957
 30
0.0
  0
POINT
  5
4EE
330
331
100
AcDbEntity
  8
Defpoints
 62
     0
100
AcDbPoint
 10
731.3841237503567
 20
90.1645631170996
 30
0.0
  0
ENDBLK
  5
333
330
331
100
AcDbEntity
  8
0
100
AcDbBlockEnd
  0
BLOCK
  5
33D
330
33C
100
AcDbEntity
  8
0
100
AcDbBlockBegin
  2
*D20
 70
     1
 10
0.0
 20
0.0
 30
0.0
  3
*D20
  1

  0
LINE
  5
4EF
330
33C
100
AcDbEntity
  8
SIZE
  6
ByBlock
100
AcDbLine
 10
-575.9203484202774
 20
90.16456311709957
 30
0.0
 11
-717.0965082054282
 21
90.16456311709955
 31
0.0
  0
LINE
  5
4F0
330
33C
100
AcDbEntity
  8
SIZE
  6
ByBlock
100
AcDbLine
 10
-618.1203484213986
 20
58.36456311625264
 30
0.0
 11
-717.0965082054282
 21
58.36456311625262
 31
0.0
  0
LINE
  5
4F1
330
33C
100
AcDbEntity
  8
SIZE
  6
ByBlock
100
AcDbLine
 10
-716.0965082054282
 20
120.1645631170995
 30
0.0
 11
-716.0965082054282
 21
150.1645631170995
 31
0.0
  0
LINE
  5
4F2
330
33C
100
AcDbEntity
  8
SIZE
  6
ByBlock
100
AcDbLine
 10
-716.0965082054282
 20
28.36456311625262
 30
0.0
 11
-716.0965082054282
 21
-1.635436883747391
 31
0.0
  0
LINE
  5
4F3
330
33C
100
AcDbEntity
  8
SIZE
  6
ByBlock
100
AcDbLine
 10
-716.0965082054282
 20
90.16456311709955
 30
0.0
 11
-716.0965082054282
 21
58.36456311625262
 31
0.0
  0
INSERT
  5
4F4
330
33C
100
AcDbEntity
  8
SIZE
100
AcDbBlockReference
  2
_DotBlank
 10
-716.0965082054282
 20
90.16456311709955
 30
0.0
 41
30.0
 42
30.0
 43
30.0
 50
270.0
  0
INSERT
  5
4F5
330
33C
100
AcDbEntity
  8
SIZE
100
AcDbBlockReference
  2
_DotBlank
 10
-716.0965082054282
 20
58.36456311625262
 30
0.0
 41
30.0
 42
30.0
 43
30.0
 50
90.0
  0
POINT
  5
4F6
330
33C
100
AcDbEntity
  8
Defpoints
 62
     0
100
AcDbPoint
 10
-574.9203484202773
 20
90.16456311709957
 30
0.0
  0
POINT
  5
4F7
330
33C
100
AcDbEntity
  8
Defpoints
 62
     0
100
AcDbPoint
 10
-617.1203484213986
 20
58.36456311625264
 30
0.0
  0
POINT
  5
4F8
330
33C
100
AcDbEntity
  8
Defpoints
 62
     0
100
AcDbPoint
 10
-716.0965082054282
 20
58.36456311625262
 30
0.0
  0
ENDBLK
  5
33E
330
33C
100
AcDbEntity
  8
0
100
AcDbBlockEnd
  0
BLOCK
  5
34A
330
349
100
AcDbEntity
  8
0
100
AcDbBlockBegin
  2
*D21
 70
     1
 10
0.0
 20
0.0
 30
0.0
  3
*D21
  1

  0
LINE
  5
4F9
330
349
100
AcDbEntity
  8
SIZE
  6
ByBlock
100
AcDbLine
 10
135.9726054826483
 20
-373.5354368952377
 30
0.0
 11
-38.19115546291494
 21
-373.5354368952378
 31
0.0
  0
LINE
  5
4FA
330
349
100
AcDbEntity
  8
SIZE
  6
ByBlock
100
AcDbLine
 10
217.4548502898143
 20
-438.6151438399594
 30
0.0
 11
-38.19115546291493
 21
-438.6151438399595
 31
0.0
  0
LINE
  5
4FB
330
349
100
AcDbEntity
  8
SIZE
  6
ByBlock
100
AcDbLine
 10
-37.19115546291494
 20
-403.5354368952377
 30
0.0
 11
-37.19115546291494
 21
-408.6151438399595
 31
0.0
  0
INSERT
  5
4FC
330
349
100
AcDbEntity
  8
SIZE
100
AcDbBlockReference
  2
_DotBlank
 10
-37.19115546291495
 20
-373.5354368952378
 30
0.0
 41
30.0
 42
30.0
 43
30.0
 50
90.0
  0
INSERT
  5
4FD
330
349
100
AcDbEntity
  8
SIZE
100
AcDbBlockReference
  2
_DotBlank
 10
-37.19115546291494
 20
-438.6151438399595
 30
0.0
 41
30.0
 42
30.0
 43
30.0
 50
270.0
  0
POINT
  5
4FE
330
349
100
AcDbEntity
  8
Defpoints
 62
     0
100
AcDbPoint
 10
136.9726054826483
 20
-373.5354368952377
 30
0.0
  0
POINT
  5
4FF
330
349
100
AcDbEntity
  8
Defpoints
 62
     0
100
AcDbPoint
 10
218.4548502898143
 20
-438.6151438399594
 30
0.0
  0
POINT
  5
500
330
349
100
AcDbEntity
  8
Defpoints
 62
     0
100
AcDbPoint
 10
-37.19115546291494
 20
-438.6151438399595
 30
0.0
  0
ENDBLK
  5
34B
330
349
100
AcDbEntity
  8
0
100
AcDbBlockEnd
  0
BLOCK
  5
355
330
354
100
AcDbEntity
  8
0
100
AcDbBlockBegin
  2
*D22
 70
     1
 10
0.0
 20
0.0
 30
0.0
  3
*D22
  1

  0
LINE
  5
613
330
354
100
AcDbEntity
  8
SIZE
  6
ByBlock
100
AcDbLine
 10
218.4549980918145
 20
-476.0990810931016
 30
0.0
 11
218.4549980918145
 21
-599.2812067629256
 31
0.0
  0
LINE
  5
614
330
354
100
AcDbEntity
  8
SIZE
  6
ByBlock
100
AcDbLine
 10
370.2796516048502
 20
67.56456311651891
 30
0.0
 11
370.2796516048501
 21
-599.2812067629256
 31
0.0
  0
LINE
  5
615
330
354
100
AcDbEntity
  8
SIZE
  6
ByBlock
100
AcDbLine
 10
248.4549980918146
 20
-598.2812067629256
 30
0.0
 11
340.2796516048501
 21
-598.2812067629256
 31
0.0
  0
INSERT
  5
616
330
354
100
AcDbEntity
  8
SIZE
100
AcDbBlockReference
  2
_DotBlank
 10
218.4549980918145
 20
-598.2812067629256
 30
0.0
 41
30.0
 42
30.0
 43
30.0
  0
LINE
  5
617
330
354
100
AcDbEntity
  8
SIZE
100
AcDbLine
 10
188.4549980918145
 20
-598.2812067629256
 30
0.0
 11
158.4549980918145
 21
-598.2812067629256
 31
0.0
  0
LINE
  5
618
330
354
100
AcDbEntity
  8
SIZE
  6
ByBlock
100
AcDbLine
 10
218.4549980918145
 20
-598.2812067629256
 30
0.0
 11
248.4549980918146
 21
-598.2812067629256
 31
0.0
  0
INSERT
  5
619
330
354
100
AcDbEntity
  8
SIZE
100
AcDbBlockReference
  2
_DotBlank
 10
370.2796516048501
 20
-598.2812067629256
 30
0.0
 41
30.0
 42
30.0
 43
30.0
  0
POINT
  5
61A
330
354
100
AcDbEntity
  8
Defpoints
 62
     0
100
AcDbPoint
 10
218.4549980918145
 20
-475.0990810931016
 30
0.0
  0
POINT
  5
61B
330
354
100
AcDbEntity
  8
Defpoints
 62
     0
100
AcDbPoint
 10
370.2796516048502
 20
68.56456311651891
 30
0.0
  0
POINT
  5
61C
330
354
100
AcDbEntity
  8
Defpoints
 62
     0
100
AcDbPoint
 10
370.2796516048501
 20
-598.2812067629256
 30
0.0
  0
ENDBLK
  5
356
330
354
100
AcDbEntity
  8
0
100
AcDbBlockEnd
  0
BLOCK
  5
362
330
361
100
AcDbEntity
  8
0
100
AcDbBlockBegin
  2
*D23
 70
     1
 10
0.0
 20
0.0
 30
0.0
  3
*D23
  1

  0
LINE
  5
61D
330
361
100
AcDbEntity
  8
SIZE
  6
ByBlock
100
AcDbLine
 10
358.6432340200296
 20
-74.98538553630172
 30
0.0
 11
567.1118031030238
 21
-74.98538553630169
 31
0.0
  0
LINE
  5
61E
330
361
100
AcDbEntity
  8
SIZE
  6
ByBlock
100
AcDbLine
 10
370.0796516048186
 20
90.16456311709957
 30
0.0
 11
567.1118031030238
 21
90.16456311709958
 31
0.0
  0
LINE
  5
61F
330
361
100
AcDbEntity
  8
SIZE
  6
ByBlock
100
AcDbLine
 10
566.1118031030238
 20
-44.98538553630168
 30
0.0
 11
566.1118031030238
 21
60.16456311709958
 31
0.0
  0
INSERT
  5
620
330
361
100
AcDbEntity
  8
SIZE
100
AcDbBlockReference
  2
_DotBlank
 10
566.1118031030238
 20
-74.98538553630169
 30
0.0
 41
30.0
 42
30.0
 43
30.0
 50
90.0
  0
LINE
  5
621
330
361
100
AcDbEntity
  8
SIZE
100
AcDbLine
 10
566.1118031030238
 20
-104.9853855363017
 30
0.0
 11
566.1118031030238
 21
-134.9853855363017
 31
0.0
  0
LINE
  5
622
330
361
100
AcDbEntity
  8
SIZE
  6
ByBlock
100
AcDbLine
 10
566.1118031030238
 20
-74.98538553630169
 30
0.0
 11
566.1118031030238
 21
-44.98538553630168
 31
0.0
  0
INSERT
  5
623
330
361
100
AcDbEntity
  8
SIZE
100
AcDbBlockReference
  2
_DotBlank
 10
566.1118031030238
 20
90.16456311709958
 30
0.0
 41
30.0
 42
30.0
 43
30.0
 50
270.0
  0
LINE
  5
624
330
361
100
AcDbEntity
  8
SIZE
100
AcDbLine
 10
566.1118031030238
 20
120.1645631170996
 30
0.0
 11
566.1118031030238
 21
150.1645631170996
 31
0.0
  0
LINE
  5
625
330
361
100
AcDbEntity
  8
SIZE
  6
ByBlock
100
AcDbLine
 10
566.1118031030238
 20
90.16456311709958
 30
0.0
 11
566.1118031030238
 21
60.16456311709958
 31
0.0
  0
POINT
  5
626
330
361
100
AcDbEntity
  8
Defpoints
 62
     0
100
AcDbPoint
 10
357.6432340200296
 20
-74.98538553630172
 30
0.0
  0
POINT
  5
627
330
361
100
AcDbEntity
  8
Defpoints
 62
     0
100
AcDbPoint
 10
369.0796516048187
 20
90.16456311709957
 30
0.0
  0
POINT
  5
628
330
361
100
AcDbEntity
  8
Defpoints
 62
     0
100
AcDbPoint
 10
566.1118031030238
 20
90.16456311709958
 30
0.0
  0
ENDBLK
  5
363
330
361
100
AcDbEntity
  8
0
100
AcDbBlockEnd
  0
BLOCK
  5
371
330
370
100
AcDbEntity
  8
0
100
AcDbBlockBegin
  2
*D24
 70
     1
 10
0.0
 20
0.0
 30
0.0
  3
*D24
  1

  0
LINE
  5
517
330
370
100
AcDbEntity
  8
SIZE
  6
ByBlock
100
AcDbLine
 10
-448.9203483941232
 20
52.0164680692759
 30
0.0
 11
-448.9203483941232
 21
272.2081313709457
 31
0.0
  0
LINE
  5
518
330
370
100
AcDbEntity
  8
SIZE
  6
ByBlock
100
AcDbLine
 10
243.0796516078758
 20
63.95573945398052
 30
0.0
 11
243.0796516078758
 21
272.2081313709457
 31
0.0
  0
LINE
  5
519
330
370
100
AcDbEntity
  8
SIZE
  6
ByBlock
100
AcDbLine
 10
-418.9203483941232
 20
271.2081313709457
 30
0.0
 11
213.0796516078758
 21
271.2081313709457
 31
0.0
  0
INSERT
  5
51A
330
370
100
AcDbEntity
  8
SIZE
100
AcDbBlockReference
  2
_DotBlank
 10
-448.9203483941232
 20
271.2081313709457
 30
0.0
 41
30.0
 42
30.0
 43
30.0
 50
180.0
  0
INSERT
  5
51B
330
370
100
AcDbEntity
  8
SIZE
100
AcDbBlockReference
  2
_DotBlank
 10
243.0796516078758
 20
271.2081313709457
 30
0.0
 41
30.0
 42
30.0
 43
30.0
  0
POINT
  5
51C
330
370
100
AcDbEntity
  8
Defpoints
 62
     0
100
AcDbPoint
 10
-448.9203483941232
 20
51.0164680692759
 30
0.0
  0
POINT
  5
51D
330
370
100
AcDbEntity
  8
Defpoints
 62
     0
100
AcDbPoint
 10
243.0796516078758
 20
62.95573945398053
 30
0.0
  0
POINT
  5
51E
330
370
100
AcDbEntity
  8
Defpoints
 62
     0
100
AcDbPoint
 10
243.0796516078758
 20
271.2081313709457
 30
0.0
  0
ENDBLK
  5
372
330
370
100
AcDbEntity
  8
0
100
AcDbBlockEnd
  0
BLOCK
  5
37C
330
37B
100
AcDbEntity
  8
0
100
AcDbBlockBegin
  2
*D25
 70
     1
 10
0.0
 20
0.0
 30
0.0
  3
*D25
  1

  0
LINE
  5
51F
330
37B
100
AcDbEntity
  8
SIZE
  6
ByBlock
100
AcDbLine
 10
370.2796516078777
 20
84.96456310828568
 30
0.0
 11
370.2796516078777
 21
348.7980841969573
 31
0.0
  0
LINE
  5
520
330
37B
100
AcDbEntity
  8
SIZE
  6
ByBlock
100
AcDbLine
 10
-576.1203483921256
 20
84.96456310828568
 30
0.0
 11
-576.1203483921256
 21
348.7980841969573
 31
0.0
  0
LINE
  5
521
330
37B
100
AcDbEntity
  8
SIZE
  6
ByBlock
100
AcDbLine
 10
340.2796516078776
 20
347.7980841969572
 30
0.0
 11
-546.1203483921256
 21
347.7980841969572
 31
0.0
  0
INSERT
  5
522
330
37B
100
AcDbEntity
  8
SIZE
100
AcDbBlockReference
  2
_DotBlank
 10
370.2796516078777
 20
347.7980841969572
 30
0.0
 41
30.0
 42
30.0
 43
30.0
  0
INSERT
  5
523
330
37B
100
AcDbEntity
  8
SIZE
100
AcDbBlockReference
  2
_DotBlank
 10
-576.1203483921256
 20
347.7980841969572
 30
0.0
 41
30.0
 42
30.0
 43
30.0
 50
180.0
  0
POINT
  5
524
330
37B
100
AcDbEntity
  8
Defpoints
 62
     0
100
AcDbPoint
 10
370.2796516078777
 20
83.96456310828568
 30
0.0
  0
POINT
  5
525
330
37B
100
AcDbEntity
  8
Defpoints
 62
     0
100
AcDbPoint
 10
-576.1203483921256
 20
83.96456310828568
 30
0.0
  0
POINT
  5
526
330
37B
100
AcDbEntity
  8
Defpoints
 62
     0
100
AcDbPoint
 10
-576.1203483921256
 20
347.7980841969572
 30
0.0
  0
ENDBLK
  5
37D
330
37B
100
AcDbEntity
  8
0
100
AcDbBlockEnd
  0
BLOCK
  5
387
330
386
100
AcDbEntity
  8
0
100
AcDbBlockBegin
  2
*D26
 70
     1
 10
0.0
 20
0.0
 30
0.0
  3
*D26
  1

  0
LINE
  5
527
330
386
100
AcDbEntity
  8
SIZE
  6
ByBlock
100
AcDbLine
 10
397.679651607878
 20
88.83871811165944
 30
0.0
 11
397.679651607878
 21
429.9847425100558
 31
0.0
  0
LINE
  5
528
330
386
100
AcDbEntity
  8
SIZE
  6
ByBlock
100
AcDbLine
 10
-603.5203483921227
 20
88.83871811165944
 30
0.0
 11
-603.5203483921227
 21
429.9847425100558
 31
0.0
  0
LINE
  5
529
330
386
100
AcDbEntity
  8
SIZE
  6
ByBlock
100
AcDbLine
 10
367.679651607878
 20
428.9847425100559
 30
0.0
 11
-573.5203483921227
 21
428.9847425100559
 31
0.0
  0
INSERT
  5
52A
330
386
100
AcDbEntity
  8
SIZE
100
AcDbBlockReference
  2
_DotBlank
 10
397.679651607878
 20
428.9847425100559
 30
0.0
 41
30.0
 42
30.0
 43
30.0
  0
INSERT
  5
52B
330
386
100
AcDbEntity
  8
SIZE
100
AcDbBlockReference
  2
_DotBlank
 10
-603.5203483921227
 20
428.9847425100559
 30
0.0
 41
30.0
 42
30.0
 43
30.0
 50
180.0
  0
POINT
  5
52C
330
386
100
AcDbEntity
  8
Defpoints
 62
     0
100
AcDbPoint
 10
397.679651607878
 20
87.83871811165942
 30
0.0
  0
POINT
  5
52D
330
386
100
AcDbEntity
  8
Defpoints
 62
     0
100
AcDbPoint
 10
-603.5203483921227
 20
87.83871811165942
 30
0.0
  0
POINT
  5
52E
330
386
100
AcDbEntity
  8
Defpoints
 62
     0
100
AcDbPoint
 10
-603.5203483921227
 20
428.9847425100559
 30
0.0
  0
ENDBLK
  5
388
330
386
100
AcDbEntity
  8
0
100
AcDbBlockEnd
  0
BLOCK
  5
392
330
391
100
AcDbEntity
  8
0
100
AcDbBlockBegin
  2
*D27
 70
     1
 10
0.0
 20
0.0
 30
0.0
  3
*D27
  1

  0
LINE
  5
52F
330
391
100
AcDbEntity
  8
SIZE
  6
ByBlock
100
AcDbLine
 10
-406.9161769731579
 20
-25.02935025856243
 30
0.0
 11
-490.9245198110894
 21
-126.8458436848458
 31
0.0
  0
LINE
  5
530
330
391
100
AcDbEntity
  8
SIZE
  6
ByBlock
100
AcDbLine
 10
-510.0173250015284
 20
-149.9859558271831
 30
0.0
 11
-761.6002678132531
 21
-454.8996367501829
 31
0.0
  0
INSERT
  5
531
330
391
100
AcDbEntity
  8
SIZE
100
AcDbBlockReference
  2
_DotBlank
 10
-387.8233717827188
 20
-1.889238116225214
 30
0.0
 41
30.0
 42
30.0
 43
30.0
 50
50.47410898698996
  0
INSERT
  5
532
330
391
100
AcDbEntity
  8
SIZE
100
AcDbBlockReference
  2
_DotBlank
 10
-510.0173250015284
 20
-149.9859558271831
 30
0.0
 41
30.0
 42
30.0
 43
30.0
 50
230.4741089869899
  0
POINT
  5
533
330
391
100
AcDbEntity
  8
Defpoints
 62
     0
100
AcDbPoint
 10
-510.0173250015284
 20
-149.9859558271831
 30
0.0
  0
POINT
  5
534
330
391
100
AcDbEntity
  8
Defpoints
 62
     0
100
AcDbPoint
 10
-387.8233717827188
 20
-1.889238116225214
 30
0.0
  0
ENDBLK
  5
393
330
391
100
AcDbEntity
  8
0
100
AcDbBlockEnd
  0
BLOCK
  5
39B
330
39A
100
AcDbEntity
  8
0
100
AcDbBlockBegin
  2
*D28
 70
     1
 10
0.0
 20
0.0
 30
0.0
  3
*D28
  1

  0
LINE
  5
535
330
39A
100
AcDbEntity
  8
SIZE
  6
ByBlock
100
AcDbLine
 10
-417.8975936396192
 20
-8.754349896514469
 30
0.0
 11
-479.9431031446277
 21
-143.1208440468934
 31
0.0
  0
LINE
  5
536
330
39A
100
AcDbEntity
  8
SIZE
  6
ByBlock
100
AcDbLine
 10
-492.5198956118593
 20
-170.3572955638622
 30
0.0
 11
-640.4976308773812
 21
-490.8196410029953
 31
0.0
  0
INSERT
  5
537
330
39A
100
AcDbEntity
  8
SIZE
100
AcDbBlockReference
  2
_DotBlank
 10
-405.3208011723877
 20
18.48210162045427
 30
0.0
 41
30.0
 42
30.0
 43
30.0
 50
65.21424249583105
  0
INSERT
  5
538
330
39A
100
AcDbEntity
  8
SIZE
100
AcDbBlockReference
  2
_DotBlank
 10
-492.5198956118593
 20
-170.3572955638622
 30
0.0
 41
30.0
 42
30.0
 43
30.0
 50
245.2142424958311
  0
POINT
  5
539
330
39A
100
AcDbEntity
  8
Defpoints
 62
     0
100
AcDbPoint
 10
-492.5198956118593
 20
-170.3572955638622
 30
0.0
  0
POINT
  5
53A
330
39A
100
AcDbEntity
  8
Defpoints
 62
     0
100
AcDbPoint
 10
-405.3208011723877
 20
18.48210162045427
 30
0.0
  0
ENDBLK
  5
39C
330
39A
100
AcDbEntity
  8
0
100
AcDbBlockEnd
  0
ENDSEC
  0
SECTION
  2
ENTITIES
  0
LINE
  5
C6
330
70
100
AcDbEntity
  8
DETAIL
 48
0.2
100
AcDbLine
 10
484.0796516078789
 20
17.81456310828253
 30
0.0
 11
484.0796516078753
 21
-241.3854368917146
 31
0.0
  0
LINE
  5
C9
330
70
100
AcDbEntity
  8
DETAIL
 48
0.2
100
AcDbLine
 10
482.8796516078746
 20
-242.5854368917262
 30
0.0
 11
482.8796516078746
 21
-241.3854368917146
 31
0.0
  0
LINE
  5
CA
330
70
100
AcDbEntity
  8
DETAIL
 48
0.2
100
AcDbLine
 10
482.8796516078782
 20
19.01456310826506
 30
0.0
 11
482.8796516078782
 21
17.81456310828253
 31
0.0
  0
LINE
  5
CB
330
70
100
AcDbEntity
  8
DETAIL
 48
0.2
100
AcDbLine
 10
417.6796516078775
 20
65.16456310827561
 30
0.0
 11
417.6796516078775
 21
61.56456310828435
 31
0.0
  0
LINE
  5
CC
330
70
100
AcDbEntity
  8
DETAIL
 48
0.2
100
AcDbLine
 10
417.6796516078775
 20
51.96456310827852
 30
0.0
 11
417.6796516078775
 21
48.36456310828726
 31
0.0
  0
LINE
  5
CD
330
70
100
AcDbEntity
  8
DETAIL
 48
0.2
100
AcDbLine
 10
414.4796516078768
 20
65.16456310827561
 30
0.0
 11
414.4796516078768
 21
61.56456310828435
 31
0.0
  0
LINE
  5
CE
330
70
100
AcDbEntity
  8
DETAIL
 48
0.2
100
AcDbLine
 10
414.4796516078768
 20
51.96456310827852
 30
0.0
 11
414.4796516078768
 21
48.36456310828726
 31
0.0
  0
LINE
  5
CF
330
70
100
AcDbEntity
  8
DETAIL
 48
0.2
100
AcDbLine
 10
380.1796516078775
 20
85.86456310828726
 30
0.0
 11
385.1796516078776
 21
80.86456310828726
 31
0.0
  0
LINE
  5
D0
330
70
100
AcDbEntity
  8
DETAIL
 48
0.2
100
AcDbLine
 10
385.979651607875
 20
-130.9354368917156
 30
0.0
 11
385.9796516078768
 21
55.16456310827561
 31
0.0
  0
LINE
  5
D1
330
70
100
AcDbEntity
  8
DETAIL
 48
0.2
100
AcDbLine
 10
385.9796516078768
 20
58.36456310828726
 30
0.0
 11
385.9796516078768
 21
80.86456310828726
 31
0.0
  0
LINE
  5
D2
330
70
100
AcDbEntity
  8
DETAIL
 48
0.2
100
AcDbLine
 10
382.479651607875
 20
-135.5354368917214
 30
0.0
 11
382.4796516078714
 21
-315.1354368917127
 31
0.0
  0
LINE
  5
D3
330
70
100
AcDbEntity
  8
DETAIL
 48
0.2
100
AcDbLine
 10
382.4796516078714
 20
-318.9354368917302
 30
0.0
 11
382.4796516078714
 21
-319.7354368917331
 31
0.0
  0
LINE
  5
D4
330
70
100
AcDbEntity
  8
DETAIL
 48
0.2
100
AcDbLine
 10
381.479651607875
 20
-132.5354368917214
 30
0.0
 11
381.479651607875
 21
-133.3354368917098
 31
0.0
  0
LINE
  5
D5
330
70
100
AcDbEntity
  8
DETAIL
 48
0.2
100
AcDbLine
 10
379.4796516078713
 20
-318.9354368917302
 30
0.0
 11
379.4796516078713
 21
-319.7354368917331
 31
0.0
  0
LINE
  5
D6
330
70
100
AcDbEntity
  8
DETAIL
 48
0.2
100
AcDbLine
 10
378.479651607875
 20
-127.9354368917156
 30
0.0
 11
378.4796516078768
 21
55.16456310827561
 31
0.0
  0
LINE
  5
D7
330
70
100
AcDbEntity
  8
DETAIL
 48
0.2
100
AcDbLine
 10
378.4796516078768
 20
58.36456310828726
 30
0.0
 11
378.4796516078768
 21
77.8645631082727
 31
0.0
  0
LINE
  5
D8
330
70
100
AcDbEntity
  8
DETAIL
 48
0.2
100
AcDbLine
 10
375.1796516078775
 20
86.66456310829017
 30
0.0
 11
375.1796516078775
 21
58.36456310828726
 31
0.0
  0
LINE
  5
D9
330
70
100
AcDbEntity
  8
DETAIL
 48
0.2
100
AcDbLine
 10
375.1796516078775
 20
55.16456310827561
 30
0.0
 11
375.1796516078757
 21
-133.3354368917098
 31
0.0
  0
LINE
  5
DA
330
70
100
AcDbEntity
  8
DETAIL
 48
0.2
100
AcDbLine
 10
371.3796516078783
 20
49.26456310826688
 30
0.0
 11
371.3796516078783
 21
37.46456310827853
 31
0.0
  0
LINE
  5
DB
330
70
100
AcDbEntity
  8
DETAIL
 48
0.2
100
AcDbLine
 10
370.8796516078783
 20
8.364563108287256
 30
0.0
 11
370.8796516078783
 21
51.96456310827852
 31
0.0
  0
LINE
  5
DC
330
70
100
AcDbEntity
  8
DETAIL
 48
0.2
100
AcDbLine
 10
370.4796516078713
 20
-371.9354368917156
 30
0.0
 11
370.4796516078732
 21
-197.7358274717298
 31
0.0
  0
LINE
  5
DD
330
70
100
AcDbEntity
  8
DETAIL
 48
0.2
100
AcDbLine
 10
370.4796516078732
 20
-197.709507977961
 30
0.0
 11
370.479651607875
 21
-133.3354368917098
 31
0.0
  0
LINE
  5
DE
330
70
100
AcDbEntity
  8
DETAIL
 48
0.2
100
AcDbLine
 10
370.2796516078779
 20
83.96456310827852
 30
0.0
 11
370.2796516078779
 21
68.56456310826979
 31
0.0
  0
LINE
  5
DF
330
70
100
AcDbEntity
  8
DETAIL
 48
0.2
100
AcDbLine
 10
369.6796516078739
 20
-297.7351322357172
 30
0.0
 11
369.6796516078739
 21
-291.4354368917302
 31
0.0
  0
LINE
  5
E0
330
70
100
AcDbEntity
  8
DETAIL
 48
0.2
100
AcDbLine
 10
369.6796516078739
 20
-288.4354368917156
 30
0.0
 11
369.6796516078739
 21
-198.8911962137244
 31
0.0
  0
LINE
  5
E1
330
70
100
AcDbEntity
  8
DETAIL
 48
0.2
100
AcDbLine
 10
369.6796516078739
 20
-199.0500393555194
 30
0.0
 11
369.6796516078757
 21
-143.9354368917302
 31
0.0
  0
LINE
  5
E2
330
70
100
AcDbEntity
  8
DETAIL
 48
0.2
100
AcDbLine
 10
369.6796516078757
 20
-140.9354368917156
 30
0.0
 11
369.6796516078757
 21
-133.3354368917098
 31
0.0
  0
LINE
  5
E3
330
70
100
AcDbEntity
  8
DETAIL
 48
0.2
100
AcDbLine
 10
369.6796516078775
 20
83.96456310827852
 30
0.0
 11
369.6796516078775
 21
68.56456310826979
 31
0.0
  0
LINE
  5
E4
330
70
100
AcDbEntity
  8
DETAIL
 48
0.2
100
AcDbLine
 10
369.6796516078739
 20
-299.5354368917215
 30
0.0
 11
369.6796516078721
 21
-371.9354368917156
 31
0.0
  0
LINE
  5
E5
330
70
100
AcDbEntity
  8
DETAIL
 48
0.2
100
AcDbLine
 10
369.079651607879
 20
85.16456310827562
 30
0.0
 11
369.079651607879
 21
60.16456310827561
 31
0.0
  0
LINE
  5
E6
330
70
100
AcDbEntity
  8
DETAIL
 48
0.2
100
AcDbLine
 10
368.8796516078728
 20
-373.5354368917215
 30
0.0
 11
368.8796516078746
 21
-302.5354368917215
 31
0.0
  0
LINE
  5
E7
330
70
100
AcDbEntity
  8
DETAIL
 48
0.2
100
AcDbLine
 10
368.7796516078724
 20
-225.4354368917157
 30
0.0
 11
368.7796516078761
 21
-5.435436891715653
 31
0.0
  0
LINE
  5
E8
330
70
100
AcDbEntity
  8
DETAIL
 48
0.2
100
AcDbLine
 10
368.1796516078776
 20
-5.435436891715653
 30
0.0
 11
368.1796516078739
 21
-225.4354368917157
 31
0.0
  0
LINE
  5
E9
330
70
100
AcDbEntity
  8
DETAIL
 48
0.2
100
AcDbLine
 10
367.8796516078764
 20
-144.3854368917273
 30
0.0
 11
367.8796516078764
 21
-143.9354368917302
 31
0.0
  0
LINE
  5
EA
330
70
100
AcDbEntity
  8
DETAIL
 48
0.2
100
AcDbLine
 10
367.8796516078764
 20
-140.9354368917156
 30
0.0
 11
367.8796516078764
 21
-133.3354368917098
 31
0.0
  0
LINE
  5
EB
330
70
100
AcDbEntity
  8
DETAIL
 48
0.2
100
AcDbLine
 10
367.6796516078775
 20
58.76456310828143
 30
0.0
 11
367.6796516078775
 21
51.96456310827852
 31
0.0
  0
LINE
  5
EC
330
70
100
AcDbEntity
  8
DETAIL
 48
0.2
100
AcDbLine
 10
367.6796516078775
 20
51.96456310827852
 30
0.0
 11
367.6796516078775
 21
8.364563108287256
 31
0.0
  0
LINE
  5
ED
330
70
100
AcDbEntity
  8
DETAIL
 48
0.2
100
AcDbLine
 10
367.6796516078775
 20
8.364563108287256
 30
0.0
 11
367.6796516078739
 21
-301.3354368917244
 31
0.0
  0
LINE
  5
EE
330
70
100
AcDbEntity
  8
DETAIL
 48
0.2
100
AcDbLine
 10
367.1796516078775
 20
86.66456310829017
 30
0.0
 11
367.1796516078775
 21
85.16456310827562
 31
0.0
  0
LINE
  5
EF
330
70
100
AcDbEntity
  8
DETAIL
 48
0.2
100
AcDbLine
 10
361.6796516078775
 20
86.66456310829017
 30
0.0
 11
361.6796516078775
 21
85.86456310828726
 31
0.0
  0
LINE
  5
F0
330
70
100
AcDbEntity
  8
DETAIL
 48
0.2
100
AcDbLine
 10
359.9796516078768
 20
86.66456310829017
 30
0.0
 11
359.9796516078768
 21
87.46456310827852
 31
0.0
  0
LINE
  5
F1
330
70
100
AcDbEntity
  8
DETAIL
 48
0.2
100
AcDbLine
 10
358.6796516078775
 20
86.66456310829017
 30
0.0
 11
358.6796516078775
 21
85.86456310828726
 31
0.0
  0
LINE
  5
F2
330
70
100
AcDbEntity
  8
DETAIL
 48
0.2
100
AcDbLine
 10
354.9796516078768
 20
86.66456310829017
 30
0.0
 11
354.9796516078768
 21
87.46456310827852
 31
0.0
  0
LINE
  5
F3
330
70
100
AcDbEntity
  8
DETAIL
 48
0.2
100
AcDbLine
 10
350.0796516078772
 20
-26.43443805471543
 30
0.0
 11
350.0796516078754
 21
-123.5364357277176
 31
0.0
  0
LINE
  5
F4
330
70
100
AcDbEntity
  8
DETAIL
 48
0.2
100
AcDbLine
 10
347.6796516078775
 20
13.36456310828725
 30
0.0
 11
347.6796516078775
 21
19.86242678528288
 31
0.0
  0
LINE
  5
F5
330
70
100
AcDbEntity
  8
DETAIL
 48
0.2
100
AcDbLine
 10
381.479651607875
 20
-130.9354368917156
 30
0.0
 11
378.479651607875
 21
-127.9354368917156
 31
0.0
  0
LINE
  5
F6
330
70
100
AcDbEntity
  8
DETAIL
 48
0.2
100
AcDbLine
 10
379.479651607875
 20
-132.5354368917214
 30
0.0
 11
382.479651607875
 21
-135.5354368917214
 31
0.0
  0
LINE
  5
F7
330
70
100
AcDbEntity
  8
DETAIL
 48
0.2
100
AcDbLine
 10
136.079651607879
 20
-26.4343236987188
 30
0.0
 11
136.0796516078771
 21
-123.5365500837215
 31
0.0
  0
LINE
  5
F8
330
70
100
AcDbEntity
  8
DETAIL
 48
0.2
100
AcDbLine
 10
365.8796516078746
 20
-299.5354368917215
 30
0.0
 11
368.8796516078746
 21
-302.5354368917215
 31
0.0
  0
LINE
  5
F9
330
70
100
AcDbEntity
  8
DETAIL
 48
0.2
100
AcDbLine
 10
374.3796516078782
 20
87.46456310827852
 30
0.0
 11
354.9796516078768
 21
87.46456310827852
 31
0.0
  0
LINE
  5
FA
330
70
100
AcDbEntity
  8
DETAIL
 48
0.2
100
AcDbLine
 10
375.1796516078775
 20
86.66456310829017
 30
0.0
 11
367.1796516078775
 21
86.66456310829017
 31
0.0
  0
LINE
  5
FB
330
70
100
AcDbEntity
  8
DETAIL
 48
0.2
100
AcDbLine
 10
367.1796516078775
 20
86.66456310829017
 30
0.0
 11
354.9796516078768
 21
86.66456310829017
 31
0.0
  0
LINE
  5
FC
330
70
100
AcDbEntity
  8
DETAIL
 48
0.2
100
AcDbLine
 10
354.9796516078768
 20
85.86456310828726
 30
0.0
 11
361.6796516078775
 21
85.86456310828726
 31
0.0
  0
LINE
  5
FD
330
70
100
AcDbEntity
  8
DETAIL
 48
0.2
100
AcDbLine
 10
375.1796516078775
 20
85.86456310828726
 30
0.0
 11
380.1796516078775
 21
85.86456310828726
 31
0.0
  0
LINE
  5
FE
330
70
100
AcDbEntity
  8
DETAIL
 48
0.2
100
AcDbLine
 10
369.079651607879
 20
85.16456310827562
 30
0.0
 11
-574.9203483921228
 21
85.16456310828834
 31
0.0
  0
LINE
  5
FF
330
70
100
AcDbEntity
  8
DETAIL
 48
0.2
100
AcDbLine
 10
385.9796516078768
 20
80.86456310828726
 30
0.0
 11
381.4796516078768
 21
80.86456310828726
 31
0.0
  0
LINE
  5
100
330
70
100
AcDbEntity
  8
DETAIL
 48
0.2
100
AcDbLine
 10
369.6796516078775
 20
71.56456310828435
 30
0.0
 11
370.2796516078779
 21
71.56456310828435
 31
0.0
  0
LINE
  5
101
330
70
100
AcDbEntity
  8
DETAIL
 48
0.2
100
AcDbLine
 10
369.6796516078775
 20
68.56456310826979
 30
0.0
 11
370.2796516078779
 21
68.56456310826979
 31
0.0
  0
LINE
  5
102
330
70
100
AcDbEntity
  8
DETAIL
 48
0.2
100
AcDbLine
 10
414.4796516078768
 20
65.16456310827561
 30
0.0
 11
417.6796516078775
 21
65.16456310827561
 31
0.0
  0
LINE
  5
103
330
70
100
AcDbEntity
  8
DETAIL
 48
0.2
100
AcDbLine
 10
-620.3203483921225
 20
65.16456310829017
 30
0.0
 11
-623.5203483921232
 21
65.16456310829017
 31
0.0
  0
LINE
  5
104
330
70
100
AcDbEntity
  8
DETAIL
 48
0.2
100
AcDbLine
 10
-575.5203483921231
 20
60.16456310828835
 30
0.0
 11
-576.1203483921217
 21
60.16456310828835
 31
0.0
  0
LINE
  5
105
330
70
100
AcDbEntity
  8
DETAIL
 48
0.2
100
AcDbLine
 10
-617.1203483921217
 20
58.36456310830181
 30
0.0
 11
-579.9203483921228
 21
58.36456310829999
 31
0.0
  0
LINE
  5
106
330
70
100
AcDbEntity
  8
DETAIL
 48
0.2
100
AcDbLine
 10
411.279651607876
 20
58.36456310828726
 30
0.0
 11
374.079651607879
 21
58.36456310828726
 31
0.0
  0
LINE
  5
107
330
70
100
AcDbEntity
  8
DETAIL
 48
0.2
100
AcDbLine
 10
366.0796516078772
 20
57.16456310827561
 30
0.0
 11
-571.920348392121
 21
57.16456310828835
 31
0.0
  0
LINE
  5
108
330
70
100
AcDbEntity
  8
DETAIL
 48
0.2
100
AcDbLine
 10
-575.5203483921231
 20
57.16456310828835
 30
0.0
 11
-576.1203483921217
 21
57.16456310828835
 31
0.0
  0
LINE
  5
109
330
70
100
AcDbEntity
  8
DETAIL
 48
0.2
100
AcDbLine
 10
-573.5203483921232
 20
56.6645631083029
 30
0.0
 11
-574.6203483921217
 21
56.6645631083029
 31
0.0
  0
LINE
  5
10A
330
70
100
AcDbEntity
  8
DETAIL
 48
0.2
100
AcDbLine
 10
-617.1203483921217
 20
55.16456310829017
 30
0.0
 11
-579.9203483921228
 21
55.16456310828835
 31
0.0
  0
LINE
  5
10B
330
70
100
AcDbEntity
  8
DETAIL
 48
0.2
100
AcDbLine
 10
411.279651607876
 20
55.16456310827561
 30
0.0
 11
374.079651607879
 21
55.16456310827561
 31
0.0
  0
LINE
  5
10C
330
70
100
AcDbEntity
  8
DETAIL
 48
0.2
100
AcDbLine
 10
371.3796516078783
 20
49.26456310826688
 30
0.0
 11
370.8796516078783
 21
49.26456310826688
 31
0.0
  0
LINE
  5
10D
330
70
100
AcDbEntity
  8
DETAIL
 48
0.2
100
AcDbLine
 10
414.4796516078768
 20
48.36456310828726
 30
0.0
 11
417.6796516078775
 21
48.36456310828726
 31
0.0
  0
LINE
  5
10E
330
70
100
AcDbEntity
  8
DETAIL
 48
0.2
100
AcDbLine
 10
-620.3203483921225
 20
48.36456310830181
 30
0.0
 11
-623.5203483921232
 21
48.36456310830181
 31
0.0
  0
LINE
  5
10F
330
70
100
AcDbEntity
  8
DETAIL
 48
0.2
100
AcDbLine
 10
371.3796516078783
 20
37.46456310827853
 30
0.0
 11
370.8796516078783
 21
37.46456310827853
 31
0.0
  0
LINE
  5
110
330
70
100
AcDbEntity
  8
DETAIL
 48
0.2
100
AcDbLine
 10
365.0605264958776
 20
29.36456310827271
 30
0.0
 11
365.5932044808778
 21
29.36456310827271
 31
0.0
  0
LINE
  5
111
330
70
100
AcDbEntity
  8
DETAIL
 48
0.2
100
AcDbLine
 10
-570.9012232801232
 20
29.36456310828544
 30
0.0
 11
-571.4339012651235
 21
29.36456310828544
 31
0.0
  0
LINE
  5
112
330
70
100
AcDbEntity
  8
DETAIL
 48
0.2
100
AcDbLine
 10
385.9796516078768
 20
19.01456310826688
 30
0.0
 11
482.8796516078782
 21
19.01456310826506
 31
0.0
  0
LINE
  5
113
330
70
100
AcDbEntity
  8
DETAIL
 48
0.2
100
AcDbLine
 10
484.0796516078789
 20
17.81456310828253
 30
0.0
 11
482.8796516078782
 21
17.81456310828253
 31
0.0
  0
LINE
  5
114
330
70
100
AcDbEntity
  8
DETAIL
 48
0.2
100
AcDbLine
 10
-576.720348392122
 20
8.364563108299989
 30
0.0
 11
-573.5203483921232
 21
8.364563108299989
 31
0.0
  0
LINE
  5
115
330
70
100
AcDbEntity
  8
DETAIL
 48
0.2
100
AcDbLine
 10
370.8796516078783
 20
8.364563108287256
 30
0.0
 11
367.6796516078775
 21
8.364563108287256
 31
0.0
  0
LINE
  5
116
330
70
100
AcDbEntity
  8
DETAIL
 48
0.2
100
AcDbLine
 10
367.6796516078775
 20
8.364563108287256
 30
0.0
 11
352.6796516078775
 21
8.364563108287256
 31
0.0
  0
LINE
  5
117
330
70
100
AcDbEntity
  8
DETAIL
 48
0.2
100
AcDbLine
 10
-558.5203483921231
 20
8.364563108299989
 30
0.0
 11
-573.5203483921232
 21
8.364563108299989
 31
0.0
  0
LINE
  5
118
330
70
100
AcDbEntity
  8
DETAIL
 48
0.2
100
AcDbLine
 10
368.7796516078761
 20
-5.435436891715653
 30
0.0
 11
368.1796516078776
 21
-5.435436891715653
 31
0.0
  0
LINE
  5
119
330
70
100
AcDbEntity
  8
DETAIL
 48
0.2
100
AcDbLine
 10
-574.6203483921217
 20
-55.58543689170619
 30
0.0
 11
-574.0203483921232
 21
-55.58543689170619
 31
0.0
  0
LINE
  5
11A
330
70
100
AcDbEntity
  8
DETAIL
 48
0.2
100
AcDbLine
 10
-574.7203483921257
 20
-302.5354368917088
 30
0.0
 11
-571.7203483921257
 21
-299.5354368917087
 31
0.0
  0
LINE
  5
11B
330
70
100
AcDbEntity
  8
DETAIL
 48
0.2
100
AcDbLine
 10
368.7796516078742
 20
-55.43543689171565
 30
0.0
 11
368.1796516078757
 21
-55.43543689171565
 31
0.0
  0
LINE
  5
11C
330
70
100
AcDbEntity
  8
DETAIL
 48
0.2
100
AcDbLine
 10
-556.8116330771227
 20
24.561393903301
 30
0.0
 11
-569.1925079651209
 21
29.06353022629082
 31
0.0
  0
LINE
  5
11D
330
70
100
AcDbEntity
  8
DETAIL
 48
0.2
100
AcDbLine
 10
375.1796516078757
 20
-130.9354368917156
 30
0.0
 11
381.479651607875
 21
-130.9354368917156
 31
0.0
  0
LINE
  5
11E
330
70
100
AcDbEntity
  8
DETAIL
 48
0.2
100
AcDbLine
 10
385.979651607875
 20
-130.9354368917156
 30
0.0
 11
381.479651607875
 21
-130.9354368917156
 31
0.0
  0
LINE
  5
11F
330
70
100
AcDbEntity
  8
DETAIL
 48
0.2
100
AcDbLine
 10
376.7796516078761
 20
-131.7354368917185
 30
0.0
 11
385.1796516078757
 21
-131.7354368917185
 31
0.0
  0
LINE
  5
120
330
70
100
AcDbEntity
  8
DETAIL
 48
0.2
100
AcDbLine
 10
372.0796516078772
 20
-132.5354368917214
 30
0.0
 11
385.1796516078757
 21
-132.5354368917214
 31
0.0
  0
LINE
  5
121
330
70
100
AcDbEntity
  8
DETAIL
 48
0.2
100
AcDbLine
 10
385.1796516078757
 20
-133.3354368917098
 30
0.0
 11
380.2796516078761
 21
-133.3354368917098
 31
0.0
  0
LINE
  5
122
330
70
100
AcDbEntity
  8
DETAIL
 48
0.2
100
AcDbLine
 10
375.1796516078757
 20
-133.3354368917098
 30
0.0
 11
368.7796516078742
 21
-133.3354368917098
 31
0.0
  0
LINE
  5
123
330
70
100
AcDbEntity
  8
DETAIL
 48
0.2
100
AcDbLine
 10
368.1796516078757
 20
-133.3354368917098
 30
0.0
 11
367.6796516078757
 21
-133.3354368917098
 31
0.0
  0
LINE
  5
124
330
70
100
AcDbEntity
  8
DETAIL
 48
0.2
100
AcDbLine
 10
-574.6203483921235
 20
-175.5854368917062
 30
0.0
 11
-574.0203483921249
 21
-175.5854368917062
 31
0.0
  0
LINE
  5
125
330
70
100
AcDbEntity
  8
DETAIL
 48
0.2
100
AcDbLine
 10
370.479651607875
 20
-140.9354368917156
 30
0.0
 11
368.7796516078742
 21
-140.9354368917156
 31
0.0
  0
LINE
  5
126
330
70
100
AcDbEntity
  8
DETAIL
 48
0.2
100
AcDbLine
 10
368.1796516078757
 20
-140.9354368917156
 30
0.0
 11
367.6796516078757
 21
-140.9354368917156
 31
0.0
  0
LINE
  5
127
330
70
100
AcDbEntity
  8
DETAIL
 48
0.2
100
AcDbLine
 10
370.479651607875
 20
-143.9354368917302
 30
0.0
 11
368.7796516078742
 21
-143.9354368917302
 31
0.0
  0
LINE
  5
128
330
70
100
AcDbEntity
  8
DETAIL
 48
0.2
100
AcDbLine
 10
368.1796516078757
 20
-143.9354368917302
 30
0.0
 11
367.6796516078757
 21
-143.9354368917302
 31
0.0
  0
LINE
  5
129
330
70
100
AcDbEntity
  8
DETAIL
 48
0.2
100
AcDbLine
 10
350.970936292877
 20
24.56139390328826
 30
0.0
 11
363.3518111808789
 21
29.06353022627809
 31
0.0
  0
LINE
  5
12A
330
70
100
AcDbEntity
  8
DETAIL
 48
0.2
100
AcDbLine
 10
368.7796516078724
 20
-175.4354368917156
 30
0.0
 11
368.1796516078739
 21
-175.4354368917156
 31
0.0
  0
LINE
  5
12B
330
70
100
AcDbEntity
  8
DETAIL
 48
0.2
100
AcDbLine
 10
-574.6203483921253
 20
-225.5854368917062
 30
0.0
 11
-574.0203483921268
 21
-225.5854368917062
 31
0.0
  0
LINE
  5
12C
330
70
100
AcDbEntity
  8
DETAIL
 48
0.2
100
AcDbLine
 10
-574.0203483921268
 20
-233.0853298667062
 30
0.0
 11
-574.6203483921253
 21
-233.0853298667062
 31
0.0
  0
LINE
  5
12D
330
70
100
AcDbEntity
  8
DETAIL
 48
0.2
100
AcDbLine
 10
368.7796516078724
 20
-225.4354368917157
 30
0.0
 11
368.1796516078739
 21
-225.4354368917157
 31
0.0
  0
LINE
  5
12E
330
70
100
AcDbEntity
  8
DETAIL
 48
0.2
100
AcDbLine
 10
369.6796516078739
 20
-241.3854368917128
 30
0.0
 11
370.4796516078732
 21
-241.3854368917128
 31
0.0
  0
LINE
  5
12F
330
70
100
AcDbEntity
  8
DETAIL
 48
0.2
100
AcDbLine
 10
484.0796516078753
 20
-241.3854368917146
 30
0.0
 11
482.8796516078746
 21
-241.3854368917146
 31
0.0
  0
LINE
  5
130
330
70
100
AcDbEntity
  8
DETAIL
 48
0.2
100
AcDbLine
 10
482.8796516078746
 20
-242.5854368917262
 30
0.0
 11
382.4796516078732
 21
-242.5854368917244
 31
0.0
  0
LINE
  5
131
330
70
100
AcDbEntity
  8
DETAIL
 48
0.2
100
AcDbLine
 10
370.4796516078732
 20
-288.4354368917156
 30
0.0
 11
367.6796516078739
 21
-288.4354368917156
 31
0.0
  0
LINE
  5
132
330
70
100
AcDbEntity
  8
DETAIL
 48
0.2
100
AcDbLine
 10
370.4796516078732
 20
-291.4354368917302
 30
0.0
 11
367.6796516078739
 21
-291.4354368917302
 31
0.0
  0
LINE
  5
133
330
70
100
AcDbEntity
  8
DETAIL
 48
0.2
100
AcDbLine
 10
-574.6203483921253
 20
-295.7354368917204
 30
0.0
 11
-574.0203483921268
 21
-295.7354368917204
 31
0.0
  0
LINE
  5
134
330
70
100
AcDbEntity
  8
DETAIL
 48
0.2
100
AcDbLine
 10
-573.5203483921268
 20
-298.7354368917058
 30
0.0
 11
-574.6203483921253
 21
-298.7354368917058
 31
0.0
  0
LINE
  5
135
330
70
100
AcDbEntity
  8
DETAIL
 48
0.2
100
AcDbLine
 10
-571.7203483921257
 20
-299.5354368917087
 30
0.0
 11
365.8796516078746
 21
-299.5354368917215
 31
0.0
  0
LINE
  5
136
330
70
100
AcDbEntity
  8
DETAIL
 48
0.2
100
AcDbLine
 10
369.6796516078739
 20
-299.5354368917215
 30
0.0
 11
370.4796516078732
 21
-299.5354368917215
 31
0.0
  0
LINE
  5
137
330
70
100
AcDbEntity
  8
DETAIL
 48
0.2
100
AcDbLine
 10
-575.5203483921268
 20
-299.5354368917087
 30
0.0
 11
-576.3203483921261
 21
-299.5354368917087
 31
0.0
  0
LINE
  5
138
330
70
100
AcDbEntity
  8
DETAIL
 48
0.2
100
AcDbLine
 10
369.6796516078739
 20
-302.5354368917215
 30
0.0
 11
370.4796516078732
 21
-302.5354368917215
 31
0.0
  0
LINE
  5
139
330
70
100
AcDbEntity
  8
DETAIL
 48
0.2
100
AcDbLine
 10
-575.5203483921268
 20
-302.5354368917088
 30
0.0
 11
-576.3203483921261
 21
-302.5354368917088
 31
0.0
  0
LINE
  5
13A
330
70
100
AcDbEntity
  8
DETAIL
 48
0.2
100
AcDbLine
 10
367.6796516078739
 20
-299.7354368917331
 30
0.0
 11
367.7145564208749
 21
-299.7348276257144
 31
0.0
  0
LINE
  5
13B
330
70
100
AcDbEntity
  8
DETAIL
 48
0.2
100
AcDbLine
 10
-571.920348392121
 20
57.16456310828835
 30
0.0
 11
-574.9203483921228
 21
60.16456310828835
 31
0.0
  0
LINE
  5
13C
330
70
100
AcDbEntity
  8
DETAIL
 48
0.2
100
AcDbLine
 10
370.4796516078713
 20
-318.1354368917273
 30
0.0
 11
379.4796516078713
 21
-318.1354368917273
 31
0.0
  0
LINE
  5
13D
330
70
100
AcDbEntity
  8
DETAIL
 48
0.2
100
AcDbLine
 10
382.4796516078714
 20
-318.9354368917302
 30
0.0
 11
372.0796516078735
 21
-318.9354368917302
 31
0.0
  0
LINE
  5
13E
330
70
100
AcDbEntity
  8
DETAIL
 48
0.2
100
AcDbLine
 10
372.0796516078735
 20
-319.7354368917331
 30
0.0
 11
382.4796516078714
 21
-319.7354368917331
 31
0.0
  0
LINE
  5
13F
330
70
100
AcDbEntity
  8
DETAIL
 48
0.2
100
AcDbLine
 10
-341.920348392121
 20
-26.43443805470452
 30
0.0
 11
-341.9203483921228
 21
-123.5364357277067
 31
0.0
  0
LINE
  5
140
330
70
100
AcDbEntity
  8
DETAIL
 48
0.2
100
AcDbLine
 10
-574.7203483921275
 20
-373.5354368917088
 30
0.0
 11
368.8796516078728
 21
-373.5354368917215
 31
0.0
  0
LINE
  5
141
330
70
100
AcDbEntity
  8
DETAIL
 48
0.2
100
AcDbLine
 10
378.4796516078768
 20
77.8645631082727
 30
0.0
 11
381.4796516078768
 21
80.86456310828726
 31
0.0
  0
LINE
  5
142
330
70
100
AcDbEntity
  8
DETAIL
 48
0.2
100
AcDbLine
 10
369.079651607879
 20
60.16456310827561
 30
0.0
 11
366.0796516078772
 21
57.16456310827561
 31
0.0
  0
LINE
  5
143
330
70
100
AcDbEntity
  8
DETAIL
 48
0.2
100
AcDbLine
 10
367.8796516078764
 20
-144.3854368917273
 30
0.0
 11
367.6796516078757
 21
-144.5854368917098
 31
0.0
  0
LINE
  5
144
330
70
100
AcDbEntity
  8
DETAIL
 48
0.2
100
AcDbLine
 10
-553.5203483921232
 20
13.36456310829999
 30
0.0
 11
-553.5203483921232
 21
19.86242678529561
 31
0.0
  0
LINE
  5
145
330
70
100
AcDbEntity
  8
DETAIL
 48
0.2
100
AcDbLine
 10
-555.9203483921209
 20
-26.4343236987097
 30
0.0
 11
-555.9203483921228
 21
-123.5365500837124
 31
0.0
  0
LINE
  5
146
330
70
100
AcDbEntity
  8
DETAIL
 48
0.2
100
AcDbLine
 10
-573.5203483921232
 20
58.76456310829417
 30
0.0
 11
-573.5203483921232
 21
51.96456310829126
 31
0.0
  0
LINE
  5
147
330
70
100
AcDbEntity
  8
DETAIL
 48
0.2
100
AcDbLine
 10
-573.5203483921232
 20
51.96456310829126
 30
0.0
 11
-573.5203483921232
 21
8.364563108299989
 31
0.0
  0
LINE
  5
148
330
70
100
AcDbEntity
  8
DETAIL
 48
0.2
100
AcDbLine
 10
-573.5203483921232
 20
8.364563108299989
 30
0.0
 11
-573.5203483921268
 21
-301.3354368917116
 31
0.0
  0
LINE
  5
149
330
70
100
AcDbEntity
  8
DETAIL
 48
0.2
100
AcDbLine
 10
-574.0203483921232
 20
54.44083695028712
 30
0.0
 11
-574.0203483921232
 21
56.6645631083029
 31
0.0
  0
LINE
  5
14A
330
70
100
AcDbEntity
  8
DETAIL
 48
0.2
100
AcDbLine
 10
-574.0203483921232
 20
8.364563108299989
 30
0.0
 11
-574.0203483921268
 21
-298.7354368917058
 31
0.0
  0
LINE
  5
14B
330
70
100
AcDbEntity
  8
DETAIL
 48
0.2
100
AcDbLine
 10
-574.6203483921217
 20
56.6645631083029
 30
0.0
 11
-574.6203483921217
 21
55.54905329229405
 31
0.0
  0
LINE
  5
14C
330
70
100
AcDbEntity
  8
DETAIL
 48
0.2
100
AcDbLine
 10
-574.6203483921217
 20
-32.23543689170038
 30
0.0
 11
-574.6203483921253
 21
-225.5854368917062
 31
0.0
  0
LINE
  5
14D
330
70
100
AcDbEntity
  8
DETAIL
 48
0.2
100
AcDbLine
 10
-574.6203483921253
 20
-184.9854368917058
 30
0.0
 11
-574.6203483921253
 21
-298.7354368917058
 31
0.0
  0
LINE
  5
14E
330
70
100
AcDbEntity
  8
DETAIL
 48
0.2
100
AcDbLine
 10
-574.7203483921257
 20
-302.5354368917088
 30
0.0
 11
-574.7203483921275
 21
-373.5354368917088
 31
0.0
  0
LINE
  5
14F
330
70
100
AcDbEntity
  8
DETAIL
 48
0.2
100
AcDbLine
 10
-574.9203483921228
 20
85.16456310828834
 30
0.0
 11
-574.9203483921228
 21
60.16456310828835
 31
0.0
  0
LINE
  5
150
330
70
100
AcDbEntity
  8
DETAIL
 48
0.2
100
AcDbLine
 10
-575.5203483921286
 20
-371.9354368917029
 30
0.0
 11
-575.5203483921268
 21
-299.5354368917087
 31
0.0
  0
LINE
  5
151
330
70
100
AcDbEntity
  8
DETAIL
 48
0.2
100
AcDbLine
 10
-575.5203483921231
 20
83.96456310829126
 30
0.0
 11
-575.5203483921231
 21
57.16456310828835
 31
0.0
  0
LINE
  5
152
330
70
100
AcDbEntity
  8
DETAIL
 48
0.2
100
AcDbLine
 10
-576.1203483921217
 20
83.96456310829126
 30
0.0
 11
-576.1203483921217
 21
57.16456310828835
 31
0.0
  0
LINE
  5
153
330
70
100
AcDbEntity
  8
DETAIL
 48
0.2
100
AcDbLine
 10
-576.3203483921261
 20
-299.5354368917087
 30
0.0
 11
-576.3203483921279
 21
-371.9354368917029
 31
0.0
  0
LINE
  5
154
330
70
100
AcDbEntity
  8
DETAIL
 48
0.2
100
AcDbLine
 10
-576.720348392122
 20
8.364563108299989
 30
0.0
 11
-576.720348392122
 21
51.96456310829126
 31
0.0
  0
LINE
  5
155
330
70
100
AcDbEntity
  8
DETAIL
 48
0.2
100
AcDbLine
 10
-620.3203483921225
 20
65.16456310829017
 30
0.0
 11
-620.3203483921225
 21
61.5645631082989
 31
0.0
  0
LINE
  5
156
330
70
100
AcDbEntity
  8
DETAIL
 48
0.2
100
AcDbLine
 10
-620.3203483921225
 20
51.96456310829308
 30
0.0
 11
-620.3203483921225
 21
48.36456310830181
 31
0.0
  0
LINE
  5
157
330
70
100
AcDbEntity
  8
DETAIL
 48
0.2
100
AcDbLine
 10
-623.5203483921232
 20
65.16456310829017
 30
0.0
 11
-623.5203483921232
 21
61.5645631082989
 31
0.0
  0
LINE
  5
158
330
70
100
AcDbEntity
  8
DETAIL
 48
0.2
100
AcDbLine
 10
-623.5203483921232
 20
51.96456310829308
 30
0.0
 11
-623.5203483921232
 21
48.36456310830181
 31
0.0
  0
LINE
  5
159
330
70
100
AcDbEntity
  8
DETAIL
 48
0.2
100
AcDbLine
 10
382.4796516078714
 20
-315.1354368917127
 30
0.0
 11
379.4796516078713
 21
-318.1354368917273
 31
0.0
  0
ARC
  5
15A
330
70
100
AcDbEntity
  8
DETAIL
 48
0.2
100
AcDbCircle
 10
411.279651607876
 20
61.56456310828435
 30
0.0
 40
6.4
100
AcDbArc
 50
311.3435448479322
 51
0.0
  0
ARC
  5
15B
330
70
100
AcDbEntity
  8
DETAIL
 48
0.2
100
AcDbCircle
 10
411.279651607876
 20
51.96456310827852
 30
0.0
 40
6.4
100
AcDbArc
 50
0.0
 51
90.0
  0
ARC
  5
15C
330
70
100
AcDbEntity
  8
DETAIL
 48
0.2
100
AcDbCircle
 10
411.279651607876
 20
51.96456310827852
 30
0.0
 40
3.2
100
AcDbArc
 50
0.0
 51
90.0
  0
ARC
  5
15D
330
70
100
AcDbEntity
  8
DETAIL
 48
0.2
100
AcDbCircle
 10
411.279651607876
 20
61.56456310828435
 30
0.0
 40
3.2
100
AcDbArc
 50
270.0
 51
0.0
  0
ARC
  5
15E
330
70
100
AcDbEntity
  8
DETAIL
 48
0.2
100
AcDbCircle
 10
365.9854208388769
 20
43.36456310828725
 30
0.0
 40
7.994230769
100
AcDbArc
 50
312.4359391537181
 51
47.56406084628191
  0
ARC
  5
15F
330
70
100
AcDbEntity
  8
DETAIL
 48
0.2
100
AcDbCircle
 10
374.079651607879
 20
51.96456310827852
 30
0.0
 40
6.4
100
AcDbArc
 50
90.0
 51
180.0
  0
ARC
  5
160
330
70
100
AcDbEntity
  8
DETAIL
 48
0.2
100
AcDbCircle
 10
374.079651607879
 20
51.96456310827852
 30
0.0
 40
3.2
100
AcDbArc
 50
90.0
 51
180.0
  0
ARC
  5
161
330
70
100
AcDbEntity
  8
DETAIL
 48
0.2
100
AcDbCircle
 10
374.3796516078782
 20
85.86456310828726
 30
0.0
 40
1.6
100
AcDbArc
 50
0.0
 51
90.0
  0
ARC
  5
162
330
70
100
AcDbEntity
  8
DETAIL
 48
0.2
100
AcDbCircle
 10
369.079651607879
 20
83.96456310827852
 30
0.0
 40
1.199999999999999
100
AcDbArc
 50
0.0
 51
90.0
  0
ARC
  5
163
330
70
100
AcDbEntity
  8
DETAIL
 48
0.2
100
AcDbCircle
 10
354.9796516078768
 20
86.66456310829017
 30
0.0
 40
0.8
100
AcDbArc
 50
90.0
 51
270.0
  0
ARC
  5
164
330
70
100
AcDbEntity
  8
DETAIL
 48
0.2
100
AcDbCircle
 10
369.079651607879
 20
83.96456310827852
 30
0.0
 40
0.6
100
AcDbArc
 50
0.0
 51
90.0
  0
ARC
  5
165
330
70
100
AcDbEntity
  8
DETAIL
 48
0.2
100
AcDbCircle
 10
482.079651607879
 20
17.01456310827962
 30
0.0
 40
1.4
100
AcDbArc
 50
34.87677883992792
 51
55.12322115992698
  0
ARC
  5
166
330
70
100
AcDbEntity
  8
DETAIL
 48
0.2
100
AcDbCircle
 10
352.6796516078775
 20
19.86242678528288
 30
0.0
 40
5.0
100
AcDbArc
 50
109.9831065219356
 51
180.0
  0
ARC
  5
167
330
70
100
AcDbEntity
  8
DETAIL
 48
0.2
100
AcDbCircle
 10
365.0605264958776
 20
24.36456310827271
 30
0.0
 40
5.0
100
AcDbArc
 50
90.0
 51
109.9831065219356
  0
ARC
  5
168
330
70
100
AcDbEntity
  8
DETAIL
 48
0.2
100
AcDbCircle
 10
352.6796516078775
 20
13.36456310828725
 30
0.0
 40
5.0
100
AcDbArc
 50
180.0
 51
270.0
  0
ARC
  5
169
330
70
100
AcDbEntity
  8
DETAIL
 48
0.2
100
AcDbCircle
 10
243.0796516098762
 20
-74.98548824171485
 30
0.0
 40
117.499944326
100
AcDbArc
 50
24.40608269364142
 51
155.5938665284013
  0
ARC
  5
16A
330
70
100
AcDbEntity
  8
DETAIL
 48
0.2
100
AcDbCircle
 10
243.0796516098762
 20
-74.98538554072911
 30
0.0
 40
117.499944326
100
AcDbArc
 50
204.4061334715987
 51
335.5939173063586
  0
CIRCLE
  5
16B
330
70
100
AcDbEntity
  8
DETAIL
 48
0.2
100
AcDbCircle
 10
243.0796516078772
 20
-74.98543689171675
 30
0.0
 40
104.0
  0
CIRCLE
  5
16C
330
70
100
AcDbEntity
  8
DETAIL
 48
0.2
100
AcDbCircle
 10
243.0796516078772
 20
-74.98543689171675
 30
0.0
 40
96.0
  0
CIRCLE
  5
16D
330
70
100
AcDbEntity
  8
DETAIL
 48
0.2
100
AcDbCircle
 10
243.0796516078772
 20
-74.98543689171675
 30
0.0
 40
93.8
  0
ARC
  5
16E
330
70
100
AcDbEntity
  8
DETAIL
 48
0.2
100
AcDbCircle
 10
365.0571516078762
 20
-153.7854368917215
 30
0.0
 40
6.522499999999999
100
AcDbArc
 50
33.58290862848684
 51
44.79541294819723
  0
ARC
  5
16F
330
70
100
AcDbEntity
  8
DETAIL
 48
0.2
100
AcDbCircle
 10
365.0571516078762
 20
-153.7854368917215
 30
0.0
 40
6.522499999999999
100
AcDbArc
 50
315.2045870518028
 51
326.4170913715132
  0
ARC
  5
170
330
70
100
AcDbEntity
  8
DETAIL
 48
0.2
100
AcDbCircle
 10
376.7796516078761
 20
-130.9354368917156
 30
0.0
 40
1.6
100
AcDbArc
 50
180.0
 51
270.0
  0
ARC
  5
171
330
70
100
AcDbEntity
  8
DETAIL
 48
0.2
100
AcDbCircle
 10
376.7796516078761
 20
-130.9354368917156
 30
0.0
 40
0.8
100
AcDbArc
 50
180.0
 51
270.0
  0
ARC
  5
172
330
70
100
AcDbEntity
  8
DETAIL
 48
0.2
100
AcDbCircle
 10
385.1796516078757
 20
-132.5354368917214
 30
0.0
 40
0.8
100
AcDbArc
 50
270.0
 51
90.0
  0
ARC
  5
173
330
70
100
AcDbEntity
  8
DETAIL
 48
0.2
100
AcDbCircle
 10
-617.1203483921217
 20
61.5645631082989
 30
0.0
 40
6.4
100
AcDbArc
 50
180.0
 51
228.6564551520679
  0
ARC
  5
174
330
70
100
AcDbEntity
  8
DETAIL
 48
0.2
100
AcDbCircle
 10
-617.1203483921217
 20
51.96456310829308
 30
0.0
 40
6.4
100
AcDbArc
 50
90.0
 51
180.0
  0
ARC
  5
175
330
70
100
AcDbEntity
  8
DETAIL
 48
0.2
100
AcDbCircle
 10
-579.9203483921228
 20
51.96456310829126
 30
0.0
 40
6.4
100
AcDbArc
 50
0.0
 51
90.0
  0
ARC
  5
176
330
70
100
AcDbEntity
  8
DETAIL
 48
0.2
100
AcDbCircle
 10
-570.9012232801232
 20
24.36456310828544
 30
0.0
 40
5.0
100
AcDbArc
 50
70.0168934780644
 51
90.0
  0
ARC
  5
177
330
70
100
AcDbEntity
  8
DETAIL
 48
0.2
100
AcDbCircle
 10
-558.5203483921231
 20
19.86242678529561
 30
0.0
 40
5.0
100
AcDbArc
 50
0.0
 51
70.0168934780644
  0
ARC
  5
178
330
70
100
AcDbEntity
  8
DETAIL
 48
0.2
100
AcDbCircle
 10
-558.5203483921231
 20
13.36456310829999
 30
0.0
 40
5.0
100
AcDbArc
 50
270.0
 51
0.0
  0
ARC
  5
179
330
70
100
AcDbEntity
  8
DETAIL
 48
0.2
100
AcDbCircle
 10
-617.1203483921217
 20
51.96456310829308
 30
0.0
 40
3.2
100
AcDbArc
 50
90.0
 51
180.0
  0
ARC
  5
17A
330
70
100
AcDbEntity
  8
DETAIL
 48
0.2
100
AcDbCircle
 10
-579.9203483921228
 20
51.96456310829126
 30
0.0
 40
3.2
100
AcDbArc
 50
0.0
 51
90.0
  0
ARC
  5
17B
330
70
100
AcDbEntity
  8
DETAIL
 48
0.2
100
AcDbCircle
 10
-617.1203483921217
 20
61.5645631082989
 30
0.0
 40
3.2
100
AcDbArc
 50
180.0
 51
270.0
  0
ARC
  5
17C
330
70
100
AcDbEntity
  8
DETAIL
 48
0.2
100
AcDbCircle
 10
-574.9203483921228
 20
83.96456310829126
 30
0.0
 40
1.199999999999999
100
AcDbArc
 50
90.0
 51
180.0
  0
ARC
  5
17D
330
70
100
AcDbEntity
  8
DETAIL
 48
0.2
100
AcDbCircle
 10
-574.9203483921228
 20
83.96456310829126
 30
0.0
 40
0.6
100
AcDbArc
 50
90.0
 51
180.0
  0
ARC
  5
17E
330
70
100
AcDbEntity
  8
DETAIL
 48
0.2
100
AcDbCircle
 10
-448.9203483901238
 20
-74.98548824170575
 30
0.0
 40
117.499944326
100
AcDbArc
 50
24.40608269364142
 51
155.5938665284013
  0
ARC
  5
17F
330
70
100
AcDbEntity
  8
DETAIL
 48
0.2
100
AcDbCircle
 10
-448.9203483901238
 20
-74.98538554072002
 30
0.0
 40
117.499944326
100
AcDbArc
 50
204.4061334715987
 51
335.5939173063586
  0
CIRCLE
  5
180
330
70
100
AcDbEntity
  8
DETAIL
 48
0.2
100
AcDbCircle
 10
-448.9203483921228
 20
-74.98543689170765
 30
0.0
 40
104.0
  0
CIRCLE
  5
181
330
70
100
AcDbEntity
  8
DETAIL
 48
0.2
100
AcDbCircle
 10
-448.9203483921228
 20
-74.98543689170765
 30
0.0
 40
96.0
  0
CIRCLE
  5
182
330
70
100
AcDbEntity
  8
DETAIL
 48
0.2
100
AcDbCircle
 10
-448.9203483921228
 20
-74.98543689170765
 30
0.0
 40
93.8
  0
ARC
  5
183
330
70
100
AcDbEntity
  8
DETAIL
 48
0.2
100
AcDbCircle
 10
367.6796516078739
 20
-297.7351322357172
 30
0.0
 40
2.0
100
AcDbArc
 50
270.999999999871
 51
0.0
  0
ARC
  5
184
330
70
100
AcDbEntity
  8
DETAIL
 48
0.2
100
AcDbCircle
 10
372.0796516078735
 20
-318.1354368917273
 30
0.0
 40
1.6
100
AcDbArc
 50
180.0
 51
270.0
  0
ARC
  5
185
330
70
100
AcDbEntity
  8
DETAIL
 48
0.2
100
AcDbCircle
 10
482.0796516078753
 20
-240.5854368917117
 30
0.0
 40
1.4
100
AcDbArc
 50
304.876778840073
 51
325.1232211600721
  0
ARC
  5
186
330
70
100
AcDbEntity
  8
DETAIL
 48
0.2
100
AcDbCircle
 10
372.0796516078735
 20
-318.1354368917273
 30
0.0
 40
0.8
100
AcDbArc
 50
180.0
 51
270.0
  0
ARC
  5
187
330
70
100
AcDbEntity
  8
DETAIL
 48
0.2
100
AcDbCircle
 10
368.8796516078728
 20
-371.9354368917156
 30
0.0
 40
1.6
100
AcDbArc
 50
270.0
 51
0.0
  0
ARC
  5
188
330
70
100
AcDbEntity
  8
DETAIL
 48
0.2
100
AcDbCircle
 10
368.8796516078728
 20
-371.9354368917156
 30
0.0
 40
0.8
100
AcDbArc
 50
270.0
 51
0.0
  0
ARC
  5
189
330
70
100
AcDbEntity
  8
DETAIL
 48
0.2
100
AcDbCircle
 10
-574.7203483921275
 20
-371.9354368917029
 30
0.0
 40
1.6
100
AcDbArc
 50
180.0
 51
270.0
  0
ARC
  5
18A
330
70
100
AcDbEntity
  8
DETAIL
 48
0.2
100
AcDbCircle
 10
-574.7203483921275
 20
-371.9354368917029
 30
0.0
 40
0.8
100
AcDbArc
 50
180.0
 51
270.0
  0
SPLINE
  5
18B
330
70
100
AcDbEntity
  8
DETAIL
 48
0.2
100
AcDbSpline
210
0.0
220
0.0
230
1.0
 70
     8
 71
     3
 72
    19
 73
    15
 74
     0
 42
0.0000001
 43
0.0000000001
 40
0.0
 40
0.0
 40
0.0
 40
0.0
 40
0.125
 40
0.25
 40
0.3125
 40
0.375
 40
0.4375
 40
0.5
 40
0.5625
 40
0.625
 40
0.6875
 40
0.75
 40
0.875
 40
1.0
 40
1.0
 40
1.0
 40
1.0
 10
373.9586215668769
 20
42.95480968027186
 30
0.0
 10
373.9600293168787
 20
42.96957502627265
 30
0.0
 10
373.9629555898773
 20
42.9988386322766
 30
0.0
 10
373.9660595708774
 20
43.03675356728127
 30
0.0
 10
373.9683934088771
 20
43.06433880528129
 30
0.0
 10
373.9702679158781
 20
43.09249544927661
 30
0.0
 10
373.9720556768789
 20
43.12177743926804
 30
0.0
 10
373.9742338378765
 20
43.15390175327411
 30
0.0
 10
373.9749371418784
 20
43.17353142727734
 30
0.0
 10
373.9760490618774
 20
43.1960082382684
 30
0.0
 10
373.9770013768775
 20
43.21959114228593
 30
0.0
 10
373.9781184998774
 20
43.26108619827937
 30
0.0
 10
373.9793372798776
 20
43.30885540827511
 30
0.0
 10
373.9794772438781
 20
43.34589596527439
 30
0.0
 10
373.9796516078768
 20
43.36456309527784
 30
0.0
  0
SPLINE
  5
18C
330
70
100
AcDbEntity
  8
DETAIL
 48
0.2
100
AcDbSpline
210
0.0
220
0.0
230
1.0
 70
     8
 71
     3
 72
    21
 73
    17
 74
     0
 42
0.0000001
 43
0.0000000001
 40
0.0
 40
0.0
 40
0.0
 40
0.0
 40
0.125
 40
0.1875
 40
0.25
 40
0.3125
 40
0.375
 40
0.4375
 40
0.5
 40
0.5625
 40
0.625
 40
0.6875
 40
0.75
 40
0.8125
 40
0.875
 40
1.0
 40
1.0
 40
1.0
 40
1.0
 10
373.578689277876
 20
41.59679615526329
 30
0.0
 10
373.6012824398768
 20
41.64865035528419
 30
0.0
 10
373.6353109018764
 20
41.72564975526984
 30
0.0
 10
373.6801273118781
 20
41.83144321727377
 30
0.0
 10
373.7115966768779
 20
41.91907092828114
 30
0.0
 10
373.7448550078789
 20
42.00420758327163
 30
0.0
 10
373.7731004138786
 20
42.09102584428547
 30
0.0
 10
373.7991635488779
 20
42.17711250227512
 30
0.0
 10
373.8287461928776
 20
42.2661958482895
 30
0.0
 10
373.8464330708775
 20
42.34402404428329
 30
0.0
 10
373.8674924158786
 20
42.42435970628503
 30
0.0
 10
373.8869576598772
 20
42.50592065728779
 30
0.0
 10
373.9031479328787
 20
42.59575035728267
 30
0.0
 10
373.9214743768771
 20
42.68263452328028
 30
0.0
 10
373.9388833528774
 20
42.80316459328969
 30
0.0
 10
373.9505395438773
 20
42.89424235326805
 30
0.0
 10
373.9586215688778
 20
42.95480970327844
 30
0.0
  0
SPLINE
  5
18D
330
70
100
AcDbEntity
  8
DETAIL
 48
0.2
100
AcDbSpline
210
0.0
220
0.0
230
1.0
 70
     8
 71
     3
 72
    19
 73
    15
 74
     0
 42
0.0000001
 43
0.0000000001
 40
0.0
 40
0.0
 40
0.0
 40
0.0
 40
0.125
 40
0.25
 40
0.3125
 40
0.375
 40
0.4375
 40
0.5
 40
0.5625
 40
0.625
 40
0.6875
 40
0.75
 40
0.875
 40
1.0
 40
1.0
 40
1.0
 40
1.0
 10
373.9796516078768
 20
43.36456310828725
 30
0.0
 10
373.9795420258779
 20
43.37936176827861
 30
0.0
 10
373.9794607218773
 20
43.40869838127036
 30
0.0
 10
373.9786697898781
 20
43.44667267327531
 30
0.0
 10
373.9781696638784
 20
43.47430496828383
 30
0.0
 10
373.9771528368783
 20
43.50248362127968
 30
0.0
 10
373.9759341308781
 20
43.53178021427811
 30
0.0
 10
373.9748134258789
 20
43.56393166427369
 30
0.0
 10
373.9735025968784
 20
43.58354574828626
 30
0.0
 10
373.972307441878
 20
43.60602042327445
 30
0.0
 10
373.970839714877
 20
43.62959010127451
 30
0.0
 10
373.967700146879
 20
43.67103325728021
 30
0.0
 10
373.9640187888781
 20
43.71873927327032
 30
0.0
 10
373.960361272877
 20
43.75568956328424
 30
0.0
 10
373.9586215678774
 20
43.77431652327868
 30
0.0
  0
SPLINE
  5
18E
330
70
100
AcDbEntity
  8
DETAIL
 48
0.2
100
AcDbSpline
210
0.0
220
0.0
230
1.0
 70
     8
 71
     3
 72
    23
 73
    19
 74
     0
 42
0.0000001
 43
0.0000000001
 40
0.0
 40
0.0
 40
0.0
 40
0.0
 40
0.125
 40
0.15625
 40
0.1875
 40
0.25
 40
0.3125
 40
0.375
 40
0.4375
 40
0.5
 40
0.5625
 40
0.625
 40
0.65625
 40
0.6875
 40
0.75
 40
0.8125
 40
0.875
 40
1.0
 40
1.0
 40
1.0
 40
1.0
 10
373.9586215668769
 20
43.77431653727763
 30
0.0
 10
373.9515911068775
 20
43.82834773027207
 30
0.0
 10
373.9421977778784
 20
43.89660165327586
 30
0.0
 10
373.9327415458774
 20
43.97636156528824
 30
0.0
 10
373.9225637658765
 20
44.03411040326682
 30
0.0
 10
373.9081498118776
 20
44.10789797227699
 30
0.0
 10
373.892849390877
 20
44.19583074627371
 30
0.0
 10
373.8722704408774
 20
44.28365031927751
 30
0.0
 10
373.8500176058788
 20
44.37027036127619
 30
0.0
 10
373.8293430028771
 20
44.46066940627861
 30
0.0
 10
373.8040293588765
 20
44.53715197127531
 30
0.0
 10
373.783459811877
 20
44.60454709028636
 30
0.0
 10
373.7680633188775
 20
44.65663826927993
 30
0.0
 10
373.7480101218771
 20
44.71310139228807
 30
0.0
 10
373.7209256808764
 20
44.78518687028191
 30
0.0
 10
373.6908478248788
 20
44.87070597229103
 30
0.0
 10
373.6421237718769
 20
44.98676259527201
 30
0.0
 10
373.6038295828785
 20
45.074148938289
 30
0.0
 10
373.578689267877
 20
45.13233008328461
 30
0.0
  0
SPLINE
  5
18F
330
70
100
AcDbEntity
  8
DETAIL
 48
0.2
100
AcDbSpline
210
0.0
220
0.0
230
1.0
 70
     8
 71
     3
 72
    14
 73
    10
 74
     0
 42
0.0000001
 43
0.0000000001
 40
0.0
 40
0.0
 40
0.0
 40
0.0
 40
0.1421331441
 40
0.2676787152
 40
0.374996645
 40
0.4727944380000001
 40
0.5789719152
 40
0.7038343848000001
 40
1.0
 40
1.0
 40
1.0
 40
1.0
 10
-571.4339012651235
 20
29.36456310828544
 30
0.0
 10
-571.6275427991222
 20
29.36456310828544
 30
0.0
 10
-571.9925033541222
 20
29.36866618229578
 30
0.0
 10
-572.5015348131218
 20
29.42034602029344
 30
0.0
 10
-572.9380001241224
 20
29.56198856328592
 30
0.0
 10
-573.2611764151224
 20
29.85980878429291
 30
0.0
 10
-573.4286102591231
 20
30.28599750929607
 30
0.0
 10
-573.5262402101234
 20
30.99918304429775
 30
0.0
 10
-573.5198083971209
 20
31.57449152030495
 30
0.0
 10
-573.5202572381222
 20
31.97798592729123
 30
0.0
  0
SPLINE
  5
190
330
70
100
AcDbEntity
  8
DETAIL
 48
0.2
100
AcDbSpline
210
0.0
220
0.0
230
1.0
 70
     8
 71
     3
 72
    14
 73
    10
 74
     0
 42
0.0000001
 43
0.0000000001
 40
0.0
 40
0.0
 40
0.0
 40
0.0
 40
0.1421331441
 40
0.2676787152
 40
0.374996645
 40
0.4727944380000001
 40
0.5789719152
 40
0.7038343848000001
 40
1.0
 40
1.0
 40
1.0
 40
1.0
 10
365.5932044808778
 20
29.36456310827271
 30
0.0
 10
365.7868460148766
 20
29.36456310827271
 30
0.0
 10
366.1518065698783
 20
29.36866618228305
 30
0.0
 10
366.6608380288762
 20
29.42034602028071
 30
0.0
 10
367.0973033388782
 20
29.56198856327319
 30
0.0
 10
367.4204796308786
 20
29.85980878428018
 30
0.0
 10
367.5879134748775
 20
30.28599750928334
 30
0.0
 10
367.6855434258778
 20
30.99918304428502
 30
0.0
 10
367.679111612877
 20
31.57449152029221
 30
0.0
 10
367.6795604538765
 20
31.9779859272785
 30
0.0
  0
LINE
  5
191
330
70
100
AcDbEntity
  8
BASIS
  6
CENTER
 48
0.2
100
AcDbLine
 10
-102.920348392121
 20
140.2829714470936
 30
0.0
 11
-102.9203483921301
 21
-446.311396931218
 31
0.0
1001
GENIUS_GENODEF_13
1002
{
1000
HIER
1070
     0
1002
}
1002
{
1000
MANEDIT
1070
     0
1002
}
1002
{
1000
NOSEL
1070
     0
1002
}
1002
{
1000
BEHIND
1070
     0
1002
}
1002
{
1000
OTHER
1070
     0
1002
}
1002
{
1000
REACTOR
1002
}
1001
GENIUS_GENOBJ-N-CEN_13
1002
{
1000
OWNER
1000
GEN
1002
}
1001
GENIUS_GENCEN_19
1002
{
1040
5.0
1002
}
  0
LINE
  5
194
330
70
100
AcDbEntity
  8
NOTE
  6
CENTER
 48
0.1
100
AcDbLine
 10
-448.920348392121
 20
62.95573945398428
 30
0.0
 11
-448.9203483921246
 21
-214.8308306954168
 31
0.0
1001
GENIUS_GENODEF_13
1002
{
1000
HIER
1070
     0
1002
}
1002
{
1000
MANEDIT
1070
     0
1002
}
1002
{
1000
NOSEL
1070
     0
1002
}
1002
{
1000
BEHIND
1070
     0
1002
}
1002
{
1000
OTHER
1070
     0
1002
}
1002
{
1000
REACTOR
1002
}
1001
GENIUS_GENOBJ-N-CEN_13
1002
{
1000
OWNER
1000
GEN
1002
}
1001
GENIUS_GENCEN_19
1002
{
1040
5.0
1002
}
  0
LINE
  5
197
330
70
100
AcDbEntity
  8
NOTE
  6
CENTER
 48
0.1
100
AcDbLine
 10
243.0796516098781
 20
51.01646806927056
 30
0.0
 11
243.0796516098744
 21
-209.5813278474361
 31
0.0
1001
GENIUS_GENODEF_13
1002
{
1000
HIER
1070
     0
1002
}
1002
{
1000
MANEDIT
1070
     0
1002
}
1002
{
1000
NOSEL
1070
     0
1002
}
1002
{
1000
BEHIND
1070
     0
1002
}
1002
{
1000
OTHER
1070
     0
1002
}
1002
{
1000
REACTOR
1002
}
1001
GENIUS_GENOBJ-N-CEN_13
1002
{
1000
OWNER
1000
GEN
1002
}
1001
GENIUS_GENCEN_19
1002
{
1040
5.0
1002
}
  0
LINE
  5
198
330
70
100
AcDbEntity
  8
BASIS
  6
CENTER
 48
0.2
100
AcDbLine
 10
357.6432340233914
 20
-74.98538554073093
 30
0.0
 11
-568.9511243398283
 21
-74.9853855407182
 31
0.0
1001
GENIUS_GENODEF_13
1002
{
1000
HIER
1070
     0
1002
}
1002
{
1000
MANEDIT
1070
     0
1002
}
1002
{
1000
NOSEL
1070
     0
1002
}
1002
{
1000
BEHIND
1070
     0
1002
}
1002
{
1000
OTHER
1070
     0
1002
}
1002
{
1000
REACTOR
1002
}
1001
GENIUS_GENOBJ-N-CEN_13
1002
{
1000
OWNER
1000
GEN
1002
}
1001
GENIUS_GENCEN_19
1002
{
1040
5.0
1002
}
  0
LINE
  5
199
330
70
100
AcDbEntity
  8
DETAIL
 48
0.2
100
AcDbLine
 10
214.6454764118717
 20
-438.3369073507201
 30
0.0
 11
211.678314305871
 21
-438.0348660897197
 31
0.0
  0
LINE
  5
19A
330
70
100
AcDbEntity
  8
DETAIL
 48
0.2
100
AcDbLine
 10
211.678314305871
 20
-438.0348660897197
 30
0.0
 11
210.4775708078705
 21
-437.9153155057192
 31
0.0
  0
LINE
  5
19B
330
70
100
AcDbEntity
  8
DETAIL
 48
0.2
100
AcDbLine
 10
210.4775708078705
 20
-437.9153155057192
 30
0.0
 11
209.5786693948721
 21
-437.8289594777197
 31
0.0
  0
LINE
  5
19C
330
70
100
AcDbEntity
  8
DETAIL
 48
0.2
100
AcDbLine
 10
215.544995953871
 20
-438.42332628672
 30
0.0
 11
214.6454764118717
 21
-438.3369073507201
 31
0.0
  0
LINE
  5
19D
330
70
100
AcDbEntity
  8
DETAIL
 48
0.2
100
AcDbLine
 10
209.5786693948721
 20
-437.8289594777197
 30
0.0
 11
208.5783861198724
 21
-437.7366830047194
 31
0.0
  0
LWPOLYLINE
  5
19E
330
70
100
AcDbEntity
  8
DETAIL
 48
0.2
100
AcDbPolyline
 90
        7
 70
     0
 43
0.0
 10
208.5783861198724
 20
-437.7366830047194
 10
207.4413786298719
 20
-437.6371191297202
 10
206.8113062788725
 20
-437.5844738067189
 10
206.1427611368708
 20
-437.5306085767205
 10
205.4386662408724
 20
-437.4761010117199
 10
204.7036825248724
 20
-437.4216293707195
 10
203.9463363408722
 20
-437.368085403721
  0
LWPOLYLINE
  5
19F
330
70
100
AcDbEntity
  8
DETAIL
 48
0.2
100
AcDbPolyline
 90
       80
 70
     0
 43
0.0
 10
203.9463363408722
 20
-437.368085403721
 10
201.7677976478735
 20
-437.2220984007181
 10
200.1517912818708
 20
-437.1115919307176
 10
198.5756276348729
 20
-437.0012271627183
 10
197.0391068588724
 20
-436.8911115197188
 10
195.5420643918733
 20
-436.7813529597188
 10
194.0842373428713
 20
-436.6720476997179
 10
192.6652999528742
 20
-436.5632825917182
 10
191.284896073872
 20
-436.4551398617186
 10
189.9426047848719
 20
-436.3476920497178
 10
188.6380138388722
 20
-436.2410077507193
 10
187.3706321328718
 20
-436.1351474007169
 10
186.1399040948708
 20
-436.0301623387167
 10
184.9452552828734
 20
-435.926097436717
 10
183.7860665268708
 20
-435.822990829718
 10
182.6616904878719
 20
-435.7208752297192
 10
181.5714621708721
 20
-435.6197769477184
 10
180.5147043908728
 20
-435.5197170097181
 10
179.4907122158729
 20
-435.420711620718
 10
178.498742418873
 20
-435.3227689767191
 10
177.5381852568716
 20
-435.2259058237177
 10
176.6083546748723
 20
-435.1301284017172
 10
175.7086691528711
 20
-435.0354516827174
 10
174.8385146658729
 20
-434.9418838067176
 10
173.9972771548709
 20
-434.8494292257182
 10
173.1843361538722
 20
-434.7580895017181
 10
172.3990439138724
 20
-434.6678609697192
 10
171.6407662878719
 20
-434.5787375927175
 10
170.9088674968734
 20
-434.4907091607183
 10
170.2027145298707
 20
-434.4037630547172
 10
169.5216589278716
 20
-434.3178822267182
 10
168.8650162918711
 20
-434.2330405147186
 10
168.2323146818708
 20
-434.1492350127191
 10
167.6229915418735
 20
-434.066448565718
 10
167.0365979798735
 20
-433.9846782257191
 10
166.4726527848725
 20
-433.9039143707177
 10
165.930629003873
 20
-433.8241377487174
 10
165.4100152638712
 20
-433.7453280297177
 10
164.9102354368733
 20
-433.6674530327181
 10
164.4307363158732
 20
-433.5904806027174
 10
163.9708757878725
 20
-433.5143590187181
 10
163.5300505528721
 20
-433.4390364047176
 10
163.1075791068724
 20
-433.3644407737192
 10
162.7027992668736
 20
-433.2904968007169
 10
162.3149871198729
 20
-433.2171083527173
 10
161.9433352188716
 20
-433.1441503837177
 10
161.587396731873
 20
-433.071556509718
 10
161.2465872578723
 20
-432.9992251077182
 10
160.9202218778737
 20
-432.9270231867176
 10
160.6076478298709
 20
-432.8548104457186
 10
160.307864480872
 20
-432.7823453247183
 10
160.0199824908704
 20
-432.7093821447179
 10
159.7427806168707
 20
-432.6355530827168
 10
159.4752088348723
 20
-432.5604866927169
 10
159.2156788688735
 20
-432.4835962587167
 10
158.9628998938715
 20
-432.4042919607181
 10
158.7149315048718
 20
-432.3216664657175
 10
158.4702344738725
 20
-432.2347890147175
 10
158.2265572258729
 20
-432.1422819077179
 10
157.9820361618731
 20
-432.0426468757177
 10
157.7346044198711
 20
-431.9339868097176
 10
157.4825016518734
 20
-431.814138876718
 10
157.2240544528722
 20
-431.6805054707183
 10
156.9575946508721
 20
-431.5298832297176
 10
156.6834064148715
 20
-431.3595309247175
 10
156.4006726888728
 20
-431.1653484547169
 10
156.1138728838705
 20
-430.9463569907184
 10
155.8257730968725
 20
-430.7004356007182
 10
155.5423062938716
 20
-430.4284583227181
 10
155.2689877418725
 20
-430.1321248567183
 10
155.0090624168733
 20
-429.8117255357174
 10
154.7666582388738
 20
-429.4693982817189
 10
154.5438989588729
 20
-429.105294544719
 10
154.3437334518712
 20
-428.7212250957181
 10
154.1677915818727
 20
-428.3168035907183
 10
154.0184974598723
 20
-427.8929756397192
 10
153.8978842808719
 20
-427.4489939707182
 10
153.8087249558703
 20
-426.9848865287167
 10
153.7542735268725
 20
-426.500828019718
 10
153.7390167208723
 20
-426.1618472747177
  0
LWPOLYLINE
  5
1A0
330
70
100
AcDbEntity
  8
DETAIL
 48
0.2
100
AcDbPolyline
 90
        9
 70
     0
 43
0.0
 10
218.2301903968728
 20
-438.6072498577195
 10
218.0604139728712
 20
-438.600533258721
 10
217.7456306118729
 20
-438.5862452137208
 10
217.4229787058721
 20
-438.5690064047194
 10
217.0984446928724
 20
-438.5489978687201
 10
216.7772049098712
 20
-438.5267078967208
 10
216.4616825608718
 20
-438.5026413027207
 10
216.1516502708728
 20
-438.4771889277199
 10
215.544995953871
 20
-438.42332628672
  0
LINE
  5
1A1
330
70
100
AcDbEntity
  8
DETAIL
 48
0.2
100
AcDbLine
 10
218.4549744018732
 20
-438.6151477607199
 30
0.0
 11
218.2304097088709
 21
-438.6072581537209
 31
0.0
  0
LINE
  5
1A2
330
70
100
AcDbEntity
  8
DETAIL
 48
0.2
100
AcDbLine
 10
218.6814426988712
 20
-438.6071883357199
 30
0.0
 11
218.4549744078722
 21
-438.6151477607199
 31
0.0
  0
LWPOLYLINE
  5
1A3
330
70
100
AcDbEntity
  8
DETAIL
 48
0.2
100
AcDbPolyline
 90
        6
 70
     0
 43
0.0
 10
235.1515214818719
 20
-437.2214684227201
 10
232.9826339998726
 20
-437.3667775197191
 10
232.2291207758717
 20
-437.4199786657209
 10
231.4953858428708
 20
-437.47427894672
 10
230.7909429268729
 20
-437.528736161721
 10
230.1210916308737
 20
-437.5826355897206
  0
LWPOLYLINE
  5
1A4
330
70
100
AcDbEntity
  8
DETAIL
 48
0.2
100
AcDbPolyline
 90
        8
 70
     0
 43
0.0
 10
220.7707459258709
 20
-438.4761359217208
 10
220.4610375768716
 20
-438.50162884372
 10
220.1458979198724
 20
-438.5257504867204
 10
219.8249761718725
 20
-438.5481157367194
 10
219.5005052848719
 20
-438.5682256577202
 10
219.177655236872
 20
-438.5855852397198
 10
218.8625525448733
 20
-438.5999935487197
 10
218.6816531338736
 20
-438.6071803697196
  0
LINE
  5
1A5
330
70
100
AcDbEntity
  8
DETAIL
 48
0.2
100
AcDbLine
 10
230.1210916308737
 20
-437.5826355897206
 30
0.0
 11
228.9007437878717
 21
-437.6861192937194
 31
0.0
  0
LINE
  5
1A6
330
70
100
AcDbEntity
  8
DETAIL
 48
0.2
100
AcDbLine
 10
221.3768675608735
 20
-438.4222308197186
 30
0.0
 11
220.7707459258709
 21
-438.4761359217208
 31
0.0
  0
LINE
  5
1A7
330
70
100
AcDbEntity
  8
DETAIL
 48
0.2
100
AcDbLine
 10
228.9007437878717
 20
-437.6861192937194
 30
0.0
 11
227.8339271678706
 21
-437.7820651077199
 31
0.0
  0
LINE
  5
1A8
330
70
100
AcDbEntity
  8
DETAIL
 48
0.2
100
AcDbLine
 10
227.8339271678706
 20
-437.7820651077199
 30
0.0
 11
226.8863636758724
 21
-437.8713256067203
 31
0.0
  0
LINE
  5
1A9
330
70
100
AcDbEntity
  8
DETAIL
 48
0.2
100
AcDbLine
 10
222.2762244468722
 20
-438.3357475847206
 30
0.0
 11
221.3768675608735
 21
-438.4222308197186
 31
0.0
  0
LINE
  5
1AA
330
70
100
AcDbEntity
  8
DETAIL
 48
0.2
100
AcDbLine
 10
226.8863636758724
 20
-437.8713256067203
 30
0.0
 11
226.0290959698723
 21
-437.9549982117187
 31
0.0
  0
LINE
  5
1AB
330
70
100
AcDbEntity
  8
DETAIL
 48
0.2
100
AcDbLine
 10
226.0290959698723
 20
-437.9549982117187
 30
0.0
 11
224.8763815118727
 21
-438.0709350377201
 31
0.0
  0
LINE
  5
1AC
330
70
100
AcDbEntity
  8
DETAIL
 48
0.2
100
AcDbLine
 10
224.8763815118727
 20
-438.0709350377201
 30
0.0
 11
222.2762244468722
 21
-438.3357475847206
 31
0.0
  0
LINE
  5
1AD
330
70
100
AcDbEntity
  8
DETAIL
 48
0.2
100
AcDbLine
 10
137.0337653218721
 20
-379.0354368917178
 30
0.0
 11
173.2181514858712
 21
-379.0354368917178
 31
0.0
  0
LINE
  5
1AE
330
70
100
AcDbEntity
  8
DETAIL
 48
0.2
100
AcDbLine
 10
263.6918189858734
 20
-379.0354368917197
 30
0.0
 11
299.8762979418716
 21
-379.0354368917197
 31
0.0
  0
LINE
  5
1AF
330
70
100
AcDbEntity
  8
DETAIL
 48
0.2
100
AcDbLine
 10
161.3566466948723
 20
-376.5354368917178
 30
0.0
 11
275.5533510548739
 21
-376.5354368917197
 31
0.0
  0
LINE
  5
1B0
330
70
100
AcDbEntity
  8
DETAIL
 48
0.2
100
AcDbLine
 10
300.8761456738721
 20
-378.0528892987186
 30
0.0
 11
300.9372384008711
 21
-374.5528892987204
 31
0.0
  0
LWPOLYLINE
  5
1B1
330
70
100
AcDbEntity
  8
DETAIL
 48
0.2
100
AcDbPolyline
 90
       79
 70
     0
 43
0.0
 10
283.1709793878726
 20
-426.1618455987209
 10
283.1557321328728
 20
-426.5006955337193
 10
283.1012982798711
 20
-426.9847081277203
 10
283.0121613108713
 20
-427.448780225719
 10
282.8915736698728
 20
-427.89273480472
 10
282.7423075358711
 20
-428.3165415637195
 10
282.5663964278719
 20
-428.7209450217196
 10
282.3662645298719
 20
-429.1049988167197
 10
282.1435427048709
 20
-429.4690877337197
 10
281.9011798458723
 20
-429.8114013737195
 10
281.6413012608718
 20
-430.1317869037212
 10
281.368032005872
 20
-430.4281099437194
 10
281.0846147208722
 20
-430.7000817847201
 10
280.7965621498734
 20
-430.9460033227205
 10
280.5098036308736
 20
-431.1650012507198
 10
280.227105010872
 20
-431.359194807721
 10
279.9529436258708
 20
-431.5295623247202
 10
279.6865046858729
 20
-431.6802014717195
 10
279.4280735978718
 20
-431.8138521167202
 10
279.1759843018736
 20
-431.9337164027201
 10
278.9285652988728
 20
-432.0423911437192
 10
278.6840581898723
 20
-432.1420386057197
 10
278.4403990068713
 20
-432.2345551827202
 10
278.195723213872
 20
-432.3214400397209
 10
277.9477789298726
 20
-432.4040713287195
 10
277.6950268088731
 20
-432.4833800497199
 10
277.4355257688731
 20
-432.5602739207188
 10
277.1679860468721
 20
-432.6353425707202
 10
276.8908204928739
 20
-432.7091725697191
 10
276.6029787938714
 20
-432.7821356707191
 10
276.3032395908703
 20
-432.85459986372
 10
275.9907136058719
 20
-432.9268108887208
 10
275.6643999228727
 20
-432.9990104367189
 10
275.3236469078729
 20
-433.071338620719
 10
274.967771715872
 20
-433.1439281357197
 10
274.5961885248726
 20
-433.2168810377206
 10
274.2084491698733
 20
-433.2902640047195
 10
273.8037462598732
 20
-433.364202098719
 10
273.3813552958709
 20
-433.4387915717197
 10
272.9406145708708
 20
-433.5141077267198
 10
272.480842948873
 20
-433.5902225497211
 10
272.0014370328718
 20
-433.6671879417208
 10
271.5017545378723
 20
-433.7450556587191
 10
270.9812425978707
 20
-433.8238578117198
 10
270.4393259388707
 20
-433.9036265287195
 10
269.8754931578733
 20
-433.9843821777194
 10
269.2892171328713
 20
-434.0661440447202
 10
268.6800170088718
 20
-434.14892170872
 10
268.0474446988737
 20
-434.2327180517186
 10
267.3909373678725
 20
-434.3175503327201
 10
266.7100224098722
 20
-434.4034215497194
 10
266.0040156158721
 20
-434.4903578467201
 10
265.2722686178713
 20
-434.5783762807204
 10
264.5141488138725
 20
-434.6674894857187
 10
263.7290203338707
 20
-434.7577076957186
 10
262.9162490808722
 20
-434.8490369477203
 10
262.0751874298731
 20
-434.9414809087193
 10
261.2052153148725
 20
-435.0350380387189
 10
260.3057186228725
 20
-435.1297039047185
 10
259.3760832818734
 20
-435.2254703787203
 10
258.4157279178726
 20
-435.322322497721
 10
257.4239666438734
 20
-435.4202540657188
 10
256.4001892798733
 20
-435.5192483917199
 10
255.3436527608719
 20
-435.6192972657209
 10
254.2536525418727
 20
-435.7203844967207
 10
253.1295118228736
 20
-435.8224890707187
 10
251.9705656128717
 20
-435.9255846857195
 10
250.7761667418709
 20
-436.0296386377195
 10
249.5456964548721
 20
-436.1346128257191
 10
248.2785801358732
 20
-436.2404624147202
 10
246.9742618868731
 20
-436.3471361047195
 10
245.6322509688726
 20
-436.4545735047195
 10
244.2521353528718
 20
-436.5627060467195
 10
242.8334936808715
 20
-436.6714612397209
 10
241.3759694468717
 20
-436.7807569327196
 10
239.8792369748735
 20
-436.8905063307193
 10
238.3430336908714
 20
-437.0006132317193
 10
236.7671952978708
 20
-437.1109697047195
 10
235.1515214818719
 20
-437.2214684227201
  0
LINE
  5
1B2
330
70
100
AcDbEntity
  8
DETAIL
 48
0.2
100
AcDbLine
 10
283.9764240308723
 20
-380.0179844857212
 30
0.0
 11
283.1709785648709
 21
-426.161924276721
 31
0.0
  0
LINE
  5
1B3
330
70
100
AcDbEntity
  8
DETAIL
 48
0.2
100
AcDbLine
 10
279.6603265748708
 20
-378.0528892987186
 30
0.0
 11
279.6878632418702
 21
-375.7692836657207
 31
0.0
  0
LINE
  5
1B4
330
70
100
AcDbEntity
  8
DETAIL
 48
0.2
100
AcDbLine
 10
267.6169580208734
 20
-377.5179844857212
 30
0.0
 11
267.6237048728726
 21
-378.0528892987186
 31
0.0
  0
LINE
  5
1B5
330
70
100
AcDbEntity
  8
DETAIL
 48
0.2
100
AcDbLine
 10
169.2930381778715
 20
-377.5179844857194
 30
0.0
 11
169.2862913258723
 21
-378.0528892987168
 31
0.0
  0
LINE
  5
1B6
330
70
100
AcDbEntity
  8
DETAIL
 48
0.2
100
AcDbLine
 10
157.2221308658736
 20
-375.769291530718
 30
0.0
 11
157.2496696238704
 21
-378.0528892987168
 31
0.0
  0
LINE
  5
1B7
330
70
100
AcDbEntity
  8
DETAIL
 48
0.2
100
AcDbLine
 10
152.9335721678726
 20
-380.0179844857193
 30
0.0
 11
153.7390176348708
 21
-426.1619243507193
 31
0.0
  0
LINE
  5
1B8
330
70
100
AcDbEntity
  8
DETAIL
 48
0.2
100
AcDbLine
 10
136.0338505238724
 20
-378.0528892987168
 30
0.0
 11
135.9727577968733
 21
-374.5528892987186
 31
0.0
  0
ARC
  5
1B9
330
70
100
AcDbEntity
  8
DETAIL
 48
0.2
100
AcDbCircle
 10
299.8762979788735
 20
-378.0354368917197
 30
0.0
 40
1.0
100
AcDbArc
 50
270.0
 51
358.9999999999205
  0
ARC
  5
1BA
330
70
100
AcDbEntity
  8
DETAIL
 48
0.2
100
AcDbCircle
 10
284.9762717258709
 20
-380.0354368917197
 30
0.0
 40
1.0
100
AcDbArc
 50
90.0
 51
178.9999999999205
  0
ARC
  5
1BB
330
70
100
AcDbEntity
  8
DETAIL
 48
0.2
100
AcDbCircle
 10
299.9373907058725
 20
-374.5354368917197
 30
0.0
 40
1.0
100
AcDbArc
 50
358.9999999999205
 51
90.0
  0
ARC
  5
1BC
330
70
100
AcDbEntity
  8
DETAIL
 48
0.2
100
AcDbCircle
 10
137.0336982198714
 20
-378.0354368917179
 30
0.0
 40
1.0
100
AcDbArc
 50
181.0000000000794
 51
270.0
  0
ARC
  5
1BD
330
70
100
AcDbEntity
  8
DETAIL
 48
0.2
100
AcDbCircle
 10
151.9337244728722
 20
-380.0354368917179
 30
0.0
 40
1.0
100
AcDbArc
 50
1.00000000007946
 51
90.0
  0
ARC
  5
1BE
330
70
100
AcDbEntity
  8
DETAIL
 48
0.2
100
AcDbCircle
 10
136.9726054918719
 20
-374.5354368917178
 30
0.0
 40
1.0
100
AcDbArc
 50
90.0
 51
181.0000000000794
  0
SPLINE
  5
1BF
330
70
100
AcDbEntity
  8
DETAIL
 48
0.2
100
AcDbSpline
210
0.0
220
0.0
230
1.0
 70
     8
 71
     3
 72
    11
 73
     7
 74
     0
 42
0.0000001
 43
0.0000000001
 40
0.0
 40
0.0
 40
0.0
 40
0.0
 40
0.2504063378
 40
0.4998651383
 40
0.7494483218000001
 40
1.0
 40
1.0
 40
1.0
 40
1.0
 10
206.1436560218717
 20
-422.13543689172
 30
0.0
 10
206.1431586028739
 20
-420.5298973867193
 30
0.0
 10
206.782720542873
 20
-417.2895692907204
 30
0.0
 10
209.5177113988721
 20
-413.193212693719
 30
0.0
 10
213.6063168428736
 20
-410.443763699719
 30
0.0
 10
216.8485266328716
 20
-409.7987093827196
 30
0.0
 10
218.454998098874
 20
-409.7987093827196
 30
0.0
  0
SPLINE
  5
1C0
330
70
100
AcDbEntity
  8
DETAIL
 48
0.2
100
AcDbSpline
210
0.0
220
0.0
230
1.0
 70
     8
 71
     3
 72
     9
 73
     5
 74
     0
 42
0.0000001
 43
0.0000000001
 40
0.0
 40
0.0
 40
0.0
 40
0.0
 40
0.4993171736
 40
1.0
 40
1.0
 40
1.0
 40
1.0
 10
210.8905492228732
 20
-431.862080110719
 30
0.0
 10
209.432852774873
 20
-430.7248789017194
 30
0.0
 10
207.0016398438711
 20
-427.7415096457207
 30
0.0
 10
206.1442303768708
 20
-423.9893053007198
 30
0.0
 10
206.1436560218717
 20
-422.13543689172
 30
0.0
  0
SPLINE
  5
1C1
330
70
100
AcDbEntity
  8
DETAIL
 48
0.2
100
AcDbSpline
210
0.0
220
0.0
230
1.0
 70
     8
 71
     3
 72
     9
 73
     5
 74
     0
 42
0.0000001
 43
0.0000000001
 40
0.0
 40
0.0
 40
0.0
 40
0.0
 40
0.5006828265
 40
1.0
 40
1.0
 40
1.0
 40
1.0
 10
230.7663401768732
 20
-422.13543689172
 30
0.0
 10
230.7657658208736
 20
-423.9893053037194
 30
0.0
 10
229.908356358872
 20
-427.7415096587191
 30
0.0
 10
227.4771434038721
 20
-430.7248789007189
 30
0.0
 10
226.0194469558737
 20
-431.8620801117194
 30
0.0
  0
SPLINE
  5
1C2
330
70
100
AcDbEntity
  8
DETAIL
 48
0.2
100
AcDbSpline
210
0.0
220
0.0
230
1.0
 70
     8
 71
     3
 72
    11
 73
     7
 74
     0
 42
0.0000001
 43
0.0000000001
 40
0.0
 40
0.0
 40
0.0
 40
0.0
 40
0.2505516782
 40
0.5001348617
 40
0.7495936622000001
 40
1.0
 40
1.0
 40
1.0
 40
1.0
 10
218.454998098874
 20
-409.7987093827196
 30
0.0
 10
220.0614695648728
 20
-409.7987093827196
 30
0.0
 10
223.3036793558713
 20
-410.443763699719
 30
0.0
 10
227.3922847998729
 20
-413.193212693719
 30
0.0
 10
230.1272756548715
 20
-417.2895692907204
 30
0.0
 10
230.766837595871
 20
-420.5298973867193
 30
0.0
 10
230.7663401768732
 20
-422.13543689172
 30
0.0
  0
SPLINE
  5
1C3
330
70
100
AcDbEntity
  8
DETAIL
 48
0.2
100
AcDbSpline
210
0.0
220
0.0
230
1.0
 70
     8
 71
     3
 72
     9
 73
     5
 74
     0
 42
0.0000001
 43
0.0000000001
 40
0.0
 40
0.0
 40
0.0
 40
0.0
 40
0.4999935437
 40
1.0
 40
1.0
 40
1.0
 40
1.0
 10
210.8905500178735
 20
-431.8620803607209
 30
0.0
 10
211.9555627098707
 20
-432.6929348847206
 30
0.0
 10
214.3842132748723
 20
-434.0022554157203
 30
0.0
 10
217.1041973478714
 20
-434.4466136627197
 30
0.0
 10
218.4549985428712
 20
-434.4478981777192
 30
0.0
  0
SPLINE
  5
1C4
330
70
100
AcDbEntity
  8
DETAIL
 48
0.2
100
AcDbSpline
210
0.0
220
0.0
230
1.0
 70
     8
 71
     3
 72
     9
 73
     5
 74
     0
 42
0.0000001
 43
0.0000000001
 40
0.0
 40
0.0
 40
0.0
 40
0.0
 40
0.5000057484
 40
1.0
 40
1.0
 40
1.0
 40
1.0
 10
218.4549985428712
 20
-434.4478981777192
 30
0.0
 10
219.8057976808723
 20
-434.4466135827188
 30
0.0
 10
222.5257813308708
 20
-434.0022559027202
 30
0.0
 10
224.9544321128706
 20
-432.6929359757196
 30
0.0
 10
226.0194461908723
 20
-431.862080352721
 30
0.0
  0
SPLINE
  5
1C5
330
70
100
AcDbEntity
  8
DETAIL
 48
0.2
100
AcDbSpline
210
0.0
220
0.0
230
1.0
 70
     8
 71
     3
 72
     8
 73
     4
 74
     0
 42
0.0000001
 43
0.0000000001
 40
0.0
 40
0.0
 40
0.0
 40
0.0
 40
1.0
 40
1.0
 40
1.0
 40
1.0
 10
157.2695723018732
 20
-375.5528892987168
 30
0.0
 10
157.2292936448721
 20
-375.6147842427181
 30
0.0
 10
157.2212528348718
 20
-375.6954499507192
 30
0.0
 10
157.2221352658725
 20
-375.7692915087173
 30
0.0
  0
SPLINE
  5
1C6
330
70
100
AcDbEntity
  8
DETAIL
 48
0.2
100
AcDbSpline
210
0.0
220
0.0
230
1.0
 70
     8
 71
     3
 72
     8
 73
     4
 74
     0
 42
0.0000001
 43
0.0000000001
 40
0.0
 40
0.0
 40
0.0
 40
0.0
 40
1.0
 40
1.0
 40
1.0
 40
1.0
 10
279.6878600498712
 20
-375.7692836497208
 30
0.0
 10
279.6887517448704
 20
-375.6954450567191
 30
0.0
 10
279.6807720888719
 20
-375.6147376417193
 30
0.0
 10
279.6404271338724
 20
-375.5528892987186
 30
0.0
  0
SPLINE
  5
1C7
330
70
100
AcDbEntity
  8
DETAIL
 48
0.2
100
AcDbSpline
210
0.0
220
0.0
230
1.0
 70
     8
 71
     3
 72
     9
 73
     5
 74
     0
 42
0.0000001
 43
0.0000000001
 40
0.0
 40
0.0
 40
0.0
 40
0.0
 40
0.7524919673000001
 40
1.0
 40
1.0
 40
1.0
 40
1.0
 10
218.4562705948701
 20
-438.5594091187194
 30
0.0
 10
218.4562217998719
 20
-438.5733939317197
 30
0.0
 10
218.4630309138738
 20
-438.5846433037204
 30
0.0
 10
218.4502560988731
 20
-438.6153724457199
 30
0.0
 10
218.4548502968719
 20
-438.6151438347205
 30
0.0
  0
SPLINE
  5
1C8
330
70
100
AcDbEntity
  8
DETAIL
 48
0.2
100
AcDbSpline
210
0.0
220
0.0
230
1.0
 70
     8
 71
     3
 72
    11
 73
     7
 74
     0
 42
0.0000001
 43
0.0000000001
 40
0.0
 40
0.0
 40
0.0
 40
0.0
 40
0.2911308791
 40
0.5596909213
 40
0.7937004373000001
 40
1.0
 40
1.0
 40
1.0
 40
1.0
 10
279.6603265748708
 20
-378.0528892987186
 30
0.0
 10
279.6587917998731
 20
-378.1802039637205
 30
0.0
 10
279.6238288758723
 20
-378.4260612447197
 30
0.0
 10
279.4787417058724
 20
-378.7471359257197
 30
0.0
 10
279.2560709348727
 20
-378.9753448177198
 30
0.0
 10
279.0613712908708
 20
-379.0354368917197
 30
0.0
 10
278.9711477178717
 20
-379.0354368917197
 30
0.0
  0
SPLINE
  5
1C9
330
70
100
AcDbEntity
  8
DETAIL
 48
0.2
100
AcDbSpline
210
0.0
220
0.0
230
1.0
 70
     8
 71
     3
 72
    11
 73
     7
 74
     0
 42
0.0000001
 43
0.0000000001
 40
0.0
 40
0.0
 40
0.0
 40
0.0
 40
0.2860131986
 40
0.5520940763000001
 40
0.7879531835
 40
1.0
 40
1.0
 40
1.0
 40
1.0
 10
267.6237048728726
 20
-378.0528892987186
 30
0.0
 10
267.6253104058724
 20
-378.1801803257204
 30
0.0
 10
267.6621279228712
 20
-378.4270549987196
 30
0.0
 10
267.8148819568723
 20
-378.7490995857206
 30
0.0
 10
268.0494457048717
 20
-378.97674016372
 30
0.0
 10
268.2512166118722
 20
-379.0354368917197
 30
0.0
 10
268.3455961868713
 20
-379.0354368917197
 30
0.0
  0
SPLINE
  5
1CA
330
70
100
AcDbEntity
  8
DETAIL
 48
0.2
100
AcDbSpline
210
0.0
220
0.0
230
1.0
 70
     8
 71
     3
 72
    11
 73
     7
 74
     0
 42
0.0000001
 43
0.0000000001
 40
0.0
 40
0.0
 40
0.0
 40
0.0
 40
0.2857968029
 40
0.5517101966000001
 40
0.7875879683
 40
1.0
 40
1.0
 40
1.0
 40
1.0
 10
267.6169580208734
 20
-377.5179844857212
 30
0.0
 10
267.6153525058726
 20
-377.3906967867206
 30
0.0
 10
267.5785371628736
 20
-377.1438136817196
 30
0.0
 10
267.4256877388725
 20
-376.8216892297187
 30
0.0
 10
267.1906552008731
 20
-376.5939980367202
 30
0.0
 10
266.9885272308711
 20
-376.5354368917197
 30
0.0
 10
266.8939159928741
 20
-376.5354368917197
 30
0.0
  0
SPLINE
  5
1CB
330
70
100
AcDbEntity
  8
DETAIL
 48
0.2
100
AcDbSpline
210
0.0
220
0.0
230
1.0
 70
     8
 71
     3
 72
    11
 73
     7
 74
     0
 42
0.0000001
 43
0.0000000001
 40
0.0
 40
0.0
 40
0.0
 40
0.0
 40
0.2857968029
 40
0.5517101966000001
 40
0.7875879683
 40
1.0
 40
1.0
 40
1.0
 40
1.0
 10
169.2930381778715
 20
-377.5179844857194
 30
0.0
 10
169.2946436928723
 20
-377.3906967867187
 30
0.0
 10
169.3314590348709
 20
-377.1438136817178
 30
0.0
 10
169.4843084598724
 20
-376.8216892297169
 30
0.0
 10
169.7193409968713
 20
-376.5939980367184
 30
0.0
 10
169.9214689678738
 20
-376.5354368917178
 30
0.0
 10
170.0160802058708
 20
-376.5354368917178
 30
0.0
  0
SPLINE
  5
1CC
330
70
100
AcDbEntity
  8
DETAIL
 48
0.2
100
AcDbSpline
210
0.0
220
0.0
230
1.0
 70
     8
 71
     3
 72
    11
 73
     7
 74
     0
 42
0.0000001
 43
0.0000000001
 40
0.0
 40
0.0
 40
0.0
 40
0.0
 40
0.2860131986
 40
0.5520940763000001
 40
0.7879531835
 40
1.0
 40
1.0
 40
1.0
 40
1.0
 10
169.2862913258723
 20
-378.0528892987168
 30
0.0
 10
169.2846857928707
 20
-378.1801803257185
 30
0.0
 10
169.2478682748733
 20
-378.4270549987177
 30
0.0
 10
169.0951142418707
 20
-378.7490995857188
 30
0.0
 10
168.8605504938714
 20
-378.9767401637182
 30
0.0
 10
168.6587795868727
 20
-379.0354368917178
 30
0.0
 10
168.5644000118718
 20
-379.0354368917178
 30
0.0
  0
SPLINE
  5
1CD
330
70
100
AcDbEntity
  8
DETAIL
 48
0.2
100
AcDbSpline
210
0.0
220
0.0
230
1.0
 70
     8
 71
     3
 72
    11
 73
     7
 74
     0
 42
0.0000001
 43
0.0000000001
 40
0.0
 40
0.0
 40
0.0
 40
0.0
 40
0.291130879
 40
0.5596909211
 40
0.7937004373000001
 40
1.0
 40
1.0
 40
1.0
 40
1.0
 10
157.2496696238704
 20
-378.0528892987168
 30
0.0
 10
157.2512043988718
 20
-378.1802039637187
 30
0.0
 10
157.2861673228726
 20
-378.4260612447178
 30
0.0
 10
157.4312544928725
 20
-378.7471359257179
 30
0.0
 10
157.6539252638722
 20
-378.975344817718
 30
0.0
 10
157.8486249078723
 20
-379.0354368917178
 30
0.0
 10
157.9388484808732
 20
-379.0354368917178
 30
0.0
  0
LINE
  5
1CE
330
70
100
AcDbEntity
  8
DETAIL
 48
0.2
370
    13
100
AcDbLine
 10
369.079651607879
 20
90.16456310827924
 30
0.0
 11
-574.9203483921228
 21
90.16456310829198
 31
0.0
  0
LINE
  5
1CF
330
70
100
AcDbEntity
  8
DETAIL
  6
CENTER
 48
0.1
370
    13
100
AcDbLine
 10
369.079651607879
 20
90.16456310827924
 30
0.0
 11
369.079651607879
 21
87.45181090729237
 31
-0.0000000000000142
  0
LINE
  5
1D0
330
70
100
AcDbEntity
  8
DETAIL
  6
CENTER
 48
0.1
370
    13
100
AcDbLine
 10
369.079651607879
 20
86.66456310828289
 30
-0.0000000000000142
 11
369.079651607879
 21
85.16456310827924
 31
0.0
  0
LINE
  5
1D1
330
70
100
AcDbEntity
  8
DETAIL
  6
CENTER
 48
0.1
370
    13
100
AcDbLine
 10
345.079651607879
 20
90.16456310827924
 30
0.0
 11
345.079651607879
 21
85.16456310827924
 31
0.0
  0
LINE
  5
1D2
330
70
100
AcDbEntity
  8
DETAIL
  6
CENTER
 48
0.1
370
    13
100
AcDbLine
 10
-574.9203483921228
 20
85.16456310829198
 30
0.0
 11
-574.9203483921228
 21
90.16456310829198
 31
0.0
  0
CIRCLE
  5
1D3
330
70
100
AcDbEntity
  8
ARRANGE
  6
Continuous
 62
     1
100
AcDbCircle
 10
-102.9203483921228
 20
90.16456310828472
 30
0.0
 40
50.0
  0
LINE
  5
1D6
330
70
100
AcDbEntity
  8
ARRANGE
  6
Continuous
 62
     1
100
AcDbLine
 10
-52.88299836079386
 20
40.64220995795586
 30
0.0
 11
-152.95769842345
 21
139.6869162586099
 31
0.0
  0
LINE
  5
1D7
330
70
100
AcDbEntity
  8
ARRANGE
  6
Continuous
 62
     1
100
AcDbLine
 10
-52.95658508161977
 20
139.7611579062668
 30
0.0
 11
-152.8841117026241
 21
40.5679683103026
 31
0.0
  0
LINE
  5
1D8
330
70
100
AcDbEntity
  8
NOTE
  6
CENTER
 48
0.2
100
AcDbLine
 10
-307.1318218552078
 20
-74.98538554072183
 30
0.0
 11
-590.7088749290378
 21
-74.9853855407182
 31
0.0
1001
GENIUS_GENODEF_13
1002
{
1000
HIER
1070
     0
1002
}
1002
{
1000
MANEDIT
1070
     0
1002
}
1002
{
1000
NOSEL
1070
     0
1002
}
1002
{
1000
BEHIND
1070
     0
1002
}
1002
{
1000
OTHER
1070
     0
1002
}
1002
{
1000
REACTOR
1002
}
1001
GENIUS_GENOBJ-N-CEN_13
1002
{
1000
OWNER
1000
GEN
1002
}
1001
GENIUS_GENCEN_19
1002
{
1040
5.0
1002
}
  0
LINE
  5
1D9
330
70
100
AcDbEntity
  8
NOTE
  6
CENTER
 48
0.2
100
AcDbLine
 10
384.8681781467913
 20
-74.98538554073093
 30
0.0
 11
101.2911250729612
 21
-74.98538554072729
 31
0.0
1001
GENIUS_GENODEF_13
1002
{
1000
HIER
1070
     0
1002
}
1002
{
1000
MANEDIT
1070
     0
1002
}
1002
{
1000
NOSEL
1070
     0
1002
}
1002
{
1000
BEHIND
1070
     0
1002
}
1002
{
1000
OTHER
1070
     0
1002
}
1002
{
1000
REACTOR
1002
}
1001
GENIUS_GENOBJ-N-CEN_13
1002
{
1000
OWNER
1000
GEN
1002
}
1001
GENIUS_GENCEN_19
1002
{
1040
5.0
1002
}
  0
LINE
  5
1DA
330
70
100
AcDbEntity
  8
OUTLINE
 48
0.2
100
AcDbLine
 10
484.0796516078789
 20
17.81456310828253
 30
0.0
 11
484.0796516078753
 21
-241.3854368917146
 31
0.0
  0
LINE
  5
1DD
330
70
100
AcDbEntity
  8
OUTLINE
 48
0.2
100
AcDbLine
 10
482.8796516078746
 20
-242.5854368917262
 30
0.0
 11
482.8796516078746
 21
-241.3854368917146
 31
0.0
  0
LINE
  5
1DE
330
70
100
AcDbEntity
  8
OUTLINE
 48
0.2
100
AcDbLine
 10
482.8796516078782
 20
19.01456310826506
 30
0.0
 11
482.8796516078782
 21
17.81456310828253
 31
0.0
  0
LINE
  5
1DF
330
70
100
AcDbEntity
  8
OUTLINE
 48
0.2
100
AcDbLine
 10
417.6796516078775
 20
65.16456310827561
 30
0.0
 11
417.6796516078775
 21
61.56456310828435
 31
0.0
  0
LINE
  5
1E0
330
70
100
AcDbEntity
  8
OUTLINE
 48
0.2
100
AcDbLine
 10
417.6796516078775
 20
51.96456310827852
 30
0.0
 11
417.6796516078775
 21
48.36456310828726
 31
0.0
  0
LINE
  5
1E1
330
70
100
AcDbEntity
  8
OUTLINE
 48
0.2
100
AcDbLine
 10
414.4796516078768
 20
65.16456310827561
 30
0.0
 11
414.4796516078768
 21
61.56456310828435
 31
0.0
  0
LINE
  5
1E2
330
70
100
AcDbEntity
  8
OUTLINE
 48
0.2
100
AcDbLine
 10
414.4796516078768
 20
51.96456310827852
 30
0.0
 11
414.4796516078768
 21
48.36456310828726
 31
0.0
  0
LINE
  5
1E3
330
70
100
AcDbEntity
  8
OUTLINE
 48
0.2
100
AcDbLine
 10
380.1796516078775
 20
85.86456310828726
 30
0.0
 11
385.1796516078776
 21
80.86456310828726
 31
0.0
  0
LINE
  5
1E4
330
70
100
AcDbEntity
  8
OUTLINE
 48
0.2
100
AcDbLine
 10
385.979651607875
 20
-130.9354368917156
 30
0.0
 11
385.9796516078768
 21
55.16456310827561
 31
0.0
  0
LINE
  5
1E5
330
70
100
AcDbEntity
  8
OUTLINE
 48
0.2
100
AcDbLine
 10
385.9796516078768
 20
58.36456310828726
 30
0.0
 11
385.9796516078768
 21
80.86456310828726
 31
0.0
  0
LINE
  5
1E6
330
70
100
AcDbEntity
  8
OUTLINE
 48
0.2
100
AcDbLine
 10
382.479651607875
 20
-135.5354368917214
 30
0.0
 11
382.4796516078714
 21
-315.1354368917127
 31
0.0
  0
LINE
  5
1E7
330
70
100
AcDbEntity
  8
OUTLINE
 48
0.2
100
AcDbLine
 10
382.4796516078714
 20
-318.9354368917302
 30
0.0
 11
382.4796516078714
 21
-319.7354368917331
 31
0.0
  0
LINE
  5
1E8
330
70
100
AcDbEntity
  8
OUTLINE
 48
0.2
100
AcDbLine
 10
370.4796516078713
 20
-371.9354368917156
 30
0.0
 11
370.4796516078732
 21
-197.7358274717298
 31
0.0
  0
LINE
  5
1E9
330
70
100
AcDbEntity
  8
OUTLINE
 48
0.2
100
AcDbLine
 10
374.3796516078782
 20
87.46456310827852
 30
0.0
 11
354.9796516078768
 21
87.46456310827852
 31
0.0
  0
LINE
  5
1EA
330
70
100
AcDbEntity
  8
OUTLINE
 48
0.2
100
AcDbLine
 10
375.1796516078775
 20
85.86456310828726
 30
0.0
 11
380.1796516078775
 21
85.86456310828726
 31
0.0
  0
LINE
  5
1EB
330
70
100
AcDbEntity
  8
OUTLINE
 48
0.2
100
AcDbLine
 10
385.9796516078768
 20
80.86456310828726
 30
0.0
 11
381.4796516078768
 21
80.86456310828726
 31
0.0
  0
LINE
  5
1EC
330
70
100
AcDbEntity
  8
OUTLINE
 48
0.2
100
AcDbLine
 10
414.4796516078768
 20
65.16456310827561
 30
0.0
 11
417.6796516078775
 21
65.16456310827561
 31
0.0
  0
LINE
  5
1ED
330
70
100
AcDbEntity
  8
OUTLINE
 48
0.2
100
AcDbLine
 10
-620.3203483921225
 20
65.16456310829017
 30
0.0
 11
-623.5203483921232
 21
65.16456310829017
 31
0.0
  0
LINE
  5
1EE
330
70
100
AcDbEntity
  8
OUTLINE
 48
0.2
100
AcDbLine
 10
-617.1203483921217
 20
58.36456310830181
 30
0.0
 11
-579.9203483921228
 21
58.36456310829999
 31
0.0
  0
LINE
  5
1EF
330
70
100
AcDbEntity
  8
OUTLINE
 48
0.2
100
AcDbLine
 10
411.279651607876
 20
58.36456310828726
 30
0.0
 11
374.079651607879
 21
58.36456310828726
 31
0.0
  0
LINE
  5
1F0
330
70
100
AcDbEntity
  8
OUTLINE
 48
0.2
100
AcDbLine
 10
-617.1203483921217
 20
55.16456310829017
 30
0.0
 11
-579.9203483921228
 21
55.16456310828835
 31
0.0
  0
LINE
  5
1F1
330
70
100
AcDbEntity
  8
OUTLINE
 48
0.2
100
AcDbLine
 10
411.279651607876
 20
55.16456310827561
 30
0.0
 11
374.079651607879
 21
55.16456310827561
 31
0.0
  0
LINE
  5
1F2
330
70
100
AcDbEntity
  8
OUTLINE
 48
0.2
100
AcDbLine
 10
414.4796516078768
 20
48.36456310828726
 30
0.0
 11
417.6796516078775
 21
48.36456310828726
 31
0.0
  0
LINE
  5
1F3
330
70
100
AcDbEntity
  8
OUTLINE
 48
0.2
100
AcDbLine
 10
-620.3203483921225
 20
48.36456310830181
 30
0.0
 11
-623.5203483921232
 21
48.36456310830181
 31
0.0
  0
LINE
  5
1F4
330
70
100
AcDbEntity
  8
OUTLINE
 48
0.2
100
AcDbLine
 10
385.9796516078768
 20
19.01456310826688
 30
0.0
 11
482.8796516078782
 21
19.01456310826506
 31
0.0
  0
LINE
  5
1F5
330
70
100
AcDbEntity
  8
OUTLINE
 48
0.2
100
AcDbLine
 10
484.0796516078789
 20
17.81456310828253
 30
0.0
 11
482.8796516078782
 21
17.81456310828253
 31
0.0
  0
LINE
  5
1F6
330
70
100
AcDbEntity
  8
OUTLINE
 48
0.2
100
AcDbLine
 10
-576.720348392122
 20
8.364563108299989
 30
0.0
 11
-573.5203483921232
 21
8.364563108299989
 31
0.0
  0
LINE
  5
1F7
330
70
100
AcDbEntity
  8
OUTLINE
 48
0.2
100
AcDbLine
 10
484.0796516078753
 20
-241.3854368917146
 30
0.0
 11
482.8796516078746
 21
-241.3854368917146
 31
0.0
  0
LINE
  5
1F8
330
70
100
AcDbEntity
  8
OUTLINE
 48
0.2
100
AcDbLine
 10
482.8796516078746
 20
-242.5854368917262
 30
0.0
 11
382.4796516078732
 21
-242.5854368917244
 31
0.0
  0
LINE
  5
1F9
330
70
100
AcDbEntity
  8
OUTLINE
 48
0.2
100
AcDbLine
 10
-575.5203483921268
 20
-299.5354368917087
 30
0.0
 11
-576.3203483921261
 21
-299.5354368917087
 31
0.0
  0
LINE
  5
1FA
330
70
100
AcDbEntity
  8
OUTLINE
 48
0.2
100
AcDbLine
 10
370.4796516078713
 20
-318.1354368917273
 30
0.0
 11
379.4796516078713
 21
-318.1354368917273
 31
0.0
  0
LINE
  5
1FB
330
70
100
AcDbEntity
  8
OUTLINE
 48
0.2
100
AcDbLine
 10
382.4796516078714
 20
-318.9354368917302
 30
0.0
 11
372.0796516078735
 21
-318.9354368917302
 31
0.0
  0
LINE
  5
1FC
330
70
100
AcDbEntity
  8
OUTLINE
 48
0.2
100
AcDbLine
 10
372.0796516078735
 20
-319.7354368917331
 30
0.0
 11
382.4796516078714
 21
-319.7354368917331
 31
0.0
  0
LINE
  5
1FD
330
70
100
AcDbEntity
  8
OUTLINE
 48
0.2
100
AcDbLine
 10
-574.7203483921275
 20
-373.5354368917088
 30
0.0
 11
368.8796516078728
 21
-373.5354368917215
 31
0.0
  0
LINE
  5
1FE
330
70
100
AcDbEntity
  8
OUTLINE
 48
0.2
100
AcDbLine
 10
-574.6203483921217
 20
-32.23543689170038
 30
0.0
 11
-574.6203483921253
 21
-225.5854368917062
 31
0.0
  0
LINE
  5
1FF
330
70
100
AcDbEntity
  8
OUTLINE
 48
0.2
100
AcDbLine
 10
-574.6203483921253
 20
-184.9854368917058
 30
0.0
 11
-574.6203483921253
 21
-298.7354368917058
 31
0.0
  0
LINE
  5
200
330
70
100
AcDbEntity
  8
OUTLINE
 48
0.2
100
AcDbLine
 10
-576.1203483921217
 20
83.96456310829126
 30
0.0
 11
-576.1203483921217
 21
57.16456310828835
 31
0.0
  0
LINE
  5
201
330
70
100
AcDbEntity
  8
OUTLINE
 48
0.2
100
AcDbLine
 10
-576.3203483921261
 20
-299.5354368917087
 30
0.0
 11
-576.3203483921279
 21
-371.9354368917029
 31
0.0
  0
LINE
  5
202
330
70
100
AcDbEntity
  8
OUTLINE
 48
0.2
100
AcDbLine
 10
-576.720348392122
 20
8.364563108299989
 30
0.0
 11
-576.720348392122
 21
51.96456310829126
 31
0.0
  0
LINE
  5
203
330
70
100
AcDbEntity
  8
OUTLINE
 48
0.2
100
AcDbLine
 10
-620.3203483921225
 20
65.16456310829017
 30
0.0
 11
-620.3203483921225
 21
61.5645631082989
 31
0.0
  0
LINE
  5
204
330
70
100
AcDbEntity
  8
OUTLINE
 48
0.2
100
AcDbLine
 10
-620.3203483921225
 20
51.96456310829308
 30
0.0
 11
-620.3203483921225
 21
48.36456310830181
 31
0.0
  0
LINE
  5
205
330
70
100
AcDbEntity
  8
OUTLINE
 48
0.2
100
AcDbLine
 10
-623.5203483921232
 20
65.16456310829017
 30
0.0
 11
-623.5203483921232
 21
61.5645631082989
 31
0.0
  0
LINE
  5
206
330
70
100
AcDbEntity
  8
OUTLINE
 48
0.2
100
AcDbLine
 10
-623.5203483921232
 20
51.96456310829308
 30
0.0
 11
-623.5203483921232
 21
48.36456310830181
 31
0.0
  0
LINE
  5
207
330
70
100
AcDbEntity
  8
OUTLINE
 48
0.2
100
AcDbLine
 10
382.4796516078714
 20
-315.1354368917127
 30
0.0
 11
379.4796516078713
 21
-318.1354368917273
 31
0.0
  0
ARC
  5
208
330
70
100
AcDbEntity
  8
OUTLINE
 48
0.2
100
AcDbCircle
 10
411.279651607876
 20
61.56456310828435
 30
0.0
 40
6.4
100
AcDbArc
 50
311.3435448479322
 51
0.0
  0
ARC
  5
209
330
70
100
AcDbEntity
  8
OUTLINE
 48
0.2
100
AcDbCircle
 10
411.279651607876
 20
51.96456310827852
 30
0.0
 40
6.4
100
AcDbArc
 50
0.0
 51
90.0
  0
ARC
  5
20A
330
70
100
AcDbEntity
  8
OUTLINE
 48
0.2
100
AcDbCircle
 10
411.279651607876
 20
51.96456310827852
 30
0.0
 40
3.2
100
AcDbArc
 50
0.0
 51
90.0
  0
ARC
  5
20B
330
70
100
AcDbEntity
  8
OUTLINE
 48
0.2
100
AcDbCircle
 10
411.279651607876
 20
61.56456310828435
 30
0.0
 40
3.2
100
AcDbArc
 50
270.0
 51
0.0
  0
ARC
  5
20C
330
70
100
AcDbEntity
  8
OUTLINE
 48
0.2
100
AcDbCircle
 10
374.3796516078782
 20
85.86456310828726
 30
0.0
 40
1.6
100
AcDbArc
 50
0.0
 51
90.0
  0
ARC
  5
20D
330
70
100
AcDbEntity
  8
OUTLINE
 48
0.2
100
AcDbCircle
 10
-617.1203483921217
 20
61.5645631082989
 30
0.0
 40
6.4
100
AcDbArc
 50
180.0
 51
228.6564551520679
  0
ARC
  5
20E
330
70
100
AcDbEntity
  8
OUTLINE
 48
0.2
100
AcDbCircle
 10
-617.1203483921217
 20
51.96456310829308
 30
0.0
 40
6.4
100
AcDbArc
 50
90.0
 51
180.0
  0
ARC
  5
20F
330
70
100
AcDbEntity
  8
OUTLINE
 48
0.2
100
AcDbCircle
 10
-579.9203483921228
 20
51.96456310829126
 30
0.0
 40
6.4
100
AcDbArc
 50
0.0
 51
90.0
  0
ARC
  5
210
330
70
100
AcDbEntity
  8
OUTLINE
 48
0.2
100
AcDbCircle
 10
-617.1203483921217
 20
51.96456310829308
 30
0.0
 40
3.2
100
AcDbArc
 50
90.0
 51
180.0
  0
ARC
  5
211
330
70
100
AcDbEntity
  8
OUTLINE
 48
0.2
100
AcDbCircle
 10
-579.9203483921228
 20
51.96456310829126
 30
0.0
 40
3.2
100
AcDbArc
 50
0.0
 51
90.0
  0
ARC
  5
212
330
70
100
AcDbEntity
  8
OUTLINE
 48
0.2
100
AcDbCircle
 10
-617.1203483921217
 20
61.5645631082989
 30
0.0
 40
3.2
100
AcDbArc
 50
180.0
 51
270.0
  0
ARC
  5
213
330
70
100
AcDbEntity
  8
OUTLINE
 48
0.2
100
AcDbCircle
 10
-574.9203483921228
 20
83.96456310829126
 30
0.0
 40
1.199999999999999
100
AcDbArc
 50
90.0
 51
180.0
  0
ARC
  5
214
330
70
100
AcDbEntity
  8
OUTLINE
 48
0.2
100
AcDbCircle
 10
372.0796516078735
 20
-318.1354368917273
 30
0.0
 40
1.6
100
AcDbArc
 50
180.0
 51
270.0
  0
ARC
  5
215
330
70
100
AcDbEntity
  8
OUTLINE
 48
0.2
100
AcDbCircle
 10
372.0796516078735
 20
-318.1354368917273
 30
0.0
 40
0.8
100
AcDbArc
 50
180.0
 51
270.0
  0
ARC
  5
216
330
70
100
AcDbEntity
  8
OUTLINE
 48
0.2
100
AcDbCircle
 10
368.8796516078728
 20
-371.9354368917156
 30
0.0
 40
1.6
100
AcDbArc
 50
270.0
 51
0.0
  0
ARC
  5
217
330
70
100
AcDbEntity
  8
OUTLINE
 48
0.2
100
AcDbCircle
 10
-574.7203483921275
 20
-371.9354368917029
 30
0.0
 40
1.6
100
AcDbArc
 50
180.0
 51
270.0
  0
LINE
  5
218
330
70
100
AcDbEntity
  8
OUTLINE
 48
0.2
370
    13
100
AcDbLine
 10
369.079651607879
 20
90.16456310827924
 30
0.0
 11
-574.9203483921228
 21
90.16456310829198
 31
0.0
  0
LINE
  5
219
330
70
100
AcDbEntity
  8
OUTLINE
  6
CENTER
 48
0.1
370
    13
100
AcDbLine
 10
369.079651607879
 20
90.16456310827924
 30
0.0
 11
369.079651607879
 21
87.45181090729237
 31
-0.0000000000000142
  0
LINE
  5
21A
330
70
100
AcDbEntity
  8
OUTLINE
  6
CENTER
 48
0.1
370
    13
100
AcDbLine
 10
-574.9203483921228
 20
85.16456310829198
 30
0.0
 11
-574.9203483921228
 21
90.16456310829198
 31
0.0
  0
LINE
  5
21B
330
70
100
AcDbEntity
  8
NOTE
  6
Continuous
 62
     4
100
AcDbLine
 10
460.7604972010794
 20
-14.3186911787725
 30
0.0
 11
432.8172560809743
 21
-14.3186911787725
 31
0.0
  0
LINE
  5
21C
330
70
100
AcDbEntity
  8
NOTE
  6
Continuous
 62
     4
100
AcDbLine
 10
446.7888766410269
 20
-0.4604545223355672
 30
0.0
 11
446.7888766410269
 21
-28.17692783520943
 31
0.0
  0
CIRCLE
  5
21D
330
70
100
AcDbEntity
  8
FIX
  6
Continuous
 62
    11
100
AcDbCircle
 10
397.6796516078776
 20
58.36456310829453
 30
0.0
 40
15.47544973867843
  0
LINE
  5
220
330
70
100
AcDbEntity
  8
AM_7
  6
AM_ISO08W050x2
100
AcDbLine
 10
355.6945828172775
 20
58.36456310829453
 30
0.0
 11
438.7434341114585
 21
58.36456310829453
 31
0.0
1001
GENIUS_GENODEF_13
1002
{
1000
HIER
1070
     0
1002
}
1002
{
1000
MANEDIT
1070
     0
1002
}
1002
{
1000
NOSEL
1070
     0
1002
}
1002
{
1000
BEHIND
1070
     0
1002
}
1002
{
1000
OTHER
1070
     0
1002
}
1002
{
1000
REACTOR
1002
}
1001
GENIUS_GENOBJ-N-CEN_13
1002
{
1000
OWNER
1000
GEN
1002
}
1001
GENIUS_GENCEN_19
1002
{
1040
5.0
1002
}
  0
LINE
  5
222
330
70
100
AcDbEntity
  8
AM_7
  6
AM_ISO08W050x2
100
AcDbLine
 10
397.6796516078776
 20
32.2543347048304
 30
0.0
 11
397.6796516078776
 21
87.83871811165955
 31
0.0
1001
GENIUS_GENODEF_13
1002
{
1000
HIER
1070
     0
1002
}
1002
{
1000
MANEDIT
1070
     0
1002
}
1002
{
1000
NOSEL
1070
     0
1002
}
1002
{
1000
BEHIND
1070
     0
1002
}
1002
{
1000
OTHER
1070
     0
1002
}
1002
{
1000
REACTOR
1002
}
1001
GENIUS_GENOBJ-N-CEN_13
1002
{
1000
OWNER
1000
GEN
1002
}
1001
GENIUS_GENCEN_19
1002
{
1040
5.0
1002
}
  0
CIRCLE
  5
223
330
70
100
AcDbEntity
  8
FIX
  6
Continuous
 62
    11
100
AcDbCircle
 10
-603.5203483921232
 20
58.36456310829453
 30
0.0
 40
15.47544973867843
  0
LINE
  5
224
330
70
100
AcDbEntity
  8
AM_7
  6
AM_ISO08W050x2
100
AcDbLine
 10
-561.5352796015231
 20
58.36456310829453
 30
0.0
 11
-644.5841308957042
 21
58.36456310829453
 31
0.0
1001
GENIUS_GENODEF_13
1002
{
1000
HIER
1070
     0
1002
}
1002
{
1000
MANEDIT
1070
     0
1002
}
1002
{
1000
NOSEL
1070
     0
1002
}
1002
{
1000
BEHIND
1070
     0
1002
}
1002
{
1000
OTHER
1070
     0
1002
}
1002
{
1000
REACTOR
1002
}
1001
GENIUS_GENOBJ-N-CEN_13
1002
{
1000
OWNER
1000
GEN
1002
}
1001
GENIUS_GENCEN_19
1002
{
1040
5.0
1002
}
  0
LINE
  5
225
330
70
100
AcDbEntity
  8
AM_7
  6
AM_ISO08W050x2
100
AcDbLine
 10
-603.5203483921232
 20
32.2543347048304
 30
0.0
 11
-603.5203483921232
 21
87.83871811165955
 31
0.0
1001
GENIUS_GENODEF_13
1002
{
1000
HIER
1070
     0
1002
}
1002
{
1000
MANEDIT
1070
     0
1002
}
1002
{
1000
NOSEL
1070
     0
1002
}
1002
{
1000
BEHIND
1070
     0
1002
}
1002
{
1000
OTHER
1070
     0
1002
}
1002
{
1000
REACTOR
1002
}
1001
GENIUS_GENOBJ-N-CEN_13
1002
{
1000
OWNER
1000
GEN
1002
}
1001
GENIUS_GENCEN_19
1002
{
1040
5.0
1002
}
  0
LINE
  5
226
330
70
100
AcDbEntity
  8
NOTE
  6
CENTER
100
AcDbLine
 10
218.4549980988704
 20
-340.1483176607617
 30
0.0
 11
218.4549980988704
 21
-475.4481132285
 31
0.0
1001
GENIUS_GENODEF_13
1002
{
1000
HIER
1070
     0
1002
}
1002
{
1000
MANEDIT
1070
     0
1002
}
1002
{
1000
NOSEL
1070
     0
1002
}
1002
{
1000
BEHIND
1070
     0
1002
}
1002
{
1000
OTHER
1070
     0
1002
}
1002
{
1000
REACTOR
1002
}
1001
GENIUS_GENOBJ-N-CEN_13
1002
{
1000
OWNER
1000
GEN
1002
}
1001
GENIUS_GENCEN_19
1002
{
1040
5.0
1002
}
  0
LINE
  5
227
330
70
100
AcDbEntity
  8
DETAIL
  6
PHANTOM
 62
     5
100
AcDbLine
 10
-649.5203483921232
 20
-19.58538554071128
 30
0.0
 11
-580.5203483921231
 21
-11.58538554072584
 31
0.0
  0
LINE
  5
228
330
70
100
AcDbEntity
  8
DETAIL
  6
PHANTOM
 62
     5
100
AcDbLine
 10
-580.5203483921231
 20
-11.58538554072584
 30
0.0
 11
-574.6203483921235
 21
-11.58538554072584
 31
0.0
  0
LINE
  5
229
330
70
100
AcDbEntity
  8
DETAIL
  6
PHANTOM
 62
     5
100
AcDbLine
 10
-657.0203483921232
 20
-19.58538554071128
 30
0.0
 11
-649.5203483921232
 21
-19.58538554071128
 31
0.0
  0
LINE
  5
22A
330
70
100
AcDbEntity
  8
DETAIL
  6
PHANTOM
 62
     5
100
AcDbLine
 10
-580.5203483921231
 20
-219.5853855404402
 30
0.0
 11
-580.5203483921231
 21
-11.58538554072584
 31
0.0
  0
LINE
  5
22B
330
70
100
AcDbEntity
  8
DETAIL
  6
PHANTOM
 62
     5
100
AcDbLine
 10
-649.5203483921232
 20
-211.5853855407258
 30
0.0
 11
-649.5203483921232
 21
-19.58538554071128
 31
0.0
  0
LINE
  5
22C
330
70
100
AcDbEntity
  8
DETAIL
  6
PHANTOM
 62
     5
100
AcDbLine
 10
-658.1203483921235
 20
-210.48538554072
 30
0.0
 11
-658.1203483921235
 21
-20.68538554071711
 31
0.0
  0
LINE
  5
22D
330
70
100
AcDbEntity
  8
DETAIL
  6
PHANTOM
 62
     5
100
AcDbLine
 10
-657.0203483921232
 20
-211.5853855407258
 30
0.0
 11
-649.5203483921232
 21
-211.5853855407258
 31
0.0
  0
LINE
  5
22E
330
70
100
AcDbEntity
  8
DETAIL
  6
PHANTOM
 62
     5
100
AcDbLine
 10
-649.5203483921232
 20
-211.5853855407258
 30
0.0
 11
-580.5203483921231
 21
-219.5853855404402
 31
0.0
  0
ARC
  5
22F
330
70
100
AcDbEntity
  8
DETAIL
  6
PHANTOM
 62
     5
100
AcDbCircle
 10
-657.0203483921232
 20
-20.68538554071711
 30
0.0
 40
1.1
100
AcDbArc
 50
90.0
 51
180.0
  0
ARC
  5
230
330
70
100
AcDbEntity
  8
DETAIL
  6
PHANTOM
 62
     5
100
AcDbCircle
 10
-657.0203483921232
 20
-210.48538554072
 30
0.0
 40
1.1
100
AcDbArc
 50
180.0
 51
270.0
  0
LINE
  5
231
330
70
100
AcDbEntity
  8
NOTE
  6
CENTER
100
AcDbLine
 10
-558.485443499836
 20
-74.9853855407182
 30
0.0
 11
-691.6919599655829
 21
-74.9853855407182
 31
0.0
1001
GENIUS_GENOBJ-N-CEN_13
1002
{
1000
OWNER
1000
GEN
1002
}
1001
GENIUS_GENODEF_13
1002
{
1000
HIER
1070
     0
1002
}
1002
{
1000
MANEDIT
1070
     0
1002
}
1002
{
1000
NOSEL
1070
     0
1002
}
1002
{
1000
BEHIND
1070
     0
1002
}
1002
{
1000
OTHER
1070
     0
1002
}
1002
{
1000
REACTOR
1002
}
1001
GENIUS_GENCEN_19
1002
{
1040
5.0
1002
}
  0
LINE
  5
232
330
70
100
AcDbEntity
  8
DETAIL
  6
PHANTOM
100
AcDbLine
 10
-574.6203483921235
 20
-11.58538554072584
 30
0.0
 11
-574.6203483921235
 21
-219.5853855407113
 31
0.0
  0
LINE
  5
233
330
70
100
AcDbEntity
  8
DETAIL
  6
PHANTOM
 62
     5
100
AcDbLine
 10
-580.5203483897785
 20
-219.5853855407113
 30
0.0
 11
-574.6203483921235
 21
-219.5853855407113
 31
0.0
  0
TEXT
  5
24B
330
70
100
AcDbEntity
  8
ETC
  6
Continuous
 62
    61
100
AcDbText
 10
-407.8981270706345
 20
967.4014784121601
 30
0.0
 40
80.0
  1
LGH-50RVS-E_5
 50
0.0000029998804485
 41
0.8
  7
STANDARD_MODELNAME
100
AcDbText
  0
DIMENSION
  5
24E
330
70
100
AcDbEntity
  8
SIZE
100
AcDbDimension
  2
*D17
 10
484.0796516078753
 20
-598.2812067629256
 30
0.0
 11
427.2796516063658
 21
-598.2812067629256
 31
0.0
 70
   160
  1
 
 71
     5
 42
113.6000000030194
  3
JIS2$0
100
AcDbAlignedDimension
 13
370.4796516048559
 23
-371.9354368951808
 33
0.0
 14
484.0796516078753
 24
-241.3854368917146
 34
0.0
 50
180.0
100
AcDbRotatedDimension
1001
ACAD_DSTYLE_DIMINSPECT
1070
   396
1000
100%
1070
   395
1000

1070
   394
1070
    33
1070
   393
1070
     0
1001
ACAD
1000
DSTYLE
1002
{
1070
    41
1040
30.0
1070
   144
1040
15.0
1070
   173
1070
     1
1070
   271
1070
     0
1070
   342
1005
0
1070
   343
1005
257
1070
   344
1005
257
1002
}
1001
ACAD_DSTYLE_DIMFLIPARROW_WHICH_SYMBOL
1070
   386
1070
     1
  0
DIMENSION
  5
263
330
70
100
AcDbEntity
  8
SIZE
100
AcDbDimension
  2
*D18
 10
646.4606023755842
 20
90.1645631170996
 30
0.0
 11
646.4606023755841
 21
54.58956311614565
 31
0.0
 70
   160
  1
 
 71
     5
 42
71.15000000190779
  3
JIS2$0
100
AcDbAlignedDimension
 13
482.8796516078437
 23
19.01456311519178
 33
0.0
 14
369.079651604819
 24
90.16456311709953
 34
0.0
 50
270.0
100
AcDbRotatedDimension
1001
ACAD_DIMASSOC_OVERRIDDEN_DIMLFAC
1040
15.0
1001
ACAD_DIMASSOC_CALC_DIMLFAC
1040
-19.9999999889444
1001
ACAD_DIMASSOC_DIMLFAC
1040
-19.9999999889444
1001
ACAD_DSTYLE_DIMINSPECT
1070
   396
1000
100%
1070
   395
1000

1070
   394
1070
    33
1070
   393
1070
     0
1001
ACAD
1000
DSTYLE
1002
{
1070
    41
1040
30.0
1070
   343
1005
257
1070
   342
1005
0
1070
   173
1070
     1
1070
   344
1005
257
1070
   144
1040
19.9999999889444
1070
   147
1040
1.0
1070
   271
1070
     0
1002
}
  0
DIMENSION
  5
26F
330
70
100
AcDbEntity
  8
SIZE
100
AcDbDimension
  2
*D19
 10
731.3841237503567
 20
90.1645631170996
 30
0.0
 11
731.3841237503566
 21
-143.2945352340011
 31
0.0
 70
   160
  1
 
 71
     5
 42
463.7000000123371
  3
JIS2$0
100
AcDbAlignedDimension
 13
368.8796516048137
 23
-373.5354368952376
 33
0.0
 14
369.079651604819
 24
90.16456311709953
 34
0.0
 50
270.0
100
AcDbRotatedDimension
1001
ACAD_DIMASSOC_OVERRIDDEN_DIMLFAC
1040
15.0
1001
ACAD_DIMASSOC_CALC_DIMLFAC
1040
-19.9999999889444
1001
ACAD_DIMASSOC_DIMLFAC
1040
-19.9999999889444
1001
ACAD_DSTYLE_DIMINSPECT
1070
   396
1000
100%
1070
   395
1000

1070
   394
1070
    33
1070
   393
1070
     0
1001
ACAD
1000
DSTYLE
1002
{
1070
    41
1040
30.0
1070
   343
1005
257
1070
   342
1005
0
1070
   173
1070
     1
1070
   344
1005
257
1070
   144
1040
19.9999999889444
1070
   271
1070
     0
1002
}
  0
DIMENSION
  5
27B
330
70
100
AcDbEntity
  8
SIZE
100
AcDbDimension
  2
*D20
 10
-716.0965082054282
 20
58.36456311625262
 30
0.0
 11
-716.0965082054281
 21
74.26456311667627
 31
0.0
 70
   160
  1
 
 71
     5
 42
31.80000000084691
  3
JIS2$0
100
AcDbAlignedDimension
 13
-574.9203484202771
 23
90.16456311709953
 33
0.0
 14
-617.1203484213983
 24
58.36456311625261
 34
0.0
 50
270.0
100
AcDbRotatedDimension
1001
ACAD_DIMASSOC_OVERRIDDEN_DIMLFAC
1040
15.0
1001
ACAD_DIMASSOC_CALC_DIMLFAC
1040
-19.9999999889444
1001
ACAD_DIMASSOC_DIMLFAC
1040
-19.9999999889444
1001
ACAD_DSTYLE_DIMINSPECT
1070
   396
1000
100%
1070
   395
1000

1070
   394
1070
    33
1070
   393
1070
     0
1001
ACAD
1000
DSTYLE
1002
{
1070
    41
1040
30.0
1070
   343
1005
257
1070
   342
1005
0
1070
   173
1070
     1
1070
   344
1005
257
1070
   144
1040
19.9999999889444
1070
   271
1070
     0
1002
}
  0
DIMENSION
  5
289
330
70
100
AcDbEntity
  8
SIZE
100
AcDbDimension
  2
*D21
 10
-37.19115546291494
 20
-438.6151438399595
 30
0.0
 11
-37.19115546291505
 21
-406.0752903675985
 31
0.0
 70
   160
  1
 
 71
     5
 42
65.07970694472175
  3
JIS2$0
100
AcDbAlignedDimension
 13
136.9726054826483
 23
-373.5354368952376
 33
0.0
 14
218.4548502898142
 24
-438.6151438399592
 34
0.0
 50
270.0
100
AcDbRotatedDimension
1001
ACAD_DIMASSOC_OVERRIDDEN_DIMLFAC
1040
15.0
1001
ACAD_DIMASSOC_CALC_DIMLFAC
1040
-19.9999999889444
1001
ACAD_DIMASSOC_DIMLFAC
1040
-19.9999999889444
1001
ACAD_DSTYLE_DIMINSPECT
1070
   396
1000
100%
1070
   395
1000

1070
   394
1070
    33
1070
   393
1070
     0
1001
ACAD
1000
DSTYLE
1002
{
1070
    41
1040
30.0
1070
   144
1040
19.9999999889444
1070
   173
1070
     1
1070
   271
1070
     0
1070
   342
1005
0
1070
   343
1005
257
1070
   344
1005
257
1002
}
  0
DIMENSION
  5
295
330
70
100
AcDbEntity
  8
SIZE
100
AcDbDimension
  2
*D22
 10
370.2796516048501
 20
-598.2812067629256
 30
0.0
 11
272.4273347010658
 21
-598.2812067629256
 31
0.0
 70
   160
  1
 
 71
     5
 42
151.8246535130356
  3
JIS2$0
100
AcDbAlignedDimension
 13
218.4549980918145
 23
-475.0990810931016
 33
0.0
 14
370.2796516048502
 24
68.56456311651891
 34
0.0
 50
180.0
100
AcDbRotatedDimension
1001
ACAD_DIMASSOC_OVERRIDDEN_DIMLFAC
1040
15.0
1001
ACAD_DIMASSOC_CALC_DIMLFAC
1040
-19.9999999889444
1001
ACAD_DIMASSOC_DIMLFAC
1040
-19.9999999889444
1001
ACAD_DSTYLE_DIMINSPECT
1070
   396
1000
100%
1070
   395
1000

1070
   394
1070
    33
1070
   393
1070
     0
1001
ACAD
1000
DSTYLE
1002
{
1070
    41
1040
30.0
1070
   144
1040
19.9999999889444
1070
   173
1070
     1
1070
   271
1070
     0
1070
   342
1005
0
1070
   343
1005
257
1070
   344
1005
257
1002
}
1001
ACAD_DSTYLE_DIMFLIPARROW_WHICH_SYMBOL
1070
   386
1070
     1
  0
DIMENSION
  5
2A3
330
70
100
AcDbEntity
  8
SIZE
100
AcDbDimension
  2
*D23
 10
566.1118031030238
 20
90.16456311709958
 30
0.0
 11
566.1118031030237
 21
7.58958879039892
 31
0.0
 70
   160
  1
 
 71
     5
 42
165.1499486534012
  3
JIS2$0
100
AcDbAlignedDimension
 13
357.6432340200295
 23
-74.98538553630169
 33
0.0
 14
369.0796516048185
 24
90.16456311709953
 34
0.0
 50
270.0
100
AcDbRotatedDimension
1001
ACAD_DIMASSOC_CALC_DIMLFAC
1040
-19.99999999946832
1001
ACAD_DIMASSOC_DIMLFAC
1040
-19.99999999946832
1001
ACAD_DIMASSOC_OVERRIDDEN_DIMLFAC
1040
15.0
1001
ACAD_DSTYLE_DIMINSPECT
1070
   396
1000
100%
1070
   395
1000

1070
   394
1070
    33
1070
   393
1070
     0
1001
ACAD
1000
DSTYLE
1002
{
1070
    41
1040
30.0
1070
   144
1040
19.99999999946832
1070
   147
1040
1.0
1070
   173
1070
     1
1070
   271
1070
     0
1070
   342
1005
0
1070
   343
1005
257
1070
   344
1005
257
1002
}
1001
ACAD_DSTYLE_DIMFLIPARROW_WHICH_SYMBOL
1070
   386
1070
     3
  0
MTEXT
  5
2B3
330
70
100
AcDbEntity
  8
SIZE
100
AcDbMText
 10
-724.7437401066745
 20
161.701303279201
 30
0.0
 40
40.0
 41
242.2450763362503
 71
     9
 72
     5
  1
32
 11
-0.0000000000000001
 21
1.0
 31
0.0
 73
     1
 44
1.0
1001
ACAD
1000
ACAD_MTEXT_COLUMN_INFO_BEGIN
1070
    75
1070
     2
1070
    79
1070
     0
1070
    76
1070
     1
1070
    78
1070
     0
1070
    48
1040
242.2450763362503
1070
    49
1040
17.5
1070
    50
1070
     1
1040
0.0
1000
ACAD_MTEXT_COLUMN_INFO_END
1000
MTEXTBEGIN
1070
    73
1070
     1
1070
    44
1040
1.0
1070
    74
1070
     0
1000
MTEXTEND
  0
MTEXT
  5
2B4
330
70
100
AcDbEntity
  8
SIZE
100
AcDbMText
 10
257.3137762625702
 20
-546.6285824625661
 30
0.0
 40
40.0
 41
242.2450763362503
 71
     1
 72
     5
  1
153
 73
     1
 44
1.0
1001
ACAD
1000
ACAD_MTEXT_COLUMN_INFO_BEGIN
1070
    75
1070
     2
1070
    79
1070
     0
1070
    76
1070
     1
1070
    78
1070
     0
1070
    48
1040
242.2450763362503
1070
    49
1040
17.5
1070
    50
1070
     1
1040
0.0
1000
ACAD_MTEXT_COLUMN_INFO_END
1000
MTEXTBEGIN
1070
    73
1070
     1
1070
    44
1040
1.0
1070
    74
1070
     0
1000
MTEXTEND
  0
MTEXT
  5
2B5
330
70
100
AcDbEntity
  8
SIZE
100
AcDbMText
 10
398.2620586493413
 20
-548.0898624814308
 30
0.0
 40
40.0
 41
242.2450763362503
 71
     1
 72
     5
  1
115
 73
     1
 44
1.0
1001
ACAD
1000
ACAD_MTEXT_COLUMN_INFO_BEGIN
1070
    75
1070
     2
1070
    79
1070
     0
1070
    76
1070
     1
1070
    78
1070
     0
1070
    48
1040
242.2450763362503
1070
    49
1040
17.5
1070
    50
1070
     1
1040
0.0
1000
ACAD_MTEXT_COLUMN_INFO_END
1000
MTEXTBEGIN
1070
    73
1070
     1
1070
    44
1040
1.0
1070
    74
1070
     0
1000
MTEXTEND
  0
MTEXT
  5
2B6
330
70
100
AcDbEntity
  8
SIZE
100
AcDbMText
 10
-49.16086862395786
 20
-381.9398922631458
 30
0.0
 40
40.0
 41
242.2450763362503
 71
     9
 72
     5
  1
64
 11
-0.0000000000000001
 21
1.0
 31
0.0
 73
     1
 44
1.0
1001
ACAD
1000
ACAD_MTEXT_COLUMN_INFO_BEGIN
1070
    75
1070
     2
1070
    79
1070
     0
1070
    76
1070
     1
1070
    78
1070
     0
1070
    48
1040
242.2450763362503
1070
    49
1040
17.5
1070
    50
1070
     1
1040
0.0
1000
ACAD_MTEXT_COLUMN_INFO_END
1000
MTEXTBEGIN
1070
    73
1070
     1
1070
    44
1040
1.0
1070
    74
1070
     0
1000
MTEXTEND
  0
MTEXT
  5
2B7
330
70
100
AcDbEntity
  8
SIZE
100
AcDbMText
 10
720.4246008070567
 20
-93.69667632652454
 30
0.0
 40
40.0
 41
242.2450763362503
 71
     9
 72
     5
  1
465
 11
-0.0000000000000001
 21
1.0
 31
0.0
 73
     1
 44
1.0
1001
ACAD
1000
ACAD_MTEXT_COLUMN_INFO_BEGIN
1070
    75
1070
     2
1070
    79
1070
     0
1070
    76
1070
     1
1070
    78
1070
     0
1070
    48
1040
242.2450763362503
1070
    49
1040
17.5
1070
    50
1070
     1
1040
0.0
1000
ACAD_MTEXT_COLUMN_INFO_END
1000
MTEXTBEGIN
1070
    73
1070
     1
1070
    44
1040
1.0
1070
    74
1070
     0
1000
MTEXTEND
  0
MTEXT
  5
2B8
330
70
100
AcDbEntity
  8
SIZE
100
AcDbMText
 10
640.2399381595814
 20
78.09574858793348
 30
0.0
 40
40.0
 41
242.2450763362503
 71
     9
 72
     5
  1
71
 11
-0.0000000000000001
 21
1.0
 31
0.0
 73
     1
 44
1.0
1001
ACAD
1000
ACAD_MTEXT_COLUMN_INFO_BEGIN
1070
    75
1070
     2
1070
    79
1070
     0
1070
    76
1070
     1
1070
    78
1070
     0
1070
    48
1040
242.2450763362503
1070
    49
1040
17.5
1070
    50
1070
     1
1040
0.0
1000
ACAD_MTEXT_COLUMN_INFO_END
1000
MTEXTBEGIN
1070
    73
1070
     1
1070
    44
1040
1.0
1070
    74
1070
     0
1000
MTEXTEND
  0
MTEXT
  5
2B9
330
70
100
AcDbEntity
  8
SIZE
100
AcDbMText
 10
551.7853172878167
 20
2.780484285235161
 30
0.0
 40
40.0
 41
242.2450763362503
 71
     9
 72
     5
  1
165
 11
-0.0000000000000001
 21
1.0
 31
0.0
 73
     1
 44
1.0
1001
ACAD
1000
ACAD_MTEXT_COLUMN_INFO_BEGIN
1070
    75
1070
     2
1070
    79
1070
     0
1070
    76
1070
     1
1070
    78
1070
     0
1070
    48
1040
242.2450763362503
1070
    49
1040
17.5
1070
    50
1070
     1
1040
0.0
1000
ACAD_MTEXT_COLUMN_INFO_END
1000
MTEXTBEGIN
1070
    73
1070
     1
1070
    44
1040
1.0
1070
    74
1070
     0
1000
MTEXTEND
  0
DIMENSION
  5
2BA
330
70
100
AcDbEntity
  8
SIZE
100
AcDbDimension
  2
*D24
 10
243.0796516078758
 20
271.2081313709457
 30
0.0
 11
-102.9203483931237
 21
271.2081313709457
 31
0.0
 70
    32
  1
 
 71
     5
 42
692.0000000019991
  3
JIS2$0
100
AcDbAlignedDimension
 13
-448.9203483941232
 23
51.0164680692759
 33
0.0
 14
243.0796516078758
 24
62.95573945398053
 34
0.0
100
AcDbRotatedDimension
1001
ACAD_DIMASSOC_CALC_DIMLFAC
1040
-1.0
1001
ACAD_DIMASSOC_DIMLFAC
1040
-1.0
1001
ACAD_DIMASSOC_OVERRIDDEN_DIMLFAC
1040
-1.0
1001
ACAD_DSTYLE_DIMINSPECT
1070
   396
1000
100%
1070
   395
1000

1070
   394
1070
    33
1070
   393
1070
     0
1001
ACAD
1000
DSTYLE
1002
{
1070
    41
1040
30.0
1070
   343
1005
257
1070
   342
1005
0
1070
   173
1070
     1
1070
   344
1005
257
1070
     3
1000

1070
   144
1040
1.0
1002
}
  0
MTEXT
  5
2C6
330
70
100
AcDbEntity
  8
SIZE
100
AcDbMText
 10
-64.82668850322579
 20
325.3317139703507
 30
0.0
 40
40.0
 41
242.2450763362503
 71
     3
 72
     5
  1
692
 73
     1
 44
1.0
1001
ACAD
1000
ACAD_MTEXT_COLUMN_INFO_BEGIN
1070
    75
1070
     2
1070
    79
1070
     0
1070
    76
1070
     1
1070
    78
1070
     0
1070
    48
1040
242.2450763362503
1070
    49
1040
17.5
1070
    50
1070
     1
1040
0.0
1000
ACAD_MTEXT_COLUMN_INFO_END
1000
MTEXTBEGIN
1070
    73
1070
     1
1070
    44
1040
1.0
1070
    74
1070
     0
1000
MTEXTEND
  0
DIMENSION
  5
2C7
330
70
100
AcDbEntity
  8
SIZE
100
AcDbDimension
  2
*D25
 10
-576.1203483921256
 20
347.7980841969572
 30
0.0
 11
-102.9203483921239
 21
347.7980841969572
 31
0.0
 70
    32
  1
 
 71
     5
 42
946.4000000000032
  3
JIS2$0
100
AcDbAlignedDimension
 13
370.2796516078777
 23
83.96456310828568
 33
0.0
 14
-576.1203483921256
 24
83.96456310828568
 34
0.0
100
AcDbRotatedDimension
1001
ACAD_DIMASSOC_CALC_DIMLFAC
1040
-1.0
1001
ACAD_DIMASSOC_DIMLFAC
1040
-1.0
1001
ACAD_DIMASSOC_OVERRIDDEN_DIMLFAC
1040
-1.0
1001
ACAD_DSTYLE_DIMINSPECT
1070
   396
1000
100%
1070
   395
1000

1070
   394
1070
    33
1070
   393
1070
     0
1001
ACAD
1000
DSTYLE
1002
{
1070
    41
1040
30.0
1070
   343
1005
257
1070
   342
1005
0
1070
   173
1070
     1
1070
   344
1005
257
1070
     3
1000

1070
   144
1040
1.0
1002
}
  0
MTEXT
  5
2D3
330
70
100
AcDbEntity
  8
SIZE
100
AcDbMText
 10
-71.62870774782596
 20
396.2941660954797
 30
0.0
 40
40.0
 41
242.2450763362503
 71
     3
 72
     5
  1
946
 73
     1
 44
1.0
1001
ACAD
1000
ACAD_MTEXT_COLUMN_INFO_BEGIN
1070
    75
1070
     2
1070
    79
1070
     0
1070
    76
1070
     1
1070
    78
1070
     0
1070
    48
1040
242.2450763362503
1070
    49
1040
17.5
1070
    50
1070
     1
1040
0.0
1000
ACAD_MTEXT_COLUMN_INFO_END
1000
MTEXTBEGIN
1070
    73
1070
     1
1070
    44
1040
1.0
1070
    74
1070
     0
1000
MTEXTEND
  0
DIMENSION
  5
2D4
330
70
100
AcDbEntity
  8
SIZE
100
AcDbDimension
  2
*D26
 10
-603.5203483921227
 20
428.9847425100559
 30
0.0
 11
-99.80298218109329
 21
428.9847425100559
 31
0.0
 70
   160
  1
 
 71
     5
 42
1001.2
  3
JIS2$0
100
AcDbAlignedDimension
 13
397.679651607878
 23
87.83871811165942
 33
0.0
 14
-603.5203483921227
 24
87.83871811165942
 34
0.0
100
AcDbRotatedDimension
1001
ACAD_DIMASSOC_CALC_DIMLFAC
1040
-1.0
1001
ACAD_DIMASSOC_DIMLFAC
1040
-1.0
1001
ACAD_DIMASSOC_OVERRIDDEN_DIMLFAC
1040
-1.0
1001
ACAD_DSTYLE_DIMINSPECT
1070
   396
1000
100%
1070
   395
1000

1070
   394
1070
    33
1070
   393
1070
     0
1001
ACAD
1000
DSTYLE
1002
{
1070
    41
1040
30.0
1070
   144
1040
1.0
1070
   173
1070
     1
1070
   342
1005
0
1070
   343
1005
257
1070
   344
1005
257
1002
}
  0
MTEXT
  5
2E0
330
70
100
AcDbEntity
  8
SIZE
100
AcDbMText
 10
-56.5979012913208
 20
475.780025252707
 30
0.0
 40
40.0
 41
242.2450763362503
 71
     3
 72
     5
  1
1001
 73
     1
 44
1.0
1001
ACAD
1000
ACAD_MTEXT_COLUMN_INFO_BEGIN
1070
    75
1070
     2
1070
    79
1070
     0
1070
    76
1070
     1
1070
    78
1070
     0
1070
    48
1040
242.2450763362503
1070
    49
1040
17.5
1070
    50
1070
     1
1040
0.0
1000
ACAD_MTEXT_COLUMN_INFO_END
1000
MTEXTBEGIN
1070
    73
1070
     1
1070
    44
1040
1.0
1070
    74
1070
     0
1000
MTEXTEND
  0
DIMENSION
  5
2E1
330
70
100
AcDbEntity
  8
SIZE
100
AcDbDimension
  2
*D27
 10
-387.8233717827188
 20
-1.889238116225214
 30
0.0
 11
-761.2820543934125
 21
-454.5139682144772
 31
0.0
 70
   163
  1
 
 71
     5
 42
191.9999999999994
  3
JIS2$3
100
AcDbDiametricDimension
 15
-510.0173250015284
 25
-149.9859558271831
 35
0.0
 40
0.0
1001
ACAD_DIMASSOC_CALC_DIMLFAC
1040
-1.0
1001
ACAD_DIMASSOC_DIMLFAC
1040
-1.0
1001
ACAD_DIMASSOC_OVERRIDDEN_DIMLFAC
1040
-1.0
1001
ACAD_DSTYLE_DIMRADIAL_EXTENSION
1070
   387
1070
     1
1070
   388
1040
0.0
1070
   390
1040
0.0
1001
ACAD_DSTYLE_DIMINSPECT
1070
   396
1000
100%
1070
   395
1000

1070
   394
1070
    33
1070
   393
1070
     0
1001
ACAD
1000
DSTYLE
1002
{
1070
    41
1040
30.0
1070
   144
1040
1.0
1070
   173
1070
     1
1070
   342
1005
0
1070
   343
1005
257
1070
   344
1005
257
1002
}
  0
DIMENSION
  5
2EB
330
70
100
AcDbEntity
  8
SIZE
100
AcDbDimension
  2
*D28
 10
-405.3208011723877
 20
18.48210162045427
 30
0.0
 11
-640.2880176695941
 21
-490.3657001443791
 31
0.0
 70
   163
  1
 
 71
     5
 42
207.9999999999998
  3
JIS2$3
100
AcDbDiametricDimension
 15
-492.5198956118593
 25
-170.3572955638622
 35
0.0
 40
0.0
1001
ACAD_DIMASSOC_CALC_DIMLFAC
1040
-1.0
1001
ACAD_DIMASSOC_DIMLFAC
1040
-1.0
1001
ACAD_DIMASSOC_OVERRIDDEN_DIMLFAC
1040
-1.0
1001
ACAD_DSTYLE_DIMRADIAL_EXTENSION
1070
   387
1070
     1
1070
   388
1040
0.0
1070
   390
1040
0.0
1001
ACAD_DSTYLE_DIMINSPECT
1070
   396
1000
100%
1070
   395
1000

1070
   394
1070
    33
1070
   393
1070
     0
1001
ACAD
1000
DSTYLE
1002
{
1070
    41
1040
30.0
1070
   144
1040
1.0
1070
   173
1070
     1
1070
   342
1005
0
1070
   343
1005
257
1070
   344
1005
257
1002
}
  0
MTEXT
  5
2F5
330
70
100
AcDbEntity
  8
SIZE
100
AcDbMText
 10
-772.9713416442775
 20
-370.5584125303098
 30
0.0
 40
40.0
 41
242.2450763362503
 71
     1
 72
     5
  1
φ192
 11
0.6303738811664373
 21
0.7762916783936065
 31
0.0
 73
     1
 44
1.0
1001
ACAD
1000
ACAD_MTEXT_COLUMN_INFO_BEGIN
1070
    75
1070
     2
1070
    79
1070
     0
1070
    76
1070
     1
1070
    78
1070
     0
1070
    48
1040
242.2450763362503
1070
    49
1040
17.5
1070
    50
1070
     1
1040
0.0
1000
ACAD_MTEXT_COLUMN_INFO_END
1000
MTEXTBEGIN
1070
    73
1070
     1
1070
    44
1040
1.0
1070
    74
1070
     0
1000
MTEXTEND
  0
MTEXT
  5
2F6
330
70
100
AcDbEntity
  8
SIZE
100
AcDbMText
 10
-682.1512684636116
 20
-444.0290313244267
 30
0.0
 40
40.0
 41
242.2450763362503
 71
     1
 72
     5
  1
φ208
 11
0.5105136167918396
 21
0.859869668653404
 31
0.0
 73
     1
 44
1.0
1001
ACAD
1000
ACAD_MTEXT_COLUMN_INFO_BEGIN
1070
    75
1070
     2
1070
    79
1070
     0
1070
    76
1070
     1
1070
    78
1070
     0
1070
    48
1040
242.2450763362503
1070
    49
1040
17.5
1070
    50
1070
     1
1040
0.0
1000
ACAD_MTEXT_COLUMN_INFO_END
1000
MTEXTBEGIN
1070
    73
1070
     1
1070
    44
1040
1.0
1070
    74
1070
     0
1000
MTEXTEND
  0
INSERT
  5
2F7
330
70
100
AcDbEntity
  8
0
100
AcDbBlockReference
  2
CustomObjectsInViewport1_0
 10
0.0
 20
0.0
 30
0.0
  0
ENDSEC
  0
SECTION
  2
OBJECTS
  0
DICTIONARY
  5
C
330
0
100
AcDbDictionary
281
     1
  3
ACAD_2007HEADERVARS_RT
350
5BE
  3
ACAD_CIP_PREVIOUS_PRODUCT_INFO
350
557
  3
ACAD_COLOR
350
63
  3
ACAD_DETAILVIEWSTYLE
350
6A
  3
ACAD_FIELDLIST
350
5AA
  3
ACAD_GROUP
350
D
  3
ACAD_LAYOUT
350
62
  3
ACAD_MATERIAL
350
10
  3
ACAD_MLEADERSTYLE
350
66
  3
ACAD_MLINESTYLE
350
5F
  3
ACAD_PLOTSETTINGS
350
61
  3
ACAD_PLOTSTYLENAME
350
E
  3
ACAD_SCALELIST
350
42
  3
ACAD_SECTIONVIEWSTYLE
350
68
  3
ACAD_TABLESTYLE
350
64
  3
ACAD_VISUALSTYLE
350
29
  3
ACDB_RECOMPOSE_DATA
350
5BC
  3
AcDbVariableDictionary
350
53F
  3
AcmDictionary
350
578
  3
AMG
350
558
  3
ASE_INDEX_DICTIONARY
350
53C
  3
DWGPROPS
350
5BD
  0
DICTIONARY
  5
C4
330
C3
100
AcDbDictionary
280
     1
281
     1
  3
ADSK_XREC_LAYER_RECONCILED
360
C5
  0
DICTIONARY
  5
C8
330
C7
100
AcDbDictionary
280
     1
281
     1
  0
DICTIONARY
  5
193
330
192
100
AcDbDictionary
280
     1
281
     1
  0
DICTIONARY
  5
196
330
195
100
AcDbDictionary
280
     1
281
     1
  0
DICTIONARY
  5
1D5
330
1D4
100
AcDbDictionary
280
     1
281
     1
  0
DICTIONARY
  5
1DC
330
1DB
100
AcDbDictionary
280
     1
281
     1
  0
DICTIONARY
  5
21F
330
21E
100
AcDbDictionary
280
     1
281
     1
  0
DICTIONARY
  5
24D
330
24C
100
AcDbDictionary
280
     1
281
     1
  0
DICTIONARY
  5
250
330
24F
100
AcDbDictionary
280
     1
281
     1
  0
DICTIONARY
  5
249
330
70
100
AcDbDictionary
280
     1
281
     1
  3
ACAD_SORTENTS
360
24A
  0
DICTIONARY
  5
5BE
102
{ACAD_REACTORS
330
C
102
}
330
C
100
AcDbDictionary
281
     1
  3
DIMARCSYM
350
5BF
  3
DIMLTEX1
350
5C1
  3
DIMLTEX2
350
5C2
  3
DIMLTYPE
350
5C0
  0
XRECORD
  5
557
102
{ACAD_REACTORS
330
C
102
}
330
C
100
AcDbXrecord
280
     1
300
AMECH_PP
300
2019
300
87089AMECH_PP_2019_0F
  0
DICTIONARY
  5
63
102
{ACAD_REACTORS
330
C
102
}
330
C
100
AcDbDictionary
281
     1
  0
DICTIONARY
  5
6A
102
{ACAD_REACTORS
330
C
102
}
330
C
100
AcDbDictionary
281
     1
  3
Imperial24
350
6B
  3
Metric50
350
54C
  0
FIELDLIST
  5
5AA
102
{ACAD_REACTORS
330
C
102
}
330
C
100
AcDbIdSet
 90
        3
330
5A8
330
5A9
330
5AB
100
AcDbFieldList
  0
DICTIONARY
  5
D
102
{ACAD_REACTORS
330
C
102
}
330
C
100
AcDbDictionary
281
     1
  0
DICTIONARY
  5
62
102
{ACAD_REACTORS
330
C
102
}
330
C
100
AcDbDictionary
281
     1
  3
Model
350
73
  3
レイアウト1
350
6F
  3
レイアウト2
350
77
  0
DICTIONARY
  5
10
102
{ACAD_REACTORS
330
C
102
}
330
C
100
AcDbDictionary
281
     1
  3
ByBlock
350
19
  3
ByLayer
350
11
  3
Global
350
21
  0
DICTIONARY
  5
66
102
{ACAD_REACTORS
330
C
102
}
330
C
100
AcDbDictionary
281
     1
  3
Standard
350
67
  0
DICTIONARY
  5
5F
102
{ACAD_REACTORS
330
C
102
}
330
C
100
AcDbDictionary
281
     1
  3
Standard
350
60
  0
DICTIONARY
  5
61
102
{ACAD_REACTORS
330
C
102
}
330
C
100
AcDbDictionary
281
     1
  0
ACDBDICTIONARYWDFLT
  5
E
102
{ACAD_REACTORS
330
C
102
}
330
C
100
AcDbDictionary
281
     1
  3
Normal
350
F
100
AcDbDictionaryWithDefault
340
F
  0
DICTIONARY
  5
42
102
{ACAD_REACTORS
330
C
102
}
330
C
100
AcDbDictionary
281
     1
  3
*A1
350
BE
  3
*A2
350
BF
  3
*A3
350
C0
  3
*A4
350
C1
  3
A0
350
43
  3
A1
350
44
  3
A2
350
45
  3
A3
350
46
  3
A4
350
47
  3
A5
350
48
  3
A6
350
49
  3
A7
350
4A
  3
A8
350
4B
  3
A9
350
4C
  3
B0
350
4D
  3
B1
350
4E
  3
B2
350
4F
  3
B3
350
50
  3
B4
350
51
  3
B5
350
52
  3
B6
350
53
  0
DICTIONARY
  5
68
102
{ACAD_REACTORS
330
C
102
}
330
C
100
AcDbDictionary
281
     1
  3
Imperial24
350
69
  3
Metric50
350
54B
  0
DICTIONARY
  5
64
102
{ACAD_REACTORS
330
C
102
}
330
C
100
AcDbDictionary
281
     1
  3
Standard
350
65
  0
DICTIONARY
  5
29
102
{ACAD_REACTORS
330
C
102
}
330
C
100
AcDbDictionary
281
     1
  3
2dWireframe
350
2F
  3
Basic
350
2E
  3
Brighten
350
35
  3
ColorChange
350
39
  3
Conceptual
350
32
  3
Dim
350
34
  3
EdgeColorOff
350
41
  3
Facepattern
350
38
  3
Flat
350
2A
  3
FlatWithEdges
350
2B
  3
Gouraud
350
2C
  3
GouraudWithEdges
350
2D
  3
Hidden
350
31
  3
JitterOff
350
3F
  3
Linepattern
350
37
  3
OverhangOff
350
40
  3
Realistic
350
33
  3
Shaded
350
3E
  3
Shaded with edges
350
3D
  3
Shades of Gray
350
3A
  3
Sketchy
350
3B
  3
Thicken
350
36
  3
Wireframe
350
30
  3
X-Ray
350
3C
  0
XRECORD
  5
5BC
102
{ACAD_REACTORS
330
C
102
}
330
C
100
AcDbXrecord
280
     1
 90
        1
330
65
330
2B3
330
2B4
330
2B5
330
2B6
330
2B7
330
2B8
330
2B9
330
2C6
330
2D3
330
2E0
330
2F5
330
2F6
  0
DICTIONARY
  5
53F
102
{ACAD_REACTORS
330
C
102
}
330
C
100
AcDbDictionary
281
     1
  3
ANNOALLVISIBLE
350
545
  3
CANNOSCALE
350
546
  3
CMLEADERSTYLE
350
541
  3
CTABLESTYLE
350
540
  3
CVIEWDETAILSTYLE
350
542
  3
CVIEWSECTIONSTYLE
350
543
  3
DIMASSOC
350
5B7
  3
HIDETEXT
350
5B5
  3
INDEXCTL
350
5B4
  3
LAYEREVAL
350
548
  3
LAYERNOTIFY
350
549
  3
LIGHTINGUNITS
350
547
  3
MSLTSCALE
350
544
  3
SORTENTS
350
5B3
  3
XCLIPFRAME
350
5B6
  0
DICTIONARY
  5
578
102
{ACAD_REACTORS
330
C
102
}
330
C
100
AcDbDictionary
281
     1
  3
AcmStdDictionary
350
57F
  0
DICTIONARY
  5
558
102
{ACAD_REACTORS
330
C
102
}
330
C
100
AcDbDictionary
281
     1
  3
AcMgSettings
350
559
  0
DICTIONARY
  5
53C
102
{ACAD_REACTORS
330
C
102
}
330
C
100
AcDbDictionary
281
     1
  3
ASEBlockHierarchyIndexRecord
350
53E
1001
DCO15
1040
2031906344.0
  0
XRECORD
  5
5BD
102
{ACAD_REACTORS
330
C
102
}
330
C
100
AcDbXrecord
280
     1
  1
DWGPROPS COOKIE
  2

  3

  4

  6

  7

  8
GM29624
  9

300
=
301
=
302
=
303
=
304
=
305
=
306
=
307
=
308
=
309
=
 40
0.0000578703703704
 41
2459320.646377315
 42
2459320.646388889
  1

 90
        0
  0
XRECORD
  5
C5
102
{ACAD_REACTORS
330
C4
102
}
330
C4
100
AcDbXrecord
280
     1
290
     1
  0
SORTENTSTABLE
  5
24A
102
{ACAD_REACTORS
330
249
102
}
330
249
100
AcDbSortentsTable
330
70
  0
XRECORD
  5
5BF
102
{ACAD_REACTORS
330
5BE
102
}
330
5BE
100
AcDbXrecord
280
     1
 70
     1
  0
XRECORD
  5
5C1
102
{ACAD_REACTORS
330
5BE
102
}
330
5BE
100
AcDbXrecord
280
     1
340
5B
  0
XRECORD
  5
5C2
102
{ACAD_REACTORS
330
5BE
102
}
330
5BE
100
AcDbXrecord
280
     1
340
5B
  0
XRECORD
  5
5C0
102
{ACAD_REACTORS
330
5BE
102
}
330
5BE
100
AcDbXrecord
280
     1
340
5B
  0
ACDBDETAILVIEWSTYLE
  5
6B
102
{ACAD_XDICTIONARY
360
5FC
102
}
102
{ACAD_REACTORS
330
6A
330
59D
102
}
330
6A
100
AcDbModelDocViewStyle
 70
     0
  3
Imperial24
290
     0
100
AcDbDetailViewStyle
 70
     0
 71
     0
 90
        3
 71
     1
340
55
 40
0.24
340
0
 40
0.24
300

 40
0.36
280
     3
 71
     2
340
5D
 90
       25
 71
     3
340
55
 40
0.24
 90
        1
 40
0.75
 90
        1
300
%<\AcVar ViewType \f "%tc1">% %<\AcVar ViewDetailId>%\PSCALE %<\AcVar ViewScale \f "%sn">%
 71
     4
340
5D
 90
       25
340
5D
 90
       25
280
     0
  0
ACDBDETAILVIEWSTYLE
  5
54C
102
{ACAD_XDICTIONARY
360
62B
102
}
102
{ACAD_REACTORS
330
6A
330
59E
102
}
330
6A
100
AcDbModelDocViewStyle
 70
     0
  3
Metric50
290
     0
100
AcDbDetailViewStyle
 70
     0
 71
     0
 90
        3
 71
     1
340
55
 40
5.0
340
0
 40
5.0
300

 40
0.0
280
     1
 71
     2
340
5D
 90
       25
 71
     3
340
55
 40
5.0
 90
        0
 40
15.0
 90
        1
300
%<\AcVar ViewDetailId>% (%<\AcVar ViewScale \f "%sn">%)
 71
     4
340
5D
 90
       25
340
5D
 90
       25
280
     0
  0
LAYOUT
  5
73
102
{ACAD_XDICTIONARY
360
600
102
}
102
{ACAD_REACTORS
330
62
102
}
330
62
100
AcDbPlotSettings
  1

  2
なし
  4
ISO_A4_(210.00_x_297.00_MM)
  6

 40
7.5
 41
20.0
 42
7.5
 43
20.0
 44
210.0
 45
297.0
 46
0.0
 47
0.0
 48
0.0
 49
0.0
140
0.0
141
0.0
142
1.0
143
16.69655348147958
 70
 11952
 72
     1
 73
     1
 74
     0
  7
monochrome.ctb
 75
     0
147
0.0598926000572056
148
1820.601130201284
149
766.6809445508611
100
AcDbLayout
  1
Model
 70
     1
 71
     0
 10
0.0
 20
0.0
 11
12.0
 21
9.0
 12
0.0
 22
0.0
 32
0.0
 14
0.0
 24
0.0
 34
0.0
 15
0.0
 25
0.0
 35
0.0
146
0.0
 13
0.0
 23
0.0
 33
0.0
 16
1.0
 26
0.0
 36
0.0
 17
0.0
 27
1.0
 37
0.0
 76
     0
330
70
1001
ACAD_PSEXT
1000
なし
1000
なし
1000
適切ではありません
1000
新しいプロッタ環境設定名を選択しない限り、レイアウトは印刷されません。
1070
     0
  0
LAYOUT
  5
6F
102
{ACAD_XDICTIONARY
360
5FE
102
}
102
{ACAD_REACTORS
330
62
102
}
330
62
100
AcDbPlotSettings
  1

  2
AutoCAD PDF (General Documentation).pc3
  4

  6

 40
0.0
 41
0.0
 42
0.0
 43
0.0
 44
0.0
 45
0.0
 46
0.0
 47
0.0
 48
0.0
 49
0.0
140
0.0
141
0.0
142
1.0
143
1.0
 70
   688
 72
     0
 73
     0
 74
     5
  7
monochrome.ctb
 75
    16
147
1.0
148
0.0
149
0.0
100
AcDbLayout
  1
レイアウト1
 70
     1
 71
     1
 10
0.0
 20
0.0
 11
12.0
 21
9.0
 12
0.0
 22
0.0
 32
0.0
 14
1.000000000000000E+20
 24
1.000000000000000E+20
 34
1.000000000000000E+20
 15
-1.000000000000000E+20
 25
-1.000000000000000E+20
 35
-1.000000000000000E+20
146
0.0
 13
0.0
 23
0.0
 33
0.0
 16
1.0
 26
0.0
 36
0.0
 17
0.0
 27
1.0
 37
0.0
 76
     0
330
6C
  0
LAYOUT
  5
77
102
{ACAD_XDICTIONARY
360
602
102
}
102
{ACAD_REACTORS
330
62
102
}
330
62
100
AcDbPlotSettings
  1

  2
AutoCAD PDF (General Documentation).pc3
  4

  6

 40
0.0
 41
0.0
 42
0.0
 43
0.0
 44
0.0
 45
0.0
 46
0.0
 47
0.0
 48
0.0
 49
0.0
140
0.0
141
0.0
142
1.0
143
1.0
 70
   688
 72
     0
 73
     0
 74
     5
  7
monochrome.ctb
 75
    16
147
1.0
148
0.0
149
0.0
100
AcDbLayout
  1
レイアウト2
 70
     1
 71
     2
 10
0.0
 20
0.0
 11
12.0
 21
9.0
 12
0.0
 22
0.0
 32
0.0
 14
0.0
 24
0.0
 34
0.0
 15
0.0
 25
0.0
 35
0.0
146
0.0
 13
0.0
 23
0.0
 33
0.0
 16
1.0
 26
0.0
 36
0.0
 17
0.0
 27
1.0
 37
0.0
 76
     0
330
74
  0
MATERIAL
  5
19
102
{ACAD_XDICTIONARY
360
1A
102
}
102
{ACAD_REACTORS
330
10
102
}
330
10
100
AcDbMaterial
  1
ByBlock
 72
     0
 43
0.0208333333333333
 43
0.0
 43
0.0
 43
0.0
 43
0.0
 43
0.0208333333333333
 43
0.0
 43
0.0
 43
0.0
 43
0.0
 43
1.0
 43
0.0
 43
0.0
 43
0.0
 43
0.0
 43
1.0
 77
     0
 47
0.0208333333333333
 47
0.0
 47
0.0
 47
0.0
 47
0.0
 47
0.0208333333333333
 47
0.0
 47
0.0
 47
0.0
 47
0.0
 47
1.0
 47
0.0
 47
0.0
 47
0.0
 47
0.0
 47
1.0
171
     0
 49
0.0208333333333333
 49
0.0
 49
0.0
 49
0.0
 49
0.0
 49
0.0208333333333333
 49
0.0
 49
0.0
 49
0.0
 49
0.0
 49
1.0
 49
0.0
 49
0.0
 49
0.0
 49
0.0
 49
1.0
175
     0
142
0.0208333333333333
142
0.0
142
0.0
142
0.0
142
0.0
142
0.0208333333333333
142
0.0
142
0.0
142
0.0
142
0.0
142
1.0
142
0.0
142
0.0
142
0.0
142
0.0
142
1.0
179
     0
144
0.0208333333333333
144
0.0
144
0.0
144
0.0
144
0.0
144
0.0208333333333333
144
0.0
144
0.0
144
0.0
144
0.0
144
1.0
144
0.0
144
0.0
144
0.0
144
0.0
144
1.0
147
0.0208333333333333
147
0.0
147
0.0
147
0.0
147
0.0
147
0.0208333333333333
147
0.0
147
0.0
147
0.0
147
0.0
147
1.0
147
0.0
147
0.0
147
0.0
147
0.0
147
1.0
  0
MATERIAL
  5
11
102
{ACAD_XDICTIONARY
360
12
102
}
102
{ACAD_REACTORS
330
10
102
}
330
10
100
AcDbMaterial
  1
ByLayer
 72
     0
 43
0.0208333333333333
 43
0.0
 43
0.0
 43
0.0
 43
0.0
 43
0.0208333333333333
 43
0.0
 43
0.0
 43
0.0
 43
0.0
 43
1.0
 43
0.0
 43
0.0
 43
0.0
 43
0.0
 43
1.0
 77
     0
 47
0.0208333333333333
 47
0.0
 47
0.0
 47
0.0
 47
0.0
 47
0.0208333333333333
 47
0.0
 47
0.0
 47
0.0
 47
0.0
 47
1.0
 47
0.0
 47
0.0
 47
0.0
 47
0.0
 47
1.0
171
     0
 49
0.0208333333333333
 49
0.0
 49
0.0
 49
0.0
 49
0.0
 49
0.0208333333333333
 49
0.0
 49
0.0
 49
0.0
 49
0.0
 49
1.0
 49
0.0
 49
0.0
 49
0.0
 49
0.0
 49
1.0
175
     0
142
0.0208333333333333
142
0.0
142
0.0
142
0.0
142
0.0
142
0.0208333333333333
142
0.0
142
0.0
142
0.0
142
0.0
142
1.0
142
0.0
142
0.0
142
0.0
142
0.0
142
1.0
179
     0
144
0.0208333333333333
144
0.0
144
0.0
144
0.0
144
0.0
144
0.0208333333333333
144
0.0
144
0.0
144
0.0
144
0.0
144
1.0
144
0.0
144
0.0
144
0.0
144
0.0
144
1.0
147
0.0208333333333333
147
0.0
147
0.0
147
0.0
147
0.0
147
0.0208333333333333
147
0.0
147
0.0
147
0.0
147
0.0
147
1.0
147
0.0
147
0.0
147
0.0
147
0.0
147
1.0
  0
MATERIAL
  5
21
102
{ACAD_XDICTIONARY
360
22
102
}
102
{ACAD_REACTORS
330
10
102
}
330
10
100
AcDbMaterial
  1
Global
 72
     0
 43
0.0208333333333333
 43
0.0
 43
0.0
 43
0.0
 43
0.0
 43
0.0208333333333333
 43
0.0
 43
0.0
 43
0.0
 43
0.0
 43
1.0
 43
0.0
 43
0.0
 43
0.0
 43
0.0
 43
1.0
 77
     0
 47
0.0208333333333333
 47
0.0
 47
0.0
 47
0.0
 47
0.0
 47
0.0208333333333333
 47
0.0
 47
0.0
 47
0.0
 47
0.0
 47
1.0
 47
0.0
 47
0.0
 47
0.0
 47
0.0
 47
1.0
171
     0
 49
0.0208333333333333
 49
0.0
 49
0.0
 49
0.0
 49
0.0
 49
0.0208333333333333
 49
0.0
 49
0.0
 49
0.0
 49
0.0
 49
1.0
 49
0.0
 49
0.0
 49
0.0
 49
0.0
 49
1.0
175
     0
142
0.0208333333333333
142
0.0
142
0.0
142
0.0
142
0.0
142
0.0208333333333333
142
0.0
142
0.0
142
0.0
142
0.0
142
1.0
142
0.0
142
0.0
142
0.0
142
0.0
142
1.0
179
     0
144
0.0208333333333333
144
0.0
144
0.0
144
0.0
144
0.0
144
0.0208333333333333
144
0.0
144
0.0
144
0.0
144
0.0
144
1.0
144
0.0
144
0.0
144
0.0
144
0.0
144
1.0
147
0.0208333333333333
147
0.0
147
0.0
147
0.0
147
0.0
147
0.0208333333333333
147
0.0
147
0.0
147
0.0
147
0.0
147
1.0
147
0.0
147
0.0
147
0.0
147
0.0
147
1.0
  0
MLEADERSTYLE
  5
67
102
{ACAD_XDICTIONARY
360
5F8
102
}
102
{ACAD_REACTORS
330
66
102
}
330
66
100
AcDbMLeaderStyle
170
     2
171
     1
172
     0
 90
        2
 40
0.0
 41
0.0
173
     1
 91
-1056964608
340
5B
 92
       -2
290
     1
 42
0.09
291
     1
 43
0.36
  3
Standard
 44
0.18
300

342
55
174
     1
178
     6
175
     1
176
     0
 93
-1056964608
 45
0.18
292
     0
297
     0
 46
0.18
 94
-1056964608
 47
1.0
 49
1.0
140
1.0
293
     1
141
0.0
294
     1
177
     0
142
1.0
295
     0
296
     0
143
0.125
1001
ACAD_MLEADERVER
1070
     2
  0
MLINESTYLE
  5
60
102
{ACAD_REACTORS
330
5F
102
}
330
5F
100
AcDbMlineStyle
  2
STANDARD
 70
     0
  3

 62
   256
 51
90.0
 52
90.0
 71
     2
 49
0.5
 62
   256
  6
BYLAYER
 49
-0.5
 62
   256
  6
BYLAYER
  0
ACDBPLACEHOLDER
  5
F
102
{ACAD_REACTORS
330
E
102
}
330
E
  0
SCALE
  5
BE
102
{ACAD_REACTORS
330
42
102
}
330
42
100
AcDbScale
 70
     0
300
1:38
140
1.0
141
38.0
290
     0
  0
SCALE
  5
BF
102
{ACAD_REACTORS
330
42
102
}
330
42
100
AcDbScale
 70
     0
300
1:35
140
1.0
141
35.0
290
     0
  0
SCALE
  5
C0
102
{ACAD_REACTORS
330
42
102
}
330
42
100
AcDbScale
 70
     0
300
1:33
140
1.0
141
33.0
290
     0
  0
SCALE
  5
C1
102
{ACAD_REACTORS
330
42
102
}
330
42
100
AcDbScale
 70
     0
300
IMAGE
140
1.0
141
3.0
290
     0
  0
SCALE
  5
43
102
{ACAD_REACTORS
330
42
102
}
330
42
100
AcDbScale
 70
     0
300
1:1
140
1.0
141
1.0
290
     1
  0
SCALE
  5
44
102
{ACAD_REACTORS
330
42
102
}
330
42
100
AcDbScale
 70
     0
300
1:2
140
1.0
141
2.0
290
     0
  0
SCALE
  5
45
102
{ACAD_REACTORS
330
42
102
}
330
42
100
AcDbScale
 70
     0
300
1:4
140
1.0
141
4.0
290
     0
  0
SCALE
  5
46
102
{ACAD_REACTORS
330
42
102
}
330
42
100
AcDbScale
 70
     0
300
1:5
140
1.0
141
5.0
290
     0
  0
SCALE
  5
47
102
{ACAD_REACTORS
330
42
102
}
330
42
100
AcDbScale
 70
     0
300
1:8
140
1.0
141
8.0
290
     0
  0
SCALE
  5
48
102
{ACAD_REACTORS
330
42
102
}
330
42
100
AcDbScale
 70
     0
300
1:10
140
1.0
141
10.0
290
     0
  0
SCALE
  5
49
102
{ACAD_REACTORS
330
42
102
}
330
42
100
AcDbScale
 70
     0
300
1:16
140
1.0
141
16.0
290
     0
  0
SCALE
  5
4A
102
{ACAD_REACTORS
330
42
102
}
330
42
100
AcDbScale
 70
     0
300
1:20
140
1.0
141
20.0
290
     0
  0
SCALE
  5
4B
102
{ACAD_REACTORS
330
42
102
}
330
42
100
AcDbScale
 70
     0
300
1:30
140
1.0
141
30.0
290
     0
  0
SCALE
  5
4C
102
{ACAD_REACTORS
330
42
102
}
330
42
100
AcDbScale
 70
     0
300
1:40
140
1.0
141
40.0
290
     0
  0
SCALE
  5
4D
102
{ACAD_REACTORS
330
42
102
}
330
42
100
AcDbScale
 70
     0
300
1:50
140
1.0
141
50.0
290
     0
  0
SCALE
  5
4E
102
{ACAD_REACTORS
330
42
102
}
330
42
100
AcDbScale
 70
     0
300
1:100
140
1.0
141
100.0
290
     0
  0
SCALE
  5
4F
102
{ACAD_REACTORS
330
42
102
}
330
42
100
AcDbScale
 70
     0
300
2:1
140
2.0
141
1.0
290
     0
  0
SCALE
  5
50
102
{ACAD_REACTORS
330
42
102
}
330
42
100
AcDbScale
 70
     0
300
4:1
140
4.0
141
1.0
290
     0
  0
SCALE
  5
51
102
{ACAD_REACTORS
330
42
102
}
330
42
100
AcDbScale
 70
     0
300
8:1
140
8.0
141
1.0
290
     0
  0
SCALE
  5
52
102
{ACAD_REACTORS
330
42
102
}
330
42
100
AcDbScale
 70
     0
300
10:1
140
10.0
141
1.0
290
     0
  0
SCALE
  5
53
102
{ACAD_REACTORS
330
42
102
}
330
42
100
AcDbScale
 70
     0
300
100:1
140
100.0
141
1.0
290
     0
  0
ACDBSECTIONVIEWSTYLE
  5
69
102
{ACAD_XDICTIONARY
360
5FA
102
}
102
{ACAD_REACTORS
330
68
330
59B
102
}
330
68
100
AcDbModelDocViewStyle
 70
     0
  3
Imperial24
290
     0
100
AcDbSectionViewStyle
 70
     0
 71
     0
 90
       78
 71
     1
340
55
 40
0.24
340
0
340
0
 40
0.24
300
I, O, Q, S, X, Z
 40
0.48
 90
        3
 40
0.18
 90
        1
 71
     2
340
5D
 90
       25
340
5D
 90
       50
 40
0.24
 40
0.0
 40
0.24
 71
     3
340
55
 40
0.24
 90
        1
 40
0.75
 90
        1
300
%<\AcVar ViewType \f "%tc1">% %<\AcVar ViewSectionStartId>%-%<\AcVar ViewSectionEndId>%\PSCALE %<\AcVar ViewScale \f "%sn">%
 71
     4
300
ANSI31
 40
1.0
 90
        0
290
     0
290
     0
 90
        6
 40
0.0
 40
1.570796326794896
 40
0.2617993877991494
 40
1.308996938995747
 40
-0.2617993877991494
 40
1.832595714594046
  0
ACDBSECTIONVIEWSTYLE
  5
54B
102
{ACAD_XDICTIONARY
360
629
102
}
102
{ACAD_REACTORS
330
68
330
59C
102
}
330
68
100
AcDbModelDocViewStyle
 70
     0
  3
Metric50
290
     0
100
AcDbSectionViewStyle
 70
     0
 71
     0
 90
      102
 71
     1
340
55
 40
5.0
340
0
340
0
 40
5.0
300
I, O, Q, S, X, Z
 40
10.0
 90
        0
 40
2.5
 90
        0
 71
     2
340
5D
 90
       25
340
5D
 90
       50
 40
5.0
 40
2.5
 40
5.0
 71
     3
340
55
 40
5.0
 90
        0
 40
15.0
 90
        1
300
%<\AcVar ViewSectionStartId>%-%<\AcVar ViewSectionEndId>% (%<\AcVar ViewScale \f "%sn">%)
 71
     4
300
ANSI31
 40
1.0
 90
        0
290
     0
290
     0
 90
        6
 40
0.0
 40
1.570796326794896
 40
0.2617993877991494
 40
1.308996938995747
 40
-0.2617993877991494
 40
1.832595714594046
  0
TABLESTYLE
  5
65
102
{ACAD_XDICTIONARY
360
5BA
102
}
102
{ACAD_REACTORS
330
64
102
}
330
64
100
AcDbTableStyle
  3
Standard
 70
     0
 71
     3
 40
1.5
 41
1.5
280
     0
281
     0
  7
STANDARD
140
3.5
170
     2
 62
     0
 63
     7
283
     0
274
    -2
284
     1
 64
     0
275
    -2
285
     1
 65
     0
276
    -2
286
     1
 66
     0
277
    -2
287
     1
 67
     0
278
    -2
288
     1
 68
     0
279
    -2
289
     1
 69
     0
  7
STANDARD
140
3.5
170
     5
 62
     0
 63
     7
283
     0
274
    -2
284
     1
 64
     0
275
    -2
285
     1
 65
     0
276
    -2
286
     1
 66
     0
277
    -2
287
     1
 67
     0
278
    -2
288
     1
 68
     0
279
    -2
289
     1
 69
     0
  7
STANDARD
140
3.5
170
     5
 62
     0
 63
     7
283
     0
274
    -2
284
     1
 64
     0
275
    -2
285
     1
 65
     0
276
    -2
286
     1
 66
     0
277
    -2
287
     1
 67
     0
278
    -2
288
     1
 68
     0
279
    -2
289
     1
 69
     0
  0
VISUALSTYLE
  5
2F
102
{ACAD_XDICTIONARY
360
5D0
102
}
102
{ACAD_REACTORS
330
29
102
}
330
29
100
AcDbVisualStyle
  2
2dWireframe
 70
     4
 71
     0
 72
     2
 73
     0
 90
        0
 40
-0.6
 41
-30.0
 62
     5
 63
     7
 74
     1
 91
        4
 64
     7
 65
   257
 75
     1
175
     1
 42
1.0
 92
        0
 66
   257
 43
1.0
 76
     1
 77
     6
 78
     2
 67
     7
 79
     5
170
     0
171
     0
290
     0
174
     0
 93
        1
 44
0.0
173
     0
291
     0
 45
0.0
1001
ACAD
1000
AcDbSavedByObjectVersion
1070
     0
  0
VISUALSTYLE
  5
2E
102
{ACAD_XDICTIONARY
360
5CE
102
}
102
{ACAD_REACTORS
330
29
102
}
330
29
100
AcDbVisualStyle
  2
Basic
 70
     7
 71
     1
 72
     0
 73
     1
 90
        0
 40
-0.6
 41
-30.0
 62
     5
 63
     7
 74
     0
 91
        4
 64
     7
 65
   257
 75
     1
175
     1
 42
1.0
 92
        8
 66
     7
 43
1.0
 76
     1
 77
     6
 78
     2
 67
     7
 79
     5
170
     0
171
     0
290
     0
174
     0
 93
        1
 44
0.0
173
     0
291
     1
 45
0.0
1001
ACAD
1000
AcDbSavedByObjectVersion
1070
     0
  0
VISUALSTYLE
  5
35
102
{ACAD_XDICTIONARY
360
5DC
102
}
102
{ACAD_REACTORS
330
29
102
}
330
29
100
AcDbVisualStyle
  2
Brighten
 70
    12
 71
     2
 72
     2
 73
     0
 90
        0
 40
-0.6
 41
-30.0
 62
     5
 63
     7
 74
     1
 91
        4
 64
     7
 65
   257
 75
     1
175
     1
 42
1.0
 92
        8
 66
     7
 43
1.0
 76
     1
 77
     6
 78
     2
 67
     7
 79
     5
170
     0
171
     0
290
     0
174
     0
 93
        1
 44
50.0
173
     0
291
     1
 45
0.0
1001
ACAD
1000
AcDbSavedByObjectVersion
1070
     0
  0
VISUALSTYLE
  5
39
102
{ACAD_XDICTIONARY
360
5E4
102
}
102
{ACAD_REACTORS
330
29
102
}
330
29
100
AcDbVisualStyle
  2
ColorChange
 70
    16
 71
     2
 72
     2
 73
     3
 90
        0
 40
-0.6
 41
-30.0
 62
     5
 63
     8
 74
     1
 91
        4
 64
     7
 65
   257
 75
     1
175
     1
 42
1.0
 92
        8
 66
     8
 43
1.0
 76
     1
 77
     6
 78
     2
 67
     7
 79
     5
170
     0
171
     0
290
     0
174
     0
 93
        1
 44
0.0
173
     0
291
     1
 45
0.0
1001
ACAD
1000
AcDbSavedByObjectVersion
1070
     0
  0
VISUALSTYLE
  5
32
102
{ACAD_XDICTIONARY
360
5D6
102
}
102
{ACAD_REACTORS
330
29
102
}
330
29
100
AcDbVisualStyle
  2
Conceptual
 70
     9
 71
     3
 72
     2
 73
     0
 90
        0
 40
-0.6
 41
-30.0
 62
     5
 63
     7
 74
     2
 91
        2
 64
     7
 65
   257
 75
     1
175
     1
 42
179.0
 92
        8
 66
     7
 43
1.0
 76
     1
 77
     6
 78
     2
 67
     7
 79
     3
170
     0
171
     0
290
     0
174
     0
 93
        1
 44
0.0
173
     0
291
     0
 45
0.0
1001
ACAD
1000
AcDbSavedByObjectVersion
1070
     0
  0
VISUALSTYLE
  5
34
102
{ACAD_XDICTIONARY
360
5DA
102
}
102
{ACAD_REACTORS
330
29
102
}
330
29
100
AcDbVisualStyle
  2
Dim
 70
    11
 71
     2
 72
     2
 73
     0
 90
        0
 40
-0.6
 41
-30.0
 62
     5
 63
     7
 74
     1
 91
        4
 64
     7
 65
   257
 75
     1
175
     1
 42
1.0
 92
        8
 66
     7
 43
1.0
 76
     1
 77
     6
 78
     2
 67
     7
 79
     5
170
     0
171
     0
290
     0
174
     0
 93
        1
 44
-50.0
173
     0
291
     1
 45
0.0
1001
ACAD
1000
AcDbSavedByObjectVersion
1070
     0
  0
VISUALSTYLE
  5
41
102
{ACAD_XDICTIONARY
360
5F4
102
}
102
{ACAD_REACTORS
330
29
102
}
330
29
100
AcDbVisualStyle
  2
EdgeColorOff
 70
    22
 71
     2
 72
     2
 73
     0
 90
        0
 40
-0.6
 41
-30.0
 62
     5
 63
     7
 74
     1
 91
        4
 64
     7
 65
   257
 75
     1
175
     1
 42
1.0
 92
        8
 66
     7
 43
1.0
 76
     1
 77
     6
 78
     2
 67
     7
 79
     5
170
     0
171
     0
290
     0
174
     0
 93
        1
 44
0.0
173
     0
291
     1
 45
0.0
1001
ACAD
1000
AcDbSavedByObjectVersion
1070
     0
  0
VISUALSTYLE
  5
38
102
{ACAD_XDICTIONARY
360
5E2
102
}
102
{ACAD_REACTORS
330
29
102
}
330
29
100
AcDbVisualStyle
  2
Facepattern
 70
    15
 71
     2
 72
     2
 73
     0
 90
        0
 40
-0.6
 41
-30.0
 62
     5
 63
     7
 74
     1
 91
        4
 64
     7
 65
   257
 75
     1
175
     1
 42
1.0
 92
        8
 66
     7
 43
1.0
 76
     1
 77
     6
 78
     2
 67
     7
 79
     5
170
     0
171
     0
290
     0
174
     0
 93
        1
 44
0.0
173
     0
291
     1
 45
0.0
1001
ACAD
1000
AcDbSavedByObjectVersion
1070
     0
  0
VISUALSTYLE
  5
2A
102
{ACAD_XDICTIONARY
360
5C6
102
}
102
{ACAD_REACTORS
330
29
102
}
330
29
100
AcDbVisualStyle
  2
Flat
 70
     0
 71
     2
 72
     1
 73
     1
 90
        2
 40
-0.6
 41
30.0
 62
     5
 63
     7
 74
     0
 91
        0
 64
     7
 65
   257
 75
     1
175
     1
 42
1.0
 92
        8
 66
     7
 43
1.0
 76
     1
 77
     6
 78
     2
 67
     7
 79
     5
170
     0
171
     0
290
     0
174
     0
 93
       13
 44
0.0
173
     0
291
     1
 45
0.0
1001
ACAD
1000
AcDbSavedByObjectVersion
1070
     0
  0
VISUALSTYLE
  5
2B
102
{ACAD_XDICTIONARY
360
5C8
102
}
102
{ACAD_REACTORS
330
29
102
}
330
29
100
AcDbVisualStyle
  2
FlatWithEdges
 70
     1
 71
     2
 72
     1
 73
     1
 90
        2
 40
-0.6
 41
30.0
 62
     5
 63
     7
 74
     1
 91
        0
 64
     7
 65
   257
 75
     1
175
     1
 42
1.0
 92
        0
 66
   257
 43
1.0
 76
     1
 77
     6
 78
     2
 67
     7
 79
     5
170
     0
171
     0
290
     0
174
     0
 93
       13
 44
0.0
173
     0
291
     1
 45
0.0
1001
ACAD
1000
AcDbSavedByObjectVersion
1070
     0
  0
VISUALSTYLE
  5
2C
102
{ACAD_XDICTIONARY
360
5CA
102
}
102
{ACAD_REACTORS
330
29
102
}
330
29
100
AcDbVisualStyle
  2
Gouraud
 70
     2
 71
     2
 72
     2
 73
     1
 90
        2
 40
-0.6
 41
30.0
 62
     5
 63
     7
 74
     0
 91
        0
 64
     7
 65
   257
 75
     1
175
     1
 42
1.0
 92
        0
 66
     7
 43
1.0
 76
     1
 77
     6
 78
     2
 67
     7
 79
     5
170
     0
171
     0
290
     0
174
     0
 93
       13
 44
0.0
173
     0
291
     1
 45
0.0
1001
ACAD
1000
AcDbSavedByObjectVersion
1070
     0
  0
VISUALSTYLE
  5
2D
102
{ACAD_XDICTIONARY
360
5CC
102
}
102
{ACAD_REACTORS
330
29
102
}
330
29
100
AcDbVisualStyle
  2
GouraudWithEdges
 70
     3
 71
     2
 72
     2
 73
     1
 90
        2
 40
-0.6
 41
30.0
 62
     5
 63
     7
 74
     1
 91
        0
 64
     7
 65
   257
 75
     1
175
     1
 42
1.0
 92
        0
 66
   257
 43
1.0
 76
     1
 77
     6
 78
     2
 67
     7
 79
     5
170
     0
171
     0
290
     0
174
     0
 93
       13
 44
0.0
173
     0
291
     1
 45
0.0
1001
ACAD
1000
AcDbSavedByObjectVersion
1070
     0
  0
VISUALSTYLE
  5
31
102
{ACAD_XDICTIONARY
360
5D4
102
}
102
{ACAD_REACTORS
330
29
102
}
330
29
100
AcDbVisualStyle
  2
Hidden
 70
     6
 71
     1
 72
     2
 73
     2
 90
        0
 40
-0.6
 41
-30.0
 62
     5
 63
     7
 74
     2
 91
        2
 64
     7
 65
   257
 75
     2
175
     1
 42
40.0
 92
        0
 66
   257
 43
1.0
 76
     1
 77
     6
 78
     2
 67
     7
 79
     3
170
     0
171
     0
290
     0
174
     0
 93
        1
 44
0.0
173
     0
291
     0
 45
0.0
1001
ACAD
1000
AcDbSavedByObjectVersion
1070
     0
  0
VISUALSTYLE
  5
3F
102
{ACAD_XDICTIONARY
360
5F0
102
}
102
{ACAD_REACTORS
330
29
102
}
330
29
100
AcDbVisualStyle
  2
JitterOff
 70
    20
 71
     2
 72
     2
 73
     0
 90
        0
 40
-0.6
 41
-30.0
 62
     5
 63
     7
 74
     1
 91
        4
 64
     7
 65
   257
 75
     1
175
     1
 42
1.0
 92
       10
 66
     7
 43
1.0
 76
     1
 77
     6
 78
     2
 67
     7
 79
     5
170
     0
171
     0
290
     0
174
     0
 93
        1
 44
0.0
173
     0
291
     1
 45
0.0
1001
ACAD
1000
AcDbSavedByObjectVersion
1070
     0
  0
VISUALSTYLE
  5
37
102
{ACAD_XDICTIONARY
360
5E0
102
}
102
{ACAD_REACTORS
330
29
102
}
330
29
100
AcDbVisualStyle
  2
Linepattern
 70
    14
 71
     2
 72
     2
 73
     0
 90
        0
 40
-0.6
 41
-30.0
 62
     5
 63
     7
 74
     1
 91
        4
 64
     7
 65
   257
 75
     7
175
     7
 42
1.0
 92
        8
 66
     7
 43
1.0
 76
     1
 77
     6
 78
     2
 67
     7
 79
     5
170
     0
171
     0
290
     0
174
     0
 93
        1
 44
0.0
173
     0
291
     1
 45
0.0
1001
ACAD
1000
AcDbSavedByObjectVersion
1070
     0
  0
VISUALSTYLE
  5
40
102
{ACAD_XDICTIONARY
360
5F2
102
}
102
{ACAD_REACTORS
330
29
102
}
330
29
100
AcDbVisualStyle
  2
OverhangOff
 70
    21
 71
     2
 72
     2
 73
     0
 90
        0
 40
-0.6
 41
-30.0
 62
     5
 63
     7
 74
     1
 91
        4
 64
     7
 65
   257
 75
     1
175
     1
 42
1.0
 92
        9
 66
     7
 43
1.0
 76
     1
 77
     6
 78
     2
 67
     7
 79
     5
170
     0
171
     0
290
     0
174
     0
 93
        1
 44
0.0
173
     0
291
     1
 45
0.0
1001
ACAD
1000
AcDbSavedByObjectVersion
1070
     0
  0
VISUALSTYLE
  5
33
102
{ACAD_XDICTIONARY
360
5D8
102
}
102
{ACAD_REACTORS
330
29
102
}
330
29
100
AcDbVisualStyle
  2
Realistic
 70
     8
 71
     2
 72
     3
 73
     0
 90
        2
 40
-0.6
 41
30.0
 62
     5
 63
     7
 74
     0
 91
        0
 64
     7
 65
   257
 75
     1
175
     1
 42
1.0
 92
        8
 66
   257
 43
1.0
 76
     1
 77
     6
 78
     2
 67
     7
 79
     3
170
     0
171
     0
290
     0
174
     0
 93
       13
 44
0.0
173
     0
291
     0
 45
0.0
1001
ACAD
1000
AcDbSavedByObjectVersion
1070
     0
  0
VISUALSTYLE
  5
3E
102
{ACAD_XDICTIONARY
360
5EE
102
}
102
{ACAD_REACTORS
330
29
102
}
330
29
100
AcDbVisualStyle
  2
Shaded
 70
    27
 71
     2
 72
     2
 73
     1
 90
        2
 40
-0.6
 41
30.0
 62
     5
 63
     7
 74
     0
 91
        4
 64
     7
 65
   257
 75
     1
175
     1
 42
1.0
 92
        8
 66
   257
 43
1.0
 76
     1
 77
     6
 78
     2
 67
     8
 79
     3
170
     0
171
     0
290
     0
174
     0
 93
        5
 44
0.0
173
     0
291
     0
 45
0.0
1001
ACAD
1000
AcDbSavedByObjectVersion
1070
     0
  0
VISUALSTYLE
  5
3D
102
{ACAD_XDICTIONARY
360
5EC
102
}
102
{ACAD_REACTORS
330
29
102
}
330
29
100
AcDbVisualStyle
  2
Shaded with edges
 70
    26
 71
     2
 72
     2
 73
     1
 90
        2
 40
-0.6
 41
30.0
 62
     5
 63
     7
 74
     1
 91
        2
 64
     7
 65
   257
 75
     2
175
     1
 42
1.0
 92
        8
 66
   257
 43
1.0
 76
     1
 77
     6
 78
     2
 67
     7
 79
     3
170
     0
171
     0
290
     0
174
     0
 93
        5
 44
0.0
173
     0
291
     0
 45
0.0
1001
ACAD
1000
AcDbSavedByObjectVersion
1070
     0
  0
VISUALSTYLE
  5
3A
102
{ACAD_XDICTIONARY
360
5E6
102
}
102
{ACAD_REACTORS
330
29
102
}
330
29
100
AcDbVisualStyle
  2
Shades of Gray
 70
    23
 71
     2
 72
     2
 73
     3
 90
        0
 40
-0.6
 41
-30.0
 62
     5
 63
     7
 74
     2
 91
        2
 64
     7
 65
     7
 75
     1
175
     1
 42
40.0
 92
        8
 66
     7
 43
1.0
 76
     1
 77
     6
 78
     2
 67
     7
 79
     3
170
     0
171
     0
290
     0
174
     0
 93
        1
 44
0.0
173
     0
291
     0
 45
0.0
1001
ACAD
1000
AcDbSavedByObjectVersion
1070
     0
  0
VISUALSTYLE
  5
3B
102
{ACAD_XDICTIONARY
360
5E8
102
}
102
{ACAD_REACTORS
330
29
102
}
330
29
100
AcDbVisualStyle
  2
Sketchy
 70
    24
 71
     1
 72
     2
 73
     2
 90
        0
 40
-0.6
 41
-30.0
 62
     5
 63
     7
 74
     2
 91
        2
 64
     7
 65
     7
 75
     1
175
     1
 42
40.0
 92
       11
 66
     7
 43
1.0
 76
     1
 77
     6
 78
     2
 67
     7
 79
     6
170
     0
171
     0
290
     0
174
     0
 93
        1
 44
0.0
173
     0
291
     0
 45
0.0
1001
ACAD
1000
AcDbSavedByObjectVersion
1070
     0
  0
VISUALSTYLE
  5
36
102
{ACAD_XDICTIONARY
360
5DE
102
}
102
{ACAD_REACTORS
330
29
102
}
330
29
100
AcDbVisualStyle
  2
Thicken
 70
    13
 71
     2
 72
     2
 73
     0
 90
        0
 40
-0.6
 41
-30.0
 62
     5
 63
     7
 74
     1
 91
        4
 64
     7
 65
   257
 75
     1
175
     1
 42
1.0
 92
       12
 66
     7
 43
1.0
 76
     1
 77
     6
 78
     2
 67
     7
 79
     5
170
     0
171
     0
290
     0
174
     0
 93
        1
 44
0.0
173
     0
291
     1
 45
0.0
1001
ACAD
1000
AcDbSavedByObjectVersion
1070
     0
  0
VISUALSTYLE
  5
30
102
{ACAD_XDICTIONARY
360
5D2
102
}
102
{ACAD_REACTORS
330
29
102
}
330
29
100
AcDbVisualStyle
  2
Wireframe
 70
     5
 71
     0
 72
     2
 73
     0
 90
        0
 40
-0.6
 41
-30.0
 62
     5
 63
     7
 74
     1
 91
        4
 64
     7
 65
   257
 75
     1
175
     1
 42
1.0
 92
        0
 66
   257
 43
1.0
 76
     1
 77
     6
 78
     2
 67
     7
 79
     3
170
     0
171
     0
290
     0
174
     0
 93
        1
 44
0.0
173
     0
291
     0
 45
0.0
1001
ACAD
1000
AcDbSavedByObjectVersion
1070
     0
  0
VISUALSTYLE
  5
3C
102
{ACAD_XDICTIONARY
360
5EA
102
}
102
{ACAD_REACTORS
330
29
102
}
330
29
100
AcDbVisualStyle
  2
X-Ray
 70
    25
 71
     2
 72
     2
 73
     1
 90
        1
 40
0.5
 41
-30.0
 62
     5
 63
     7
 74
     1
 91
        0
 64
     7
 65
   257
 75
     1
175
     1
 42
1.0
 92
        8
 66
     7
 43
1.0
 76
     1
 77
     6
 78
     2
 67
     7
 79
     3
170
     0
171
     0
290
     0
174
     0
 93
       13
 44
0.0
173
     0
291
     0
 45
0.0
1001
ACAD
1000
AcDbSavedByObjectVersion
1070
     0
  0
DICTIONARYVAR
  5
545
102
{ACAD_REACTORS
330
53F
102
}
330
53F
100
DictionaryVariables
280
     0
  1
1
  0
DICTIONARYVAR
  5
546
102
{ACAD_REACTORS
330
53F
102
}
330
53F
100
DictionaryVariables
280
     0
  1
1:1
  0
DICTIONARYVAR
  5
541
102
{ACAD_REACTORS
330
53F
102
}
330
53F
100
DictionaryVariables
280
     0
  1
STANDARD
  0
DICTIONARYVAR
  5
540
102
{ACAD_REACTORS
330
53F
102
}
330
53F
100
DictionaryVariables
280
     0
  1
STANDARD
  0
DICTIONARYVAR
  5
542
102
{ACAD_REACTORS
330
53F
102
}
330
53F
100
DictionaryVariables
280
     0
  1
ISO 128-34_2001
  0
DICTIONARYVAR
  5
543
102
{ACAD_REACTORS
330
53F
102
}
330
53F
100
DictionaryVariables
280
     0
  1
ISO 128-40_2001(E)
  0
DICTIONARYVAR
  5
5B7
102
{ACAD_REACTORS
330
53F
102
}
330
53F
100
DictionaryVariables
280
     0
  1
2
  0
DICTIONARYVAR
  5
5B5
102
{ACAD_REACTORS
330
53F
102
}
330
53F
100
DictionaryVariables
280
     0
  1
1
  0
DICTIONARYVAR
  5
5B4
102
{ACAD_REACTORS
330
53F
102
}
330
53F
100
DictionaryVariables
280
     0
  1
0
  0
DICTIONARYVAR
  5
548
102
{ACAD_REACTORS
330
53F
102
}
330
53F
100
DictionaryVariables
280
     0
  1
1
  0
DICTIONARYVAR
  5
549
102
{ACAD_REACTORS
330
53F
102
}
330
53F
100
DictionaryVariables
280
     0
  1
15
  0
DICTIONARYVAR
  5
547
102
{ACAD_REACTORS
330
53F
102
}
330
53F
100
DictionaryVariables
280
     0
  1
0
  0
DICTIONARYVAR
  5
544
102
{ACAD_REACTORS
330
53F
102
}
330
53F
100
DictionaryVariables
280
     0
  1
0
  0
DICTIONARYVAR
  5
5B3
102
{ACAD_REACTORS
330
53F
102
}
330
53F
100
DictionaryVariables
280
     0
  1
127
  0
DICTIONARYVAR
  5
5B6
102
{ACAD_REACTORS
330
53F
102
}
330
53F
100
DictionaryVariables
280
     0
  1
0
  0
DICTIONARY
  5
57F
102
{ACAD_REACTORS
330
578
102
}
330
578
100
AcDbDictionary
281
     1
  0
DICTIONARY
  5
559
102
{ACAD_REACTORS
330
558
102
}
330
558
100
AcDbDictionary
281
     1
  3
DWGSETTINGS
350
55A
  3
TRANSSETTINGS
350
55B
  0
XRECORD
  5
53E
102
{ACAD_REACTORS
330
53C
102
}
330
53C
100
AcDbXrecord
280
     1
330
4D8
330
4DB
330
4E2
330
4E3
330
4EA
330
4EB
330
4F4
330
4F5
330
4FC
330
4FD
330
504
330
507
330
50E
330
511
330
51A
330
51B
330
522
330
523
330
52A
330
52B
330
531
330
532
330
537
330
538
  0
DICTIONARY
  5
5FC
330
6B
100
AcDbDictionary
280
     1
281
     1
  3
ACAD_XREC_ROUNDTRIP
360
5FD
  0
DICTIONARY
  5
62B
330
54C
100
AcDbDictionary
280
     1
281
     1
  3
ACAD_XREC_ROUNDTRIP
360
62C
  0
DICTIONARY
  5
600
330
73
100
AcDbDictionary
280
     1
281
     1
  3
ACAD_XREC_ROUNDTRIP
360
601
  0
DICTIONARY
  5
5FE
330
6F
100
AcDbDictionary
280
     1
281
     1
  3
ACAD_XREC_ROUNDTRIP
360
5FF
  0
DICTIONARY
  5
602
330
77
100
AcDbDictionary
280
     1
281
     1
  3
ACAD_XREC_ROUNDTRIP
360
603
  0
DICTIONARY
  5
1A
330
19
100
AcDbDictionary
280
     1
281
     1
  3
ACAD_XREC_ROUNDTRIP
360
5C4
  3
BUMPTILE
360
1C
  3
DIFFUSETILE
360
1B
  3
OPACITYTILE
360
1F
  3
REFLECTIONTILE
360
1E
  3
REFRACTIONTILE
360
20
  3
SPECULARTILE
360
1D
  0
DICTIONARY
  5
12
330
11
100
AcDbDictionary
280
     1
281
     1
  3
ACAD_XREC_ROUNDTRIP
360
5C3
  3
BUMPTILE
360
14
  3
DIFFUSETILE
360
13
  3
OPACITYTILE
360
17
  3
REFLECTIONTILE
360
16
  3
REFRACTIONTILE
360
18
  3
SPECULARTILE
360
15
  0
DICTIONARY
  5
22
330
21
100
AcDbDictionary
280
     1
281
     1
  3
ACAD_XREC_ROUNDTRIP
360
5C5
  3
BUMPTILE
360
24
  3
DIFFUSETILE
360
23
  3
OPACITYTILE
360
27
  3
REFLECTIONTILE
360
26
  3
REFRACTIONTILE
360
28
  3
SPECULARTILE
360
25
  0
DICTIONARY
  5
5F8
330
67
100
AcDbDictionary
280
     1
281
     1
  3
ACAD_XREC_ROUNDTRIP
360
5F9
  0
DICTIONARY
  5
5FA
330
69
100
AcDbDictionary
280
     1
281
     1
  3
ACAD_XREC_ROUNDTRIP
360
5FB
  0
DICTIONARY
  5
629
330
54B
100
AcDbDictionary
280
     1
281
     1
  3
ACAD_XREC_ROUNDTRIP
360
62A
  0
DICTIONARY
  5
5BA
330
65
100
AcDbDictionary
280
     1
281
     1
  3
ACAD_ROUNDTRIP_2008_TABLESTYLE_CELLSTYLEMAP
360
5BB
  3
ACAD_XREC_ROUNDTRIP
360
5F6
  0
DICTIONARY
  5
5D0
330
2F
100
AcDbDictionary
280
     1
281
     1
  3
ACAD_XREC_ROUNDTRIP
360
5D1
  0
DICTIONARY
  5
5CE
330
2E
100
AcDbDictionary
280
     1
281
     1
  3
ACAD_XREC_ROUNDTRIP
360
5CF
  0
DICTIONARY
  5
5DC
330
35
100
AcDbDictionary
280
     1
281
     1
  3
ACAD_XREC_ROUNDTRIP
360
5DD
  0
DICTIONARY
  5
5E4
330
39
100
AcDbDictionary
280
     1
281
     1
  3
ACAD_XREC_ROUNDTRIP
360
5E5
  0
DICTIONARY
  5
5D6
330
32
100
AcDbDictionary
280
     1
281
     1
  3
ACAD_XREC_ROUNDTRIP
360
5D7
  0
DICTIONARY
  5
5DA
330
34
100
AcDbDictionary
280
     1
281
     1
  3
ACAD_XREC_ROUNDTRIP
360
5DB
  0
DICTIONARY
  5
5F4
330
41
100
AcDbDictionary
280
     1
281
     1
  3
ACAD_XREC_ROUNDTRIP
360
5F5
  0
DICTIONARY
  5
5E2
330
38
100
AcDbDictionary
280
     1
281
     1
  3
ACAD_XREC_ROUNDTRIP
360
5E3
  0
DICTIONARY
  5
5C6
330
2A
100
AcDbDictionary
280
     1
281
     1
  3
ACAD_XREC_ROUNDTRIP
360
5C7
  0
DICTIONARY
  5
5C8
330
2B
100
AcDbDictionary
280
     1
281
     1
  3
ACAD_XREC_ROUNDTRIP
360
5C9
  0
DICTIONARY
  5
5CA
330
2C
100
AcDbDictionary
280
     1
281
     1
  3
ACAD_XREC_ROUNDTRIP
360
5CB
  0
DICTIONARY
  5
5CC
330
2D
100
AcDbDictionary
280
     1
281
     1
  3
ACAD_XREC_ROUNDTRIP
360
5CD
  0
DICTIONARY
  5
5D4
330
31
100
AcDbDictionary
280
     1
281
     1
  3
ACAD_XREC_ROUNDTRIP
360
5D5
  0
DICTIONARY
  5
5F0
330
3F
100
AcDbDictionary
280
     1
281
     1
  3
ACAD_XREC_ROUNDTRIP
360
5F1
  0
DICTIONARY
  5
5E0
330
37
100
AcDbDictionary
280
     1
281
     1
  3
ACAD_XREC_ROUNDTRIP
360
5E1
  0
DICTIONARY
  5
5F2
330
40
100
AcDbDictionary
280
     1
281
     1
  3
ACAD_XREC_ROUNDTRIP
360
5F3
  0
DICTIONARY
  5
5D8
330
33
100
AcDbDictionary
280
     1
281
     1
  3
ACAD_XREC_ROUNDTRIP
360
5D9
  0
DICTIONARY
  5
5EE
330
3E
100
AcDbDictionary
280
     1
281
     1
  3
ACAD_XREC_ROUNDTRIP
360
5EF
  0
DICTIONARY
  5
5EC
330
3D
100
AcDbDictionary
280
     1
281
     1
  3
ACAD_XREC_ROUNDTRIP
360
5ED
  0
DICTIONARY
  5
5E6
330
3A
100
AcDbDictionary
280
     1
281
     1
  3
ACAD_XREC_ROUNDTRIP
360
5E7
  0
DICTIONARY
  5
5E8
330
3B
100
AcDbDictionary
280
     1
281
     1
  3
ACAD_XREC_ROUNDTRIP
360
5E9
  0
DICTIONARY
  5
5DE
330
36
100
AcDbDictionary
280
     1
281
     1
  3
ACAD_XREC_ROUNDTRIP
360
5DF
  0
DICTIONARY
  5
5D2
330
30
100
AcDbDictionary
280
     1
281
     1
  3
ACAD_XREC_ROUNDTRIP
360
5D3
  0
DICTIONARY
  5
5EA
330
3C
100
AcDbDictionary
280
     1
281
     1
  3
ACAD_XREC_ROUNDTRIP
360
5EB
  0
XRECORD
  5
5FD
102
{ACAD_REACTORS
330
5FC
102
}
330
5FC
100
AcDbXrecord
280
     1
102
DISPLAYNAME
  1
Imperial24
102
FLAGS
 90
        0
  0
XRECORD
  5
62C
102
{ACAD_REACTORS
330
62B
102
}
330
62B
100
AcDbXrecord
280
     1
102
DISPLAYNAME
  1
Metric50
102
FLAGS
 90
        0
  0
XRECORD
  5
601
102
{ACAD_REACTORS
330
600
102
}
330
600
100
AcDbXrecord
280
     1
102
SHADEPLOT
 70
     0
102
SHADEPLOTRESLEVEL
 70
     2
102
SHADEPLOTCUSTOMDPI
 70
   300
  0
XRECORD
  5
5FF
102
{ACAD_REACTORS
330
5FE
102
}
330
5FE
100
AcDbXrecord
280
     1
102
SHADEPLOT
 70
     0
102
SHADEPLOTRESLEVEL
 70
     2
102
SHADEPLOTCUSTOMDPI
 70
   300
  0
XRECORD
  5
603
102
{ACAD_REACTORS
330
602
102
}
330
602
100
AcDbXrecord
280
     1
102
SHADEPLOT
 70
     0
102
SHADEPLOTRESLEVEL
 70
     2
102
SHADEPLOTCUSTOMDPI
 70
   300
  0
XRECORD
  5
5C4
102
{ACAD_REACTORS
330
1A
102
}
330
1A
100
AcDbXrecord
280
     1
102
MATERIAL
148
0.0
149
0.0
149
0.0
 93
        0
 94
      127
282
     0
 72
     0
 77
     0
171
     0
175
     0
179
     0
273
     0
  0
XRECORD
  5
1C
102
{ACAD_REACTORS
330
1A
102
}
330
1A
100
AcDbXrecord
280
     1
270
     1
271
     1
  0
XRECORD
  5
1B
102
{ACAD_REACTORS
330
1A
102
}
330
1A
100
AcDbXrecord
280
     1
270
     1
271
     1
  0
XRECORD
  5
1F
102
{ACAD_REACTORS
330
1A
102
}
330
1A
100
AcDbXrecord
280
     1
270
     1
271
     1
  0
XRECORD
  5
1E
102
{ACAD_REACTORS
330
1A
102
}
330
1A
100
AcDbXrecord
280
     1
270
     1
271
     1
  0
XRECORD
  5
20
102
{ACAD_REACTORS
330
1A
102
}
330
1A
100
AcDbXrecord
280
     1
270
     1
271
     1
  0
XRECORD
  5
1D
102
{ACAD_REACTORS
330
1A
102
}
330
1A
100
AcDbXrecord
280
     1
270
     1
271
     1
  0
XRECORD
  5
5C3
102
{ACAD_REACTORS
330
12
102
}
330
12
100
AcDbXrecord
280
     1
102
MATERIAL
148
0.0
149
0.0
149
0.0
 93
        0
 94
      127
282
     0
 72
     0
 77
     0
171
     0
175
     0
179
     0
273
     0
  0
XRECORD
  5
14
102
{ACAD_REACTORS
330
12
102
}
330
12
100
AcDbXrecord
280
     1
270
     1
271
     1
  0
XRECORD
  5
13
102
{ACAD_REACTORS
330
12
102
}
330
12
100
AcDbXrecord
280
     1
270
     1
271
     1
  0
XRECORD
  5
17
102
{ACAD_REACTORS
330
12
102
}
330
12
100
AcDbXrecord
280
     1
270
     1
271
     1
  0
XRECORD
  5
16
102
{ACAD_REACTORS
330
12
102
}
330
12
100
AcDbXrecord
280
     1
270
     1
271
     1
  0
XRECORD
  5
18
102
{ACAD_REACTORS
330
12
102
}
330
12
100
AcDbXrecord
280
     1
270
     1
271
     1
  0
XRECORD
  5
15
102
{ACAD_REACTORS
330
12
102
}
330
12
100
AcDbXrecord
280
     1
270
     1
271
     1
  0
XRECORD
  5
5C5
102
{ACAD_REACTORS
330
22
102
}
330
22
100
AcDbXrecord
280
     1
102
MATERIAL
148
0.0
149
0.0
149
0.0
 93
        0
 94
      127
282
     0
 72
     0
 77
     0
171
     0
175
     0
179
     0
273
     0
  0
XRECORD
  5
24
102
{ACAD_REACTORS
330
22
102
}
330
22
100
AcDbXrecord
280
     1
270
     1
271
     1
  0
XRECORD
  5
23
102
{ACAD_REACTORS
330
22
102
}
330
22
100
AcDbXrecord
280
     1
270
     1
271
     1
  0
XRECORD
  5
27
102
{ACAD_REACTORS
330
22
102
}
330
22
100
AcDbXrecord
280
     1
270
     1
271
     1
  0
XRECORD
  5
26
102
{ACAD_REACTORS
330
22
102
}
330
22
100
AcDbXrecord
280
     1
270
     1
271
     1
  0
XRECORD
  5
28
102
{ACAD_REACTORS
330
22
102
}
330
22
100
AcDbXrecord
280
     1
270
     1
271
     1
  0
XRECORD
  5
25
102
{ACAD_REACTORS
330
22
102
}
330
22
100
AcDbXrecord
280
     1
270
     1
271
     1
  0
XRECORD
  5
5F9
102
{ACAD_REACTORS
330
5F8
102
}
330
5F8
100
AcDbXrecord
280
     1
102
ACAD_ROUNDTRIP_2012_MLEADER_STYLE
298
     1
  0
XRECORD
  5
5FB
102
{ACAD_REACTORS
330
5FA
102
}
330
5FA
100
AcDbXrecord
280
     1
102
DISPLAYNAME
  1
Imperial24
102
FLAGS
 90
        0
  0
XRECORD
  5
62A
102
{ACAD_REACTORS
330
629
102
}
330
629
100
AcDbXrecord
280
     1
102
DISPLAYNAME
  1
Metric50
102
FLAGS
 90
        0
  0
CELLSTYLEMAP
  5
5BB
102
{ACAD_REACTORS
330
5BA
102
}
330
5BA
100
AcDbCellStyleMap
 90
        3
300
CELLSTYLE
  1
TABLEFORMAT_BEGIN
 90
        5
170
     1
 91
        0
 92
    32768
 62
   257
 93
        1
300
CONTENTFORMAT
  1
CONTENTFORMAT_BEGIN
 90
        0
 91
        0
 92
      512
 93
        0
300

 40
0.0
140
1.0
 94
        5
 62
     0
340
55
144
3.5
309
CONTENTFORMAT_END
171
     1
301
MARGIN
  1
CELLMARGIN_BEGIN
 40
1.5
 40
1.5
 40
1.5
 40
1.5
 40
4.5
 40
4.5
309
CELLMARGIN_END
 94
        6
 95
        1
302
GRIDFORMAT
  1
GRIDFORMAT_BEGIN
 90
        0
 91
        1
 62
     0
 92
       -2
340
5B
 93
        0
 40
1.125
309
GRIDFORMAT_END
 95
        2
302
GRIDFORMAT
  1
GRIDFORMAT_BEGIN
 90
        0
 91
        1
 62
     0
 92
       -2
340
5B
 93
        0
 40
1.125
309
GRIDFORMAT_END
 95
        4
302
GRIDFORMAT
  1
GRIDFORMAT_BEGIN
 90
        0
 91
        1
 62
     0
 92
       -2
340
5B
 93
        0
 40
1.125
309
GRIDFORMAT_END
 95
        8
302
GRIDFORMAT
  1
GRIDFORMAT_BEGIN
 90
        0
 91
        1
 62
     0
 92
       -2
340
5B
 93
        0
 40
1.125
309
GRIDFORMAT_END
 95
       16
302
GRIDFORMAT
  1
GRIDFORMAT_BEGIN
 90
        0
 91
        1
 62
     0
 92
       -2
340
5B
 93
        0
 40
1.125
309
GRIDFORMAT_END
 95
       32
302
GRIDFORMAT
  1
GRIDFORMAT_BEGIN
 90
        0
 91
        1
 62
     0
 92
       -2
340
5B
 93
        0
 40
1.125
309
GRIDFORMAT_END
309
TABLEFORMAT_END
  1
CELLSTYLE_BEGIN
 90
        1
 91
        1
300
_TITLE
309
CELLSTYLE_END
300
CELLSTYLE
  1
TABLEFORMAT_BEGIN
 90
        5
170
     1
 91
        0
 92
        0
 62
   257
 93
        1
300
CONTENTFORMAT
  1
CONTENTFORMAT_BEGIN
 90
        0
 91
        0
 92
      512
 93
        0
300

 40
0.0
140
1.0
 94
        5
 62
     0
340
55
144
3.5
309
CONTENTFORMAT_END
171
     1
301
MARGIN
  1
CELLMARGIN_BEGIN
 40
1.5
 40
1.5
 40
1.5
 40
1.5
 40
4.5
 40
4.5
309
CELLMARGIN_END
 94
        6
 95
        1
302
GRIDFORMAT
  1
GRIDFORMAT_BEGIN
 90
        0
 91
        1
 62
     0
 92
       -2
340
5B
 93
        0
 40
1.125
309
GRIDFORMAT_END
 95
        2
302
GRIDFORMAT
  1
GRIDFORMAT_BEGIN
 90
        0
 91
        1
 62
     0
 92
       -2
340
5B
 93
        0
 40
1.125
309
GRIDFORMAT_END
 95
        4
302
GRIDFORMAT
  1
GRIDFORMAT_BEGIN
 90
        0
 91
        1
 62
     0
 92
       -2
340
5B
 93
        0
 40
1.125
309
GRIDFORMAT_END
 95
        8
302
GRIDFORMAT
  1
GRIDFORMAT_BEGIN
 90
        0
 91
        1
 62
     0
 92
       -2
340
5B
 93
        0
 40
1.125
309
GRIDFORMAT_END
 95
       16
302
GRIDFORMAT
  1
GRIDFORMAT_BEGIN
 90
        0
 91
        1
 62
     0
 92
       -2
340
5B
 93
        0
 40
1.125
309
GRIDFORMAT_END
 95
       32
302
GRIDFORMAT
  1
GRIDFORMAT_BEGIN
 90
        0
 91
        1
 62
     0
 92
       -2
340
5B
 93
        0
 40
1.125
309
GRIDFORMAT_END
309
TABLEFORMAT_END
  1
CELLSTYLE_BEGIN
 90
        2
 91
        1
300
_HEADER
309
CELLSTYLE_END
300
CELLSTYLE
  1
TABLEFORMAT_BEGIN
 90
        5
170
     1
 91
        0
 92
        0
 62
   257
 93
        1
300
CONTENTFORMAT
  1
CONTENTFORMAT_BEGIN
 90
        0
 91
        0
 92
      512
 93
        0
300

 40
0.0
140
1.0
 94
        2
 62
     0
340
55
144
3.5
309
CONTENTFORMAT_END
171
     1
301
MARGIN
  1
CELLMARGIN_BEGIN
 40
1.5
 40
1.5
 40
1.5
 40
1.5
 40
4.5
 40
4.5
309
CELLMARGIN_END
 94
        6
 95
        1
302
GRIDFORMAT
  1
GRIDFORMAT_BEGIN
 90
        0
 91
        1
 62
     0
 92
       -2
340
5B
 93
        0
 40
1.125
309
GRIDFORMAT_END
 95
        2
302
GRIDFORMAT
  1
GRIDFORMAT_BEGIN
 90
        0
 91
        1
 62
     0
 92
       -2
340
5B
 93
        0
 40
1.125
309
GRIDFORMAT_END
 95
        4
302
GRIDFORMAT
  1
GRIDFORMAT_BEGIN
 90
        0
 91
        1
 62
     0
 92
       -2
340
5B
 93
        0
 40
1.125
309
GRIDFORMAT_END
 95
        8
302
GRIDFORMAT
  1
GRIDFORMAT_BEGIN
 90
        0
 91
        1
 62
     0
 92
       -2
340
5B
 93
        0
 40
1.125
309
GRIDFORMAT_END
 95
       16
302
GRIDFORMAT
  1
GRIDFORMAT_BEGIN
 90
        0
 91
        1
 62
     0
 92
       -2
340
5B
 93
        0
 40
1.125
309
GRIDFORMAT_END
 95
       32
302
GRIDFORMAT
  1
GRIDFORMAT_BEGIN
 90
        0
 91
        1
 62
     0
 92
       -2
340
5B
 93
        0
 40
1.125
309
GRIDFORMAT_END
309
TABLEFORMAT_END
  1
CELLSTYLE_BEGIN
 90
        3
 91
        2
300
_DATA
309
CELLSTYLE_END
  0
XRECORD
  5
5F6
102
{ACAD_REACTORS
330
5BA
102
}
330
5BA
100
AcDbXrecord
280
     1
102
ACAD_ROUNDTRIP_PRE2007_TABLESTYLE
 90
      512
 91
        0
  1

 92
      512
 93
        0
  2

 94
      512
 95
        0
  3

  0
XRECORD
  5
5D1
102
{ACAD_REACTORS
330
5D0
102
}
330
5D0
100
AcDbXrecord
280
     1
102
RTVSPost2010Prop28
280
     1
102
RTVSPost2010PropOp28
 70
     1
102
RTVSPost2010Prop29
280
     1
102
RTVSPost2010PropOp29
 70
     1
102
RTVSPost2010Prop30
280
     0
102
RTVSPost2010PropOp30
 70
     1
102
RTVSPost2010Prop31
280
     0
102
RTVSPost2010PropOp31
 70
     1
102
RTVSPost2010Prop32
280
     0
102
RTVSPost2010PropOp32
 70
     1
102
RTVSPost2010Prop33
280
     0
102
RTVSPost2010PropOp33
 70
     1
102
RTVSPost2010Prop34
280
     0
102
RTVSPost2010PropOp34
 70
     1
102
RTVSPost2010Prop35
280
     0
102
RTVSPost2010PropOp35
 70
     1
102
RTVSPost2010Prop36
280
     0
102
RTVSPost2010PropOp36
 70
     1
102
RTVSPost2010Prop37
 90
       50
102
RTVSPost2010PropOp37
 70
     1
102
RTVSPost2010Prop38
140
0.0
102
RTVSPost2010PropOp38
 70
     1
102
RTVSPost2010Prop39
140
1.0
102
RTVSPost2010PropOp39
 70
     1
102
RTVSPost2010Prop40
 90
        0
102
RTVSPost2010PropOp40
 70
     1
102
RTVSPost2010Prop41ColorIndex
 90
       18
102
RTVSPost2010Prop41ColorRGB
 90
        0
102
RTVSPost2010PropOp41
 70
     1
102
RTVSPost2010Prop42
 90
       50
102
RTVSPost2010PropOp42
 70
     1
102
RTVSPost2010Prop43
 90
        3
102
RTVSPost2010PropOp43
 70
     1
102
RTVSPost2010Prop44ColorIndex
 90
        5
102
RTVSPost2010Prop44ColorRGB
 90
      255
102
RTVSPost2010PropOp44
 70
     1
102
RTVSPost2010Prop45
280
     0
102
RTVSPost2010PropOp45
 70
     1
102
RTVSPost2010Prop46
 90
       50
102
RTVSPost2010PropOp46
 70
     1
102
RTVSPost2010Prop47
 90
       50
102
RTVSPost2010PropOp47
 70
     1
102
RTVSPost2010Prop48
 90
       50
102
RTVSPost2010PropOp48
 70
     1
102
RTVSPost2010Prop49
280
     0
102
RTVSPost2010PropOp49
 70
     1
102
RTVSPost2010Prop50
 90
       50
102
RTVSPost2010PropOp50
 70
     1
102
RTVSPost2010Prop51ColorIndex
 90
      256
102
RTVSPost2010Prop51ColorRGB
 90
-16777216
102
RTVSPost2010PropOp51
 70
     0
102
RTVSPost2010Prop52
140
1.0
102
RTVSPost2010PropOp52
 70
     0
102
RTVSPost2010Prop53
 90
        2
102
RTVSPost2010PropOp53
 70
     1
102
RTVSPost2010Prop54
  1
strokes_ogs.tif
102
RTVSPost2010PropOp54
 70
     1
102
RTVSPost2010Prop55
280
     0
102
RTVSPost2010PropOp55
 70
     1
102
RTVSPost2010Prop56
140
1.0
102
RTVSPost2010PropOp56
 70
     1
102
RTVSPost2010Prop57
140
1.0
102
RTVSPost2010PropOp57
 70
     1
102
RTVSPropertyOp0
 70
     1
102
RTVSPropertyOp1
 70
     1
102
RTVSPropertyOp2
 70
     1
102
RTVSPropertyOp3
 70
     1
102
RTVSPropertyOp4
 70
     1
102
RTVSPropertyOp5
 70
     1
102
RTVSPropertyOp6
 70
     1
102
RTVSPropertyOp7
 70
     1
102
RTVSPropertyOp8
 70
     1
102
RTVSPropertyOp9
 70
     1
102
RTVSPropertyOp10
 70
     1
102
RTVSPropertyOp11
 70
     1
102
RTVSPropertyOp12
 70
     1
102
RTVSPropertyOp13
 70
     1
102
RTVSPropertyOp14
 70
     1
102
RTVSPropertyOp15
 70
     1
102
RTVSPropertyOp16
 70
     1
102
RTVSPropertyOp17
 70
     1
102
RTVSPropertyOp18
 70
     1
102
RTVSPropertyOp19
 70
     1
102
RTVSPropertyOp20
 70
     1
102
RTVSPropertyOp21
 70
     1
102
RTVSPropertyOp22
 70
     1
102
RTVSPropertyOp23
 70
     1
102
RTVSPropertyOp24
 70
     1
102
RTVSPropertyOp25
 70
     1
102
RTVSPropertyOp26
 70
     1
102
RTVSPropertyOp27
 70
     1
102
RTVSPropertyOp28
 70
     1
102
RTVSPropertyOp29
 70
     1
102
RTVSPropertyOp30
 70
     1
102
RTVSPropertyOp31
 70
     1
102
RTVSPropertyOp32
 70
     1
102
RTVSPropertyOp33
 70
     1
102
RTVSPropertyOp34
 70
     1
102
RTVSPropertyOp35
 70
     1
102
RTVSPropertyOp36
 70
     1
102
RTVSPropertyOp37
 70
     1
102
RTVSPropertyOp38
 70
     1
102
RTVSPropertyOp39
 70
     1
102
RTVSPropertyOp40
 70
     1
102
RTVSPropertyOp41
 70
     1
102
RTVSPropertyOp42
 70
     1
102
RTVSPropertyOp43
 70
     1
102
RTVSPropertyOp44
 70
     1
102
RTVSPropertyOp45
 70
     1
102
RTVSPropertyOp46
 70
     1
102
RTVSPropertyOp47
 70
     1
102
RTVSPropertyOp48
 70
     1
102
RTVSPropertyOp49
 70
     1
102
RTVSPropertyOp50
 70
     1
102
RTVSPropertyOp51
 70
     0
102
RTVSPropertyOp52
 70
     0
102
RTVSPropertyOp53
 70
     1
102
RTVSPropertyOp54
 70
     1
102
RTVSPropertyOp55
 70
     1
102
RTVSPropertyOp56
 70
     1
102
RTVSPropertyOp57
 70
     1
102
RTVSPropertyOp58
 70
     1
102
RTVSPropertyOp59
 70
     1
102
RTVSPropertyOp60
 70
     1
102
RTVSPropertyOp61
 70
     1
102
RTVSPropertyOp62
 70
     1
  0
XRECORD
  5
5CF
102
{ACAD_REACTORS
330
5CE
102
}
330
5CE
100
AcDbXrecord
280
     1
102
RTVSPost2010Prop28
280
     0
102
RTVSPost2010PropOp28
 70
     1
102
RTVSPost2010Prop29
280
     1
102
RTVSPost2010PropOp29
 70
     1
102
RTVSPost2010Prop30
280
     1
102
RTVSPost2010PropOp30
 70
     1
102
RTVSPost2010Prop31
280
     0
102
RTVSPost2010PropOp31
 70
     1
102
RTVSPost2010Prop32
280
     0
102
RTVSPost2010PropOp32
 70
     1
102
RTVSPost2010Prop33
280
     0
102
RTVSPost2010PropOp33
 70
     1
102
RTVSPost2010Prop34
280
     0
102
RTVSPost2010PropOp34
 70
     1
102
RTVSPost2010Prop35
280
     0
102
RTVSPost2010PropOp35
 70
     1
102
RTVSPost2010Prop36
280
     0
102
RTVSPost2010PropOp36
 70
     1
102
RTVSPost2010Prop37
 90
       50
102
RTVSPost2010PropOp37
 70
     1
102
RTVSPost2010Prop38
140
0.0
102
RTVSPost2010PropOp38
 70
     1
102
RTVSPost2010Prop39
140
1.0
102
RTVSPost2010PropOp39
 70
     1
102
RTVSPost2010Prop40
 90
        0
102
RTVSPost2010PropOp40
 70
     1
102
RTVSPost2010Prop41ColorIndex
 90
       18
102
RTVSPost2010Prop41ColorRGB
 90
        0
102
RTVSPost2010PropOp41
 70
     1
102
RTVSPost2010Prop42
 90
       50
102
RTVSPost2010PropOp42
 70
     1
102
RTVSPost2010Prop43
 90
        3
102
RTVSPost2010PropOp43
 70
     1
102
RTVSPost2010Prop44ColorIndex
 90
        5
102
RTVSPost2010Prop44ColorRGB
 90
      255
102
RTVSPost2010PropOp44
 70
     1
102
RTVSPost2010Prop45
280
     0
102
RTVSPost2010PropOp45
 70
     1
102
RTVSPost2010Prop46
 90
       50
102
RTVSPost2010PropOp46
 70
     1
102
RTVSPost2010Prop47
 90
       50
102
RTVSPost2010PropOp47
 70
     1
102
RTVSPost2010Prop48
 90
       50
102
RTVSPost2010PropOp48
 70
     1
102
RTVSPost2010Prop49
280
     0
102
RTVSPost2010PropOp49
 70
     1
102
RTVSPost2010Prop50
 90
       50
102
RTVSPost2010PropOp50
 70
     1
102
RTVSPost2010Prop51ColorIndex
 90
      256
102
RTVSPost2010Prop51ColorRGB
 90
-16777216
102
RTVSPost2010PropOp51
 70
     0
102
RTVSPost2010Prop52
140
1.0
102
RTVSPost2010PropOp52
 70
     0
102
RTVSPost2010Prop53
 90
        2
102
RTVSPost2010PropOp53
 70
     1
102
RTVSPost2010Prop54
  1
strokes_ogs.tif
102
RTVSPost2010PropOp54
 70
     1
102
RTVSPost2010Prop55
280
     0
102
RTVSPost2010PropOp55
 70
     1
102
RTVSPost2010Prop56
140
1.0
102
RTVSPost2010PropOp56
 70
     1
102
RTVSPost2010Prop57
140
1.0
102
RTVSPost2010PropOp57
 70
     1
102
RTVSPropertyOp0
 70
     1
102
RTVSPropertyOp1
 70
     1
102
RTVSPropertyOp2
 70
     1
102
RTVSPropertyOp3
 70
     1
102
RTVSPropertyOp4
 70
     1
102
RTVSPropertyOp5
 70
     1
102
RTVSPropertyOp6
 70
     1
102
RTVSPropertyOp7
 70
     1
102
RTVSPropertyOp8
 70
     1
102
RTVSPropertyOp9
 70
     1
102
RTVSPropertyOp10
 70
     1
102
RTVSPropertyOp11
 70
     1
102
RTVSPropertyOp12
 70
     1
102
RTVSPropertyOp13
 70
     1
102
RTVSPropertyOp14
 70
     1
102
RTVSPropertyOp15
 70
     1
102
RTVSPropertyOp16
 70
     1
102
RTVSPropertyOp17
 70
     1
102
RTVSPropertyOp18
 70
     1
102
RTVSPropertyOp19
 70
     1
102
RTVSPropertyOp20
 70
     1
102
RTVSPropertyOp21
 70
     1
102
RTVSPropertyOp22
 70
     1
102
RTVSPropertyOp23
 70
     1
102
RTVSPropertyOp24
 70
     1
102
RTVSPropertyOp25
 70
     1
102
RTVSPropertyOp26
 70
     1
102
RTVSPropertyOp27
 70
     1
102
RTVSPropertyOp28
 70
     1
102
RTVSPropertyOp29
 70
     1
102
RTVSPropertyOp30
 70
     1
102
RTVSPropertyOp31
 70
     1
102
RTVSPropertyOp32
 70
     1
102
RTVSPropertyOp33
 70
     1
102
RTVSPropertyOp34
 70
     1
102
RTVSPropertyOp35
 70
     1
102
RTVSPropertyOp36
 70
     1
102
RTVSPropertyOp37
 70
     1
102
RTVSPropertyOp38
 70
     1
102
RTVSPropertyOp39
 70
     1
102
RTVSPropertyOp40
 70
     1
102
RTVSPropertyOp41
 70
     1
102
RTVSPropertyOp42
 70
     1
102
RTVSPropertyOp43
 70
     1
102
RTVSPropertyOp44
 70
     1
102
RTVSPropertyOp45
 70
     1
102
RTVSPropertyOp46
 70
     1
102
RTVSPropertyOp47
 70
     1
102
RTVSPropertyOp48
 70
     1
102
RTVSPropertyOp49
 70
     1
102
RTVSPropertyOp50
 70
     1
102
RTVSPropertyOp51
 70
     0
102
RTVSPropertyOp52
 70
     0
102
RTVSPropertyOp53
 70
     1
102
RTVSPropertyOp54
 70
     1
102
RTVSPropertyOp55
 70
     1
102
RTVSPropertyOp56
 70
     1
102
RTVSPropertyOp57
 70
     1
102
RTVSPropertyOp58
 70
     1
102
RTVSPropertyOp59
 70
     1
102
RTVSPropertyOp60
 70
     1
102
RTVSPropertyOp61
 70
     1
102
RTVSPropertyOp62
 70
     1
  0
XRECORD
  5
5DD
102
{ACAD_REACTORS
330
5DC
102
}
330
5DC
100
AcDbXrecord
280
     1
102
RTVSPost2010Prop28
280
     0
102
RTVSPost2010PropOp28
 70
     1
102
RTVSPost2010Prop29
280
     1
102
RTVSPost2010PropOp29
 70
     1
102
RTVSPost2010Prop30
280
     1
102
RTVSPost2010PropOp30
 70
     1
102
RTVSPost2010Prop31
280
     0
102
RTVSPost2010PropOp31
 70
     1
102
RTVSPost2010Prop32
280
     0
102
RTVSPost2010PropOp32
 70
     1
102
RTVSPost2010Prop33
280
     0
102
RTVSPost2010PropOp33
 70
     1
102
RTVSPost2010Prop34
280
     0
102
RTVSPost2010PropOp34
 70
     1
102
RTVSPost2010Prop35
280
     0
102
RTVSPost2010PropOp35
 70
     1
102
RTVSPost2010Prop36
280
     0
102
RTVSPost2010PropOp36
 70
     1
102
RTVSPost2010Prop37
 90
       50
102
RTVSPost2010PropOp37
 70
     1
102
RTVSPost2010Prop38
140
0.0
102
RTVSPost2010PropOp38
 70
     1
102
RTVSPost2010Prop39
140
1.0
102
RTVSPost2010PropOp39
 70
     1
102
RTVSPost2010Prop40
 90
        0
102
RTVSPost2010PropOp40
 70
     1
102
RTVSPost2010Prop41ColorIndex
 90
       18
102
RTVSPost2010Prop41ColorRGB
 90
        0
102
RTVSPost2010PropOp41
 70
     1
102
RTVSPost2010Prop42
 90
       50
102
RTVSPost2010PropOp42
 70
     1
102
RTVSPost2010Prop43
 90
        3
102
RTVSPost2010PropOp43
 70
     1
102
RTVSPost2010Prop44ColorIndex
 90
        5
102
RTVSPost2010Prop44ColorRGB
 90
      255
102
RTVSPost2010PropOp44
 70
     1
102
RTVSPost2010Prop45
280
     0
102
RTVSPost2010PropOp45
 70
     1
102
RTVSPost2010Prop46
 90
       50
102
RTVSPost2010PropOp46
 70
     1
102
RTVSPost2010Prop47
 90
       50
102
RTVSPost2010PropOp47
 70
     1
102
RTVSPost2010Prop48
 90
       50
102
RTVSPost2010PropOp48
 70
     1
102
RTVSPost2010Prop49
280
     0
102
RTVSPost2010PropOp49
 70
     1
102
RTVSPost2010Prop50
 90
       50
102
RTVSPost2010PropOp50
 70
     1
102
RTVSPost2010Prop51ColorIndex
 90
      256
102
RTVSPost2010Prop51ColorRGB
 90
-16777216
102
RTVSPost2010PropOp51
 70
     0
102
RTVSPost2010Prop52
140
1.0
102
RTVSPost2010PropOp52
 70
     0
102
RTVSPost2010Prop53
 90
        2
102
RTVSPost2010PropOp53
 70
     1
102
RTVSPost2010Prop54
  1
strokes_ogs.tif
102
RTVSPost2010PropOp54
 70
     1
102
RTVSPost2010Prop55
280
     0
102
RTVSPost2010PropOp55
 70
     1
102
RTVSPost2010Prop56
140
1.0
102
RTVSPost2010PropOp56
 70
     1
102
RTVSPost2010Prop57
140
1.0
102
RTVSPost2010PropOp57
 70
     1
102
RTVSPropertyOp0
 70
     1
102
RTVSPropertyOp1
 70
     1
102
RTVSPropertyOp2
 70
     1
102
RTVSPropertyOp3
 70
     1
102
RTVSPropertyOp4
 70
     1
102
RTVSPropertyOp5
 70
     1
102
RTVSPropertyOp6
 70
     1
102
RTVSPropertyOp7
 70
     1
102
RTVSPropertyOp8
 70
     1
102
RTVSPropertyOp9
 70
     1
102
RTVSPropertyOp10
 70
     1
102
RTVSPropertyOp11
 70
     1
102
RTVSPropertyOp12
 70
     1
102
RTVSPropertyOp13
 70
     1
102
RTVSPropertyOp14
 70
     1
102
RTVSPropertyOp15
 70
     1
102
RTVSPropertyOp16
 70
     1
102
RTVSPropertyOp17
 70
     1
102
RTVSPropertyOp18
 70
     1
102
RTVSPropertyOp19
 70
     1
102
RTVSPropertyOp20
 70
     1
102
RTVSPropertyOp21
 70
     1
102
RTVSPropertyOp22
 70
     1
102
RTVSPropertyOp23
 70
     1
102
RTVSPropertyOp24
 70
     1
102
RTVSPropertyOp25
 70
     1
102
RTVSPropertyOp26
 70
     1
102
RTVSPropertyOp27
 70
     1
102
RTVSPropertyOp28
 70
     1
102
RTVSPropertyOp29
 70
     1
102
RTVSPropertyOp30
 70
     1
102
RTVSPropertyOp31
 70
     1
102
RTVSPropertyOp32
 70
     1
102
RTVSPropertyOp33
 70
     1
102
RTVSPropertyOp34
 70
     1
102
RTVSPropertyOp35
 70
     1
102
RTVSPropertyOp36
 70
     1
102
RTVSPropertyOp37
 70
     1
102
RTVSPropertyOp38
 70
     1
102
RTVSPropertyOp39
 70
     1
102
RTVSPropertyOp40
 70
     1
102
RTVSPropertyOp41
 70
     1
102
RTVSPropertyOp42
 70
     1
102
RTVSPropertyOp43
 70
     1
102
RTVSPropertyOp44
 70
     1
102
RTVSPropertyOp45
 70
     1
102
RTVSPropertyOp46
 70
     1
102
RTVSPropertyOp47
 70
     1
102
RTVSPropertyOp48
 70
     1
102
RTVSPropertyOp49
 70
     1
102
RTVSPropertyOp50
 70
     1
102
RTVSPropertyOp51
 70
     0
102
RTVSPropertyOp52
 70
     0
102
RTVSPropertyOp53
 70
     1
102
RTVSPropertyOp54
 70
     1
102
RTVSPropertyOp55
 70
     1
102
RTVSPropertyOp56
 70
     1
102
RTVSPropertyOp57
 70
     1
102
RTVSPropertyOp58
 70
     1
102
RTVSPropertyOp59
 70
     1
102
RTVSPropertyOp60
 70
     1
102
RTVSPropertyOp61
 70
     1
102
RTVSPropertyOp62
 70
     1
  0
XRECORD
  5
5E5
102
{ACAD_REACTORS
330
5E4
102
}
330
5E4
100
AcDbXrecord
280
     1
102
RTVSPost2010Prop28
280
     0
102
RTVSPost2010PropOp28
 70
     1
102
RTVSPost2010Prop29
280
     1
102
RTVSPost2010PropOp29
 70
     1
102
RTVSPost2010Prop30
280
     1
102
RTVSPost2010PropOp30
 70
     1
102
RTVSPost2010Prop31
280
     0
102
RTVSPost2010PropOp31
 70
     1
102
RTVSPost2010Prop32
280
     0
102
RTVSPost2010PropOp32
 70
     1
102
RTVSPost2010Prop33
280
     0
102
RTVSPost2010PropOp33
 70
     1
102
RTVSPost2010Prop34
280
     0
102
RTVSPost2010PropOp34
 70
     1
102
RTVSPost2010Prop35
280
     0
102
RTVSPost2010PropOp35
 70
     1
102
RTVSPost2010Prop36
280
     0
102
RTVSPost2010PropOp36
 70
     1
102
RTVSPost2010Prop37
 90
       50
102
RTVSPost2010PropOp37
 70
     1
102
RTVSPost2010Prop38
140
0.0
102
RTVSPost2010PropOp38
 70
     1
102
RTVSPost2010Prop39
140
1.0
102
RTVSPost2010PropOp39
 70
     1
102
RTVSPost2010Prop40
 90
        0
102
RTVSPost2010PropOp40
 70
     1
102
RTVSPost2010Prop41ColorIndex
 90
       18
102
RTVSPost2010Prop41ColorRGB
 90
        0
102
RTVSPost2010PropOp41
 70
     1
102
RTVSPost2010Prop42
 90
       50
102
RTVSPost2010PropOp42
 70
     1
102
RTVSPost2010Prop43
 90
        3
102
RTVSPost2010PropOp43
 70
     1
102
RTVSPost2010Prop44ColorIndex
 90
        5
102
RTVSPost2010Prop44ColorRGB
 90
      255
102
RTVSPost2010PropOp44
 70
     1
102
RTVSPost2010Prop45
280
     0
102
RTVSPost2010PropOp45
 70
     1
102
RTVSPost2010Prop46
 90
       50
102
RTVSPost2010PropOp46
 70
     1
102
RTVSPost2010Prop47
 90
       50
102
RTVSPost2010PropOp47
 70
     1
102
RTVSPost2010Prop48
 90
       50
102
RTVSPost2010PropOp48
 70
     1
102
RTVSPost2010Prop49
280
     0
102
RTVSPost2010PropOp49
 70
     1
102
RTVSPost2010Prop50
 90
       50
102
RTVSPost2010PropOp50
 70
     1
102
RTVSPost2010Prop51ColorIndex
 90
      256
102
RTVSPost2010Prop51ColorRGB
 90
-16777216
102
RTVSPost2010PropOp51
 70
     0
102
RTVSPost2010Prop52
140
1.0
102
RTVSPost2010PropOp52
 70
     0
102
RTVSPost2010Prop53
 90
        2
102
RTVSPost2010PropOp53
 70
     1
102
RTVSPost2010Prop54
  1
strokes_ogs.tif
102
RTVSPost2010PropOp54
 70
     1
102
RTVSPost2010Prop55
280
     0
102
RTVSPost2010PropOp55
 70
     1
102
RTVSPost2010Prop56
140
1.0
102
RTVSPost2010PropOp56
 70
     1
102
RTVSPost2010Prop57
140
1.0
102
RTVSPost2010PropOp57
 70
     1
102
RTVSPropertyOp0
 70
     1
102
RTVSPropertyOp1
 70
     1
102
RTVSPropertyOp2
 70
     1
102
RTVSPropertyOp3
 70
     1
102
RTVSPropertyOp4
 70
     1
102
RTVSPropertyOp5
 70
     1
102
RTVSPropertyOp6
 70
     1
102
RTVSPropertyOp7
 70
     1
102
RTVSPropertyOp8
 70
     1
102
RTVSPropertyOp9
 70
     1
102
RTVSPropertyOp10
 70
     1
102
RTVSPropertyOp11
 70
     1
102
RTVSPropertyOp12
 70
     1
102
RTVSPropertyOp13
 70
     1
102
RTVSPropertyOp14
 70
     1
102
RTVSPropertyOp15
 70
     1
102
RTVSPropertyOp16
 70
     1
102
RTVSPropertyOp17
 70
     1
102
RTVSPropertyOp18
 70
     1
102
RTVSPropertyOp19
 70
     1
102
RTVSPropertyOp20
 70
     1
102
RTVSPropertyOp21
 70
     1
102
RTVSPropertyOp22
 70
     1
102
RTVSPropertyOp23
 70
     1
102
RTVSPropertyOp24
 70
     1
102
RTVSPropertyOp25
 70
     1
102
RTVSPropertyOp26
 70
     1
102
RTVSPropertyOp27
 70
     1
102
RTVSPropertyOp28
 70
     1
102
RTVSPropertyOp29
 70
     1
102
RTVSPropertyOp30
 70
     1
102
RTVSPropertyOp31
 70
     1
102
RTVSPropertyOp32
 70
     1
102
RTVSPropertyOp33
 70
     1
102
RTVSPropertyOp34
 70
     1
102
RTVSPropertyOp35
 70
     1
102
RTVSPropertyOp36
 70
     1
102
RTVSPropertyOp37
 70
     1
102
RTVSPropertyOp38
 70
     1
102
RTVSPropertyOp39
 70
     1
102
RTVSPropertyOp40
 70
     1
102
RTVSPropertyOp41
 70
     1
102
RTVSPropertyOp42
 70
     1
102
RTVSPropertyOp43
 70
     1
102
RTVSPropertyOp44
 70
     1
102
RTVSPropertyOp45
 70
     1
102
RTVSPropertyOp46
 70
     1
102
RTVSPropertyOp47
 70
     1
102
RTVSPropertyOp48
 70
     1
102
RTVSPropertyOp49
 70
     1
102
RTVSPropertyOp50
 70
     1
102
RTVSPropertyOp51
 70
     0
102
RTVSPropertyOp52
 70
     0
102
RTVSPropertyOp53
 70
     1
102
RTVSPropertyOp54
 70
     1
102
RTVSPropertyOp55
 70
     1
102
RTVSPropertyOp56
 70
     1
102
RTVSPropertyOp57
 70
     1
102
RTVSPropertyOp58
 70
     1
102
RTVSPropertyOp59
 70
     1
102
RTVSPropertyOp60
 70
     1
102
RTVSPropertyOp61
 70
     1
102
RTVSPropertyOp62
 70
     1
  0
XRECORD
  5
5D7
102
{ACAD_REACTORS
330
5D6
102
}
330
5D6
100
AcDbXrecord
280
     1
102
RTVSPost2010Prop28
280
     0
102
RTVSPost2010PropOp28
 70
     1
102
RTVSPost2010Prop29
280
     1
102
RTVSPost2010PropOp29
 70
     1
102
RTVSPost2010Prop30
280
     1
102
RTVSPost2010PropOp30
 70
     1
102
RTVSPost2010Prop31
280
     0
102
RTVSPost2010PropOp31
 70
     1
102
RTVSPost2010Prop32
280
     0
102
RTVSPost2010PropOp32
 70
     1
102
RTVSPost2010Prop33
280
     0
102
RTVSPost2010PropOp33
 70
     1
102
RTVSPost2010Prop34
280
     0
102
RTVSPost2010PropOp34
 70
     1
102
RTVSPost2010Prop35
280
     0
102
RTVSPost2010PropOp35
 70
     1
102
RTVSPost2010Prop36
280
     0
102
RTVSPost2010PropOp36
 70
     1
102
RTVSPost2010Prop37
 90
       50
102
RTVSPost2010PropOp37
 70
     1
102
RTVSPost2010Prop38
140
0.0
102
RTVSPost2010PropOp38
 70
     1
102
RTVSPost2010Prop39
140
1.0
102
RTVSPost2010PropOp39
 70
     1
102
RTVSPost2010Prop40
 90
        0
102
RTVSPost2010PropOp40
 70
     1
102
RTVSPost2010Prop41ColorIndex
 90
       18
102
RTVSPost2010Prop41ColorRGB
 90
        0
102
RTVSPost2010PropOp41
 70
     1
102
RTVSPost2010Prop42
 90
       50
102
RTVSPost2010PropOp42
 70
     1
102
RTVSPost2010Prop43
 90
        3
102
RTVSPost2010PropOp43
 70
     1
102
RTVSPost2010Prop44ColorIndex
 90
        5
102
RTVSPost2010Prop44ColorRGB
 90
      255
102
RTVSPost2010PropOp44
 70
     1
102
RTVSPost2010Prop45
280
     0
102
RTVSPost2010PropOp45
 70
     1
102
RTVSPost2010Prop46
 90
       50
102
RTVSPost2010PropOp46
 70
     1
102
RTVSPost2010Prop47
 90
       50
102
RTVSPost2010PropOp47
 70
     1
102
RTVSPost2010Prop48
 90
       50
102
RTVSPost2010PropOp48
 70
     1
102
RTVSPost2010Prop49
280
     0
102
RTVSPost2010PropOp49
 70
     1
102
RTVSPost2010Prop50
 90
       50
102
RTVSPost2010PropOp50
 70
     1
102
RTVSPost2010Prop51ColorIndex
 90
      256
102
RTVSPost2010Prop51ColorRGB
 90
-16777216
102
RTVSPost2010PropOp51
 70
     0
102
RTVSPost2010Prop52
140
1.0
102
RTVSPost2010PropOp52
 70
     0
102
RTVSPost2010Prop53
 90
        2
102
RTVSPost2010PropOp53
 70
     1
102
RTVSPost2010Prop54
  1
strokes_ogs.tif
102
RTVSPost2010PropOp54
 70
     1
102
RTVSPost2010Prop55
280
     0
102
RTVSPost2010PropOp55
 70
     1
102
RTVSPost2010Prop56
140
1.0
102
RTVSPost2010PropOp56
 70
     1
102
RTVSPost2010Prop57
140
1.0
102
RTVSPost2010PropOp57
 70
     1
102
RTVSPropertyOp0
 70
     1
102
RTVSPropertyOp1
 70
     1
102
RTVSPropertyOp2
 70
     1
102
RTVSPropertyOp3
 70
     1
102
RTVSPropertyOp4
 70
     1
102
RTVSPropertyOp5
 70
     1
102
RTVSPropertyOp6
 70
     1
102
RTVSPropertyOp7
 70
     1
102
RTVSPropertyOp8
 70
     1
102
RTVSPropertyOp9
 70
     1
102
RTVSPropertyOp10
 70
     1
102
RTVSPropertyOp11
 70
     1
102
RTVSPropertyOp12
 70
     1
102
RTVSPropertyOp13
 70
     1
102
RTVSPropertyOp14
 70
     1
102
RTVSPropertyOp15
 70
     1
102
RTVSPropertyOp16
 70
     1
102
RTVSPropertyOp17
 70
     1
102
RTVSPropertyOp18
 70
     1
102
RTVSPropertyOp19
 70
     1
102
RTVSPropertyOp20
 70
     1
102
RTVSPropertyOp21
 70
     1
102
RTVSPropertyOp22
 70
     1
102
RTVSPropertyOp23
 70
     1
102
RTVSPropertyOp24
 70
     1
102
RTVSPropertyOp25
 70
     1
102
RTVSPropertyOp26
 70
     1
102
RTVSPropertyOp27
 70
     1
102
RTVSPropertyOp28
 70
     1
102
RTVSPropertyOp29
 70
     1
102
RTVSPropertyOp30
 70
     1
102
RTVSPropertyOp31
 70
     1
102
RTVSPropertyOp32
 70
     1
102
RTVSPropertyOp33
 70
     1
102
RTVSPropertyOp34
 70
     1
102
RTVSPropertyOp35
 70
     1
102
RTVSPropertyOp36
 70
     1
102
RTVSPropertyOp37
 70
     1
102
RTVSPropertyOp38
 70
     1
102
RTVSPropertyOp39
 70
     1
102
RTVSPropertyOp40
 70
     1
102
RTVSPropertyOp41
 70
     1
102
RTVSPropertyOp42
 70
     1
102
RTVSPropertyOp43
 70
     1
102
RTVSPropertyOp44
 70
     1
102
RTVSPropertyOp45
 70
     1
102
RTVSPropertyOp46
 70
     1
102
RTVSPropertyOp47
 70
     1
102
RTVSPropertyOp48
 70
     1
102
RTVSPropertyOp49
 70
     1
102
RTVSPropertyOp50
 70
     1
102
RTVSPropertyOp51
 70
     0
102
RTVSPropertyOp52
 70
     0
102
RTVSPropertyOp53
 70
     1
102
RTVSPropertyOp54
 70
     1
102
RTVSPropertyOp55
 70
     1
102
RTVSPropertyOp56
 70
     1
102
RTVSPropertyOp57
 70
     1
102
RTVSPropertyOp58
 70
     1
102
RTVSPropertyOp59
 70
     1
102
RTVSPropertyOp60
 70
     1
102
RTVSPropertyOp61
 70
     1
102
RTVSPropertyOp62
 70
     1
  0
XRECORD
  5
5DB
102
{ACAD_REACTORS
330
5DA
102
}
330
5DA
100
AcDbXrecord
280
     1
102
RTVSPost2010Prop28
280
     0
102
RTVSPost2010PropOp28
 70
     1
102
RTVSPost2010Prop29
280
     1
102
RTVSPost2010PropOp29
 70
     1
102
RTVSPost2010Prop30
280
     1
102
RTVSPost2010PropOp30
 70
     1
102
RTVSPost2010Prop31
280
     0
102
RTVSPost2010PropOp31
 70
     1
102
RTVSPost2010Prop32
280
     0
102
RTVSPost2010PropOp32
 70
     1
102
RTVSPost2010Prop33
280
     0
102
RTVSPost2010PropOp33
 70
     1
102
RTVSPost2010Prop34
280
     0
102
RTVSPost2010PropOp34
 70
     1
102
RTVSPost2010Prop35
280
     0
102
RTVSPost2010PropOp35
 70
     1
102
RTVSPost2010Prop36
280
     0
102
RTVSPost2010PropOp36
 70
     1
102
RTVSPost2010Prop37
 90
       50
102
RTVSPost2010PropOp37
 70
     1
102
RTVSPost2010Prop38
140
0.0
102
RTVSPost2010PropOp38
 70
     1
102
RTVSPost2010Prop39
140
1.0
102
RTVSPost2010PropOp39
 70
     1
102
RTVSPost2010Prop40
 90
        0
102
RTVSPost2010PropOp40
 70
     1
102
RTVSPost2010Prop41ColorIndex
 90
       18
102
RTVSPost2010Prop41ColorRGB
 90
        0
102
RTVSPost2010PropOp41
 70
     1
102
RTVSPost2010Prop42
 90
       50
102
RTVSPost2010PropOp42
 70
     1
102
RTVSPost2010Prop43
 90
        3
102
RTVSPost2010PropOp43
 70
     1
102
RTVSPost2010Prop44ColorIndex
 90
        5
102
RTVSPost2010Prop44ColorRGB
 90
      255
102
RTVSPost2010PropOp44
 70
     1
102
RTVSPost2010Prop45
280
     0
102
RTVSPost2010PropOp45
 70
     1
102
RTVSPost2010Prop46
 90
       50
102
RTVSPost2010PropOp46
 70
     1
102
RTVSPost2010Prop47
 90
       50
102
RTVSPost2010PropOp47
 70
     1
102
RTVSPost2010Prop48
 90
       50
102
RTVSPost2010PropOp48
 70
     1
102
RTVSPost2010Prop49
280
     0
102
RTVSPost2010PropOp49
 70
     1
102
RTVSPost2010Prop50
 90
       50
102
RTVSPost2010PropOp50
 70
     1
102
RTVSPost2010Prop51ColorIndex
 90
      256
102
RTVSPost2010Prop51ColorRGB
 90
-16777216
102
RTVSPost2010PropOp51
 70
     0
102
RTVSPost2010Prop52
140
1.0
102
RTVSPost2010PropOp52
 70
     0
102
RTVSPost2010Prop53
 90
        2
102
RTVSPost2010PropOp53
 70
     1
102
RTVSPost2010Prop54
  1
strokes_ogs.tif
102
RTVSPost2010PropOp54
 70
     1
102
RTVSPost2010Prop55
280
     0
102
RTVSPost2010PropOp55
 70
     1
102
RTVSPost2010Prop56
140
1.0
102
RTVSPost2010PropOp56
 70
     1
102
RTVSPost2010Prop57
140
1.0
102
RTVSPost2010PropOp57
 70
     1
102
RTVSPropertyOp0
 70
     1
102
RTVSPropertyOp1
 70
     1
102
RTVSPropertyOp2
 70
     1
102
RTVSPropertyOp3
 70
     1
102
RTVSPropertyOp4
 70
     1
102
RTVSPropertyOp5
 70
     1
102
RTVSPropertyOp6
 70
     1
102
RTVSPropertyOp7
 70
     1
102
RTVSPropertyOp8
 70
     1
102
RTVSPropertyOp9
 70
     1
102
RTVSPropertyOp10
 70
     1
102
RTVSPropertyOp11
 70
     1
102
RTVSPropertyOp12
 70
     1
102
RTVSPropertyOp13
 70
     1
102
RTVSPropertyOp14
 70
     1
102
RTVSPropertyOp15
 70
     1
102
RTVSPropertyOp16
 70
     1
102
RTVSPropertyOp17
 70
     1
102
RTVSPropertyOp18
 70
     1
102
RTVSPropertyOp19
 70
     1
102
RTVSPropertyOp20
 70
     1
102
RTVSPropertyOp21
 70
     1
102
RTVSPropertyOp22
 70
     1
102
RTVSPropertyOp23
 70
     1
102
RTVSPropertyOp24
 70
     1
102
RTVSPropertyOp25
 70
     1
102
RTVSPropertyOp26
 70
     1
102
RTVSPropertyOp27
 70
     1
102
RTVSPropertyOp28
 70
     1
102
RTVSPropertyOp29
 70
     1
102
RTVSPropertyOp30
 70
     1
102
RTVSPropertyOp31
 70
     1
102
RTVSPropertyOp32
 70
     1
102
RTVSPropertyOp33
 70
     1
102
RTVSPropertyOp34
 70
     1
102
RTVSPropertyOp35
 70
     1
102
RTVSPropertyOp36
 70
     1
102
RTVSPropertyOp37
 70
     1
102
RTVSPropertyOp38
 70
     1
102
RTVSPropertyOp39
 70
     1
102
RTVSPropertyOp40
 70
     1
102
RTVSPropertyOp41
 70
     1
102
RTVSPropertyOp42
 70
     1
102
RTVSPropertyOp43
 70
     1
102
RTVSPropertyOp44
 70
     1
102
RTVSPropertyOp45
 70
     1
102
RTVSPropertyOp46
 70
     1
102
RTVSPropertyOp47
 70
     1
102
RTVSPropertyOp48
 70
     1
102
RTVSPropertyOp49
 70
     1
102
RTVSPropertyOp50
 70
     1
102
RTVSPropertyOp51
 70
     0
102
RTVSPropertyOp52
 70
     0
102
RTVSPropertyOp53
 70
     1
102
RTVSPropertyOp54
 70
     1
102
RTVSPropertyOp55
 70
     1
102
RTVSPropertyOp56
 70
     1
102
RTVSPropertyOp57
 70
     1
102
RTVSPropertyOp58
 70
     1
102
RTVSPropertyOp59
 70
     1
102
RTVSPropertyOp60
 70
     1
102
RTVSPropertyOp61
 70
     1
102
RTVSPropertyOp62
 70
     1
  0
XRECORD
  5
5F5
102
{ACAD_REACTORS
330
5F4
102
}
330
5F4
100
AcDbXrecord
280
     1
102
RTVSPost2010Prop28
280
     0
102
RTVSPost2010PropOp28
 70
     0
102
RTVSPost2010Prop29
280
     1
102
RTVSPost2010PropOp29
 70
     0
102
RTVSPost2010Prop30
280
     1
102
RTVSPost2010PropOp30
 70
     0
102
RTVSPost2010Prop31
280
     0
102
RTVSPost2010PropOp31
 70
     0
102
RTVSPost2010Prop32
280
     0
102
RTVSPost2010PropOp32
 70
     0
102
RTVSPost2010Prop33
280
     0
102
RTVSPost2010PropOp33
 70
     0
102
RTVSPost2010Prop34
280
     0
102
RTVSPost2010PropOp34
 70
     0
102
RTVSPost2010Prop35
280
     0
102
RTVSPost2010PropOp35
 70
     0
102
RTVSPost2010Prop36
280
     0
102
RTVSPost2010PropOp36
 70
     0
102
RTVSPost2010Prop37
 90
       50
102
RTVSPost2010PropOp37
 70
     0
102
RTVSPost2010Prop38
140
0.0
102
RTVSPost2010PropOp38
 70
     0
102
RTVSPost2010Prop39
140
1.0
102
RTVSPost2010PropOp39
 70
     0
102
RTVSPost2010Prop40
 90
        0
102
RTVSPost2010PropOp40
 70
     0
102
RTVSPost2010Prop41ColorIndex
 90
       18
102
RTVSPost2010Prop41ColorRGB
 90
        0
102
RTVSPost2010PropOp41
 70
     0
102
RTVSPost2010Prop42
 90
       50
102
RTVSPost2010PropOp42
 70
     0
102
RTVSPost2010Prop43
 90
        3
102
RTVSPost2010PropOp43
 70
     0
102
RTVSPost2010Prop44ColorIndex
 90
        5
102
RTVSPost2010Prop44ColorRGB
 90
      255
102
RTVSPost2010PropOp44
 70
     0
102
RTVSPost2010Prop45
280
     0
102
RTVSPost2010PropOp45
 70
     0
102
RTVSPost2010Prop46
 90
       50
102
RTVSPost2010PropOp46
 70
     0
102
RTVSPost2010Prop47
 90
       50
102
RTVSPost2010PropOp47
 70
     0
102
RTVSPost2010Prop48
 90
       50
102
RTVSPost2010PropOp48
 70
     0
102
RTVSPost2010Prop49
280
     0
102
RTVSPost2010PropOp49
 70
     0
102
RTVSPost2010Prop50
 90
       50
102
RTVSPost2010PropOp50
 70
     0
102
RTVSPost2010Prop51ColorIndex
 90
      256
102
RTVSPost2010Prop51ColorRGB
 90
-16777216
102
RTVSPost2010PropOp51
 70
     0
102
RTVSPost2010Prop52
140
1.0
102
RTVSPost2010PropOp52
 70
     0
102
RTVSPost2010Prop53
 90
        2
102
RTVSPost2010PropOp53
 70
     0
102
RTVSPost2010Prop54
  1
strokes_ogs.tif
102
RTVSPost2010PropOp54
 70
     0
102
RTVSPost2010Prop55
280
     0
102
RTVSPost2010PropOp55
 70
     0
102
RTVSPost2010Prop56
140
1.0
102
RTVSPost2010PropOp56
 70
     0
102
RTVSPost2010Prop57
140
1.0
102
RTVSPost2010PropOp57
 70
     0
102
RTVSPropertyOp0
 70
     0
102
RTVSPropertyOp1
 70
     0
102
RTVSPropertyOp2
 70
     0
102
RTVSPropertyOp3
 70
     0
102
RTVSPropertyOp4
 70
     0
102
RTVSPropertyOp5
 70
     0
102
RTVSPropertyOp6
 70
     0
102
RTVSPropertyOp7
 70
     0
102
RTVSPropertyOp8
 70
     0
102
RTVSPropertyOp9
 70
     0
102
RTVSPropertyOp10
 70
     0
102
RTVSPropertyOp11
 70
     0
102
RTVSPropertyOp12
 70
     0
102
RTVSPropertyOp13
 70
     0
102
RTVSPropertyOp14
 70
     2
102
RTVSPropertyOp15
 70
     0
102
RTVSPropertyOp16
 70
     0
102
RTVSPropertyOp17
 70
     0
102
RTVSPropertyOp18
 70
     0
102
RTVSPropertyOp19
 70
     0
102
RTVSPropertyOp20
 70
     0
102
RTVSPropertyOp21
 70
     0
102
RTVSPropertyOp22
 70
     0
102
RTVSPropertyOp23
 70
     0
102
RTVSPropertyOp24
 70
     0
102
RTVSPropertyOp25
 70
     0
102
RTVSPropertyOp26
 70
     0
102
RTVSPropertyOp27
 70
     0
102
RTVSPropertyOp28
 70
     0
102
RTVSPropertyOp29
 70
     0
102
RTVSPropertyOp30
 70
     0
102
RTVSPropertyOp31
 70
     0
102
RTVSPropertyOp32
 70
     0
102
RTVSPropertyOp33
 70
     0
102
RTVSPropertyOp34
 70
     0
102
RTVSPropertyOp35
 70
     0
102
RTVSPropertyOp36
 70
     0
102
RTVSPropertyOp37
 70
     0
102
RTVSPropertyOp38
 70
     0
102
RTVSPropertyOp39
 70
     0
102
RTVSPropertyOp40
 70
     0
102
RTVSPropertyOp41
 70
     0
102
RTVSPropertyOp42
 70
     0
102
RTVSPropertyOp43
 70
     0
102
RTVSPropertyOp44
 70
     0
102
RTVSPropertyOp45
 70
     0
102
RTVSPropertyOp46
 70
     0
102
RTVSPropertyOp47
 70
     0
102
RTVSPropertyOp48
 70
     0
102
RTVSPropertyOp49
 70
     0
102
RTVSPropertyOp50
 70
     0
102
RTVSPropertyOp51
 70
     0
102
RTVSPropertyOp52
 70
     0
102
RTVSPropertyOp53
 70
     0
102
RTVSPropertyOp54
 70
     0
102
RTVSPropertyOp55
 70
     0
102
RTVSPropertyOp56
 70
     0
102
RTVSPropertyOp57
 70
     0
102
RTVSPropertyOp58
 70
     1
102
RTVSPropertyOp59
 70
     1
102
RTVSPropertyOp60
 70
     1
102
RTVSPropertyOp61
 70
     1
102
RTVSPropertyOp62
 70
     1
  0
XRECORD
  5
5E3
102
{ACAD_REACTORS
330
5E2
102
}
330
5E2
100
AcDbXrecord
280
     1
102
RTVSPost2010Prop28
280
     0
102
RTVSPost2010PropOp28
 70
     1
102
RTVSPost2010Prop29
280
     1
102
RTVSPost2010PropOp29
 70
     1
102
RTVSPost2010Prop30
280
     1
102
RTVSPost2010PropOp30
 70
     1
102
RTVSPost2010Prop31
280
     0
102
RTVSPost2010PropOp31
 70
     1
102
RTVSPost2010Prop32
280
     0
102
RTVSPost2010PropOp32
 70
     1
102
RTVSPost2010Prop33
280
     0
102
RTVSPost2010PropOp33
 70
     1
102
RTVSPost2010Prop34
280
     0
102
RTVSPost2010PropOp34
 70
     1
102
RTVSPost2010Prop35
280
     0
102
RTVSPost2010PropOp35
 70
     1
102
RTVSPost2010Prop36
280
     0
102
RTVSPost2010PropOp36
 70
     1
102
RTVSPost2010Prop37
 90
       50
102
RTVSPost2010PropOp37
 70
     1
102
RTVSPost2010Prop38
140
0.0
102
RTVSPost2010PropOp38
 70
     1
102
RTVSPost2010Prop39
140
1.0
102
RTVSPost2010PropOp39
 70
     1
102
RTVSPost2010Prop40
 90
        0
102
RTVSPost2010PropOp40
 70
     1
102
RTVSPost2010Prop41ColorIndex
 90
       18
102
RTVSPost2010Prop41ColorRGB
 90
        0
102
RTVSPost2010PropOp41
 70
     1
102
RTVSPost2010Prop42
 90
       50
102
RTVSPost2010PropOp42
 70
     1
102
RTVSPost2010Prop43
 90
        3
102
RTVSPost2010PropOp43
 70
     1
102
RTVSPost2010Prop44ColorIndex
 90
        5
102
RTVSPost2010Prop44ColorRGB
 90
      255
102
RTVSPost2010PropOp44
 70
     1
102
RTVSPost2010Prop45
280
     0
102
RTVSPost2010PropOp45
 70
     1
102
RTVSPost2010Prop46
 90
       50
102
RTVSPost2010PropOp46
 70
     1
102
RTVSPost2010Prop47
 90
       50
102
RTVSPost2010PropOp47
 70
     1
102
RTVSPost2010Prop48
 90
       50
102
RTVSPost2010PropOp48
 70
     1
102
RTVSPost2010Prop49
280
     0
102
RTVSPost2010PropOp49
 70
     1
102
RTVSPost2010Prop50
 90
       50
102
RTVSPost2010PropOp50
 70
     1
102
RTVSPost2010Prop51ColorIndex
 90
      256
102
RTVSPost2010Prop51ColorRGB
 90
-16777216
102
RTVSPost2010PropOp51
 70
     0
102
RTVSPost2010Prop52
140
1.0
102
RTVSPost2010PropOp52
 70
     0
102
RTVSPost2010Prop53
 90
        2
102
RTVSPost2010PropOp53
 70
     1
102
RTVSPost2010Prop54
  1
strokes_ogs.tif
102
RTVSPost2010PropOp54
 70
     1
102
RTVSPost2010Prop55
280
     0
102
RTVSPost2010PropOp55
 70
     1
102
RTVSPost2010Prop56
140
1.0
102
RTVSPost2010PropOp56
 70
     1
102
RTVSPost2010Prop57
140
1.0
102
RTVSPost2010PropOp57
 70
     1
102
RTVSPropertyOp0
 70
     1
102
RTVSPropertyOp1
 70
     1
102
RTVSPropertyOp2
 70
     1
102
RTVSPropertyOp3
 70
     1
102
RTVSPropertyOp4
 70
     1
102
RTVSPropertyOp5
 70
     1
102
RTVSPropertyOp6
 70
     1
102
RTVSPropertyOp7
 70
     1
102
RTVSPropertyOp8
 70
     1
102
RTVSPropertyOp9
 70
     1
102
RTVSPropertyOp10
 70
     1
102
RTVSPropertyOp11
 70
     1
102
RTVSPropertyOp12
 70
     1
102
RTVSPropertyOp13
 70
     1
102
RTVSPropertyOp14
 70
     1
102
RTVSPropertyOp15
 70
     1
102
RTVSPropertyOp16
 70
     1
102
RTVSPropertyOp17
 70
     1
102
RTVSPropertyOp18
 70
     1
102
RTVSPropertyOp19
 70
     1
102
RTVSPropertyOp20
 70
     1
102
RTVSPropertyOp21
 70
     1
102
RTVSPropertyOp22
 70
     1
102
RTVSPropertyOp23
 70
     1
102
RTVSPropertyOp24
 70
     1
102
RTVSPropertyOp25
 70
     1
102
RTVSPropertyOp26
 70
     1
102
RTVSPropertyOp27
 70
     1
102
RTVSPropertyOp28
 70
     1
102
RTVSPropertyOp29
 70
     1
102
RTVSPropertyOp30
 70
     1
102
RTVSPropertyOp31
 70
     1
102
RTVSPropertyOp32
 70
     1
102
RTVSPropertyOp33
 70
     1
102
RTVSPropertyOp34
 70
     1
102
RTVSPropertyOp35
 70
     1
102
RTVSPropertyOp36
 70
     1
102
RTVSPropertyOp37
 70
     1
102
RTVSPropertyOp38
 70
     1
102
RTVSPropertyOp39
 70
     1
102
RTVSPropertyOp40
 70
     1
102
RTVSPropertyOp41
 70
     1
102
RTVSPropertyOp42
 70
     1
102
RTVSPropertyOp43
 70
     1
102
RTVSPropertyOp44
 70
     1
102
RTVSPropertyOp45
 70
     1
102
RTVSPropertyOp46
 70
     1
102
RTVSPropertyOp47
 70
     1
102
RTVSPropertyOp48
 70
     1
102
RTVSPropertyOp49
 70
     1
102
RTVSPropertyOp50
 70
     1
102
RTVSPropertyOp51
 70
     0
102
RTVSPropertyOp52
 70
     0
102
RTVSPropertyOp53
 70
     1
102
RTVSPropertyOp54
 70
     1
102
RTVSPropertyOp55
 70
     1
102
RTVSPropertyOp56
 70
     1
102
RTVSPropertyOp57
 70
     1
102
RTVSPropertyOp58
 70
     1
102
RTVSPropertyOp59
 70
     1
102
RTVSPropertyOp60
 70
     1
102
RTVSPropertyOp61
 70
     1
102
RTVSPropertyOp62
 70
     1
  0
XRECORD
  5
5C7
102
{ACAD_REACTORS
330
5C6
102
}
330
5C6
100
AcDbXrecord
280
     1
102
RTVSPost2010Prop28
280
     0
102
RTVSPost2010PropOp28
 70
     1
102
RTVSPost2010Prop29
280
     1
102
RTVSPost2010PropOp29
 70
     1
102
RTVSPost2010Prop30
280
     1
102
RTVSPost2010PropOp30
 70
     1
102
RTVSPost2010Prop31
280
     0
102
RTVSPost2010PropOp31
 70
     1
102
RTVSPost2010Prop32
280
     0
102
RTVSPost2010PropOp32
 70
     1
102
RTVSPost2010Prop33
280
     0
102
RTVSPost2010PropOp33
 70
     1
102
RTVSPost2010Prop34
280
     0
102
RTVSPost2010PropOp34
 70
     1
102
RTVSPost2010Prop35
280
     0
102
RTVSPost2010PropOp35
 70
     1
102
RTVSPost2010Prop36
280
     0
102
RTVSPost2010PropOp36
 70
     1
102
RTVSPost2010Prop37
 90
       50
102
RTVSPost2010PropOp37
 70
     1
102
RTVSPost2010Prop38
140
0.0
102
RTVSPost2010PropOp38
 70
     1
102
RTVSPost2010Prop39
140
1.0
102
RTVSPost2010PropOp39
 70
     1
102
RTVSPost2010Prop40
 90
        0
102
RTVSPost2010PropOp40
 70
     1
102
RTVSPost2010Prop41ColorIndex
 90
       18
102
RTVSPost2010Prop41ColorRGB
 90
        0
102
RTVSPost2010PropOp41
 70
     1
102
RTVSPost2010Prop42
 90
       50
102
RTVSPost2010PropOp42
 70
     1
102
RTVSPost2010Prop43
 90
        3
102
RTVSPost2010PropOp43
 70
     1
102
RTVSPost2010Prop44ColorIndex
 90
        5
102
RTVSPost2010Prop44ColorRGB
 90
      255
102
RTVSPost2010PropOp44
 70
     1
102
RTVSPost2010Prop45
280
     0
102
RTVSPost2010PropOp45
 70
     1
102
RTVSPost2010Prop46
 90
       50
102
RTVSPost2010PropOp46
 70
     1
102
RTVSPost2010Prop47
 90
       50
102
RTVSPost2010PropOp47
 70
     1
102
RTVSPost2010Prop48
 90
       50
102
RTVSPost2010PropOp48
 70
     1
102
RTVSPost2010Prop49
280
     0
102
RTVSPost2010PropOp49
 70
     1
102
RTVSPost2010Prop50
 90
       50
102
RTVSPost2010PropOp50
 70
     1
102
RTVSPost2010Prop51ColorIndex
 90
      256
102
RTVSPost2010Prop51ColorRGB
 90
-16777216
102
RTVSPost2010PropOp51
 70
     0
102
RTVSPost2010Prop52
140
1.0
102
RTVSPost2010PropOp52
 70
     0
102
RTVSPost2010Prop53
 90
        2
102
RTVSPost2010PropOp53
 70
     1
102
RTVSPost2010Prop54
  1
strokes_ogs.tif
102
RTVSPost2010PropOp54
 70
     1
102
RTVSPost2010Prop55
280
     0
102
RTVSPost2010PropOp55
 70
     1
102
RTVSPost2010Prop56
140
1.0
102
RTVSPost2010PropOp56
 70
     1
102
RTVSPost2010Prop57
140
1.0
102
RTVSPost2010PropOp57
 70
     1
102
RTVSPropertyOp0
 70
     1
102
RTVSPropertyOp1
 70
     1
102
RTVSPropertyOp2
 70
     1
102
RTVSPropertyOp3
 70
     1
102
RTVSPropertyOp4
 70
     1
102
RTVSPropertyOp5
 70
     1
102
RTVSPropertyOp6
 70
     1
102
RTVSPropertyOp7
 70
     1
102
RTVSPropertyOp8
 70
     1
102
RTVSPropertyOp9
 70
     1
102
RTVSPropertyOp10
 70
     1
102
RTVSPropertyOp11
 70
     1
102
RTVSPropertyOp12
 70
     1
102
RTVSPropertyOp13
 70
     1
102
RTVSPropertyOp14
 70
     1
102
RTVSPropertyOp15
 70
     1
102
RTVSPropertyOp16
 70
     1
102
RTVSPropertyOp17
 70
     1
102
RTVSPropertyOp18
 70
     1
102
RTVSPropertyOp19
 70
     1
102
RTVSPropertyOp20
 70
     1
102
RTVSPropertyOp21
 70
     1
102
RTVSPropertyOp22
 70
     1
102
RTVSPropertyOp23
 70
     1
102
RTVSPropertyOp24
 70
     1
102
RTVSPropertyOp25
 70
     1
102
RTVSPropertyOp26
 70
     1
102
RTVSPropertyOp27
 70
     1
102
RTVSPropertyOp28
 70
     1
102
RTVSPropertyOp29
 70
     1
102
RTVSPropertyOp30
 70
     1
102
RTVSPropertyOp31
 70
     1
102
RTVSPropertyOp32
 70
     1
102
RTVSPropertyOp33
 70
     1
102
RTVSPropertyOp34
 70
     1
102
RTVSPropertyOp35
 70
     1
102
RTVSPropertyOp36
 70
     1
102
RTVSPropertyOp37
 70
     1
102
RTVSPropertyOp38
 70
     1
102
RTVSPropertyOp39
 70
     1
102
RTVSPropertyOp40
 70
     1
102
RTVSPropertyOp41
 70
     1
102
RTVSPropertyOp42
 70
     1
102
RTVSPropertyOp43
 70
     1
102
RTVSPropertyOp44
 70
     1
102
RTVSPropertyOp45
 70
     1
102
RTVSPropertyOp46
 70
     1
102
RTVSPropertyOp47
 70
     1
102
RTVSPropertyOp48
 70
     1
102
RTVSPropertyOp49
 70
     1
102
RTVSPropertyOp50
 70
     1
102
RTVSPropertyOp51
 70
     0
102
RTVSPropertyOp52
 70
     0
102
RTVSPropertyOp53
 70
     1
102
RTVSPropertyOp54
 70
     1
102
RTVSPropertyOp55
 70
     1
102
RTVSPropertyOp56
 70
     1
102
RTVSPropertyOp57
 70
     1
102
RTVSPropertyOp58
 70
     1
102
RTVSPropertyOp59
 70
     1
102
RTVSPropertyOp60
 70
     1
102
RTVSPropertyOp61
 70
     1
102
RTVSPropertyOp62
 70
     1
  0
XRECORD
  5
5C9
102
{ACAD_REACTORS
330
5C8
102
}
330
5C8
100
AcDbXrecord
280
     1
102
RTVSPost2010Prop28
280
     0
102
RTVSPost2010PropOp28
 70
     1
102
RTVSPost2010Prop29
280
     1
102
RTVSPost2010PropOp29
 70
     1
102
RTVSPost2010Prop30
280
     1
102
RTVSPost2010PropOp30
 70
     1
102
RTVSPost2010Prop31
280
     0
102
RTVSPost2010PropOp31
 70
     1
102
RTVSPost2010Prop32
280
     0
102
RTVSPost2010PropOp32
 70
     1
102
RTVSPost2010Prop33
280
     0
102
RTVSPost2010PropOp33
 70
     1
102
RTVSPost2010Prop34
280
     0
102
RTVSPost2010PropOp34
 70
     1
102
RTVSPost2010Prop35
280
     0
102
RTVSPost2010PropOp35
 70
     1
102
RTVSPost2010Prop36
280
     0
102
RTVSPost2010PropOp36
 70
     1
102
RTVSPost2010Prop37
 90
       50
102
RTVSPost2010PropOp37
 70
     1
102
RTVSPost2010Prop38
140
0.0
102
RTVSPost2010PropOp38
 70
     1
102
RTVSPost2010Prop39
140
1.0
102
RTVSPost2010PropOp39
 70
     1
102
RTVSPost2010Prop40
 90
        0
102
RTVSPost2010PropOp40
 70
     1
102
RTVSPost2010Prop41ColorIndex
 90
       18
102
RTVSPost2010Prop41ColorRGB
 90
        0
102
RTVSPost2010PropOp41
 70
     1
102
RTVSPost2010Prop42
 90
       50
102
RTVSPost2010PropOp42
 70
     1
102
RTVSPost2010Prop43
 90
        3
102
RTVSPost2010PropOp43
 70
     1
102
RTVSPost2010Prop44ColorIndex
 90
        5
102
RTVSPost2010Prop44ColorRGB
 90
      255
102
RTVSPost2010PropOp44
 70
     1
102
RTVSPost2010Prop45
280
     0
102
RTVSPost2010PropOp45
 70
     1
102
RTVSPost2010Prop46
 90
       50
102
RTVSPost2010PropOp46
 70
     1
102
RTVSPost2010Prop47
 90
       50
102
RTVSPost2010PropOp47
 70
     1
102
RTVSPost2010Prop48
 90
       50
102
RTVSPost2010PropOp48
 70
     1
102
RTVSPost2010Prop49
280
     0
102
RTVSPost2010PropOp49
 70
     1
102
RTVSPost2010Prop50
 90
       50
102
RTVSPost2010PropOp50
 70
     1
102
RTVSPost2010Prop51ColorIndex
 90
      256
102
RTVSPost2010Prop51ColorRGB
 90
-16777216
102
RTVSPost2010PropOp51
 70
     0
102
RTVSPost2010Prop52
140
1.0
102
RTVSPost2010PropOp52
 70
     0
102
RTVSPost2010Prop53
 90
        2
102
RTVSPost2010PropOp53
 70
     1
102
RTVSPost2010Prop54
  1
strokes_ogs.tif
102
RTVSPost2010PropOp54
 70
     1
102
RTVSPost2010Prop55
280
     0
102
RTVSPost2010PropOp55
 70
     1
102
RTVSPost2010Prop56
140
1.0
102
RTVSPost2010PropOp56
 70
     1
102
RTVSPost2010Prop57
140
1.0
102
RTVSPost2010PropOp57
 70
     1
102
RTVSPropertyOp0
 70
     1
102
RTVSPropertyOp1
 70
     1
102
RTVSPropertyOp2
 70
     1
102
RTVSPropertyOp3
 70
     1
102
RTVSPropertyOp4
 70
     1
102
RTVSPropertyOp5
 70
     1
102
RTVSPropertyOp6
 70
     1
102
RTVSPropertyOp7
 70
     1
102
RTVSPropertyOp8
 70
     1
102
RTVSPropertyOp9
 70
     1
102
RTVSPropertyOp10
 70
     1
102
RTVSPropertyOp11
 70
     1
102
RTVSPropertyOp12
 70
     1
102
RTVSPropertyOp13
 70
     1
102
RTVSPropertyOp14
 70
     1
102
RTVSPropertyOp15
 70
     1
102
RTVSPropertyOp16
 70
     1
102
RTVSPropertyOp17
 70
     1
102
RTVSPropertyOp18
 70
     1
102
RTVSPropertyOp19
 70
     1
102
RTVSPropertyOp20
 70
     1
102
RTVSPropertyOp21
 70
     1
102
RTVSPropertyOp22
 70
     1
102
RTVSPropertyOp23
 70
     1
102
RTVSPropertyOp24
 70
     1
102
RTVSPropertyOp25
 70
     1
102
RTVSPropertyOp26
 70
     1
102
RTVSPropertyOp27
 70
     1
102
RTVSPropertyOp28
 70
     1
102
RTVSPropertyOp29
 70
     1
102
RTVSPropertyOp30
 70
     1
102
RTVSPropertyOp31
 70
     1
102
RTVSPropertyOp32
 70
     1
102
RTVSPropertyOp33
 70
     1
102
RTVSPropertyOp34
 70
     1
102
RTVSPropertyOp35
 70
     1
102
RTVSPropertyOp36
 70
     1
102
RTVSPropertyOp37
 70
     1
102
RTVSPropertyOp38
 70
     1
102
RTVSPropertyOp39
 70
     1
102
RTVSPropertyOp40
 70
     1
102
RTVSPropertyOp41
 70
     1
102
RTVSPropertyOp42
 70
     1
102
RTVSPropertyOp43
 70
     1
102
RTVSPropertyOp44
 70
     1
102
RTVSPropertyOp45
 70
     1
102
RTVSPropertyOp46
 70
     1
102
RTVSPropertyOp47
 70
     1
102
RTVSPropertyOp48
 70
     1
102
RTVSPropertyOp49
 70
     1
102
RTVSPropertyOp50
 70
     1
102
RTVSPropertyOp51
 70
     0
102
RTVSPropertyOp52
 70
     0
102
RTVSPropertyOp53
 70
     1
102
RTVSPropertyOp54
 70
     1
102
RTVSPropertyOp55
 70
     1
102
RTVSPropertyOp56
 70
     1
102
RTVSPropertyOp57
 70
     1
102
RTVSPropertyOp58
 70
     1
102
RTVSPropertyOp59
 70
     1
102
RTVSPropertyOp60
 70
     1
102
RTVSPropertyOp61
 70
     1
102
RTVSPropertyOp62
 70
     1
  0
XRECORD
  5
5CB
102
{ACAD_REACTORS
330
5CA
102
}
330
5CA
100
AcDbXrecord
280
     1
102
RTVSPost2010Prop28
280
     0
102
RTVSPost2010PropOp28
 70
     1
102
RTVSPost2010Prop29
280
     1
102
RTVSPost2010PropOp29
 70
     1
102
RTVSPost2010Prop30
280
     1
102
RTVSPost2010PropOp30
 70
     1
102
RTVSPost2010Prop31
280
     0
102
RTVSPost2010PropOp31
 70
     1
102
RTVSPost2010Prop32
280
     0
102
RTVSPost2010PropOp32
 70
     1
102
RTVSPost2010Prop33
280
     0
102
RTVSPost2010PropOp33
 70
     1
102
RTVSPost2010Prop34
280
     0
102
RTVSPost2010PropOp34
 70
     1
102
RTVSPost2010Prop35
280
     0
102
RTVSPost2010PropOp35
 70
     1
102
RTVSPost2010Prop36
280
     0
102
RTVSPost2010PropOp36
 70
     1
102
RTVSPost2010Prop37
 90
       50
102
RTVSPost2010PropOp37
 70
     1
102
RTVSPost2010Prop38
140
0.0
102
RTVSPost2010PropOp38
 70
     1
102
RTVSPost2010Prop39
140
1.0
102
RTVSPost2010PropOp39
 70
     1
102
RTVSPost2010Prop40
 90
        0
102
RTVSPost2010PropOp40
 70
     1
102
RTVSPost2010Prop41ColorIndex
 90
       18
102
RTVSPost2010Prop41ColorRGB
 90
        0
102
RTVSPost2010PropOp41
 70
     1
102
RTVSPost2010Prop42
 90
       50
102
RTVSPost2010PropOp42
 70
     1
102
RTVSPost2010Prop43
 90
        3
102
RTVSPost2010PropOp43
 70
     1
102
RTVSPost2010Prop44ColorIndex
 90
        5
102
RTVSPost2010Prop44ColorRGB
 90
      255
102
RTVSPost2010PropOp44
 70
     1
102
RTVSPost2010Prop45
280
     0
102
RTVSPost2010PropOp45
 70
     1
102
RTVSPost2010Prop46
 90
       50
102
RTVSPost2010PropOp46
 70
     1
102
RTVSPost2010Prop47
 90
       50
102
RTVSPost2010PropOp47
 70
     1
102
RTVSPost2010Prop48
 90
       50
102
RTVSPost2010PropOp48
 70
     1
102
RTVSPost2010Prop49
280
     0
102
RTVSPost2010PropOp49
 70
     1
102
RTVSPost2010Prop50
 90
       50
102
RTVSPost2010PropOp50
 70
     1
102
RTVSPost2010Prop51ColorIndex
 90
      256
102
RTVSPost2010Prop51ColorRGB
 90
-16777216
102
RTVSPost2010PropOp51
 70
     0
102
RTVSPost2010Prop52
140
1.0
102
RTVSPost2010PropOp52
 70
     0
102
RTVSPost2010Prop53
 90
        2
102
RTVSPost2010PropOp53
 70
     1
102
RTVSPost2010Prop54
  1
strokes_ogs.tif
102
RTVSPost2010PropOp54
 70
     1
102
RTVSPost2010Prop55
280
     0
102
RTVSPost2010PropOp55
 70
     1
102
RTVSPost2010Prop56
140
1.0
102
RTVSPost2010PropOp56
 70
     1
102
RTVSPost2010Prop57
140
1.0
102
RTVSPost2010PropOp57
 70
     1
102
RTVSPropertyOp0
 70
     1
102
RTVSPropertyOp1
 70
     1
102
RTVSPropertyOp2
 70
     1
102
RTVSPropertyOp3
 70
     1
102
RTVSPropertyOp4
 70
     1
102
RTVSPropertyOp5
 70
     1
102
RTVSPropertyOp6
 70
     1
102
RTVSPropertyOp7
 70
     1
102
RTVSPropertyOp8
 70
     1
102
RTVSPropertyOp9
 70
     1
102
RTVSPropertyOp10
 70
     1
102
RTVSPropertyOp11
 70
     1
102
RTVSPropertyOp12
 70
     1
102
RTVSPropertyOp13
 70
     1
102
RTVSPropertyOp14
 70
     1
102
RTVSPropertyOp15
 70
     1
102
RTVSPropertyOp16
 70
     1
102
RTVSPropertyOp17
 70
     1
102
RTVSPropertyOp18
 70
     1
102
RTVSPropertyOp19
 70
     1
102
RTVSPropertyOp20
 70
     1
102
RTVSPropertyOp21
 70
     1
102
RTVSPropertyOp22
 70
     1
102
RTVSPropertyOp23
 70
     1
102
RTVSPropertyOp24
 70
     1
102
RTVSPropertyOp25
 70
     1
102
RTVSPropertyOp26
 70
     1
102
RTVSPropertyOp27
 70
     1
102
RTVSPropertyOp28
 70
     1
102
RTVSPropertyOp29
 70
     1
102
RTVSPropertyOp30
 70
     1
102
RTVSPropertyOp31
 70
     1
102
RTVSPropertyOp32
 70
     1
102
RTVSPropertyOp33
 70
     1
102
RTVSPropertyOp34
 70
     1
102
RTVSPropertyOp35
 70
     1
102
RTVSPropertyOp36
 70
     1
102
RTVSPropertyOp37
 70
     1
102
RTVSPropertyOp38
 70
     1
102
RTVSPropertyOp39
 70
     1
102
RTVSPropertyOp40
 70
     1
102
RTVSPropertyOp41
 70
     1
102
RTVSPropertyOp42
 70
     1
102
RTVSPropertyOp43
 70
     1
102
RTVSPropertyOp44
 70
     1
102
RTVSPropertyOp45
 70
     1
102
RTVSPropertyOp46
 70
     1
102
RTVSPropertyOp47
 70
     1
102
RTVSPropertyOp48
 70
     1
102
RTVSPropertyOp49
 70
     1
102
RTVSPropertyOp50
 70
     1
102
RTVSPropertyOp51
 70
     0
102
RTVSPropertyOp52
 70
     0
102
RTVSPropertyOp53
 70
     1
102
RTVSPropertyOp54
 70
     1
102
RTVSPropertyOp55
 70
     1
102
RTVSPropertyOp56
 70
     1
102
RTVSPropertyOp57
 70
     1
102
RTVSPropertyOp58
 70
     1
102
RTVSPropertyOp59
 70
     1
102
RTVSPropertyOp60
 70
     1
102
RTVSPropertyOp61
 70
     1
102
RTVSPropertyOp62
 70
     1
  0
XRECORD
  5
5CD
102
{ACAD_REACTORS
330
5CC
102
}
330
5CC
100
AcDbXrecord
280
     1
102
RTVSPost2010Prop28
280
     0
102
RTVSPost2010PropOp28
 70
     1
102
RTVSPost2010Prop29
280
     1
102
RTVSPost2010PropOp29
 70
     1
102
RTVSPost2010Prop30
280
     1
102
RTVSPost2010PropOp30
 70
     1
102
RTVSPost2010Prop31
280
     0
102
RTVSPost2010PropOp31
 70
     1
102
RTVSPost2010Prop32
280
     0
102
RTVSPost2010PropOp32
 70
     1
102
RTVSPost2010Prop33
280
     0
102
RTVSPost2010PropOp33
 70
     1
102
RTVSPost2010Prop34
280
     0
102
RTVSPost2010PropOp34
 70
     1
102
RTVSPost2010Prop35
280
     0
102
RTVSPost2010PropOp35
 70
     1
102
RTVSPost2010Prop36
280
     0
102
RTVSPost2010PropOp36
 70
     1
102
RTVSPost2010Prop37
 90
       50
102
RTVSPost2010PropOp37
 70
     1
102
RTVSPost2010Prop38
140
0.0
102
RTVSPost2010PropOp38
 70
     1
102
RTVSPost2010Prop39
140
1.0
102
RTVSPost2010PropOp39
 70
     1
102
RTVSPost2010Prop40
 90
        0
102
RTVSPost2010PropOp40
 70
     1
102
RTVSPost2010Prop41ColorIndex
 90
       18
102
RTVSPost2010Prop41ColorRGB
 90
        0
102
RTVSPost2010PropOp41
 70
     1
102
RTVSPost2010Prop42
 90
       50
102
RTVSPost2010PropOp42
 70
     1
102
RTVSPost2010Prop43
 90
        3
102
RTVSPost2010PropOp43
 70
     1
102
RTVSPost2010Prop44ColorIndex
 90
        5
102
RTVSPost2010Prop44ColorRGB
 90
      255
102
RTVSPost2010PropOp44
 70
     1
102
RTVSPost2010Prop45
280
     0
102
RTVSPost2010PropOp45
 70
     1
102
RTVSPost2010Prop46
 90
       50
102
RTVSPost2010PropOp46
 70
     1
102
RTVSPost2010Prop47
 90
       50
102
RTVSPost2010PropOp47
 70
     1
102
RTVSPost2010Prop48
 90
       50
102
RTVSPost2010PropOp48
 70
     1
102
RTVSPost2010Prop49
280
     0
102
RTVSPost2010PropOp49
 70
     1
102
RTVSPost2010Prop50
 90
       50
102
RTVSPost2010PropOp50
 70
     1
102
RTVSPost2010Prop51ColorIndex
 90
      256
102
RTVSPost2010Prop51ColorRGB
 90
-16777216
102
RTVSPost2010PropOp51
 70
     0
102
RTVSPost2010Prop52
140
1.0
102
RTVSPost2010PropOp52
 70
     0
102
RTVSPost2010Prop53
 90
        2
102
RTVSPost2010PropOp53
 70
     1
102
RTVSPost2010Prop54
  1
strokes_ogs.tif
102
RTVSPost2010PropOp54
 70
     1
102
RTVSPost2010Prop55
280
     0
102
RTVSPost2010PropOp55
 70
     1
102
RTVSPost2010Prop56
140
1.0
102
RTVSPost2010PropOp56
 70
     1
102
RTVSPost2010Prop57
140
1.0
102
RTVSPost2010PropOp57
 70
     1
102
RTVSPropertyOp0
 70
     1
102
RTVSPropertyOp1
 70
     1
102
RTVSPropertyOp2
 70
     1
102
RTVSPropertyOp3
 70
     1
102
RTVSPropertyOp4
 70
     1
102
RTVSPropertyOp5
 70
     1
102
RTVSPropertyOp6
 70
     1
102
RTVSPropertyOp7
 70
     1
102
RTVSPropertyOp8
 70
     1
102
RTVSPropertyOp9
 70
     1
102
RTVSPropertyOp10
 70
     1
102
RTVSPropertyOp11
 70
     1
102
RTVSPropertyOp12
 70
     1
102
RTVSPropertyOp13
 70
     1
102
RTVSPropertyOp14
 70
     1
102
RTVSPropertyOp15
 70
     1
102
RTVSPropertyOp16
 70
     1
102
RTVSPropertyOp17
 70
     1
102
RTVSPropertyOp18
 70
     1
102
RTVSPropertyOp19
 70
     1
102
RTVSPropertyOp20
 70
     1
102
RTVSPropertyOp21
 70
     1
102
RTVSPropertyOp22
 70
     1
102
RTVSPropertyOp23
 70
     1
102
RTVSPropertyOp24
 70
     1
102
RTVSPropertyOp25
 70
     1
102
RTVSPropertyOp26
 70
     1
102
RTVSPropertyOp27
 70
     1
102
RTVSPropertyOp28
 70
     1
102
RTVSPropertyOp29
 70
     1
102
RTVSPropertyOp30
 70
     1
102
RTVSPropertyOp31
 70
     1
102
RTVSPropertyOp32
 70
     1
102
RTVSPropertyOp33
 70
     1
102
RTVSPropertyOp34
 70
     1
102
RTVSPropertyOp35
 70
     1
102
RTVSPropertyOp36
 70
     1
102
RTVSPropertyOp37
 70
     1
102
RTVSPropertyOp38
 70
     1
102
RTVSPropertyOp39
 70
     1
102
RTVSPropertyOp40
 70
     1
102
RTVSPropertyOp41
 70
     1
102
RTVSPropertyOp42
 70
     1
102
RTVSPropertyOp43
 70
     1
102
RTVSPropertyOp44
 70
     1
102
RTVSPropertyOp45
 70
     1
102
RTVSPropertyOp46
 70
     1
102
RTVSPropertyOp47
 70
     1
102
RTVSPropertyOp48
 70
     1
102
RTVSPropertyOp49
 70
     1
102
RTVSPropertyOp50
 70
     1
102
RTVSPropertyOp51
 70
     0
102
RTVSPropertyOp52
 70
     0
102
RTVSPropertyOp53
 70
     1
102
RTVSPropertyOp54
 70
     1
102
RTVSPropertyOp55
 70
     1
102
RTVSPropertyOp56
 70
     1
102
RTVSPropertyOp57
 70
     1
102
RTVSPropertyOp58
 70
     1
102
RTVSPropertyOp59
 70
     1
102
RTVSPropertyOp60
 70
     1
102
RTVSPropertyOp61
 70
     1
102
RTVSPropertyOp62
 70
     1
  0
XRECORD
  5
5D5
102
{ACAD_REACTORS
330
5D4
102
}
330
5D4
100
AcDbXrecord
280
     1
102
RTVSPost2010Prop28
280
     0
102
RTVSPost2010PropOp28
 70
     1
102
RTVSPost2010Prop29
280
     1
102
RTVSPost2010PropOp29
 70
     1
102
RTVSPost2010Prop30
280
     1
102
RTVSPost2010PropOp30
 70
     1
102
RTVSPost2010Prop31
280
     0
102
RTVSPost2010PropOp31
 70
     1
102
RTVSPost2010Prop32
280
     0
102
RTVSPost2010PropOp32
 70
     1
102
RTVSPost2010Prop33
280
     0
102
RTVSPost2010PropOp33
 70
     1
102
RTVSPost2010Prop34
280
     0
102
RTVSPost2010PropOp34
 70
     1
102
RTVSPost2010Prop35
280
     0
102
RTVSPost2010PropOp35
 70
     1
102
RTVSPost2010Prop36
280
     0
102
RTVSPost2010PropOp36
 70
     1
102
RTVSPost2010Prop37
 90
       50
102
RTVSPost2010PropOp37
 70
     1
102
RTVSPost2010Prop38
140
0.0
102
RTVSPost2010PropOp38
 70
     1
102
RTVSPost2010Prop39
140
1.0
102
RTVSPost2010PropOp39
 70
     1
102
RTVSPost2010Prop40
 90
        0
102
RTVSPost2010PropOp40
 70
     1
102
RTVSPost2010Prop41ColorIndex
 90
       18
102
RTVSPost2010Prop41ColorRGB
 90
        0
102
RTVSPost2010PropOp41
 70
     1
102
RTVSPost2010Prop42
 90
       50
102
RTVSPost2010PropOp42
 70
     1
102
RTVSPost2010Prop43
 90
        3
102
RTVSPost2010PropOp43
 70
     1
102
RTVSPost2010Prop44ColorIndex
 90
        5
102
RTVSPost2010Prop44ColorRGB
 90
      255
102
RTVSPost2010PropOp44
 70
     1
102
RTVSPost2010Prop45
280
     0
102
RTVSPost2010PropOp45
 70
     1
102
RTVSPost2010Prop46
 90
       50
102
RTVSPost2010PropOp46
 70
     1
102
RTVSPost2010Prop47
 90
       50
102
RTVSPost2010PropOp47
 70
     1
102
RTVSPost2010Prop48
 90
       50
102
RTVSPost2010PropOp48
 70
     1
102
RTVSPost2010Prop49
280
     0
102
RTVSPost2010PropOp49
 70
     1
102
RTVSPost2010Prop50
 90
       50
102
RTVSPost2010PropOp50
 70
     1
102
RTVSPost2010Prop51ColorIndex
 90
      256
102
RTVSPost2010Prop51ColorRGB
 90
-16777216
102
RTVSPost2010PropOp51
 70
     0
102
RTVSPost2010Prop52
140
1.0
102
RTVSPost2010PropOp52
 70
     0
102
RTVSPost2010Prop53
 90
        2
102
RTVSPost2010PropOp53
 70
     1
102
RTVSPost2010Prop54
  1
strokes_ogs.tif
102
RTVSPost2010PropOp54
 70
     1
102
RTVSPost2010Prop55
280
     0
102
RTVSPost2010PropOp55
 70
     1
102
RTVSPost2010Prop56
140
1.0
102
RTVSPost2010PropOp56
 70
     1
102
RTVSPost2010Prop57
140
1.0
102
RTVSPost2010PropOp57
 70
     1
102
RTVSPropertyOp0
 70
     1
102
RTVSPropertyOp1
 70
     1
102
RTVSPropertyOp2
 70
     1
102
RTVSPropertyOp3
 70
     1
102
RTVSPropertyOp4
 70
     1
102
RTVSPropertyOp5
 70
     1
102
RTVSPropertyOp6
 70
     1
102
RTVSPropertyOp7
 70
     1
102
RTVSPropertyOp8
 70
     1
102
RTVSPropertyOp9
 70
     1
102
RTVSPropertyOp10
 70
     1
102
RTVSPropertyOp11
 70
     1
102
RTVSPropertyOp12
 70
     1
102
RTVSPropertyOp13
 70
     1
102
RTVSPropertyOp14
 70
     1
102
RTVSPropertyOp15
 70
     1
102
RTVSPropertyOp16
 70
     1
102
RTVSPropertyOp17
 70
     1
102
RTVSPropertyOp18
 70
     1
102
RTVSPropertyOp19
 70
     1
102
RTVSPropertyOp20
 70
     1
102
RTVSPropertyOp21
 70
     1
102
RTVSPropertyOp22
 70
     1
102
RTVSPropertyOp23
 70
     1
102
RTVSPropertyOp24
 70
     1
102
RTVSPropertyOp25
 70
     1
102
RTVSPropertyOp26
 70
     1
102
RTVSPropertyOp27
 70
     1
102
RTVSPropertyOp28
 70
     1
102
RTVSPropertyOp29
 70
     1
102
RTVSPropertyOp30
 70
     1
102
RTVSPropertyOp31
 70
     1
102
RTVSPropertyOp32
 70
     1
102
RTVSPropertyOp33
 70
     1
102
RTVSPropertyOp34
 70
     1
102
RTVSPropertyOp35
 70
     1
102
RTVSPropertyOp36
 70
     1
102
RTVSPropertyOp37
 70
     1
102
RTVSPropertyOp38
 70
     1
102
RTVSPropertyOp39
 70
     1
102
RTVSPropertyOp40
 70
     1
102
RTVSPropertyOp41
 70
     1
102
RTVSPropertyOp42
 70
     1
102
RTVSPropertyOp43
 70
     1
102
RTVSPropertyOp44
 70
     1
102
RTVSPropertyOp45
 70
     1
102
RTVSPropertyOp46
 70
     1
102
RTVSPropertyOp47
 70
     1
102
RTVSPropertyOp48
 70
     1
102
RTVSPropertyOp49
 70
     1
102
RTVSPropertyOp50
 70
     1
102
RTVSPropertyOp51
 70
     0
102
RTVSPropertyOp52
 70
     0
102
RTVSPropertyOp53
 70
     1
102
RTVSPropertyOp54
 70
     1
102
RTVSPropertyOp55
 70
     1
102
RTVSPropertyOp56
 70
     1
102
RTVSPropertyOp57
 70
     1
102
RTVSPropertyOp58
 70
     1
102
RTVSPropertyOp59
 70
     1
102
RTVSPropertyOp60
 70
     1
102
RTVSPropertyOp61
 70
     1
102
RTVSPropertyOp62
 70
     1
  0
XRECORD
  5
5F1
102
{ACAD_REACTORS
330
5F0
102
}
330
5F0
100
AcDbXrecord
280
     1
102
RTVSPost2010Prop28
280
     0
102
RTVSPost2010PropOp28
 70
     0
102
RTVSPost2010Prop29
280
     1
102
RTVSPost2010PropOp29
 70
     0
102
RTVSPost2010Prop30
280
     1
102
RTVSPost2010PropOp30
 70
     0
102
RTVSPost2010Prop31
280
     0
102
RTVSPost2010PropOp31
 70
     0
102
RTVSPost2010Prop32
280
     0
102
RTVSPost2010PropOp32
 70
     0
102
RTVSPost2010Prop33
280
     0
102
RTVSPost2010PropOp33
 70
     0
102
RTVSPost2010Prop34
280
     0
102
RTVSPost2010PropOp34
 70
     0
102
RTVSPost2010Prop35
280
     0
102
RTVSPost2010PropOp35
 70
     0
102
RTVSPost2010Prop36
280
     0
102
RTVSPost2010PropOp36
 70
     0
102
RTVSPost2010Prop37
 90
       50
102
RTVSPost2010PropOp37
 70
     0
102
RTVSPost2010Prop38
140
0.0
102
RTVSPost2010PropOp38
 70
     0
102
RTVSPost2010Prop39
140
1.0
102
RTVSPost2010PropOp39
 70
     0
102
RTVSPost2010Prop40
 90
        0
102
RTVSPost2010PropOp40
 70
     0
102
RTVSPost2010Prop41ColorIndex
 90
       18
102
RTVSPost2010Prop41ColorRGB
 90
        0
102
RTVSPost2010PropOp41
 70
     0
102
RTVSPost2010Prop42
 90
       50
102
RTVSPost2010PropOp42
 70
     0
102
RTVSPost2010Prop43
 90
        3
102
RTVSPost2010PropOp43
 70
     0
102
RTVSPost2010Prop44ColorIndex
 90
        5
102
RTVSPost2010Prop44ColorRGB
 90
      255
102
RTVSPost2010PropOp44
 70
     0
102
RTVSPost2010Prop45
280
     0
102
RTVSPost2010PropOp45
 70
     0
102
RTVSPost2010Prop46
 90
       50
102
RTVSPost2010PropOp46
 70
     0
102
RTVSPost2010Prop47
 90
       50
102
RTVSPost2010PropOp47
 70
     0
102
RTVSPost2010Prop48
 90
       50
102
RTVSPost2010PropOp48
 70
     0
102
RTVSPost2010Prop49
280
     0
102
RTVSPost2010PropOp49
 70
     0
102
RTVSPost2010Prop50
 90
       50
102
RTVSPost2010PropOp50
 70
     0
102
RTVSPost2010Prop51ColorIndex
 90
      256
102
RTVSPost2010Prop51ColorRGB
 90
-16777216
102
RTVSPost2010PropOp51
 70
     0
102
RTVSPost2010Prop52
140
1.0
102
RTVSPost2010PropOp52
 70
     0
102
RTVSPost2010Prop53
 90
        2
102
RTVSPost2010PropOp53
 70
     0
102
RTVSPost2010Prop54
  1
strokes_ogs.tif
102
RTVSPost2010PropOp54
 70
     0
102
RTVSPost2010Prop55
280
     0
102
RTVSPost2010PropOp55
 70
     0
102
RTVSPost2010Prop56
140
1.0
102
RTVSPost2010PropOp56
 70
     0
102
RTVSPost2010Prop57
140
1.0
102
RTVSPost2010PropOp57
 70
     0
102
RTVSPropertyOp0
 70
     0
102
RTVSPropertyOp1
 70
     0
102
RTVSPropertyOp2
 70
     0
102
RTVSPropertyOp3
 70
     0
102
RTVSPropertyOp4
 70
     0
102
RTVSPropertyOp5
 70
     0
102
RTVSPropertyOp6
 70
     0
102
RTVSPropertyOp7
 70
     0
102
RTVSPropertyOp8
 70
     0
102
RTVSPropertyOp9
 70
     0
102
RTVSPropertyOp10
 70
     0
102
RTVSPropertyOp11
 70
     0
102
RTVSPropertyOp12
 70
     0
102
RTVSPropertyOp13
 70
     0
102
RTVSPropertyOp14
 70
     2
102
RTVSPropertyOp15
 70
     0
102
RTVSPropertyOp16
 70
     0
102
RTVSPropertyOp17
 70
     0
102
RTVSPropertyOp18
 70
     0
102
RTVSPropertyOp19
 70
     0
102
RTVSPropertyOp20
 70
     0
102
RTVSPropertyOp21
 70
     0
102
RTVSPropertyOp22
 70
     0
102
RTVSPropertyOp23
 70
     0
102
RTVSPropertyOp24
 70
     0
102
RTVSPropertyOp25
 70
     0
102
RTVSPropertyOp26
 70
     0
102
RTVSPropertyOp27
 70
     0
102
RTVSPropertyOp28
 70
     0
102
RTVSPropertyOp29
 70
     0
102
RTVSPropertyOp30
 70
     0
102
RTVSPropertyOp31
 70
     0
102
RTVSPropertyOp32
 70
     0
102
RTVSPropertyOp33
 70
     0
102
RTVSPropertyOp34
 70
     0
102
RTVSPropertyOp35
 70
     0
102
RTVSPropertyOp36
 70
     0
102
RTVSPropertyOp37
 70
     0
102
RTVSPropertyOp38
 70
     0
102
RTVSPropertyOp39
 70
     0
102
RTVSPropertyOp40
 70
     0
102
RTVSPropertyOp41
 70
     0
102
RTVSPropertyOp42
 70
     0
102
RTVSPropertyOp43
 70
     0
102
RTVSPropertyOp44
 70
     0
102
RTVSPropertyOp45
 70
     0
102
RTVSPropertyOp46
 70
     0
102
RTVSPropertyOp47
 70
     0
102
RTVSPropertyOp48
 70
     0
102
RTVSPropertyOp49
 70
     0
102
RTVSPropertyOp50
 70
     0
102
RTVSPropertyOp51
 70
     0
102
RTVSPropertyOp52
 70
     0
102
RTVSPropertyOp53
 70
     0
102
RTVSPropertyOp54
 70
     0
102
RTVSPropertyOp55
 70
     0
102
RTVSPropertyOp56
 70
     0
102
RTVSPropertyOp57
 70
     0
102
RTVSPropertyOp58
 70
     1
102
RTVSPropertyOp59
 70
     1
102
RTVSPropertyOp60
 70
     1
102
RTVSPropertyOp61
 70
     1
102
RTVSPropertyOp62
 70
     1
  0
XRECORD
  5
5E1
102
{ACAD_REACTORS
330
5E0
102
}
330
5E0
100
AcDbXrecord
280
     1
102
RTVSPost2010Prop28
280
     0
102
RTVSPost2010PropOp28
 70
     1
102
RTVSPost2010Prop29
280
     1
102
RTVSPost2010PropOp29
 70
     1
102
RTVSPost2010Prop30
280
     1
102
RTVSPost2010PropOp30
 70
     1
102
RTVSPost2010Prop31
280
     0
102
RTVSPost2010PropOp31
 70
     1
102
RTVSPost2010Prop32
280
     0
102
RTVSPost2010PropOp32
 70
     1
102
RTVSPost2010Prop33
280
     0
102
RTVSPost2010PropOp33
 70
     1
102
RTVSPost2010Prop34
280
     0
102
RTVSPost2010PropOp34
 70
     1
102
RTVSPost2010Prop35
280
     0
102
RTVSPost2010PropOp35
 70
     1
102
RTVSPost2010Prop36
280
     0
102
RTVSPost2010PropOp36
 70
     1
102
RTVSPost2010Prop37
 90
       50
102
RTVSPost2010PropOp37
 70
     1
102
RTVSPost2010Prop38
140
0.0
102
RTVSPost2010PropOp38
 70
     1
102
RTVSPost2010Prop39
140
1.0
102
RTVSPost2010PropOp39
 70
     1
102
RTVSPost2010Prop40
 90
        0
102
RTVSPost2010PropOp40
 70
     1
102
RTVSPost2010Prop41ColorIndex
 90
       18
102
RTVSPost2010Prop41ColorRGB
 90
        0
102
RTVSPost2010PropOp41
 70
     1
102
RTVSPost2010Prop42
 90
       50
102
RTVSPost2010PropOp42
 70
     1
102
RTVSPost2010Prop43
 90
        3
102
RTVSPost2010PropOp43
 70
     1
102
RTVSPost2010Prop44ColorIndex
 90
        5
102
RTVSPost2010Prop44ColorRGB
 90
      255
102
RTVSPost2010PropOp44
 70
     1
102
RTVSPost2010Prop45
280
     0
102
RTVSPost2010PropOp45
 70
     1
102
RTVSPost2010Prop46
 90
       50
102
RTVSPost2010PropOp46
 70
     1
102
RTVSPost2010Prop47
 90
       50
102
RTVSPost2010PropOp47
 70
     1
102
RTVSPost2010Prop48
 90
       50
102
RTVSPost2010PropOp48
 70
     1
102
RTVSPost2010Prop49
280
     0
102
RTVSPost2010PropOp49
 70
     1
102
RTVSPost2010Prop50
 90
       50
102
RTVSPost2010PropOp50
 70
     1
102
RTVSPost2010Prop51ColorIndex
 90
      256
102
RTVSPost2010Prop51ColorRGB
 90
-16777216
102
RTVSPost2010PropOp51
 70
     0
102
RTVSPost2010Prop52
140
1.0
102
RTVSPost2010PropOp52
 70
     0
102
RTVSPost2010Prop53
 90
        2
102
RTVSPost2010PropOp53
 70
     1
102
RTVSPost2010Prop54
  1
strokes_ogs.tif
102
RTVSPost2010PropOp54
 70
     1
102
RTVSPost2010Prop55
280
     0
102
RTVSPost2010PropOp55
 70
     1
102
RTVSPost2010Prop56
140
1.0
102
RTVSPost2010PropOp56
 70
     1
102
RTVSPost2010Prop57
140
1.0
102
RTVSPost2010PropOp57
 70
     1
102
RTVSPropertyOp0
 70
     1
102
RTVSPropertyOp1
 70
     1
102
RTVSPropertyOp2
 70
     1
102
RTVSPropertyOp3
 70
     1
102
RTVSPropertyOp4
 70
     1
102
RTVSPropertyOp5
 70
     1
102
RTVSPropertyOp6
 70
     1
102
RTVSPropertyOp7
 70
     1
102
RTVSPropertyOp8
 70
     1
102
RTVSPropertyOp9
 70
     1
102
RTVSPropertyOp10
 70
     1
102
RTVSPropertyOp11
 70
     1
102
RTVSPropertyOp12
 70
     1
102
RTVSPropertyOp13
 70
     1
102
RTVSPropertyOp14
 70
     1
102
RTVSPropertyOp15
 70
     1
102
RTVSPropertyOp16
 70
     1
102
RTVSPropertyOp17
 70
     1
102
RTVSPropertyOp18
 70
     1
102
RTVSPropertyOp19
 70
     1
102
RTVSPropertyOp20
 70
     1
102
RTVSPropertyOp21
 70
     1
102
RTVSPropertyOp22
 70
     1
102
RTVSPropertyOp23
 70
     1
102
RTVSPropertyOp24
 70
     1
102
RTVSPropertyOp25
 70
     1
102
RTVSPropertyOp26
 70
     1
102
RTVSPropertyOp27
 70
     1
102
RTVSPropertyOp28
 70
     1
102
RTVSPropertyOp29
 70
     1
102
RTVSPropertyOp30
 70
     1
102
RTVSPropertyOp31
 70
     1
102
RTVSPropertyOp32
 70
     1
102
RTVSPropertyOp33
 70
     1
102
RTVSPropertyOp34
 70
     1
102
RTVSPropertyOp35
 70
     1
102
RTVSPropertyOp36
 70
     1
102
RTVSPropertyOp37
 70
     1
102
RTVSPropertyOp38
 70
     1
102
RTVSPropertyOp39
 70
     1
102
RTVSPropertyOp40
 70
     1
102
RTVSPropertyOp41
 70
     1
102
RTVSPropertyOp42
 70
     1
102
RTVSPropertyOp43
 70
     1
102
RTVSPropertyOp44
 70
     1
102
RTVSPropertyOp45
 70
     1
102
RTVSPropertyOp46
 70
     1
102
RTVSPropertyOp47
 70
     1
102
RTVSPropertyOp48
 70
     1
102
RTVSPropertyOp49
 70
     1
102
RTVSPropertyOp50
 70
     1
102
RTVSPropertyOp51
 70
     0
102
RTVSPropertyOp52
 70
     0
102
RTVSPropertyOp53
 70
     1
102
RTVSPropertyOp54
 70
     1
102
RTVSPropertyOp55
 70
     1
102
RTVSPropertyOp56
 70
     1
102
RTVSPropertyOp57
 70
     1
102
RTVSPropertyOp58
 70
     1
102
RTVSPropertyOp59
 70
     1
102
RTVSPropertyOp60
 70
     1
102
RTVSPropertyOp61
 70
     1
102
RTVSPropertyOp62
 70
     1
  0
XRECORD
  5
5F3
102
{ACAD_REACTORS
330
5F2
102
}
330
5F2
100
AcDbXrecord
280
     1
102
RTVSPost2010Prop28
280
     0
102
RTVSPost2010PropOp28
 70
     0
102
RTVSPost2010Prop29
280
     1
102
RTVSPost2010PropOp29
 70
     0
102
RTVSPost2010Prop30
280
     1
102
RTVSPost2010PropOp30
 70
     0
102
RTVSPost2010Prop31
280
     0
102
RTVSPost2010PropOp31
 70
     0
102
RTVSPost2010Prop32
280
     0
102
RTVSPost2010PropOp32
 70
     0
102
RTVSPost2010Prop33
280
     0
102
RTVSPost2010PropOp33
 70
     0
102
RTVSPost2010Prop34
280
     0
102
RTVSPost2010PropOp34
 70
     0
102
RTVSPost2010Prop35
280
     0
102
RTVSPost2010PropOp35
 70
     0
102
RTVSPost2010Prop36
280
     0
102
RTVSPost2010PropOp36
 70
     0
102
RTVSPost2010Prop37
 90
       50
102
RTVSPost2010PropOp37
 70
     0
102
RTVSPost2010Prop38
140
0.0
102
RTVSPost2010PropOp38
 70
     0
102
RTVSPost2010Prop39
140
1.0
102
RTVSPost2010PropOp39
 70
     0
102
RTVSPost2010Prop40
 90
        0
102
RTVSPost2010PropOp40
 70
     0
102
RTVSPost2010Prop41ColorIndex
 90
       18
102
RTVSPost2010Prop41ColorRGB
 90
        0
102
RTVSPost2010PropOp41
 70
     0
102
RTVSPost2010Prop42
 90
       50
102
RTVSPost2010PropOp42
 70
     0
102
RTVSPost2010Prop43
 90
        3
102
RTVSPost2010PropOp43
 70
     0
102
RTVSPost2010Prop44ColorIndex
 90
        5
102
RTVSPost2010Prop44ColorRGB
 90
      255
102
RTVSPost2010PropOp44
 70
     0
102
RTVSPost2010Prop45
280
     0
102
RTVSPost2010PropOp45
 70
     0
102
RTVSPost2010Prop46
 90
       50
102
RTVSPost2010PropOp46
 70
     0
102
RTVSPost2010Prop47
 90
       50
102
RTVSPost2010PropOp47
 70
     0
102
RTVSPost2010Prop48
 90
       50
102
RTVSPost2010PropOp48
 70
     0
102
RTVSPost2010Prop49
280
     0
102
RTVSPost2010PropOp49
 70
     0
102
RTVSPost2010Prop50
 90
       50
102
RTVSPost2010PropOp50
 70
     0
102
RTVSPost2010Prop51ColorIndex
 90
      256
102
RTVSPost2010Prop51ColorRGB
 90
-16777216
102
RTVSPost2010PropOp51
 70
     0
102
RTVSPost2010Prop52
140
1.0
102
RTVSPost2010PropOp52
 70
     0
102
RTVSPost2010Prop53
 90
        2
102
RTVSPost2010PropOp53
 70
     0
102
RTVSPost2010Prop54
  1
strokes_ogs.tif
102
RTVSPost2010PropOp54
 70
     0
102
RTVSPost2010Prop55
280
     0
102
RTVSPost2010PropOp55
 70
     0
102
RTVSPost2010Prop56
140
1.0
102
RTVSPost2010PropOp56
 70
     0
102
RTVSPost2010Prop57
140
1.0
102
RTVSPost2010PropOp57
 70
     0
102
RTVSPropertyOp0
 70
     0
102
RTVSPropertyOp1
 70
     0
102
RTVSPropertyOp2
 70
     0
102
RTVSPropertyOp3
 70
     0
102
RTVSPropertyOp4
 70
     0
102
RTVSPropertyOp5
 70
     0
102
RTVSPropertyOp6
 70
     0
102
RTVSPropertyOp7
 70
     0
102
RTVSPropertyOp8
 70
     0
102
RTVSPropertyOp9
 70
     0
102
RTVSPropertyOp10
 70
     0
102
RTVSPropertyOp11
 70
     0
102
RTVSPropertyOp12
 70
     0
102
RTVSPropertyOp13
 70
     0
102
RTVSPropertyOp14
 70
     2
102
RTVSPropertyOp15
 70
     0
102
RTVSPropertyOp16
 70
     0
102
RTVSPropertyOp17
 70
     0
102
RTVSPropertyOp18
 70
     0
102
RTVSPropertyOp19
 70
     0
102
RTVSPropertyOp20
 70
     0
102
RTVSPropertyOp21
 70
     0
102
RTVSPropertyOp22
 70
     0
102
RTVSPropertyOp23
 70
     0
102
RTVSPropertyOp24
 70
     0
102
RTVSPropertyOp25
 70
     0
102
RTVSPropertyOp26
 70
     0
102
RTVSPropertyOp27
 70
     0
102
RTVSPropertyOp28
 70
     0
102
RTVSPropertyOp29
 70
     0
102
RTVSPropertyOp30
 70
     0
102
RTVSPropertyOp31
 70
     0
102
RTVSPropertyOp32
 70
     0
102
RTVSPropertyOp33
 70
     0
102
RTVSPropertyOp34
 70
     0
102
RTVSPropertyOp35
 70
     0
102
RTVSPropertyOp36
 70
     0
102
RTVSPropertyOp37
 70
     0
102
RTVSPropertyOp38
 70
     0
102
RTVSPropertyOp39
 70
     0
102
RTVSPropertyOp40
 70
     0
102
RTVSPropertyOp41
 70
     0
102
RTVSPropertyOp42
 70
     0
102
RTVSPropertyOp43
 70
     0
102
RTVSPropertyOp44
 70
     0
102
RTVSPropertyOp45
 70
     0
102
RTVSPropertyOp46
 70
     0
102
RTVSPropertyOp47
 70
     0
102
RTVSPropertyOp48
 70
     0
102
RTVSPropertyOp49
 70
     0
102
RTVSPropertyOp50
 70
     0
102
RTVSPropertyOp51
 70
     0
102
RTVSPropertyOp52
 70
     0
102
RTVSPropertyOp53
 70
     0
102
RTVSPropertyOp54
 70
     0
102
RTVSPropertyOp55
 70
     0
102
RTVSPropertyOp56
 70
     0
102
RTVSPropertyOp57
 70
     0
102
RTVSPropertyOp58
 70
     1
102
RTVSPropertyOp59
 70
     1
102
RTVSPropertyOp60
 70
     1
102
RTVSPropertyOp61
 70
     1
102
RTVSPropertyOp62
 70
     1
  0
XRECORD
  5
5D9
102
{ACAD_REACTORS
330
5D8
102
}
330
5D8
100
AcDbXrecord
280
     1
102
RTVSPost2010Prop28
280
     0
102
RTVSPost2010PropOp28
 70
     1
102
RTVSPost2010Prop29
280
     1
102
RTVSPost2010PropOp29
 70
     1
102
RTVSPost2010Prop30
280
     1
102
RTVSPost2010PropOp30
 70
     1
102
RTVSPost2010Prop31
280
     0
102
RTVSPost2010PropOp31
 70
     1
102
RTVSPost2010Prop32
280
     0
102
RTVSPost2010PropOp32
 70
     1
102
RTVSPost2010Prop33
280
     0
102
RTVSPost2010PropOp33
 70
     1
102
RTVSPost2010Prop34
280
     0
102
RTVSPost2010PropOp34
 70
     1
102
RTVSPost2010Prop35
280
     0
102
RTVSPost2010PropOp35
 70
     1
102
RTVSPost2010Prop36
280
     0
102
RTVSPost2010PropOp36
 70
     1
102
RTVSPost2010Prop37
 90
       50
102
RTVSPost2010PropOp37
 70
     1
102
RTVSPost2010Prop38
140
0.0
102
RTVSPost2010PropOp38
 70
     1
102
RTVSPost2010Prop39
140
1.0
102
RTVSPost2010PropOp39
 70
     1
102
RTVSPost2010Prop40
 90
        0
102
RTVSPost2010PropOp40
 70
     1
102
RTVSPost2010Prop41ColorIndex
 90
       18
102
RTVSPost2010Prop41ColorRGB
 90
        0
102
RTVSPost2010PropOp41
 70
     1
102
RTVSPost2010Prop42
 90
       50
102
RTVSPost2010PropOp42
 70
     1
102
RTVSPost2010Prop43
 90
        3
102
RTVSPost2010PropOp43
 70
     1
102
RTVSPost2010Prop44ColorIndex
 90
        5
102
RTVSPost2010Prop44ColorRGB
 90
      255
102
RTVSPost2010PropOp44
 70
     1
102
RTVSPost2010Prop45
280
     0
102
RTVSPost2010PropOp45
 70
     1
102
RTVSPost2010Prop46
 90
       50
102
RTVSPost2010PropOp46
 70
     1
102
RTVSPost2010Prop47
 90
       50
102
RTVSPost2010PropOp47
 70
     1
102
RTVSPost2010Prop48
 90
       50
102
RTVSPost2010PropOp48
 70
     1
102
RTVSPost2010Prop49
280
     0
102
RTVSPost2010PropOp49
 70
     1
102
RTVSPost2010Prop50
 90
       50
102
RTVSPost2010PropOp50
 70
     1
102
RTVSPost2010Prop51ColorIndex
 90
      256
102
RTVSPost2010Prop51ColorRGB
 90
-16777216
102
RTVSPost2010PropOp51
 70
     0
102
RTVSPost2010Prop52
140
1.0
102
RTVSPost2010PropOp52
 70
     0
102
RTVSPost2010Prop53
 90
        2
102
RTVSPost2010PropOp53
 70
     1
102
RTVSPost2010Prop54
  1
strokes_ogs.tif
102
RTVSPost2010PropOp54
 70
     1
102
RTVSPost2010Prop55
280
     0
102
RTVSPost2010PropOp55
 70
     1
102
RTVSPost2010Prop56
140
1.0
102
RTVSPost2010PropOp56
 70
     1
102
RTVSPost2010Prop57
140
1.0
102
RTVSPost2010PropOp57
 70
     1
102
RTVSPropertyOp0
 70
     1
102
RTVSPropertyOp1
 70
     1
102
RTVSPropertyOp2
 70
     1
102
RTVSPropertyOp3
 70
     1
102
RTVSPropertyOp4
 70
     1
102
RTVSPropertyOp5
 70
     1
102
RTVSPropertyOp6
 70
     1
102
RTVSPropertyOp7
 70
     1
102
RTVSPropertyOp8
 70
     1
102
RTVSPropertyOp9
 70
     1
102
RTVSPropertyOp10
 70
     1
102
RTVSPropertyOp11
 70
     1
102
RTVSPropertyOp12
 70
     1
102
RTVSPropertyOp13
 70
     1
102
RTVSPropertyOp14
 70
     1
102
RTVSPropertyOp15
 70
     1
102
RTVSPropertyOp16
 70
     1
102
RTVSPropertyOp17
 70
     1
102
RTVSPropertyOp18
 70
     1
102
RTVSPropertyOp19
 70
     1
102
RTVSPropertyOp20
 70
     1
102
RTVSPropertyOp21
 70
     1
102
RTVSPropertyOp22
 70
     1
102
RTVSPropertyOp23
 70
     1
102
RTVSPropertyOp24
 70
     1
102
RTVSPropertyOp25
 70
     1
102
RTVSPropertyOp26
 70
     1
102
RTVSPropertyOp27
 70
     1
102
RTVSPropertyOp28
 70
     1
102
RTVSPropertyOp29
 70
     1
102
RTVSPropertyOp30
 70
     1
102
RTVSPropertyOp31
 70
     1
102
RTVSPropertyOp32
 70
     1
102
RTVSPropertyOp33
 70
     1
102
RTVSPropertyOp34
 70
     1
102
RTVSPropertyOp35
 70
     1
102
RTVSPropertyOp36
 70
     1
102
RTVSPropertyOp37
 70
     1
102
RTVSPropertyOp38
 70
     1
102
RTVSPropertyOp39
 70
     1
102
RTVSPropertyOp40
 70
     1
102
RTVSPropertyOp41
 70
     1
102
RTVSPropertyOp42
 70
     1
102
RTVSPropertyOp43
 70
     1
102
RTVSPropertyOp44
 70
     1
102
RTVSPropertyOp45
 70
     1
102
RTVSPropertyOp46
 70
     1
102
RTVSPropertyOp47
 70
     1
102
RTVSPropertyOp48
 70
     1
102
RTVSPropertyOp49
 70
     1
102
RTVSPropertyOp50
 70
     1
102
RTVSPropertyOp51
 70
     0
102
RTVSPropertyOp52
 70
     0
102
RTVSPropertyOp53
 70
     1
102
RTVSPropertyOp54
 70
     1
102
RTVSPropertyOp55
 70
     1
102
RTVSPropertyOp56
 70
     1
102
RTVSPropertyOp57
 70
     1
102
RTVSPropertyOp58
 70
     1
102
RTVSPropertyOp59
 70
     1
102
RTVSPropertyOp60
 70
     1
102
RTVSPropertyOp61
 70
     1
102
RTVSPropertyOp62
 70
     1
  0
XRECORD
  5
5EF
102
{ACAD_REACTORS
330
5EE
102
}
330
5EE
100
AcDbXrecord
280
     1
102
RTVSPost2010Prop28
280
     0
102
RTVSPost2010PropOp28
 70
     1
102
RTVSPost2010Prop29
280
     1
102
RTVSPost2010PropOp29
 70
     1
102
RTVSPost2010Prop30
280
     1
102
RTVSPost2010PropOp30
 70
     1
102
RTVSPost2010Prop31
280
     0
102
RTVSPost2010PropOp31
 70
     1
102
RTVSPost2010Prop32
280
     0
102
RTVSPost2010PropOp32
 70
     1
102
RTVSPost2010Prop33
280
     0
102
RTVSPost2010PropOp33
 70
     1
102
RTVSPost2010Prop34
280
     0
102
RTVSPost2010PropOp34
 70
     1
102
RTVSPost2010Prop35
280
     0
102
RTVSPost2010PropOp35
 70
     1
102
RTVSPost2010Prop36
280
     0
102
RTVSPost2010PropOp36
 70
     1
102
RTVSPost2010Prop37
 90
       50
102
RTVSPost2010PropOp37
 70
     1
102
RTVSPost2010Prop38
140
0.0
102
RTVSPost2010PropOp38
 70
     1
102
RTVSPost2010Prop39
140
1.0
102
RTVSPost2010PropOp39
 70
     1
102
RTVSPost2010Prop40
 90
        0
102
RTVSPost2010PropOp40
 70
     1
102
RTVSPost2010Prop41ColorIndex
 90
       18
102
RTVSPost2010Prop41ColorRGB
 90
        0
102
RTVSPost2010PropOp41
 70
     1
102
RTVSPost2010Prop42
 90
       50
102
RTVSPost2010PropOp42
 70
     1
102
RTVSPost2010Prop43
 90
        3
102
RTVSPost2010PropOp43
 70
     1
102
RTVSPost2010Prop44ColorIndex
 90
        5
102
RTVSPost2010Prop44ColorRGB
 90
      255
102
RTVSPost2010PropOp44
 70
     1
102
RTVSPost2010Prop45
280
     0
102
RTVSPost2010PropOp45
 70
     1
102
RTVSPost2010Prop46
 90
       50
102
RTVSPost2010PropOp46
 70
     1
102
RTVSPost2010Prop47
 90
       50
102
RTVSPost2010PropOp47
 70
     1
102
RTVSPost2010Prop48
 90
       50
102
RTVSPost2010PropOp48
 70
     1
102
RTVSPost2010Prop49
280
     0
102
RTVSPost2010PropOp49
 70
     1
102
RTVSPost2010Prop50
 90
       50
102
RTVSPost2010PropOp50
 70
     1
102
RTVSPost2010Prop51ColorIndex
 90
      256
102
RTVSPost2010Prop51ColorRGB
 90
-16777216
102
RTVSPost2010PropOp51
 70
     0
102
RTVSPost2010Prop52
140
1.0
102
RTVSPost2010PropOp52
 70
     0
102
RTVSPost2010Prop53
 90
        2
102
RTVSPost2010PropOp53
 70
     1
102
RTVSPost2010Prop54
  1
strokes_ogs.tif
102
RTVSPost2010PropOp54
 70
     1
102
RTVSPost2010Prop55
280
     0
102
RTVSPost2010PropOp55
 70
     1
102
RTVSPost2010Prop56
140
1.0
102
RTVSPost2010PropOp56
 70
     1
102
RTVSPost2010Prop57
140
1.0
102
RTVSPost2010PropOp57
 70
     1
102
RTVSPropertyOp0
 70
     1
102
RTVSPropertyOp1
 70
     1
102
RTVSPropertyOp2
 70
     1
102
RTVSPropertyOp3
 70
     1
102
RTVSPropertyOp4
 70
     1
102
RTVSPropertyOp5
 70
     1
102
RTVSPropertyOp6
 70
     1
102
RTVSPropertyOp7
 70
     1
102
RTVSPropertyOp8
 70
     1
102
RTVSPropertyOp9
 70
     1
102
RTVSPropertyOp10
 70
     1
102
RTVSPropertyOp11
 70
     1
102
RTVSPropertyOp12
 70
     1
102
RTVSPropertyOp13
 70
     1
102
RTVSPropertyOp14
 70
     1
102
RTVSPropertyOp15
 70
     1
102
RTVSPropertyOp16
 70
     1
102
RTVSPropertyOp17
 70
     1
102
RTVSPropertyOp18
 70
     1
102
RTVSPropertyOp19
 70
     1
102
RTVSPropertyOp20
 70
     1
102
RTVSPropertyOp21
 70
     1
102
RTVSPropertyOp22
 70
     1
102
RTVSPropertyOp23
 70
     1
102
RTVSPropertyOp24
 70
     1
102
RTVSPropertyOp25
 70
     1
102
RTVSPropertyOp26
 70
     1
102
RTVSPropertyOp27
 70
     1
102
RTVSPropertyOp28
 70
     1
102
RTVSPropertyOp29
 70
     1
102
RTVSPropertyOp30
 70
     1
102
RTVSPropertyOp31
 70
     1
102
RTVSPropertyOp32
 70
     1
102
RTVSPropertyOp33
 70
     1
102
RTVSPropertyOp34
 70
     1
102
RTVSPropertyOp35
 70
     1
102
RTVSPropertyOp36
 70
     1
102
RTVSPropertyOp37
 70
     1
102
RTVSPropertyOp38
 70
     1
102
RTVSPropertyOp39
 70
     1
102
RTVSPropertyOp40
 70
     1
102
RTVSPropertyOp41
 70
     1
102
RTVSPropertyOp42
 70
     1
102
RTVSPropertyOp43
 70
     1
102
RTVSPropertyOp44
 70
     1
102
RTVSPropertyOp45
 70
     1
102
RTVSPropertyOp46
 70
     1
102
RTVSPropertyOp47
 70
     1
102
RTVSPropertyOp48
 70
     1
102
RTVSPropertyOp49
 70
     1
102
RTVSPropertyOp50
 70
     1
102
RTVSPropertyOp51
 70
     0
102
RTVSPropertyOp52
 70
     0
102
RTVSPropertyOp53
 70
     1
102
RTVSPropertyOp54
 70
     1
102
RTVSPropertyOp55
 70
     1
102
RTVSPropertyOp56
 70
     1
102
RTVSPropertyOp57
 70
     1
102
RTVSPropertyOp58
 70
     1
102
RTVSPropertyOp59
 70
     1
102
RTVSPropertyOp60
 70
     1
102
RTVSPropertyOp61
 70
     1
102
RTVSPropertyOp62
 70
     1
  0
XRECORD
  5
5ED
102
{ACAD_REACTORS
330
5EC
102
}
330
5EC
100
AcDbXrecord
280
     1
102
RTVSPost2010Prop28
280
     0
102
RTVSPost2010PropOp28
 70
     1
102
RTVSPost2010Prop29
280
     1
102
RTVSPost2010PropOp29
 70
     1
102
RTVSPost2010Prop30
280
     1
102
RTVSPost2010PropOp30
 70
     1
102
RTVSPost2010Prop31
280
     0
102
RTVSPost2010PropOp31
 70
     1
102
RTVSPost2010Prop32
280
     0
102
RTVSPost2010PropOp32
 70
     1
102
RTVSPost2010Prop33
280
     0
102
RTVSPost2010PropOp33
 70
     1
102
RTVSPost2010Prop34
280
     0
102
RTVSPost2010PropOp34
 70
     1
102
RTVSPost2010Prop35
280
     0
102
RTVSPost2010PropOp35
 70
     1
102
RTVSPost2010Prop36
280
     0
102
RTVSPost2010PropOp36
 70
     1
102
RTVSPost2010Prop37
 90
       50
102
RTVSPost2010PropOp37
 70
     1
102
RTVSPost2010Prop38
140
0.0
102
RTVSPost2010PropOp38
 70
     1
102
RTVSPost2010Prop39
140
1.0
102
RTVSPost2010PropOp39
 70
     1
102
RTVSPost2010Prop40
 90
        0
102
RTVSPost2010PropOp40
 70
     1
102
RTVSPost2010Prop41ColorIndex
 90
       18
102
RTVSPost2010Prop41ColorRGB
 90
        0
102
RTVSPost2010PropOp41
 70
     1
102
RTVSPost2010Prop42
 90
       50
102
RTVSPost2010PropOp42
 70
     1
102
RTVSPost2010Prop43
 90
        3
102
RTVSPost2010PropOp43
 70
     1
102
RTVSPost2010Prop44ColorIndex
 90
        5
102
RTVSPost2010Prop44ColorRGB
 90
      255
102
RTVSPost2010PropOp44
 70
     1
102
RTVSPost2010Prop45
280
     0
102
RTVSPost2010PropOp45
 70
     1
102
RTVSPost2010Prop46
 90
       50
102
RTVSPost2010PropOp46
 70
     1
102
RTVSPost2010Prop47
 90
       50
102
RTVSPost2010PropOp47
 70
     1
102
RTVSPost2010Prop48
 90
       50
102
RTVSPost2010PropOp48
 70
     1
102
RTVSPost2010Prop49
280
     0
102
RTVSPost2010PropOp49
 70
     1
102
RTVSPost2010Prop50
 90
       50
102
RTVSPost2010PropOp50
 70
     1
102
RTVSPost2010Prop51ColorIndex
 90
      256
102
RTVSPost2010Prop51ColorRGB
 90
-16777216
102
RTVSPost2010PropOp51
 70
     0
102
RTVSPost2010Prop52
140
1.0
102
RTVSPost2010PropOp52
 70
     0
102
RTVSPost2010Prop53
 90
        2
102
RTVSPost2010PropOp53
 70
     1
102
RTVSPost2010Prop54
  1
strokes_ogs.tif
102
RTVSPost2010PropOp54
 70
     1
102
RTVSPost2010Prop55
280
     0
102
RTVSPost2010PropOp55
 70
     1
102
RTVSPost2010Prop56
140
1.0
102
RTVSPost2010PropOp56
 70
     1
102
RTVSPost2010Prop57
140
1.0
102
RTVSPost2010PropOp57
 70
     1
102
RTVSPropertyOp0
 70
     1
102
RTVSPropertyOp1
 70
     1
102
RTVSPropertyOp2
 70
     1
102
RTVSPropertyOp3
 70
     1
102
RTVSPropertyOp4
 70
     1
102
RTVSPropertyOp5
 70
     1
102
RTVSPropertyOp6
 70
     1
102
RTVSPropertyOp7
 70
     1
102
RTVSPropertyOp8
 70
     1
102
RTVSPropertyOp9
 70
     1
102
RTVSPropertyOp10
 70
     1
102
RTVSPropertyOp11
 70
     1
102
RTVSPropertyOp12
 70
     1
102
RTVSPropertyOp13
 70
     1
102
RTVSPropertyOp14
 70
     1
102
RTVSPropertyOp15
 70
     1
102
RTVSPropertyOp16
 70
     1
102
RTVSPropertyOp17
 70
     1
102
RTVSPropertyOp18
 70
     1
102
RTVSPropertyOp19
 70
     1
102
RTVSPropertyOp20
 70
     1
102
RTVSPropertyOp21
 70
     1
102
RTVSPropertyOp22
 70
     1
102
RTVSPropertyOp23
 70
     1
102
RTVSPropertyOp24
 70
     1
102
RTVSPropertyOp25
 70
     1
102
RTVSPropertyOp26
 70
     1
102
RTVSPropertyOp27
 70
     1
102
RTVSPropertyOp28
 70
     1
102
RTVSPropertyOp29
 70
     1
102
RTVSPropertyOp30
 70
     1
102
RTVSPropertyOp31
 70
     1
102
RTVSPropertyOp32
 70
     1
102
RTVSPropertyOp33
 70
     1
102
RTVSPropertyOp34
 70
     1
102
RTVSPropertyOp35
 70
     1
102
RTVSPropertyOp36
 70
     1
102
RTVSPropertyOp37
 70
     1
102
RTVSPropertyOp38
 70
     1
102
RTVSPropertyOp39
 70
     1
102
RTVSPropertyOp40
 70
     1
102
RTVSPropertyOp41
 70
     1
102
RTVSPropertyOp42
 70
     1
102
RTVSPropertyOp43
 70
     1
102
RTVSPropertyOp44
 70
     1
102
RTVSPropertyOp45
 70
     1
102
RTVSPropertyOp46
 70
     1
102
RTVSPropertyOp47
 70
     1
102
RTVSPropertyOp48
 70
     1
102
RTVSPropertyOp49
 70
     1
102
RTVSPropertyOp50
 70
     1
102
RTVSPropertyOp51
 70
     0
102
RTVSPropertyOp52
 70
     0
102
RTVSPropertyOp53
 70
     1
102
RTVSPropertyOp54
 70
     1
102
RTVSPropertyOp55
 70
     1
102
RTVSPropertyOp56
 70
     1
102
RTVSPropertyOp57
 70
     1
102
RTVSPropertyOp58
 70
     1
102
RTVSPropertyOp59
 70
     1
102
RTVSPropertyOp60
 70
     1
102
RTVSPropertyOp61
 70
     1
102
RTVSPropertyOp62
 70
     1
  0
XRECORD
  5
5E7
102
{ACAD_REACTORS
330
5E6
102
}
330
5E6
100
AcDbXrecord
280
     1
102
RTVSPost2010Prop28
280
     0
102
RTVSPost2010PropOp28
 70
     1
102
RTVSPost2010Prop29
280
     1
102
RTVSPost2010PropOp29
 70
     1
102
RTVSPost2010Prop30
280
     1
102
RTVSPost2010PropOp30
 70
     1
102
RTVSPost2010Prop31
280
     0
102
RTVSPost2010PropOp31
 70
     1
102
RTVSPost2010Prop32
280
     0
102
RTVSPost2010PropOp32
 70
     1
102
RTVSPost2010Prop33
280
     0
102
RTVSPost2010PropOp33
 70
     1
102
RTVSPost2010Prop34
280
     0
102
RTVSPost2010PropOp34
 70
     1
102
RTVSPost2010Prop35
280
     0
102
RTVSPost2010PropOp35
 70
     1
102
RTVSPost2010Prop36
280
     0
102
RTVSPost2010PropOp36
 70
     1
102
RTVSPost2010Prop37
 90
       50
102
RTVSPost2010PropOp37
 70
     1
102
RTVSPost2010Prop38
140
0.0
102
RTVSPost2010PropOp38
 70
     1
102
RTVSPost2010Prop39
140
1.0
102
RTVSPost2010PropOp39
 70
     1
102
RTVSPost2010Prop40
 90
        0
102
RTVSPost2010PropOp40
 70
     1
102
RTVSPost2010Prop41ColorIndex
 90
       18
102
RTVSPost2010Prop41ColorRGB
 90
        0
102
RTVSPost2010PropOp41
 70
     1
102
RTVSPost2010Prop42
 90
       50
102
RTVSPost2010PropOp42
 70
     1
102
RTVSPost2010Prop43
 90
        3
102
RTVSPost2010PropOp43
 70
     1
102
RTVSPost2010Prop44ColorIndex
 90
        5
102
RTVSPost2010Prop44ColorRGB
 90
      255
102
RTVSPost2010PropOp44
 70
     1
102
RTVSPost2010Prop45
280
     0
102
RTVSPost2010PropOp45
 70
     1
102
RTVSPost2010Prop46
 90
       50
102
RTVSPost2010PropOp46
 70
     1
102
RTVSPost2010Prop47
 90
       50
102
RTVSPost2010PropOp47
 70
     1
102
RTVSPost2010Prop48
 90
       50
102
RTVSPost2010PropOp48
 70
     1
102
RTVSPost2010Prop49
280
     0
102
RTVSPost2010PropOp49
 70
     1
102
RTVSPost2010Prop50
 90
       50
102
RTVSPost2010PropOp50
 70
     1
102
RTVSPost2010Prop51ColorIndex
 90
      256
102
RTVSPost2010Prop51ColorRGB
 90
-16777216
102
RTVSPost2010PropOp51
 70
     0
102
RTVSPost2010Prop52
140
1.0
102
RTVSPost2010PropOp52
 70
     0
102
RTVSPost2010Prop53
 90
        2
102
RTVSPost2010PropOp53
 70
     1
102
RTVSPost2010Prop54
  1
strokes_ogs.tif
102
RTVSPost2010PropOp54
 70
     1
102
RTVSPost2010Prop55
280
     0
102
RTVSPost2010PropOp55
 70
     1
102
RTVSPost2010Prop56
140
1.0
102
RTVSPost2010PropOp56
 70
     1
102
RTVSPost2010Prop57
140
1.0
102
RTVSPost2010PropOp57
 70
     1
102
RTVSPropertyOp0
 70
     1
102
RTVSPropertyOp1
 70
     1
102
RTVSPropertyOp2
 70
     1
102
RTVSPropertyOp3
 70
     1
102
RTVSPropertyOp4
 70
     1
102
RTVSPropertyOp5
 70
     1
102
RTVSPropertyOp6
 70
     1
102
RTVSPropertyOp7
 70
     1
102
RTVSPropertyOp8
 70
     1
102
RTVSPropertyOp9
 70
     1
102
RTVSPropertyOp10
 70
     1
102
RTVSPropertyOp11
 70
     1
102
RTVSPropertyOp12
 70
     1
102
RTVSPropertyOp13
 70
     1
102
RTVSPropertyOp14
 70
     1
102
RTVSPropertyOp15
 70
     1
102
RTVSPropertyOp16
 70
     1
102
RTVSPropertyOp17
 70
     1
102
RTVSPropertyOp18
 70
     1
102
RTVSPropertyOp19
 70
     1
102
RTVSPropertyOp20
 70
     1
102
RTVSPropertyOp21
 70
     1
102
RTVSPropertyOp22
 70
     1
102
RTVSPropertyOp23
 70
     1
102
RTVSPropertyOp24
 70
     1
102
RTVSPropertyOp25
 70
     1
102
RTVSPropertyOp26
 70
     1
102
RTVSPropertyOp27
 70
     1
102
RTVSPropertyOp28
 70
     1
102
RTVSPropertyOp29
 70
     1
102
RTVSPropertyOp30
 70
     1
102
RTVSPropertyOp31
 70
     1
102
RTVSPropertyOp32
 70
     1
102
RTVSPropertyOp33
 70
     1
102
RTVSPropertyOp34
 70
     1
102
RTVSPropertyOp35
 70
     1
102
RTVSPropertyOp36
 70
     1
102
RTVSPropertyOp37
 70
     1
102
RTVSPropertyOp38
 70
     1
102
RTVSPropertyOp39
 70
     1
102
RTVSPropertyOp40
 70
     1
102
RTVSPropertyOp41
 70
     1
102
RTVSPropertyOp42
 70
     1
102
RTVSPropertyOp43
 70
     1
102
RTVSPropertyOp44
 70
     1
102
RTVSPropertyOp45
 70
     1
102
RTVSPropertyOp46
 70
     1
102
RTVSPropertyOp47
 70
     1
102
RTVSPropertyOp48
 70
     1
102
RTVSPropertyOp49
 70
     1
102
RTVSPropertyOp50
 70
     1
102
RTVSPropertyOp51
 70
     0
102
RTVSPropertyOp52
 70
     0
102
RTVSPropertyOp53
 70
     1
102
RTVSPropertyOp54
 70
     1
102
RTVSPropertyOp55
 70
     1
102
RTVSPropertyOp56
 70
     1
102
RTVSPropertyOp57
 70
     1
102
RTVSPropertyOp58
 70
     1
102
RTVSPropertyOp59
 70
     1
102
RTVSPropertyOp60
 70
     1
102
RTVSPropertyOp61
 70
     1
102
RTVSPropertyOp62
 70
     1
  0
XRECORD
  5
5E9
102
{ACAD_REACTORS
330
5E8
102
}
330
5E8
100
AcDbXrecord
280
     1
102
RTVSPost2010Prop28
280
     0
102
RTVSPost2010PropOp28
 70
     1
102
RTVSPost2010Prop29
280
     1
102
RTVSPost2010PropOp29
 70
     1
102
RTVSPost2010Prop30
280
     1
102
RTVSPost2010PropOp30
 70
     1
102
RTVSPost2010Prop31
280
     0
102
RTVSPost2010PropOp31
 70
     1
102
RTVSPost2010Prop32
280
     0
102
RTVSPost2010PropOp32
 70
     1
102
RTVSPost2010Prop33
280
     0
102
RTVSPost2010PropOp33
 70
     1
102
RTVSPost2010Prop34
280
     0
102
RTVSPost2010PropOp34
 70
     1
102
RTVSPost2010Prop35
280
     0
102
RTVSPost2010PropOp35
 70
     1
102
RTVSPost2010Prop36
280
     0
102
RTVSPost2010PropOp36
 70
     1
102
RTVSPost2010Prop37
 90
       50
102
RTVSPost2010PropOp37
 70
     1
102
RTVSPost2010Prop38
140
0.0
102
RTVSPost2010PropOp38
 70
     1
102
RTVSPost2010Prop39
140
1.0
102
RTVSPost2010PropOp39
 70
     1
102
RTVSPost2010Prop40
 90
        0
102
RTVSPost2010PropOp40
 70
     1
102
RTVSPost2010Prop41ColorIndex
 90
       18
102
RTVSPost2010Prop41ColorRGB
 90
        0
102
RTVSPost2010PropOp41
 70
     1
102
RTVSPost2010Prop42
 90
       50
102
RTVSPost2010PropOp42
 70
     1
102
RTVSPost2010Prop43
 90
        3
102
RTVSPost2010PropOp43
 70
     1
102
RTVSPost2010Prop44ColorIndex
 90
        5
102
RTVSPost2010Prop44ColorRGB
 90
      255
102
RTVSPost2010PropOp44
 70
     1
102
RTVSPost2010Prop45
280
     0
102
RTVSPost2010PropOp45
 70
     1
102
RTVSPost2010Prop46
 90
       50
102
RTVSPost2010PropOp46
 70
     1
102
RTVSPost2010Prop47
 90
       50
102
RTVSPost2010PropOp47
 70
     1
102
RTVSPost2010Prop48
 90
       50
102
RTVSPost2010PropOp48
 70
     1
102
RTVSPost2010Prop49
280
     0
102
RTVSPost2010PropOp49
 70
     1
102
RTVSPost2010Prop50
 90
       50
102
RTVSPost2010PropOp50
 70
     1
102
RTVSPost2010Prop51ColorIndex
 90
      256
102
RTVSPost2010Prop51ColorRGB
 90
-16777216
102
RTVSPost2010PropOp51
 70
     0
102
RTVSPost2010Prop52
140
1.0
102
RTVSPost2010PropOp52
 70
     0
102
RTVSPost2010Prop53
 90
        2
102
RTVSPost2010PropOp53
 70
     1
102
RTVSPost2010Prop54
  1
strokes_ogs.tif
102
RTVSPost2010PropOp54
 70
     1
102
RTVSPost2010Prop55
280
     0
102
RTVSPost2010PropOp55
 70
     1
102
RTVSPost2010Prop56
140
1.0
102
RTVSPost2010PropOp56
 70
     1
102
RTVSPost2010Prop57
140
1.0
102
RTVSPost2010PropOp57
 70
     1
102
RTVSPropertyOp0
 70
     1
102
RTVSPropertyOp1
 70
     1
102
RTVSPropertyOp2
 70
     1
102
RTVSPropertyOp3
 70
     1
102
RTVSPropertyOp4
 70
     1
102
RTVSPropertyOp5
 70
     1
102
RTVSPropertyOp6
 70
     1
102
RTVSPropertyOp7
 70
     1
102
RTVSPropertyOp8
 70
     1
102
RTVSPropertyOp9
 70
     1
102
RTVSPropertyOp10
 70
     1
102
RTVSPropertyOp11
 70
     1
102
RTVSPropertyOp12
 70
     1
102
RTVSPropertyOp13
 70
     1
102
RTVSPropertyOp14
 70
     1
102
RTVSPropertyOp15
 70
     1
102
RTVSPropertyOp16
 70
     1
102
RTVSPropertyOp17
 70
     1
102
RTVSPropertyOp18
 70
     1
102
RTVSPropertyOp19
 70
     1
102
RTVSPropertyOp20
 70
     1
102
RTVSPropertyOp21
 70
     1
102
RTVSPropertyOp22
 70
     1
102
RTVSPropertyOp23
 70
     1
102
RTVSPropertyOp24
 70
     1
102
RTVSPropertyOp25
 70
     1
102
RTVSPropertyOp26
 70
     1
102
RTVSPropertyOp27
 70
     1
102
RTVSPropertyOp28
 70
     1
102
RTVSPropertyOp29
 70
     1
102
RTVSPropertyOp30
 70
     1
102
RTVSPropertyOp31
 70
     1
102
RTVSPropertyOp32
 70
     1
102
RTVSPropertyOp33
 70
     1
102
RTVSPropertyOp34
 70
     1
102
RTVSPropertyOp35
 70
     1
102
RTVSPropertyOp36
 70
     1
102
RTVSPropertyOp37
 70
     1
102
RTVSPropertyOp38
 70
     1
102
RTVSPropertyOp39
 70
     1
102
RTVSPropertyOp40
 70
     1
102
RTVSPropertyOp41
 70
     1
102
RTVSPropertyOp42
 70
     1
102
RTVSPropertyOp43
 70
     1
102
RTVSPropertyOp44
 70
     1
102
RTVSPropertyOp45
 70
     1
102
RTVSPropertyOp46
 70
     1
102
RTVSPropertyOp47
 70
     1
102
RTVSPropertyOp48
 70
     1
102
RTVSPropertyOp49
 70
     1
102
RTVSPropertyOp50
 70
     1
102
RTVSPropertyOp51
 70
     0
102
RTVSPropertyOp52
 70
     0
102
RTVSPropertyOp53
 70
     1
102
RTVSPropertyOp54
 70
     1
102
RTVSPropertyOp55
 70
     1
102
RTVSPropertyOp56
 70
     1
102
RTVSPropertyOp57
 70
     1
102
RTVSPropertyOp58
 70
     1
102
RTVSPropertyOp59
 70
     1
102
RTVSPropertyOp60
 70
     1
102
RTVSPropertyOp61
 70
     1
102
RTVSPropertyOp62
 70
     1
  0
XRECORD
  5
5DF
102
{ACAD_REACTORS
330
5DE
102
}
330
5DE
100
AcDbXrecord
280
     1
102
RTVSPost2010Prop28
280
     0
102
RTVSPost2010PropOp28
 70
     1
102
RTVSPost2010Prop29
280
     1
102
RTVSPost2010PropOp29
 70
     1
102
RTVSPost2010Prop30
280
     1
102
RTVSPost2010PropOp30
 70
     1
102
RTVSPost2010Prop31
280
     0
102
RTVSPost2010PropOp31
 70
     1
102
RTVSPost2010Prop32
280
     0
102
RTVSPost2010PropOp32
 70
     1
102
RTVSPost2010Prop33
280
     0
102
RTVSPost2010PropOp33
 70
     1
102
RTVSPost2010Prop34
280
     0
102
RTVSPost2010PropOp34
 70
     1
102
RTVSPost2010Prop35
280
     0
102
RTVSPost2010PropOp35
 70
     1
102
RTVSPost2010Prop36
280
     0
102
RTVSPost2010PropOp36
 70
     1
102
RTVSPost2010Prop37
 90
       50
102
RTVSPost2010PropOp37
 70
     1
102
RTVSPost2010Prop38
140
0.0
102
RTVSPost2010PropOp38
 70
     1
102
RTVSPost2010Prop39
140
1.0
102
RTVSPost2010PropOp39
 70
     1
102
RTVSPost2010Prop40
 90
        0
102
RTVSPost2010PropOp40
 70
     1
102
RTVSPost2010Prop41ColorIndex
 90
       18
102
RTVSPost2010Prop41ColorRGB
 90
        0
102
RTVSPost2010PropOp41
 70
     1
102
RTVSPost2010Prop42
 90
       50
102
RTVSPost2010PropOp42
 70
     1
102
RTVSPost2010Prop43
 90
        3
102
RTVSPost2010PropOp43
 70
     1
102
RTVSPost2010Prop44ColorIndex
 90
        5
102
RTVSPost2010Prop44ColorRGB
 90
      255
102
RTVSPost2010PropOp44
 70
     1
102
RTVSPost2010Prop45
280
     0
102
RTVSPost2010PropOp45
 70
     1
102
RTVSPost2010Prop46
 90
       50
102
RTVSPost2010PropOp46
 70
     1
102
RTVSPost2010Prop47
 90
       50
102
RTVSPost2010PropOp47
 70
     1
102
RTVSPost2010Prop48
 90
       50
102
RTVSPost2010PropOp48
 70
     1
102
RTVSPost2010Prop49
280
     0
102
RTVSPost2010PropOp49
 70
     1
102
RTVSPost2010Prop50
 90
       50
102
RTVSPost2010PropOp50
 70
     1
102
RTVSPost2010Prop51ColorIndex
 90
      256
102
RTVSPost2010Prop51ColorRGB
 90
-16777216
102
RTVSPost2010PropOp51
 70
     0
102
RTVSPost2010Prop52
140
1.0
102
RTVSPost2010PropOp52
 70
     0
102
RTVSPost2010Prop53
 90
        2
102
RTVSPost2010PropOp53
 70
     1
102
RTVSPost2010Prop54
  1
strokes_ogs.tif
102
RTVSPost2010PropOp54
 70
     1
102
RTVSPost2010Prop55
280
     0
102
RTVSPost2010PropOp55
 70
     1
102
RTVSPost2010Prop56
140
1.0
102
RTVSPost2010PropOp56
 70
     1
102
RTVSPost2010Prop57
140
1.0
102
RTVSPost2010PropOp57
 70
     1
102
RTVSPropertyOp0
 70
     1
102
RTVSPropertyOp1
 70
     1
102
RTVSPropertyOp2
 70
     1
102
RTVSPropertyOp3
 70
     1
102
RTVSPropertyOp4
 70
     1
102
RTVSPropertyOp5
 70
     1
102
RTVSPropertyOp6
 70
     1
102
RTVSPropertyOp7
 70
     1
102
RTVSPropertyOp8
 70
     1
102
RTVSPropertyOp9
 70
     1
102
RTVSPropertyOp10
 70
     1
102
RTVSPropertyOp11
 70
     1
102
RTVSPropertyOp12
 70
     1
102
RTVSPropertyOp13
 70
     1
102
RTVSPropertyOp14
 70
     1
102
RTVSPropertyOp15
 70
     1
102
RTVSPropertyOp16
 70
     1
102
RTVSPropertyOp17
 70
     1
102
RTVSPropertyOp18
 70
     1
102
RTVSPropertyOp19
 70
     1
102
RTVSPropertyOp20
 70
     1
102
RTVSPropertyOp21
 70
     1
102
RTVSPropertyOp22
 70
     1
102
RTVSPropertyOp23
 70
     1
102
RTVSPropertyOp24
 70
     1
102
RTVSPropertyOp25
 70
     1
102
RTVSPropertyOp26
 70
     1
102
RTVSPropertyOp27
 70
     1
102
RTVSPropertyOp28
 70
     1
102
RTVSPropertyOp29
 70
     1
102
RTVSPropertyOp30
 70
     1
102
RTVSPropertyOp31
 70
     1
102
RTVSPropertyOp32
 70
     1
102
RTVSPropertyOp33
 70
     1
102
RTVSPropertyOp34
 70
     1
102
RTVSPropertyOp35
 70
     1
102
RTVSPropertyOp36
 70
     1
102
RTVSPropertyOp37
 70
     1
102
RTVSPropertyOp38
 70
     1
102
RTVSPropertyOp39
 70
     1
102
RTVSPropertyOp40
 70
     1
102
RTVSPropertyOp41
 70
     1
102
RTVSPropertyOp42
 70
     1
102
RTVSPropertyOp43
 70
     1
102
RTVSPropertyOp44
 70
     1
102
RTVSPropertyOp45
 70
     1
102
RTVSPropertyOp46
 70
     1
102
RTVSPropertyOp47
 70
     1
102
RTVSPropertyOp48
 70
     1
102
RTVSPropertyOp49
 70
     1
102
RTVSPropertyOp50
 70
     1
102
RTVSPropertyOp51
 70
     0
102
RTVSPropertyOp52
 70
     0
102
RTVSPropertyOp53
 70
     1
102
RTVSPropertyOp54
 70
     1
102
RTVSPropertyOp55
 70
     1
102
RTVSPropertyOp56
 70
     1
102
RTVSPropertyOp57
 70
     1
102
RTVSPropertyOp58
 70
     1
102
RTVSPropertyOp59
 70
     1
102
RTVSPropertyOp60
 70
     1
102
RTVSPropertyOp61
 70
     1
102
RTVSPropertyOp62
 70
     1
  0
XRECORD
  5
5D3
102
{ACAD_REACTORS
330
5D2
102
}
330
5D2
100
AcDbXrecord
280
     1
102
RTVSPost2010Prop28
280
     0
102
RTVSPost2010PropOp28
 70
     1
102
RTVSPost2010Prop29
280
     1
102
RTVSPost2010PropOp29
 70
     1
102
RTVSPost2010Prop30
280
     1
102
RTVSPost2010PropOp30
 70
     1
102
RTVSPost2010Prop31
280
     0
102
RTVSPost2010PropOp31
 70
     1
102
RTVSPost2010Prop32
280
     0
102
RTVSPost2010PropOp32
 70
     1
102
RTVSPost2010Prop33
280
     0
102
RTVSPost2010PropOp33
 70
     1
102
RTVSPost2010Prop34
280
     0
102
RTVSPost2010PropOp34
 70
     1
102
RTVSPost2010Prop35
280
     0
102
RTVSPost2010PropOp35
 70
     1
102
RTVSPost2010Prop36
280
     0
102
RTVSPost2010PropOp36
 70
     1
102
RTVSPost2010Prop37
 90
       50
102
RTVSPost2010PropOp37
 70
     1
102
RTVSPost2010Prop38
140
0.0
102
RTVSPost2010PropOp38
 70
     1
102
RTVSPost2010Prop39
140
1.0
102
RTVSPost2010PropOp39
 70
     1
102
RTVSPost2010Prop40
 90
        0
102
RTVSPost2010PropOp40
 70
     1
102
RTVSPost2010Prop41ColorIndex
 90
       18
102
RTVSPost2010Prop41ColorRGB
 90
        0
102
RTVSPost2010PropOp41
 70
     1
102
RTVSPost2010Prop42
 90
       50
102
RTVSPost2010PropOp42
 70
     1
102
RTVSPost2010Prop43
 90
        3
102
RTVSPost2010PropOp43
 70
     1
102
RTVSPost2010Prop44ColorIndex
 90
        5
102
RTVSPost2010Prop44ColorRGB
 90
      255
102
RTVSPost2010PropOp44
 70
     1
102
RTVSPost2010Prop45
280
     0
102
RTVSPost2010PropOp45
 70
     1
102
RTVSPost2010Prop46
 90
       50
102
RTVSPost2010PropOp46
 70
     1
102
RTVSPost2010Prop47
 90
       50
102
RTVSPost2010PropOp47
 70
     1
102
RTVSPost2010Prop48
 90
       50
102
RTVSPost2010PropOp48
 70
     1
102
RTVSPost2010Prop49
280
     0
102
RTVSPost2010PropOp49
 70
     1
102
RTVSPost2010Prop50
 90
       50
102
RTVSPost2010PropOp50
 70
     1
102
RTVSPost2010Prop51ColorIndex
 90
      256
102
RTVSPost2010Prop51ColorRGB
 90
-16777216
102
RTVSPost2010PropOp51
 70
     0
102
RTVSPost2010Prop52
140
1.0
102
RTVSPost2010PropOp52
 70
     0
102
RTVSPost2010Prop53
 90
        2
102
RTVSPost2010PropOp53
 70
     1
102
RTVSPost2010Prop54
  1
strokes_ogs.tif
102
RTVSPost2010PropOp54
 70
     1
102
RTVSPost2010Prop55
280
     0
102
RTVSPost2010PropOp55
 70
     1
102
RTVSPost2010Prop56
140
1.0
102
RTVSPost2010PropOp56
 70
     1
102
RTVSPost2010Prop57
140
1.0
102
RTVSPost2010PropOp57
 70
     1
102
RTVSPropertyOp0
 70
     1
102
RTVSPropertyOp1
 70
     1
102
RTVSPropertyOp2
 70
     1
102
RTVSPropertyOp3
 70
     1
102
RTVSPropertyOp4
 70
     1
102
RTVSPropertyOp5
 70
     1
102
RTVSPropertyOp6
 70
     1
102
RTVSPropertyOp7
 70
     1
102
RTVSPropertyOp8
 70
     1
102
RTVSPropertyOp9
 70
     1
102
RTVSPropertyOp10
 70
     1
102
RTVSPropertyOp11
 70
     1
102
RTVSPropertyOp12
 70
     1
102
RTVSPropertyOp13
 70
     1
102
RTVSPropertyOp14
 70
     1
102
RTVSPropertyOp15
 70
     1
102
RTVSPropertyOp16
 70
     1
102
RTVSPropertyOp17
 70
     1
102
RTVSPropertyOp18
 70
     1
102
RTVSPropertyOp19
 70
     1
102
RTVSPropertyOp20
 70
     1
102
RTVSPropertyOp21
 70
     1
102
RTVSPropertyOp22
 70
     1
102
RTVSPropertyOp23
 70
     1
102
RTVSPropertyOp24
 70
     1
102
RTVSPropertyOp25
 70
     1
102
RTVSPropertyOp26
 70
     1
102
RTVSPropertyOp27
 70
     1
102
RTVSPropertyOp28
 70
     1
102
RTVSPropertyOp29
 70
     1
102
RTVSPropertyOp30
 70
     1
102
RTVSPropertyOp31
 70
     1
102
RTVSPropertyOp32
 70
     1
102
RTVSPropertyOp33
 70
     1
102
RTVSPropertyOp34
 70
     1
102
RTVSPropertyOp35
 70
     1
102
RTVSPropertyOp36
 70
     1
102
RTVSPropertyOp37
 70
     1
102
RTVSPropertyOp38
 70
     1
102
RTVSPropertyOp39
 70
     1
102
RTVSPropertyOp40
 70
     1
102
RTVSPropertyOp41
 70
     1
102
RTVSPropertyOp42
 70
     1
102
RTVSPropertyOp43
 70
     1
102
RTVSPropertyOp44
 70
     1
102
RTVSPropertyOp45
 70
     1
102
RTVSPropertyOp46
 70
     1
102
RTVSPropertyOp47
 70
     1
102
RTVSPropertyOp48
 70
     1
102
RTVSPropertyOp49
 70
     1
102
RTVSPropertyOp50
 70
     1
102
RTVSPropertyOp51
 70
     0
102
RTVSPropertyOp52
 70
     0
102
RTVSPropertyOp53
 70
     1
102
RTVSPropertyOp54
 70
     1
102
RTVSPropertyOp55
 70
     1
102
RTVSPropertyOp56
 70
     1
102
RTVSPropertyOp57
 70
     1
102
RTVSPropertyOp58
 70
     1
102
RTVSPropertyOp59
 70
     1
102
RTVSPropertyOp60
 70
     1
102
RTVSPropertyOp61
 70
     1
102
RTVSPropertyOp62
 70
     1
  0
XRECORD
  5
5EB
102
{ACAD_REACTORS
330
5EA
102
}
330
5EA
100
AcDbXrecord
280
     1
102
RTVSPost2010Prop28
280
     0
102
RTVSPost2010PropOp28
 70
     1
102
RTVSPost2010Prop29
280
     1
102
RTVSPost2010PropOp29
 70
     1
102
RTVSPost2010Prop30
280
     1
102
RTVSPost2010PropOp30
 70
     1
102
RTVSPost2010Prop31
280
     0
102
RTVSPost2010PropOp31
 70
     1
102
RTVSPost2010Prop32
280
     0
102
RTVSPost2010PropOp32
 70
     1
102
RTVSPost2010Prop33
280
     0
102
RTVSPost2010PropOp33
 70
     1
102
RTVSPost2010Prop34
280
     0
102
RTVSPost2010PropOp34
 70
     1
102
RTVSPost2010Prop35
280
     0
102
RTVSPost2010PropOp35
 70
     1
102
RTVSPost2010Prop36
280
     0
102
RTVSPost2010PropOp36
 70
     1
102
RTVSPost2010Prop37
 90
       50
102
RTVSPost2010PropOp37
 70
     1
102
RTVSPost2010Prop38
140
0.0
102
RTVSPost2010PropOp38
 70
     1
102
RTVSPost2010Prop39
140
1.0
102
RTVSPost2010PropOp39
 70
     1
102
RTVSPost2010Prop40
 90
        0
102
RTVSPost2010PropOp40
 70
     1
102
RTVSPost2010Prop41ColorIndex
 90
       18
102
RTVSPost2010Prop41ColorRGB
 90
        0
102
RTVSPost2010PropOp41
 70
     1
102
RTVSPost2010Prop42
 90
       50
102
RTVSPost2010PropOp42
 70
     1
102
RTVSPost2010Prop43
 90
        3
102
RTVSPost2010PropOp43
 70
     1
102
RTVSPost2010Prop44ColorIndex
 90
        5
102
RTVSPost2010Prop44ColorRGB
 90
      255
102
RTVSPost2010PropOp44
 70
     1
102
RTVSPost2010Prop45
280
     0
102
RTVSPost2010PropOp45
 70
     1
102
RTVSPost2010Prop46
 90
       50
102
RTVSPost2010PropOp46
 70
     1
102
RTVSPost2010Prop47
 90
       50
102
RTVSPost2010PropOp47
 70
     1
102
RTVSPost2010Prop48
 90
       50
102
RTVSPost2010PropOp48
 70
     1
102
RTVSPost2010Prop49
280
     0
102
RTVSPost2010PropOp49
 70
     1
102
RTVSPost2010Prop50
 90
       50
102
RTVSPost2010PropOp50
 70
     1
102
RTVSPost2010Prop51ColorIndex
 90
      256
102
RTVSPost2010Prop51ColorRGB
 90
-16777216
102
RTVSPost2010PropOp51
 70
     0
102
RTVSPost2010Prop52
140
1.0
102
RTVSPost2010PropOp52
 70
     0
102
RTVSPost2010Prop53
 90
        2
102
RTVSPost2010PropOp53
 70
     1
102
RTVSPost2010Prop54
  1
strokes_ogs.tif
102
RTVSPost2010PropOp54
 70
     1
102
RTVSPost2010Prop55
280
     0
102
RTVSPost2010PropOp55
 70
     1
102
RTVSPost2010Prop56
140
1.0
102
RTVSPost2010PropOp56
 70
     1
102
RTVSPost2010Prop57
140
1.0
102
RTVSPost2010PropOp57
 70
     1
102
RTVSPropertyOp0
 70
     1
102
RTVSPropertyOp1
 70
     1
102
RTVSPropertyOp2
 70
     1
102
RTVSPropertyOp3
 70
     1
102
RTVSPropertyOp4
 70
     1
102
RTVSPropertyOp5
 70
     1
102
RTVSPropertyOp6
 70
     1
102
RTVSPropertyOp7
 70
     1
102
RTVSPropertyOp8
 70
     1
102
RTVSPropertyOp9
 70
     1
102
RTVSPropertyOp10
 70
     1
102
RTVSPropertyOp11
 70
     1
102
RTVSPropertyOp12
 70
     1
102
RTVSPropertyOp13
 70
     1
102
RTVSPropertyOp14
 70
     1
102
RTVSPropertyOp15
 70
     1
102
RTVSPropertyOp16
 70
     1
102
RTVSPropertyOp17
 70
     1
102
RTVSPropertyOp18
 70
     1
102
RTVSPropertyOp19
 70
     1
102
RTVSPropertyOp20
 70
     1
102
RTVSPropertyOp21
 70
     1
102
RTVSPropertyOp22
 70
     1
102
RTVSPropertyOp23
 70
     1
102
RTVSPropertyOp24
 70
     1
102
RTVSPropertyOp25
 70
     1
102
RTVSPropertyOp26
 70
     1
102
RTVSPropertyOp27
 70
     1
102
RTVSPropertyOp28
 70
     1
102
RTVSPropertyOp29
 70
     1
102
RTVSPropertyOp30
 70
     1
102
RTVSPropertyOp31
 70
     1
102
RTVSPropertyOp32
 70
     1
102
RTVSPropertyOp33
 70
     1
102
RTVSPropertyOp34
 70
     1
102
RTVSPropertyOp35
 70
     1
102
RTVSPropertyOp36
 70
     1
102
RTVSPropertyOp37
 70
     1
102
RTVSPropertyOp38
 70
     1
102
RTVSPropertyOp39
 70
     1
102
RTVSPropertyOp40
 70
     1
102
RTVSPropertyOp41
 70
     1
102
RTVSPropertyOp42
 70
     1
102
RTVSPropertyOp43
 70
     1
102
RTVSPropertyOp44
 70
     1
102
RTVSPropertyOp45
 70
     1
102
RTVSPropertyOp46
 70
     1
102
RTVSPropertyOp47
 70
     1
102
RTVSPropertyOp48
 70
     1
102
RTVSPropertyOp49
 70
     1
102
RTVSPropertyOp50
 70
     1
102
RTVSPropertyOp51
 70
     0
102
RTVSPropertyOp52
 70
     0
102
RTVSPropertyOp53
 70
     1
102
RTVSPropertyOp54
 70
     1
102
RTVSPropertyOp55
 70
     1
102
RTVSPropertyOp56
 70
     1
102
RTVSPropertyOp57
 70
     1
102
RTVSPropertyOp58
 70
     1
102
RTVSPropertyOp59
 70
     1
102
RTVSPropertyOp60
 70
     1
102
RTVSPropertyOp61
 70
     1
102
RTVSPropertyOp62
 70
     1
  0
ENDSEC
  0
EOF
