  0
SECTION
  2
HEADER
  9
$ACADVER
  1
AC1015
  9
$ACADMAINTVER
 70
    18
  9
$DWGCODEPAGE
  3
ANSI_932
  9
$INSBASE
 10
0.0
 20
0.0
 30
0.0
  9
$EXTMIN
 10
-1444.49238918697
 20
-583.1228391615268
 30
-0.0000000000000142
  9
$EXTMAX
 10
2574.776923604111
 20
979.463178070347
 30
0.0
  9
$LIMMIN
 10
-20.0
 20
-7.5
  9
$LIMMAX
 10
277.0
 20
202.5
  9
$ORTHOMODE
 70
     0
  9
$REGENMODE
 70
     1
  9
$FILLMODE
 70
     1
  9
$QTEXTMODE
 70
     0
  9
$MIRRTEXT
 70
     0
  9
$LTSCALE
 40
1.0
  9
$ATTMODE
 70
     1
  9
$TEXTSIZE
 40
9.0
  9
$TRACEWID
 40
1.0
  9
$TEXTSTYLE
  7
STANDARD
  9
$CLAYER
  8
AM_VIEWS
  9
$CELTYPE
  6
ByLayer
  9
$CECOLOR
 62
   256
  9
$CELTSCALE
 40
1.0
  9
$DISPSILH
 70
     0
  9
$DIMSCALE
 40
1.0
  9
$DIMASZ
 40
1.8
  9
$DIMEXO
 40
1.0
  9
$DIMDLI
 40
10.0
  9
$DIMRND
 40
0.0
  9
$DIMDLE
 40
0.0
  9
$DIMEXE
 40
1.0
  9
$DIMTP
 40
0.1
  9
$DIMTM
 40
0.1
  9
$DIMTXT
 40
3.5
  9
$DIMCEN
 40
0.0
  9
$DIMTSZ
 40
0.0
  9
$DIMTOL
 70
     0
  9
$DIMLIM
 70
     0
  9
$DIMTIH
 70
     0
  9
$DIMTOH
 70
     0
  9
$DIMSE1
 70
     0
  9
$DIMSE2
 70
     0
  9
$DIMTAD
 70
     3
  9
$DIMZIN
 70
     8
  9
$DIMBLK
  1
Open30
  9
$DIMASO
 70
     1
  9
$DIMSHO
 70
     1
  9
$DIMPOST
  1

  9
$DIMAPOST
  1
"
  9
$DIMALT
 70
     0
  9
$DIMALTD
 70
     2
  9
$DIMALTF
 40
0.0393701
  9
$DIMLFAC
 40
1.0
  9
$DIMTOFL
 70
     1
  9
$DIMTVP
 40
0.0
  9
$DIMTIX
 70
     0
  9
$DIMSOXD
 70
     0
  9
$DIMSAH
 70
     0
  9
$DIMBLK1
  1

  9
$DIMBLK2
  1

  9
$DIMSTYLE
  2
JIS2
  9
$DIMCLRD
 70
   256
  9
$DIMCLRE
 70
   256
  9
$DIMCLRT
 70
     2
  9
$DIMTFAC
 40
0.71
  9
$DIMGAP
 40
0.5
  9
$DIMJUST
 70
     0
  9
$DIMSD1
 70
     0
  9
$DIMSD2
 70
     0
  9
$DIMTOLJ
 70
     0
  9
$DIMTZIN
 70
     8
  9
$DIMALTZ
 70
     0
  9
$DIMALTTZ
 70
     0
  9
$DIMUPT
 70
     0
  9
$DIMDEC
 70
     2
  9
$DIMTDEC
 70
     2
  9
$DIMALTU
 70
     2
  9
$DIMALTTD
 70
     2
  9
$DIMTXSTY
  7
STANDARD
  9
$DIMAUNIT
 70
     0
  9
$DIMADEC
 70
     0
  9
$DIMALTRND
 40
0.0
  9
$DIMAZIN
 70
     2
  9
$DIMDSEP
 70
    46
  9
$DIMATFIT
 70
     3
  9
$DIMFRAC
 70
     0
  9
$DIMLDRBLK
  1
Open30
  9
$DIMLUNIT
 70
     2
  9
$DIMLWD
 70
    -1
  9
$DIMLWE
 70
    -1
  9
$DIMTMOVE
 70
     0
  9
$LUNITS
 70
     2
  9
$LUPREC
 70
     2
  9
$SKETCHINC
 40
1.0
  9
$FILLETRAD
 40
2.5
  9
$AUNITS
 70
     0
  9
$AUPREC
 70
     0
  9
$MENU
  1
.
  9
$ELEVATION
 40
0.0
  9
$PELEVATION
 40
0.0
  9
$THICKNESS
 40
0.0
  9
$LIMCHECK
 70
     0
  9
$CHAMFERA
 40
2.5
  9
$CHAMFERB
 40
2.5
  9
$CHAMFERC
 40
20.0
  9
$CHAMFERD
 40
0.0
  9
$SKPOLY
 70
     0
  9
$TDCREATE
 40
2459320.646134259
  9
$TDUCREATE
 40
2459320.271134259
  9
$TDUPDATE
 40
2459320.646145833
  9
$TDUUPDATE
 40
2459320.271145833
  9
$TDINDWG
 40
0.0000694444
  9
$TDUSRTIMER
 40
0.0000694444
  9
$USRTIMER
 70
     1
  9
$ANGBASE
 50
0.0
  9
$ANGDIR
 70
     0
  9
$PDMODE
 70
     0
  9
$PDSIZE
 40
0.0
  9
$PLINEWID
 40
0.0
  9
$SPLFRAME
 70
     0
  9
$SPLINETYPE
 70
     6
  9
$SPLINESEGS
 70
     8
  9
$HANDSEED
  5
630
  9
$SURFTAB1
 70
     6
  9
$SURFTAB2
 70
     6
  9
$SURFTYPE
 70
     6
  9
$SURFU
 70
     6
  9
$SURFV
 70
     6
  9
$UCSBASE
  2

  9
$UCSNAME
  2

  9
$UCSORG
 10
0.0
 20
0.0
 30
0.0
  9
$UCSXDIR
 10
1.0
 20
0.0
 30
0.0
  9
$UCSYDIR
 10
0.0
 20
1.0
 30
0.0
  9
$UCSORTHOREF
  2

  9
$UCSORTHOVIEW
 70
     0
  9
$UCSORGTOP
 10
0.0
 20
0.0
 30
0.0
  9
$UCSORGBOTTOM
 10
0.0
 20
0.0
 30
0.0
  9
$UCSORGLEFT
 10
0.0
 20
0.0
 30
0.0
  9
$UCSORGRIGHT
 10
0.0
 20
0.0
 30
0.0
  9
$UCSORGFRONT
 10
0.0
 20
0.0
 30
0.0
  9
$UCSORGBACK
 10
0.0
 20
0.0
 30
0.0
  9
$PUCSBASE
  2

  9
$PUCSNAME
  2

  9
$PUCSORG
 10
0.0
 20
0.0
 30
0.0
  9
$PUCSXDIR
 10
1.0
 20
0.0
 30
0.0
  9
$PUCSYDIR
 10
0.0
 20
1.0
 30
0.0
  9
$PUCSORTHOREF
  2

  9
$PUCSORTHOVIEW
 70
     0
  9
$PUCSORGTOP
 10
0.0
 20
0.0
 30
0.0
  9
$PUCSORGBOTTOM
 10
0.0
 20
0.0
 30
0.0
  9
$PUCSORGLEFT
 10
0.0
 20
0.0
 30
0.0
  9
$PUCSORGRIGHT
 10
0.0
 20
0.0
 30
0.0
  9
$PUCSORGFRONT
 10
0.0
 20
0.0
 30
0.0
  9
$PUCSORGBACK
 10
0.0
 20
0.0
 30
0.0
  9
$USERI1
 70
     0
  9
$USERI2
 70
     0
  9
$USERI3
 70
     0
  9
$USERI4
 70
     0
  9
$USERI5
 70
     0
  9
$USERR1
 40
0.0
  9
$USERR2
 40
0.0
  9
$USERR3
 40
0.0
  9
$USERR4
 40
0.0
  9
$USERR5
 40
0.0
  9
$WORLDVIEW
 70
     1
  9
$SHADEDGE
 70
     3
  9
$SHADEDIF
 70
    70
  9
$TILEMODE
 70
     1
  9
$MAXACTVP
 70
    64
  9
$PINSBASE
 10
0.0
 20
0.0
 30
0.0
  9
$PLIMCHECK
 70
     0
  9
$PEXTMIN
 10
1.000000000000000E+20
 20
1.000000000000000E+20
 30
1.000000000000000E+20
  9
$PEXTMAX
 10
-1.000000000000000E+20
 20
-1.000000000000000E+20
 30
-1.000000000000000E+20
  9
$PLIMMIN
 10
0.0
 20
0.0
  9
$PLIMMAX
 10
12.0
 20
9.0
  9
$UNITMODE
 70
     0
  9
$VISRETAIN
 70
     1
  9
$PLINEGEN
 70
     0
  9
$PSLTSCALE
 70
     1
  9
$TREEDEPTH
 70
  3020
  9
$CMLSTYLE
  2
Standard
  9
$CMLJUST
 70
     0
  9
$CMLSCALE
 40
20.0
  9
$PROXYGRAPHICS
 70
     1
  9
$MEASUREMENT
 70
     1
  9
$CELWEIGHT
370
    -1
  9
$ENDCAPS
280
     0
  9
$JOINSTYLE
280
     0
  9
$LWDISPLAY
290
     0
  9
$INSUNITS
 70
     4
  9
$HYPERLINKBASE
  1

  9
$STYLESHEET
  1

  9
$XEDIT
290
     1
  9
$CEPSNTYPE
380
     0
  9
$PSTYLEMODE
290
     1
  9
$FINGERPRINTGUID
  2
{DCC19C9C-300D-1844-8F4E-89A652E0020A}
  9
$VERSIONGUID
  2
{4A53CEFD-DD9C-814E-A085-AB1B57313570}
  9
$EXTNAMES
290
     1
  9
$PSVPSCALE
 40
0.0
  9
$OLESTARTUP
290
     0
  0
ENDSEC
  0
SECTION
  2
CLASSES
  0
CLASS
  1
ACDBDICTIONARYWDFLT
  2
AcDbDictionaryWithDefault
  3
ObjectDBX Classes
 90
        0
280
     0
281
     0
  0
CLASS
  1
MATERIAL
  2
AcDbMaterial
  3
ObjectDBX Classes
 90
     1153
280
     0
281
     0
  0
CLASS
  1
VISUALSTYLE
  2
AcDbVisualStyle
  3
ObjectDBX Classes
 90
     4095
280
     0
281
     0
  0
CLASS
  1
SCALE
  2
AcDbScale
  3
ObjectDBX Classes
 90
     1153
280
     0
281
     0
  0
CLASS
  1
TABLESTYLE
  2
AcDbTableStyle
  3
ObjectDBX Classes
 90
     4095
280
     0
281
     0
  0
CLASS
  1
MLEADERSTYLE
  2
AcDbMLeaderStyle
  3
ACDB_MLEADERSTYLE_CLASS
 90
     4095
280
     0
281
     0
  0
CLASS
  1
ACDBSECTIONVIEWSTYLE
  2
AcDbSectionViewStyle
  3
ObjectDBX Classes
 90
     1025
280
     0
281
     0
  0
CLASS
  1
ACDBDETAILVIEWSTYLE
  2
AcDbDetailViewStyle
  3
ObjectDBX Classes
 90
     1025
280
     0
281
     0
  0
CLASS
  1
ACMESCOPE
  2
AcMeScope
  3
AcMeServices
 90
     1024
280
     0
281
     0
  0
CLASS
  1
ACMECOMMANDHISTORY
  2
AcMeCommandHistory
  3
AcMeServices
 90
     1024
280
     0
281
     0
  0
CLASS
  1
ACIMSYSVARMAN
  2
AcImSysVarManager
  3
AcMeServices
 90
     1024
280
     0
281
     0
  0
CLASS
  1
ACIMINTSYSVAR
  2
AcImIntSysVar
  3
AcMeServices
 90
     1024
280
     0
281
     0
  0
CLASS
  1
ACMESTATEMGR
  2
AcMeStateMgr
  3
AcMeServices
 90
     1024
280
     0
281
     0
  0
CLASS
  1
ACGREFMASTER
  2
AcGrefMaster
  3
AcAttribServices
 90
     1024
280
     0
281
     0
  0
CLASS
  1
SORTENTSTABLE
  2
AcDbSortentsTable
  3
ObjectDBX Classes
 90
        0
280
     0
281
     0
  0
CLASS
  1
DIMASSOC
  2
AcDbDimAssoc
  3
"AcDbDimAssoc|Product Desc:     AcDim ARX App For Dimension|Company:          Autodesk, Inc.|WEB Address:      www.autodesk.com"
 90
        0
280
     0
281
     0
  0
CLASS
  1
DICTIONARYVAR
  2
AcDbDictionaryVar
  3
ObjectDBX Classes
 90
        0
280
     0
281
     0
  0
CLASS
  1
ACME_DOCUMENT
  2
AcMeDbDoc
  3
AcMeServices
 90
     1024
280
     0
281
     0
  0
CLASS
  1
AMGSETTINGSOBJ
  2
AmgSettingsObj
  3
"AcadM|Product Description: AutoCAD Mechanical|Company: Autodesk, Inc."
 90
     1024
280
     0
281
     0
  0
CLASS
  1
ACDBENTITYCACHE
  2
AcMeEntityCache
  3
AcMeServices
 90
     1024
280
     0
281
     0
  0
CLASS
  1
ACME_DATABASE
  2
AcMeDbDatabase
  3
AcMeServices
 90
     1024
280
     0
281
     0
  0
CLASS
  1
ACRFINSADJUSTERMGR
  2
AcRfInsAdjusterMgr
  3
AcMeServices
 90
     1024
280
     0
281
     0
  0
CLASS
  1
ACGREFACADMASTER
  2
AcGrefacadMaster
  3
AcGrefServices
 90
     1024
280
     0
281
     0
  0
CLASS
  1
AMIMASTER
  2
AmiMaster
  3
AmiServices
 90
     1024
280
     0
281
     0
  0
CLASS
  1
AMDTMENUSTATEMGR
  2
AmdtMenuStateMgr
  3
McadcomServices
 90
     1024
280
     0
281
     0
  0
CLASS
  1
AMDTMCOMMENUSTATE
  2
AmdtMcomMenuState
  3
McadcomServices
 90
     1024
280
     0
281
     0
  0
CLASS
  1
MAPIAMMOUDLE
  2
MApiAmModule
  3
MApiAmServices
 90
     1024
280
     0
281
     0
  0
CLASS
  1
ACIMSTRSYSVAR
  2
AcImStrSysVar
  3
AcMeServices
 90
     1024
280
     0
281
     0
  0
CLASS
  1
AMDTAMMENUSTATE
  2
AmdtAmMenuState
  3
DesignerAssemblies_arx
 90
     1024
280
     0
281
     0
  0
CLASS
  1
ACAMPROJECT
  2
AcAmProject
  3
DesignerAssemblies
 90
     1024
280
     0
281
     0
  0
CLASS
  1
ACAMGRCOMPDEF
  2
AcAmGrCompDef
  3
DesignerAssemblies
 90
     1024
280
     0
281
     0
  0
CLASS
  1
ACAMCOMPDEF
  2
AcAmCompDef
  3
DesignerAssemblies
 90
     1024
280
     0
281
     0
  0
CLASS
  1
ACAMCOMPDEFMGR
  2
AcAmCompDefMgr
  3
DesignerAssemblies
 90
     1024
280
     0
281
     0
  0
CLASS
  1
AMCONTEXTMGR
  2
AcAmContextMgr
  3
DesignerAssemblies
 90
     1024
280
     0
281
     0
  0
CLASS
  1
ACAMCONTEXTMODELER
  2
AcAmContextModeler
  3
DesignerAssemblies
 90
     1024
280
     0
281
     0
  0
CLASS
  1
ACMDATADICTIONARY
  2
AcmDataDictionary
  3
"AcmSymBB|Product Description: AutoCAD Mechanical|Company: Autodesk, Inc."
 90
     1024
280
     0
281
     0
  0
CLASS
  1
ACAMGRCOMPDEFSET
  2
AcAmGrCompDefSet
  3
DesignerAssemblies
 90
     1024
280
     0
281
     0
  0
CLASS
  1
AMDTBROWSERDBTAB
  2
AmdtBrowserDbTab
  3
McadcomServices
 90
     1024
280
     0
281
     0
  0
CLASS
  1
CBROWSERAPPOBJECT
  2
CBrowserAppObject
  3
McadcomServices
 90
     1024
280
     0
281
     0
  0
CLASS
  1
DM_PLACEHOLDER
  2
AcDmSelsetPlaceholder
  3
McadcomServices
 90
     1024
280
     0
281
     0
  0
CLASS
  1
ACMSTANDARDISO
  2
AcmStandardISO
  3
"Amdt_StdImp|Product Description: AutoCAD Mechanical|Company: Autodesk, Inc."
 90
     1024
280
     0
281
     0
  0
CLASS
  1
AMDTEDGESTANDARDISO13715
  2
AmdtEdgeStdISO13715
  3
"Amdt_StdImp|Product Description: AutoCAD Mechanical|Company: Autodesk, Inc."
 90
     1024
280
     0
281
     0
  0
CLASS
  1
ACMSURFSTANDARDISO2002
  2
AcmSurfTextStdISO2002
  3
"Amdt_StdImp|Product Description: AutoCAD Mechanical|Company: Autodesk, Inc."
 90
     1024
280
     0
281
     0
  0
CLASS
  1
ACMFCFSTANDARDISO2012
  2
AcmFCFStdISO2012
  3
"Amdt_StdImp|Product Description: AutoCAD Mechanical|Company: Autodesk, Inc."
 90
     1024
280
     0
281
     0
  0
CLASS
  1
ACMWELDSTANDARDISO
  2
AcmWeldingStdISO
  3
"Amdt_StdImp|Product Description: AutoCAD Mechanical|Company: Autodesk, Inc."
 90
     1024
280
     0
281
     0
  0
CLASS
  1
ACMIDSTANDARDISO2012
  2
AcmIdStdISO2012
  3
"Amdt_StdImp|Product Description: AutoCAD Mechanical|Company: Autodesk, Inc."
 90
     1024
280
     0
281
     0
  0
CLASS
  1
ACMDATUMSTANDARDISO2012
  2
AcmDatumStdISO2012
  3
"Amdt_StdImp|Product Description: AutoCAD Mechanical|Company: Autodesk, Inc."
 90
     1024
280
     0
281
     0
  0
CLASS
  1
ACMBOMSTANDARDISO
  2
AcmBOMStdISO
  3
"Amdt_StdImp|Product Description: AutoCAD Mechanical|Company: Autodesk, Inc."
 90
     1024
280
     0
281
     0
  0
CLASS
  1
ACMDETAILSTANDARDISO
  2
AmdtDetailSymStdISO
  3
"Amdt_StdImp|Product Description: AutoCAD Mechanical|Company: Autodesk, Inc."
 90
     1024
280
     0
281
     0
  0
CLASS
  1
ACMSECTIONSTANDARDISO2001
  2
AmdtSectionSymStdISO2001
  3
"Amdt_StdImp|Product Description: AutoCAD Mechanical|Company: Autodesk, Inc."
 90
     1024
280
     0
281
     0
  0
CLASS
  1
ACMCENTERLINESTANDARDISO
  2
AmdtCenterLineStdISO
  3
"Amdt_StdImp|Product Description: AutoCAD Mechanical|Company: Autodesk, Inc."
 90
     1024
280
     0
281
     0
  0
CLASS
  1
ACMTHREADLINESTANDARDISO
  2
AmdtThreadLineStdISO
  3
"Amdt_StdImp|Product Description: AutoCAD Mechanical|Company: Autodesk, Inc."
 90
     1024
280
     0
281
     0
  0
CLASS
  1
ACMNOTESTANDARDISO
  2
AmdtNoteStdISO
  3
"Amdt_StdImp|Product Description: AutoCAD Mechanical|Company: Autodesk, Inc."
 90
     1024
280
     0
281
     0
  0
CLASS
  1
ACMTAPERSTANDARDISO
  2
AcmTaperStdISO
  3
"Amdt_StdImp|Product Description: AutoCAD Mechanical|Company: Autodesk, Inc."
 90
     1024
280
     0
281
     0
  0
CLASS
  1
ACMANOOTATIONVIEWSTANDARDISO
  2
AmdtAnViewStdISO
  3
"Amdt_StdImp|Product Description: AutoCAD Mechanical|Company: Autodesk, Inc."
 90
     1024
280
     0
281
     0
  0
CLASS
  1
ACAMGLAYSTD
  2
AcAmgLayStd
  3
"AmgLay|Product Description: AutoCAD Mechanical|Company: Autodesk, Inc."
 90
     1024
280
     0
281
     0
  0
CLASS
  1
ACAMGTITLESTD
  2
AcAmgTitleStd
  3
"AmgTitle|Product Description: AutoCAD Mechanical|Company: Autodesk, Inc."
 90
     1024
280
     0
281
     0
  0
CLASS
  1
ACAMGDIMSTD
  2
AcAmgDimStd
  3
"AmgDim|Product Description: AutoCAD Mechanical|Company: Autodesk, Inc."
 90
     1024
280
     0
281
     0
  0
CLASS
  1
AMGOBJPROPCFG
  2
AmgObjPropCfg
  3
"AmgLay|Product Description: AutoCAD Mechanical|Company: Autodesk, Inc."
 90
     1024
280
     0
281
     0
  0
CLASS
  1
ACAMGHOLECHARTSTDISO
  2
AcAmgHoleChartStdISO
  3
"AmgDim" "Product Description: AutoCAD Mechanical|Company: Autodesk, Inc."
 90
     1024
280
     0
281
     0
  0
CLASS
  1
ACMSECTIONSTANDARDCUSTOM
  2
AmdtSectionSymStdCustom
  3
"Amdt_StdImp|Product Description: AutoCAD Mechanical|Company: Autodesk, Inc."
 90
     1024
280
     0
281
     0
  0
CLASS
  1
ACMDETAILTANDARDCUSTOM
  2
AmdtDetailSymStdCustom
  3
"Amdt_StdImp|Product Description: AutoCAD Mechanical|Company: Autodesk, Inc."
 90
     1024
280
     0
281
     0
  0
CLASS
  1
FIELD
  2
AcDbField
  3
ObjectDBX Classes
 90
     1152
280
     0
281
     0
  0
CLASS
  1
FIELDLIST
  2
AcDbFieldList
  3
ObjectDBX Classes
 90
     1152
280
     0
281
     0
  0
CLASS
  1
AMDTNOTETEMPLATEDB
  2
AmdtNoteTemplateDB
  3
"AcmSymBB" "Product Description: AutoCAD Mechanical|Company: Autodesk, Inc."
 90
     1024
280
     0
281
     0
  0
CLASS
  1
CELLSTYLEMAP
  2
AcDbCellStyleMap
  3
ObjectDBX Classes
 90
     1152
280
     0
281
     0
  0
CLASS
  1
ACDBPLACEHOLDER
  2
AcDbPlaceHolder
  3
ObjectDBX Classes
 90
        0
280
     0
281
     0
  0
CLASS
  1
LAYOUT
  2
AcDbLayout
  3
ObjectDBX Classes
 90
        0
280
     0
281
     0
  0
ENDSEC
  0
SECTION
  2
TABLES
  0
TABLE
  2
VPORT
  5
8
330
0
100
AcDbSymbolTable
 70
     1
  0
VPORT
  5
57
330
8
100
AcDbSymbolTableRecord
100
AcDbViewportTableRecord
  2
*Active
 70
     0
 10
0.0
 20
0.0
 11
1.0
 21
1.0
 12
683.758577878541
 22
210.8330918951281
 13
0.0
 23
0.0
 14
10.0
 24
10.0
 15
10.0
 25
10.0
 16
0.0
 26
0.0
 36
1.0
 17
0.0
 27
0.0
 37
0.0
 40
1924.34346296226
 41
2.180967238689547
 42
50.0
 43
0.0
 44
0.0
 50
0.0
 51
0.0
 71
     0
 72
  1000
 73
     1
 74
     1
 75
     0
 76
     0
 77
     0
 78
     0
281
     0
 65
     1
110
0.0
120
0.0
130
0.0
111
1.0
121
0.0
131
0.0
112
0.0
122
1.0
132
0.0
 79
     0
146
0.0
1001
ACAD_NAV_VCDISPLAY
1070
     3
  0
ENDTAB
  0
TABLE
  2
LTYPE
  5
5
330
0
100
AcDbSymbolTable
 70
    20
  0
LTYPE
  5
5B
330
5
100
AcDbSymbolTableRecord
100
AcDbLinetypeTableRecord
  2
ByBlock
 70
     0
  3

 72
    65
 73
     0
 40
0.0
  0
LTYPE
  5
5C
330
5
100
AcDbSymbolTableRecord
100
AcDbLinetypeTableRecord
  2
ByLayer
 70
     0
  3

 72
    65
 73
     0
 40
0.0
  0
LTYPE
  5
5D
330
5
100
AcDbSymbolTableRecord
100
AcDbLinetypeTableRecord
  2
Continuous
 70
     0
  3
Solid line
 72
    65
 73
     0
 40
0.0
  0
LTYPE
  5
81
330
5
100
AcDbSymbolTableRecord
100
AcDbLinetypeTableRecord
  2
HIDDEN
 70
     0
  3
Hidden __ __ __ __ __ __ __ __ __ __ __ __ __ _
 72
    65
 73
     2
 40
9.524999999999998
 49
6.349999999999999
 74
     0
 49
-3.174999999999999
 74
     0
  0
LTYPE
  5
82
330
5
100
AcDbSymbolTableRecord
100
AcDbLinetypeTableRecord
  2
PHANTOM2
 70
     0
  3
Phantom (.5x) ___ _ _ ___ _ _ ___ _ _ ___ _ _
 72
    65
 73
     6
 40
31.75
 49
15.875
 74
     0
 49
-3.174999999999999
 74
     0
 49
3.174999999999999
 74
     0
 49
-3.174999999999999
 74
     0
 49
3.174999999999999
 74
     0
 49
-3.174999999999999
 74
     0
  0
LTYPE
  5
83
330
5
100
AcDbSymbolTableRecord
100
AcDbLinetypeTableRecord
  2
CENTER
 70
     0
  3
Center ____ _ ____ _ ____ _ ____ _ ____ _ ____
 72
    65
 73
     4
 40
50.8
 49
31.75
 74
     0
 49
-6.349999999999999
 74
     0
 49
6.349999999999999
 74
     0
 49
-6.349999999999999
 74
     0
  0
LTYPE
  5
9C
330
5
100
AcDbSymbolTableRecord
100
AcDbLinetypeTableRecord
  2
AM_ISO02W050
 70
     0
  3
__ __ __ __ __ __ __ __ __ __ __ __ __ __ __
 72
    65
 73
     2
 40
7.5
 49
6.0
 74
     0
 49
-1.5
 74
     0
  0
LTYPE
  5
9D
330
5
100
AcDbSymbolTableRecord
100
AcDbLinetypeTableRecord
  2
AM_ISO08W050
 70
     0
  3
____ . ____ . ____ . ____ . ____ . ____ . ____
 72
    65
 73
     4
 40
18.0
 49
12.0
 74
     0
 49
-1.5
 74
     0
 49
3.0
 74
     0
 49
-1.5
 74
     0
  0
LTYPE
  5
9E
330
5
100
AcDbSymbolTableRecord
100
AcDbLinetypeTableRecord
  2
AM_ISO09W050
 70
     0
  3
_____ . . _____ . . _____ . . ____ .. ____
 72
    65
 73
     6
 40
22.5
 49
12.0
 74
     0
 49
-1.5
 74
     0
 49
3.0
 74
     0
 49
-1.5
 74
     0
 49
3.0
 74
     0
 49
-1.5
 74
     0
  0
LTYPE
  5
9F
330
5
100
AcDbSymbolTableRecord
100
AcDbLinetypeTableRecord
  2
Amconstr
 70
     0
  3
_______________________
 72
    65
 73
     2
 40
9999.0
 49
9999.0
 74
     0
 49
0.0
 74
     0
  0
LTYPE
  5
A0
330
5
100
AcDbSymbolTableRecord
100
AcDbLinetypeTableRecord
  2
AM_ISO08W050x2
 70
     0
  3
__ . __ . __ . __ . __ . __
 72
    65
 73
     4
 40
9.0
 49
6.0
 74
     0
 49
-0.75
 74
     0
 49
1.5
 74
     0
 49
-0.75
 74
     0
  0
LTYPE
  5
A1
330
5
100
AcDbSymbolTableRecord
100
AcDbLinetypeTableRecord
  2
AM_ISO02W050x2
 70
     0
  3
 _ _ _ _ _ _ _ _ _ _ _ _
 72
    65
 73
     2
 40
3.75
 49
3.0
 74
     0
 49
-0.75
 74
     0
  0
LTYPE
  5
A2
330
5
100
AcDbSymbolTableRecord
100
AcDbLinetypeTableRecord
  2
Amzigzag
 70
     0
  3
/\/-/\/-/\/-/\/-/\/-/\/
 72
    65
 73
     2
 40
11.0001
 49
0.0001
 74
     4
 75
   136
340
96
 46
0.04
 50
0.0
 44
0.0
 45
0.0
 49
-11.0
 74
     0
  0
LTYPE
  5
A3
330
5
100
AcDbSymbolTableRecord
100
AcDbLinetypeTableRecord
  2
ACJISWELD
 70
     0
  3
_ _ _ _ _
 72
    65
 73
     2
 40
2.0
 49
2.0
 74
     0
 49
-1.0
 74
     0
  0
LTYPE
  5
A4
330
5
100
AcDbSymbolTableRecord
100
AcDbLinetypeTableRecord
  2
ACJISTGL
 70
     0
  3
_ _ _ _ _
 72
    65
 73
     2
 40
3.0
 49
2.0
 74
     0
 49
-1.0
 74
     0
  0
LTYPE
  5
A5
330
5
100
AcDbSymbolTableRecord
100
AcDbLinetypeTableRecord
  2
ACJISTGB
 70
     0
  3
__ . . __ . .
 72
    65
 73
     6
 40
9.0
 49
4.0
 74
     0
 49
-1.0
 74
     0
 49
1.0
 74
     0
 49
-1.0
 74
     0
 49
1.0
 74
     0
 49
-1.0
 74
     0
  0
LTYPE
  5
A6
330
5
100
AcDbSymbolTableRecord
100
AcDbLinetypeTableRecord
  2
DASHDOT
 70
     0
  3
Dash dot __ . __ . __ . __ . __ . __ . __ . __
 72
    65
 73
     4
 40
25.4
 49
12.7
 74
     0
 49
-6.349999999999999
 74
     0
 49
0.0
 74
     0
 49
-6.349999999999999
 74
     0
  0
LTYPE
  5
A7
330
5
100
AcDbSymbolTableRecord
100
AcDbLinetypeTableRecord
  2
DASHED
 70
     0
  3
Dashed __ __ __ __ __ __ __ __ __ __ __ __ __ _
 72
    65
 73
     2
 40
19.05
 49
12.7
 74
     0
 49
-6.349999999999999
 74
     0
  0
LTYPE
  5
A8
330
5
100
AcDbSymbolTableRecord
100
AcDbLinetypeTableRecord
  2
PHANTOM
 70
     0
  3
Phantom ______  __  __  ______  __  __  ______
 72
    65
 73
     6
 40
63.5
 49
31.75
 74
     0
 49
-6.349999999999999
 74
     0
 49
6.349999999999999
 74
     0
 49
-6.349999999999999
 74
     0
 49
6.349999999999999
 74
     0
 49
-6.349999999999999
 74
     0
  0
LTYPE
  5
5A4
330
5
100
AcDbSymbolTableRecord
100
AcDbLinetypeTableRecord
  2
ACISOWELD
 70
     0
  3
_ _ _ _ _
 72
    65
 73
     2
 40
2.0
 49
2.0
 74
     0
 49
-1.0
 74
     0
  0
LTYPE
  5
5A5
330
5
100
AcDbSymbolTableRecord
100
AcDbLinetypeTableRecord
  2
ACISOTGL
 70
     0
  3
_ _ _ _ _
 72
    65
 73
     2
 40
3.0
 49
2.0
 74
     0
 49
-1.0
 74
     0
  0
LTYPE
  5
5A6
330
5
100
AcDbSymbolTableRecord
100
AcDbLinetypeTableRecord
  2
ACISOTGB
 70
     0
  3
__ . . __ . .
 72
    65
 73
     6
 40
9.0
 49
4.0
 74
     0
 49
-1.0
 74
     0
 49
1.0
 74
     0
 49
-1.0
 74
     0
 49
1.0
 74
     0
 49
-1.0
 74
     0
  0
ENDTAB
  0
TABLE
  2
LAYER
  5
2
330
0
100
AcDbSymbolTable
 70
    12
  0
LAYER
  5
54
330
2
100
AcDbSymbolTableRecord
100
AcDbLayerTableRecord
  2
0
 70
     0
 62
     7
  6
Continuous
370
    -3
390
F
1001
AcAecLayerStandard
1000

1000

  0
LAYER
  5
79
330
2
100
AcDbSymbolTableRecord
100
AcDbLayerTableRecord
  2
Defpoints
 70
     0
 62
     7
  6
Continuous
290
     0
370
    -3
390
F
1001
AcAecLayerStandard
1000

1000

  0
LAYER
  5
C3
102
{ACAD_XDICTIONARY
360
C4
102
}
330
2
100
AcDbSymbolTableRecord
100
AcDbLayerTableRecord
  2
AM_VIEWS
 70
     0
 62
    -1
  6
Continuous
290
     0
370
    13
390
F
1001
AcAecLayerStandard
1000

1000

  0
LAYER
  5
C7
102
{ACAD_XDICTIONARY
360
C8
102
}
330
2
100
AcDbSymbolTableRecord
100
AcDbLayerTableRecord
  2
DETAIL
 70
     0
 62
     5
  6
Continuous
370
    -3
390
F
  0
LAYER
  5
192
102
{ACAD_XDICTIONARY
360
193
102
}
330
2
100
AcDbSymbolTableRecord
100
AcDbLayerTableRecord
  2
BASIS
 70
     0
 62
     6
  6
DASHDOT
370
    -3
390
F
  0
LAYER
  5
195
102
{ACAD_XDICTIONARY
360
196
102
}
330
2
100
AcDbSymbolTableRecord
100
AcDbLayerTableRecord
  2
NOTE
 70
     0
 62
     4
  6
Continuous
370
    -3
390
F
  0
LAYER
  5
1CE
102
{ACAD_XDICTIONARY
360
1CF
102
}
330
2
100
AcDbSymbolTableRecord
100
AcDbLayerTableRecord
  2
ARRANGE
 70
     0
 62
     1
  6
Continuous
370
    -3
390
F
  0
LAYER
  5
1D5
102
{ACAD_XDICTIONARY
360
1D6
102
}
330
2
100
AcDbSymbolTableRecord
100
AcDbLayerTableRecord
  2
OUTLINE
 70
     0
 62
     3
  6
Continuous
370
    -3
390
F
  0
LAYER
  5
216
102
{ACAD_XDICTIONARY
360
217
102
}
330
2
100
AcDbSymbolTableRecord
100
AcDbLayerTableRecord
  2
FIX
 70
     0
 62
    11
  6
Continuous
370
    -3
390
F
  0
LAYER
  5
219
330
2
100
AcDbSymbolTableRecord
100
AcDbLayerTableRecord
  2
AM_7
 70
     0
 62
     4
  6
AM_ISO08W050
370
    13
390
F
1001
AcAecLayerStandard
1000

1000

  0
LAYER
  5
24B
102
{ACAD_XDICTIONARY
360
24C
102
}
330
2
100
AcDbSymbolTableRecord
100
AcDbLayerTableRecord
  2
ETC
 70
     0
 62
    61
  6
Continuous
370
    -3
390
F
  0
LAYER
  5
24E
102
{ACAD_XDICTIONARY
360
24F
102
}
330
2
100
AcDbSymbolTableRecord
100
AcDbLayerTableRecord
  2
SIZE
 70
     0
 62
    30
  6
Continuous
370
    -3
390
F
  0
ENDTAB
  0
TABLE
  2
STYLE
  5
3
330
0
100
AcDbSymbolTable
 70
     9
  0
STYLE
  5
55
330
3
100
AcDbSymbolTableRecord
100
AcDbTextStyleTableRecord
  2
STANDARD
 70
     0
 40
0.0
 41
1.0
 50
0.0
 71
     0
 42
9.0
  3
exthalf2.shx
  4
extfont2.shx
  0
STYLE
  5
5A
330
3
100
AcDbSymbolTableRecord
100
AcDbTextStyleTableRecord
  2
Annotative
 70
     0
 40
0.0
 41
1.0
 50
0.0
 71
     0
 42
0.2
  3
txt
  4

1001
AcadAnnotative
1000
AnnotativeData
1002
{
1070
     1
1070
     1
1002
}
  0
STYLE
  5
96
330
3
100
AcDbSymbolTableRecord
100
AcDbTextStyleTableRecord
  2

 70
     1
 40
0.0
 41
1.0
 50
0.0
 71
     0
 42
2.5
  3
genltshp.shx
  4
extfont2.shx
  0
STYLE
  5
97
330
3
100
AcDbSymbolTableRecord
100
AcDbTextStyleTableRecord
  2
ACJISGDT
 70
     0
 40
0.0
 41
1.0
 50
0.0
 71
     0
 42
2.5
  3
amgdt.shx
  4
extfont2.shx
  0
STYLE
  5
98
330
3
100
AcDbSymbolTableRecord
100
AcDbTextStyleTableRecord
  2
STANDARD_MODELNAME
 70
     0
 40
80.0
 41
0.8
 50
0.0
 71
     0
 42
64.0
  3
MONOTXT.shx
  4
BIGFONT.shx
  0
STYLE
  5
99
330
3
100
AcDbSymbolTableRecord
100
AcDbTextStyleTableRecord
  2
KAIGAI_STANDARD_1
 70
     0
 40
53.0
 41
0.51
 50
0.0
 71
     0
 42
53.0
  3
MONOTXT.shx
  4
BIGFONT.shx
  0
STYLE
  5
9A
330
3
100
AcDbSymbolTableRecord
100
AcDbTextStyleTableRecord
  2
AUDIT_D_191004085756-470174
 70
     0
 40
0.0
 41
1.0
 50
0.0
 71
     0
 42
0.0
  3
exthalf2
  4
ExtFont2
  0
STYLE
  5
5A2
330
3
100
AcDbSymbolTableRecord
100
AcDbTextStyleTableRecord
  2
ACISOTS
 70
     0
 40
0.0
 41
1.0
 50
0.0
 71
     0
 42
0.2
  3
isocp.shx
  4

  0
STYLE
  5
5A3
330
3
100
AcDbSymbolTableRecord
100
AcDbTextStyleTableRecord
  2
ACISOGDT
 70
     0
 40
0.0
 41
1.0
 50
0.0
 71
     0
 42
0.2
  3
amgdt.shx
  4

  0
ENDTAB
  0
TABLE
  2
VIEW
  5
6
330
0
100
AcDbSymbolTable
 70
     0
  0
ENDTAB
  0
TABLE
  2
UCS
  5
7
330
0
100
AcDbSymbolTable
 70
     0
  0
ENDTAB
  0
TABLE
  2
APPID
  5
9
330
0
100
AcDbSymbolTable
 70
    31
  0
APPID
  5
56
330
9
100
AcDbSymbolTableRecord
100
AcDbRegAppTableRecord
  2
ACAD
 70
     0
  0
APPID
  5
5E
330
9
100
AcDbSymbolTableRecord
100
AcDbRegAppTableRecord
  2
AcadAnnotative
 70
     0
  0
APPID
  5
78
330
9
100
AcDbSymbolTableRecord
100
AcDbRegAppTableRecord
  2
ACAD_PSEXT
 70
     0
  0
APPID
  5
7A
330
9
100
AcDbSymbolTableRecord
100
AcDbRegAppTableRecord
  2
MCAD_NO_VIS
 70
     0
  0
APPID
  5
7B
330
9
100
AcDbSymbolTableRecord
100
AcDbRegAppTableRecord
  2
ACAD_TEMP_GRAPHIC
 70
     0
  0
APPID
  5
84
330
9
100
AcDbSymbolTableRecord
100
AcDbRegAppTableRecord
  2
ACAD_DSTYLE_DIMJAG
 70
     0
  0
APPID
  5
85
330
9
100
AcDbSymbolTableRecord
100
AcDbRegAppTableRecord
  2
ACAD_DSTYLE_DIMTALN
 70
     0
  0
APPID
  5
86
330
9
100
AcDbSymbolTableRecord
100
AcDbRegAppTableRecord
  2
ACAD_NAV_VCDISPLAY
 70
     0
  0
APPID
  5
87
330
9
100
AcDbSymbolTableRecord
100
AcDbRegAppTableRecord
  2
ACAD_DSTYLE_DIMBREAK
 70
     0
  0
APPID
  5
88
330
9
100
AcDbSymbolTableRecord
100
AcDbRegAppTableRecord
  2
AcAecLayerStandard
 70
     0
  0
APPID
  5
89
330
9
100
AcDbSymbolTableRecord
100
AcDbRegAppTableRecord
  2
GENIUS_GENODEF_13
 70
     0
  0
APPID
  5
8A
330
9
100
AcDbSymbolTableRecord
100
AcDbRegAppTableRecord
  2
GENIUS_GENSCREG_15
 70
     0
  0
APPID
  5
8B
330
9
100
AcDbSymbolTableRecord
100
AcDbRegAppTableRecord
  2
GENIUS_GENOBJ-N-SDF_13
 70
     0
  0
APPID
  5
8C
330
9
100
AcDbSymbolTableRecord
100
AcDbRegAppTableRecord
  2
ACAD_DSTYLE_DIMINSPECT
 70
     0
  0
APPID
  5
8D
330
9
100
AcDbSymbolTableRecord
100
AcDbRegAppTableRecord
  2
GENIUS_GENOBJ-N-CEN_13
 70
     0
  0
APPID
  5
8E
330
9
100
AcDbSymbolTableRecord
100
AcDbRegAppTableRecord
  2
GENIUS_GENCEN_19
 70
     0
  0
APPID
  5
8F
330
9
100
AcDbSymbolTableRecord
100
AcDbRegAppTableRecord
  2
ACAD_DIMASSOC_CALC_DIMLFAC
 70
     0
  0
APPID
  5
90
330
9
100
AcDbSymbolTableRecord
100
AcDbRegAppTableRecord
  2
ACAD_DIMASSOC_DIMLFAC
 70
     0
  0
APPID
  5
91
330
9
100
AcDbSymbolTableRecord
100
AcDbRegAppTableRecord
  2
ACAD_DIMASSOC_OVERRIDDEN_DIMLFAC
 70
     0
  0
APPID
  5
92
330
9
100
AcDbSymbolTableRecord
100
AcDbRegAppTableRecord
  2
GradientColor1ACI
 70
     0
  0
APPID
  5
93
330
9
100
AcDbSymbolTableRecord
100
AcDbRegAppTableRecord
  2
GradientColor2ACI
 70
     0
  0
APPID
  5
94
330
9
100
AcDbSymbolTableRecord
100
AcDbRegAppTableRecord
  2
ACAD_DSTYLE_DIMRADIAL_EXTENSION
 70
     0
  0
APPID
  5
95
330
9
100
AcDbSymbolTableRecord
100
AcDbRegAppTableRecord
  2
ACATTRIBSERVICES
 70
     0
  0
APPID
  5
540
330
9
100
AcDbSymbolTableRecord
100
AcDbRegAppTableRecord
  2
DCO15
 70
     0
  0
APPID
  5
57A
330
9
100
AcDbSymbolTableRecord
100
AcDbRegAppTableRecord
  2
DESIGNERASSEMBLIES
 70
     0
  0
APPID
  5
5FA
330
9
100
AcDbSymbolTableRecord
100
AcDbRegAppTableRecord
  2
ACAD_MLEADERVER
 70
     0
  0
APPID
  5
607
330
9
100
AcDbSymbolTableRecord
100
AcDbRegAppTableRecord
  2
ACAD_DSTYLE_DIMARC_LENGTH_SYMBOL
 70
     0
  0
APPID
  5
608
330
9
100
AcDbSymbolTableRecord
100
AcDbRegAppTableRecord
  2
ACAD_DSTYLE_DIM_LINETYPE
 70
     0
  0
APPID
  5
609
330
9
100
AcDbSymbolTableRecord
100
AcDbRegAppTableRecord
  2
ACAD_DSTYLE_DIM_EXT1_LINETYPE
 70
     0
  0
APPID
  5
60A
330
9
100
AcDbSymbolTableRecord
100
AcDbRegAppTableRecord
  2
ACAD_DSTYLE_DIM_EXT2_LINETYPE
 70
     0
  0
APPID
  5
60B
330
9
100
AcDbSymbolTableRecord
100
AcDbRegAppTableRecord
  2
ACAD_DSTYLE_DIMFLIPARROW_WHICH_SYMBOL
 70
     0
  0
ENDTAB
  0
TABLE
  2
DIMSTYLE
  5
A
330
0
100
AcDbSymbolTable
 70
    19
100
AcDbDimStyleTable
 71
     1
340
AC
  0
DIMSTYLE
105
58
330
A
100
AcDbSymbolTableRecord
100
AcDbDimStyleTableRecord
  2
Standard
 70
     0
340
55
  0
DIMSTYLE
105
59
330
A
100
AcDbSymbolTableRecord
100
AcDbDimStyleTableRecord
  2
Annotative
 70
     0
 40
0.0
 41
2.5
 42
0.625
 43
3.75
 44
1.25
 73
     0
 74
     0
 77
     1
 78
     8
140
2.5
141
2.5
143
0.03937007874016
147
0.625
171
     3
172
     1
271
     2
272
     2
274
     3
278
    44
283
     0
284
     8
340
55
1001
AcadAnnotative
1000
AnnotativeData
1002
{
1070
     1
1070
     1
1002
}
  0
DIMSTYLE
105
AA
330
A
100
AcDbSymbolTableRecord
100
AcDbDimStyleTableRecord
  2
ISO-25
 70
     0
 41
2.5
 42
0.625
 43
3.75
 44
1.25
 73
     0
 74
     0
 77
     1
 78
     8
140
2.5
141
2.5
143
0.03937007874016
147
0.625
171
     3
172
     1
271
     2
272
     2
274
     3
278
    44
283
     0
284
     8
340
55
  0
DIMSTYLE
105
AB
330
A
100
AcDbSymbolTableRecord
100
AcDbDimStyleTableRecord
  2
AM_JIS
 70
     0
  4
"
 41
6.0
 42
1.0
 43
10.0
 44
1.0
 47
0.1
 48
0.1
 73
     0
 74
     0
 77
     3
 78
     8
 79
     2
140
9.0
141
0.0
143
0.0393701
146
0.71
147
1.5
172
     1
176
   256
177
   256
178
     2
271
     2
272
     2
283
     0
284
     8
340
55
371
    -1
372
    -1
1001
ACAD_DSTYLE_DIMBREAK
1070
   391
1040
3.75
1001
ACAD_DSTYLE_DIMJAG
1070
   388
1040
1.5
1001
ACAD_DSTYLE_DIMTALN
1070
   392
1070
     0
1001
ACAD_DSTYLE_DIMARC_LENGTH_SYMBOL
1070
   379
1070
     1
1001
ACAD_DSTYLE_DIM_LINETYPE
1070
   380
1005
5B
1001
ACAD_DSTYLE_DIM_EXT1_LINETYPE
1070
   381
1005
5B
1001
ACAD_DSTYLE_DIM_EXT2_LINETYPE
1070
   382
1005
5B
  0
DIMSTYLE
105
AC
330
A
100
AcDbSymbolTableRecord
100
AcDbDimStyleTableRecord
  2
JIS2
 70
     0
  4
"
 41
1.8
 42
1.0
 43
10.0
 44
1.0
 47
0.1
 48
0.1
 73
     0
 74
     0
 77
     3
 78
     8
 79
     2
140
3.5
141
0.0
143
0.0393701
146
0.71
147
0.5
172
     1
176
   256
177
   256
178
     2
271
     2
272
     2
283
     0
284
     8
340
55
341
AD
342
AD
371
    -1
372
    -1
1001
ACAD_DSTYLE_DIMBREAK
1070
   391
1040
3.75
1001
ACAD_DSTYLE_DIMJAG
1070
   388
1040
1.5
1001
ACAD_DSTYLE_DIMTALN
1070
   392
1070
     0
1001
ACAD_DSTYLE_DIMARC_LENGTH_SYMBOL
1070
   379
1070
     1
1001
ACAD_DSTYLE_DIM_LINETYPE
1070
   380
1005
5B
1001
ACAD_DSTYLE_DIM_EXT1_LINETYPE
1070
   381
1005
5B
1001
ACAD_DSTYLE_DIM_EXT2_LINETYPE
1070
   382
1005
5B
  0
DIMSTYLE
105
B3
102
{ACAD_REACTORS
330
2E6
330
2F3
102
}
330
A
100
AcDbSymbolTableRecord
100
AcDbDimStyleTableRecord
  2
JIS2$3
 70
     0
  4
"
 41
1.8
 42
1.0
 43
10.0
 44
1.0
 47
0.1
 48
0.1
 73
     0
 74
     0
 77
     3
 78
     8
 79
     2
140
3.5
141
0.0
143
0.0393701
146
0.71
147
0.5
172
     1
176
   256
177
   256
178
     2
271
     2
272
     2
283
     0
284
     8
288
     1
289
     2
340
55
341
AD
342
AD
371
    -1
372
    -1
1001
ACAD_DSTYLE_DIMBREAK
1070
   391
1040
3.75
1001
ACAD_DSTYLE_DIMJAG
1070
   388
1040
1.5
1001
ACAD_DSTYLE_DIMTALN
1070
   392
1070
     0
1001
ACAD_DSTYLE_DIMARC_LENGTH_SYMBOL
1070
   379
1070
     1
1001
ACAD_DSTYLE_DIM_LINETYPE
1070
   380
1005
5B
1001
ACAD_DSTYLE_DIM_EXT1_LINETYPE
1070
   381
1005
5B
1001
ACAD_DSTYLE_DIM_EXT2_LINETYPE
1070
   382
1005
5B
  0
DIMSTYLE
105
B4
330
A
100
AcDbSymbolTableRecord
100
AcDbDimStyleTableRecord
  2
JIS2$4
 70
     0
  4
"
 41
1.8
 42
1.0
 43
10.0
 44
1.0
 47
0.1
 48
0.1
 73
     0
 74
     0
 77
     3
 78
     8
 79
     2
140
3.5
141
0.0
143
0.0393701
146
0.71
147
0.5
172
     1
176
   256
177
   256
178
     2
271
     2
272
     2
283
     0
284
     8
289
     2
340
55
341
AD
342
AD
371
    -1
372
    -1
1001
ACAD_DSTYLE_DIMBREAK
1070
   391
1040
3.75
1001
ACAD_DSTYLE_DIMJAG
1070
   388
1040
1.5
1001
ACAD_DSTYLE_DIMTALN
1070
   392
1070
     0
1001
ACAD_DSTYLE_DIMARC_LENGTH_SYMBOL
1070
   379
1070
     1
1001
ACAD_DSTYLE_DIM_LINETYPE
1070
   380
1005
5B
1001
ACAD_DSTYLE_DIM_EXT1_LINETYPE
1070
   381
1005
5B
1001
ACAD_DSTYLE_DIM_EXT2_LINETYPE
1070
   382
1005
5B
  0
DIMSTYLE
105
B5
330
A
100
AcDbSymbolTableRecord
100
AcDbDimStyleTableRecord
  2
JIS2$6
 70
     0
  4
"
 41
1.8
 42
1.0
 43
10.0
 44
1.0
 47
0.1
 48
0.1
 73
     0
 74
     0
 78
     8
 79
     2
140
3.5
141
0.0
143
0.0393701
146
0.71
147
0.5
172
     1
176
   256
177
   256
178
     2
271
     2
272
     2
283
     0
284
     8
340
55
341
AD
342
AD
371
    -1
372
    -1
1001
ACAD_DSTYLE_DIMBREAK
1070
   391
1040
3.75
1001
ACAD_DSTYLE_DIMJAG
1070
   388
1040
1.5
1001
ACAD_DSTYLE_DIMTALN
1070
   392
1070
     0
1001
ACAD_DSTYLE_DIMARC_LENGTH_SYMBOL
1070
   379
1070
     1
1001
ACAD_DSTYLE_DIM_LINETYPE
1070
   380
1005
5B
1001
ACAD_DSTYLE_DIM_EXT1_LINETYPE
1070
   381
1005
5B
1001
ACAD_DSTYLE_DIM_EXT2_LINETYPE
1070
   382
1005
5B
  0
DIMSTYLE
105
B6
330
A
100
AcDbSymbolTableRecord
100
AcDbDimStyleTableRecord
  2
JIS2$7
 70
     0
  4
"
 41
1.8
 42
1.0
 43
10.0
 44
1.0
 47
0.1
 48
0.1
 73
     0
 74
     0
 77
     3
 78
     8
 79
     2
140
3.5
141
0.0
143
0.0393701
146
0.71
147
0.5
172
     1
176
   256
177
   256
178
     2
271
     2
272
     2
283
     0
284
     8
340
55
341
AD
342
AD
371
    -1
372
    -1
1001
ACAD_DSTYLE_DIMBREAK
1070
   391
1040
3.75
1001
ACAD_DSTYLE_DIMJAG
1070
   388
1040
1.5
1001
ACAD_DSTYLE_DIMTALN
1070
   392
1070
     0
1001
ACAD_DSTYLE_DIMARC_LENGTH_SYMBOL
1070
   379
1070
     1
1001
ACAD_DSTYLE_DIM_LINETYPE
1070
   380
1005
5B
1001
ACAD_DSTYLE_DIM_EXT1_LINETYPE
1070
   381
1005
5B
1001
ACAD_DSTYLE_DIM_EXT2_LINETYPE
1070
   382
1005
5B
  0
DIMSTYLE
105
B7
330
A
100
AcDbSymbolTableRecord
100
AcDbDimStyleTableRecord
  2
JIS2$SF
 70
     0
  4
"
 41
1.8
 42
1.0
 43
10.0
 44
1.0
 47
0.1
 48
0.1
 73
     0
 74
     0
 75
     1
 76
     1
 77
     3
 78
     8
 79
     2
140
3.5
141
0.0
143
0.0393701
146
0.71
147
0.5
172
     1
176
   256
177
   256
178
     2
271
     2
272
     2
283
     0
284
     8
340
55
341
AD
342
AD
371
    -1
372
    -1
1001
ACAD_DSTYLE_DIMBREAK
1070
   391
1040
3.75
1001
ACAD_DSTYLE_DIMJAG
1070
   388
1040
1.5
1001
ACAD_DSTYLE_DIMTALN
1070
   392
1070
     0
1001
ACAD_DSTYLE_DIMARC_LENGTH_SYMBOL
1070
   379
1070
     1
1001
ACAD_DSTYLE_DIM_LINETYPE
1070
   380
1005
5B
1001
ACAD_DSTYLE_DIM_EXT1_LINETYPE
1070
   381
1005
5B
1001
ACAD_DSTYLE_DIM_EXT2_LINETYPE
1070
   382
1005
5B
  0
DIMSTYLE
105
B8
330
A
100
AcDbSymbolTableRecord
100
AcDbDimStyleTableRecord
  2
JIS2$SH
 70
     0
  4
"
 41
1.8
 42
1.0
 43
10.0
 44
1.0
 47
0.1
 48
0.1
 73
     0
 74
     0
 75
     1
 76
     1
 77
     3
 78
     8
 79
     2
140
3.5
141
0.0
143
0.0393701
144
2.0
146
0.71
147
0.5
172
     1
173
     1
176
   256
177
   256
178
     2
271
     2
272
     2
283
     0
284
     8
340
55
341
AD
342
AD
343
B9
371
    -1
372
    -1
1001
ACAD_DSTYLE_DIMBREAK
1070
   391
1040
3.75
1001
ACAD_DSTYLE_DIMJAG
1070
   388
1040
1.5
1001
ACAD_DSTYLE_DIMTALN
1070
   392
1070
     0
1001
ACAD_DSTYLE_DIMARC_LENGTH_SYMBOL
1070
   379
1070
     1
1001
ACAD_DSTYLE_DIM_LINETYPE
1070
   380
1005
5B
1001
ACAD_DSTYLE_DIM_EXT1_LINETYPE
1070
   381
1005
5B
1001
ACAD_DSTYLE_DIM_EXT2_LINETYPE
1070
   382
1005
5B
  0
DIMSTYLE
105
BD
102
{ACAD_REACTORS
330
24D
330
262
330
26E
330
27A
330
288
330
294
330
2A2
330
2B9
330
2C8
330
2D7
102
}
330
A
100
AcDbSymbolTableRecord
100
AcDbDimStyleTableRecord
  2
JIS2$0
 70
     0
  4
"
 41
1.8
 42
1.0
 43
10.0
 44
1.0
 47
0.1
 48
0.1
 73
     0
 74
     0
 77
     3
 78
     8
 79
     2
140
3.5
141
0.0
143
0.0393701
146
0.71
147
1.5
172
     1
176
   256
177
   256
178
     2
271
     2
272
     2
283
     0
284
     8
340
55
341
AD
342
AD
371
    -1
372
    -1
1001
ACAD_DSTYLE_DIMBREAK
1070
   391
1040
3.75
1001
ACAD_DSTYLE_DIMJAG
1070
   388
1040
1.5
1001
ACAD_DSTYLE_DIMARC_LENGTH_SYMBOL
1070
   379
1070
     1
1001
ACAD_DSTYLE_DIM_LINETYPE
1070
   380
1005
5B
1001
ACAD_DSTYLE_DIM_EXT1_LINETYPE
1070
   381
1005
5B
1001
ACAD_DSTYLE_DIM_EXT2_LINETYPE
1070
   382
1005
5B
  0
DIMSTYLE
105
595
102
{ACAD_REACTORS
330
583
102
}
330
A
100
AcDbSymbolTableRecord
100
AcDbDimStyleTableRecord
  2
AM_ISO
 70
     0
  4
"
 41
3.5
 42
1.0
 43
10.0
 44
1.0
 47
0.1
 48
0.1
 73
     0
 74
     0
 77
     1
 78
     8
 79
     2
140
3.5
141
0.0
143
0.0393701
146
0.71
147
1.5
172
     1
176
   256
177
   256
178
     2
271
     2
272
     3
274
     4
283
     0
284
     8
340
55
371
    -1
372
    -1
1001
ACAD_DSTYLE_DIMJAG
1070
   388
1040
1.5
1001
ACAD_DSTYLE_DIMBREAK
1070
   391
1040
3.75
1001
ACAD_DSTYLE_DIMARC_LENGTH_SYMBOL
1070
   379
1070
     1
1001
ACAD_DSTYLE_DIM_LINETYPE
1070
   380
1005
5B
1001
ACAD_DSTYLE_DIM_EXT1_LINETYPE
1070
   381
1005
5B
1001
ACAD_DSTYLE_DIM_EXT2_LINETYPE
1070
   382
1005
5B
  0
DIMSTYLE
105
597
330
A
100
AcDbSymbolTableRecord
100
AcDbDimStyleTableRecord
  2
AM_ISO$3
 70
     0
  4
"
 41
3.5
 42
1.0
 43
10.0
 44
1.0
 47
0.1
 48
0.1
 73
     0
 77
     1
 78
     8
 79
     2
140
3.5
141
0.0
143
0.0393701
146
0.71
147
1.5
176
   256
177
   256
178
     2
271
     2
272
     3
274
     4
283
     0
284
     8
288
     1
289
     0
340
55
371
    -1
372
    -1
1001
ACAD_DSTYLE_DIMBREAK
1070
   391
1040
3.75
1001
ACAD_DSTYLE_DIMJAG
1070
   388
1040
1.5
1001
ACAD_DSTYLE_DIMARC_LENGTH_SYMBOL
1070
   379
1070
     1
1001
ACAD_DSTYLE_DIM_LINETYPE
1070
   380
1005
5B
1001
ACAD_DSTYLE_DIM_EXT1_LINETYPE
1070
   381
1005
5B
1001
ACAD_DSTYLE_DIM_EXT2_LINETYPE
1070
   382
1005
5B
  0
DIMSTYLE
105
598
330
A
100
AcDbSymbolTableRecord
100
AcDbDimStyleTableRecord
  2
AM_ISO$4
 70
     0
  4
"
 41
3.5
 42
1.0
 43
10.0
 44
1.0
 47
0.1
 48
0.1
 73
     0
 77
     1
 78
     8
 79
     2
140
3.5
141
0.0
143
0.0393701
146
0.71
147
1.5
176
   256
177
   256
178
     2
271
     2
272
     3
274
     4
283
     0
284
     8
288
     1
289
     0
340
55
371
    -1
372
    -1
1001
ACAD_DSTYLE_DIMBREAK
1070
   391
1040
3.75
1001
ACAD_DSTYLE_DIMJAG
1070
   388
1040
1.5
1001
ACAD_DSTYLE_DIMARC_LENGTH_SYMBOL
1070
   379
1070
     1
1001
ACAD_DSTYLE_DIM_LINETYPE
1070
   380
1005
5B
1001
ACAD_DSTYLE_DIM_EXT1_LINETYPE
1070
   381
1005
5B
1001
ACAD_DSTYLE_DIM_EXT2_LINETYPE
1070
   382
1005
5B
  0
DIMSTYLE
105
599
330
A
100
AcDbSymbolTableRecord
100
AcDbDimStyleTableRecord
  2
AM_ISO$6
 70
     0
  4
"
 41
3.5
 42
1.0
 43
10.0
 44
1.0
 47
0.1
 48
0.1
 73
     0
 74
     0
 78
     8
 79
     2
140
3.5
141
0.0
143
0.0393701
146
0.71
147
1.5
172
     1
176
   256
177
   256
178
     2
271
     2
272
     3
274
     4
283
     0
284
     8
340
55
371
    -1
372
    -1
1001
ACAD_DSTYLE_DIMBREAK
1070
   391
1040
3.75
1001
ACAD_DSTYLE_DIMJAG
1070
   388
1040
1.5
1001
ACAD_DSTYLE_DIMARC_LENGTH_SYMBOL
1070
   379
1070
     1
1001
ACAD_DSTYLE_DIM_LINETYPE
1070
   380
1005
5B
1001
ACAD_DSTYLE_DIM_EXT1_LINETYPE
1070
   381
1005
5B
1001
ACAD_DSTYLE_DIM_EXT2_LINETYPE
1070
   382
1005
5B
  0
DIMSTYLE
105
59A
330
A
100
AcDbSymbolTableRecord
100
AcDbDimStyleTableRecord
  2
AM_ISO$7
 70
     0
  4
"
 41
3.5
 42
1.0
 43
10.0
 44
1.0
 47
0.1
 48
0.1
 73
     0
 74
     0
 77
     1
 78
     8
 79
     2
140
3.5
141
0.0
143
0.0393701
146
0.71
147
1.5
172
     1
176
   256
177
   256
178
     2
271
     2
272
     3
274
     4
283
     0
284
     8
340
55
371
    -1
372
    -1
1001
ACAD_DSTYLE_DIMBREAK
1070
   391
1040
3.75
1001
ACAD_DSTYLE_DIMJAG
1070
   388
1040
1.5
1001
ACAD_DSTYLE_DIMARC_LENGTH_SYMBOL
1070
   379
1070
     1
1001
ACAD_DSTYLE_DIM_LINETYPE
1070
   380
1005
5B
1001
ACAD_DSTYLE_DIM_EXT1_LINETYPE
1070
   381
1005
5B
1001
ACAD_DSTYLE_DIM_EXT2_LINETYPE
1070
   382
1005
5B
  0
DIMSTYLE
105
59B
330
A
100
AcDbSymbolTableRecord
100
AcDbDimStyleTableRecord
  2
AM_ISO$SF
 70
     0
  4
"
 41
3.5
 42
1.0
 43
10.0
 44
1.0
 47
0.1
 48
0.1
 73
     0
 74
     0
 75
     1
 76
     1
 77
     1
 78
     8
 79
     2
140
3.5
141
0.0
143
0.0393701
146
0.71
147
1.5
172
     1
176
   256
177
   256
178
     2
271
     2
272
     3
274
     4
283
     0
284
     8
340
55
371
    -1
372
    -1
1001
ACAD_DSTYLE_DIMBREAK
1070
   391
1040
3.75
1001
ACAD_DSTYLE_DIMJAG
1070
   388
1040
1.5
1001
ACAD_DSTYLE_DIMARC_LENGTH_SYMBOL
1070
   379
1070
     1
1001
ACAD_DSTYLE_DIM_LINETYPE
1070
   380
1005
5B
1001
ACAD_DSTYLE_DIM_EXT1_LINETYPE
1070
   381
1005
5B
1001
ACAD_DSTYLE_DIM_EXT2_LINETYPE
1070
   382
1005
5B
  0
DIMSTYLE
105
59C
330
A
100
AcDbSymbolTableRecord
100
AcDbDimStyleTableRecord
  2
AM_ISO$SH
 70
     0
  4
"
 41
3.5
 42
1.0
 43
10.0
 44
1.0
 47
0.1
 48
0.1
 73
     0
 74
     0
 75
     1
 76
     1
 77
     1
 78
     8
 79
     2
140
3.5
141
0.0
143
0.0393701
144
2.0
146
0.71
147
1.5
172
     1
173
     1
176
   256
177
   256
178
     2
271
     2
272
     3
274
     4
283
     0
284
     8
340
55
343
B9
371
    -1
372
    -1
1001
ACAD_DSTYLE_DIMBREAK
1070
   391
1040
3.75
1001
ACAD_DSTYLE_DIMJAG
1070
   388
1040
1.5
1001
ACAD_DSTYLE_DIMARC_LENGTH_SYMBOL
1070
   379
1070
     1
1001
ACAD_DSTYLE_DIM_LINETYPE
1070
   380
1005
5B
1001
ACAD_DSTYLE_DIM_EXT1_LINETYPE
1070
   381
1005
5B
1001
ACAD_DSTYLE_DIM_EXT2_LINETYPE
1070
   382
1005
5B
  0
ENDTAB
  0
TABLE
  2
BLOCK_RECORD
  5
1
330
0
100
AcDbSymbolTable
 70
    30
  0
BLOCK_RECORD
  5
70
102
{ACAD_XDICTIONARY
360
248
102
}
330
1
100
AcDbSymbolTableRecord
100
AcDbBlockTableRecord
  2
*Model_Space
340
73
  0
BLOCK_RECORD
  5
6C
330
1
100
AcDbSymbolTableRecord
100
AcDbBlockTableRecord
  2
*Paper_Space
340
6F
  0
BLOCK_RECORD
  5
74
330
1
100
AcDbSymbolTableRecord
100
AcDbBlockTableRecord
  2
*Paper_Space0
340
77
  0
BLOCK_RECORD
  5
AD
330
1
100
AcDbSymbolTableRecord
100
AcDbBlockTableRecord
  2
_Open30
340
0
  0
BLOCK_RECORD
  5
B9
330
1
100
AcDbSymbolTableRecord
100
AcDbBlockTableRecord
  2
GENAXEH
340
0
  0
BLOCK_RECORD
  5
256
330
1
100
AcDbSymbolTableRecord
100
AcDbBlockTableRecord
  2
_DotBlank
340
0
102
{BLKREFS
331
51D
331
51E
331
525
331
526
331
52D
331
52E
331
534
331
535
331
53A
331
53B
331
60F
331
612
331
619
331
61C
331
623
331
626
331
4E5
331
4E6
331
4ED
331
4EE
331
4F7
331
4F8
331
4FF
331
500
102
}
  0
BLOCK_RECORD
  5
302
330
1
100
AcDbSymbolTableRecord
100
AcDbBlockTableRecord
  2
CustomObjectsInViewport1_0
340
0
102
{BLKREFS
331
300
102
}
  0
BLOCK_RECORD
  5
31C
330
1
100
AcDbSymbolTableRecord
100
AcDbBlockTableRecord
  2
*D17
340
0
  0
BLOCK_RECORD
  5
329
330
1
100
AcDbSymbolTableRecord
100
AcDbBlockTableRecord
  2
*D18
340
0
  0
BLOCK_RECORD
  5
334
330
1
100
AcDbSymbolTableRecord
100
AcDbBlockTableRecord
  2
*D19
340
0
  0
BLOCK_RECORD
  5
33F
330
1
100
AcDbSymbolTableRecord
100
AcDbBlockTableRecord
  2
*D20
340
0
  0
BLOCK_RECORD
  5
34C
330
1
100
AcDbSymbolTableRecord
100
AcDbBlockTableRecord
  2
*D21
340
0
  0
BLOCK_RECORD
  5
357
330
1
100
AcDbSymbolTableRecord
100
AcDbBlockTableRecord
  2
*D22
340
0
  0
BLOCK_RECORD
  5
364
330
1
100
AcDbSymbolTableRecord
100
AcDbBlockTableRecord
  2
*D23
340
0
  0
BLOCK_RECORD
  5
373
330
1
100
AcDbSymbolTableRecord
100
AcDbBlockTableRecord
  2
*D24
340
0
  0
BLOCK_RECORD
  5
37E
330
1
100
AcDbSymbolTableRecord
100
AcDbBlockTableRecord
  2
*D25
340
0
  0
BLOCK_RECORD
  5
389
330
1
100
AcDbSymbolTableRecord
100
AcDbBlockTableRecord
  2
*D26
340
0
  0
BLOCK_RECORD
  5
394
330
1
100
AcDbSymbolTableRecord
100
AcDbBlockTableRecord
  2
*D27
340
0
  0
BLOCK_RECORD
  5
39D
330
1
100
AcDbSymbolTableRecord
100
AcDbBlockTableRecord
  2
*D28
340
0
  0
ENDTAB
  0
ENDSEC
  0
SECTION
  2
BLOCKS
  0
BLOCK
  5
71
330
70
100
AcDbEntity
  8
0
100
AcDbBlockBegin
  2
*Model_Space
 70
     0
 10
0.0
 20
0.0
 30
0.0
  3
*Model_Space
  1

  0
ENDBLK
  5
72
330
70
100
AcDbEntity
  8
0
100
AcDbBlockEnd
  0
BLOCK
  5
6D
330
6C
100
AcDbEntity
 67
     1
  8
0
100
AcDbBlockBegin
  2
*Paper_Space
 70
     0
 10
0.0
 20
0.0
 30
0.0
  3
*Paper_Space
  1

  0
ENDBLK
  5
6E
330
6C
100
AcDbEntity
 67
     1
  8
0
100
AcDbBlockEnd
  0
BLOCK
  5
75
330
74
100
AcDbEntity
 67
     1
  8
0
100
AcDbBlockBegin
  2
*Paper_Space0
 70
     0
 10
0.0
 20
0.0
 30
0.0
  3
*Paper_Space0
  1

  0
ENDBLK
  5
76
330
74
100
AcDbEntity
 67
     1
  8
0
100
AcDbBlockEnd
  0
BLOCK
  5
AE
330
AD
100
AcDbEntity
  8
0
100
AcDbBlockBegin
  2
_Open30
 70
     0
 10
0.0
 20
0.0
 30
0.0
  3
_Open30
  1

  0
LINE
  5
AF
330
AD
100
AcDbEntity
  8
0
  6
ByBlock
 62
     0
370
    -2
100
AcDbLine
 10
-1.0
 20
0.26794919
 30
0.0
 11
0.0
 21
0.0
 31
0.0
  0
LINE
  5
B0
330
AD
100
AcDbEntity
  8
0
  6
ByBlock
 62
     0
370
    -2
100
AcDbLine
 10
0.0
 20
0.0
 30
0.0
 11
-1.0
 21
-0.26794919
 31
0.0
  0
LINE
  5
B1
330
AD
100
AcDbEntity
  8
0
  6
ByBlock
 62
     0
370
    -2
100
AcDbLine
 10
0.0
 20
0.0
 30
0.0
 11
-1.0
 21
0.0
 31
0.0
  0
ENDBLK
  5
B2
330
AD
100
AcDbEntity
  8
0
100
AcDbBlockEnd
  0
BLOCK
  5
BA
330
B9
100
AcDbEntity
  8
0
100
AcDbBlockBegin
  2
GENAXEH
 70
     0
 10
0.0
 20
0.0
 30
0.0
  3
GENAXEH
  1

  0
LINE
  5
BB
330
B9
100
AcDbEntity
  8
0
100
AcDbLine
 10
-1.0
 20
0.0
 30
0.0
 11
1.0
 21
0.0
 31
0.0
  0
ENDBLK
  5
BC
330
B9
100
AcDbEntity
  8
0
100
AcDbBlockEnd
  0
BLOCK
  5
257
330
256
100
AcDbEntity
  8
0
100
AcDbBlockBegin
  2
_DotBlank
 70
     0
 10
0.0
 20
0.0
 30
0.0
  3
_DotBlank
  1

  0
CIRCLE
  5
258
330
256
100
AcDbEntity
  8
0
  6
ByBlock
 62
     0
370
    -2
100
AcDbCircle
 10
0.0
 20
0.0
 30
0.0
 40
0.5
  0
LINE
  5
259
330
256
100
AcDbEntity
  8
0
  6
ByBlock
 62
     0
370
    -2
100
AcDbLine
 10
-0.5
 20
0.0
 30
0.0
 11
-1.0
 21
0.0
 31
0.0
  0
ENDBLK
  5
25A
330
256
100
AcDbEntity
  8
0
100
AcDbBlockEnd
  0
BLOCK
  5
303
330
302
100
AcDbEntity
  8
0
100
AcDbBlockBegin
  2
CustomObjectsInViewport1_0
 70
     0
 10
0.0
 20
0.0
 30
0.0
  3
CustomObjectsInViewport1_0
  1

  0
LINE
  5
304
330
302
100
AcDbEntity
  8
NOTE
100
AcDbLine
 10
689.3975742432563
 20
-531.2697242269352
 30
0.0
 11
147.7375742432564
 21
-531.269724226935
 31
0.0
  0
LINE
  5
305
330
302
100
AcDbEntity
  8
NOTE
100
AcDbLine
 10
147.7375742432564
 20
-531.269724226935
 30
0.0
 11
-52.84784545835726
 21
-413.932819881069
 31
0.0
  0
LWPOLYLINE
  5
306
330
302
100
AcDbEntity
  8
NOTE
  6
Continuous
100
AcDbPolyline
 90
        2
 70
   129
 43
6.428571428571435
 10
-87.1359830683022
 20
-395.7554788113021
 42
1.0
 10
-80.70741163973076
 20
-395.7554788113021
 42
1.0
  0
LINE
  5
307
330
302
100
AcDbEntity
  8
NOTE
  6
Continuous
100
AcDbLine
 10
-78.37279522979162
 20
-399.0014325737604
 30
0.0
 11
-52.84784545835726
 21
-413.9328198810689
 31
0.0
  0
TEXT
  5
308
330
302
100
AcDbEntity
  8
NOTE
 62
     2
100
AcDbText
 10
217.7375742432564
 20
-496.269724226935
 30
0.0
 40
70.0
  1
O.D φ32(VP25)
 41
0.9
100
AcDbText
  0
LINE
  5
309
330
302
100
AcDbEntity
  8
NOTE
100
AcDbLine
 10
2497.636923604108
 20
275.5132662842707
 30
0.0
 11
804.5935902707752
 21
275.5132662842707
 31
0.0
  0
LINE
  5
30A
330
302
100
AcDbEntity
  8
NOTE
100
AcDbLine
 10
804.5935902707752
 20
275.5132662842707
 30
0.0
 11
758.7014458930412
 21
122.9961421056189
 31
0.0
  0
LINE
  5
30B
330
302
100
AcDbEntity
  8
NOTE
  6
Continuous
100
AcDbLine
 10
758.7014458930412
 20
122.9961421056189
 30
0.0
 11
748.3285149643593
 21
88.52293070968437
 31
0.0
  0
LINE
  5
30C
330
302
100
AcDbEntity
  8
NOTE
  6
Continuous
100
AcDbLine
 10
749.4643768228018
 20
125.7755605458852
 30
0.0
 11
748.3285149643593
 21
88.52293070968437
 31
0.0
  0
LINE
  5
30D
330
302
100
AcDbEntity
  8
NOTE
  6
Continuous
100
AcDbLine
 10
748.3285149643593
 20
88.52293070968437
 30
0.0
 11
767.9385149632808
 21
120.2167236653526
 31
0.0
  0
TEXT
  5
30E
330
302
100
AcDbEntity
  8
NOTE
 62
     2
100
AcDbText
 10
874.5935902707751
 20
310.5132662842707
 30
0.0
 40
70.0
  1
Ceiling suspension fixture(4-13 × 20 oval)
 41
0.95
100
AcDbText
  0
LINE
  5
30F
330
302
100
AcDbEntity
  8
NOTE
100
AcDbLine
 10
-1029.731073758946
 20
-526.230888030569
 30
0.0
 11
-507.064407092279
 21
-526.230888030569
 31
0.0
  0
LINE
  5
310
330
302
100
AcDbEntity
  8
NOTE
100
AcDbLine
 10
-507.064407092279
 20
-526.230888030569
 30
0.0
 11
-356.1962375568105
 21
-243.0005291601068
 31
0.0
  0
LINE
  5
311
330
302
100
AcDbEntity
  8
NOTE
  6
Continuous
100
AcDbLine
 10
-356.1962375568104
 20
-243.0005291601068
 30
0.0
 11
-339.2714850356429
 21
-211.2270692903156
 31
0.0
  0
LINE
  5
312
330
302
100
AcDbEntity
  8
NOTE
  6
Continuous
100
AcDbLine
 10
-347.6825647212024
 20
-247.5355028891041
 30
0.0
 11
-339.2714850356429
 21
-211.2270692903156
 31
0.0
  0
LINE
  5
313
330
302
100
AcDbEntity
  8
NOTE
  6
Continuous
100
AcDbLine
 10
-339.2714850356429
 20
-211.2270692903156
 30
0.0
 11
-364.7099103924185
 21
-238.4655554311095
 31
0.0
  0
TEXT
  5
314
330
302
100
AcDbEntity
  8
NOTE
 62
     2
100
AcDbText
 10
-1029.731073758946
 20
-491.230888030569
 30
0.0
 40
70.0
  1
Control box
100
AcDbText
  0
LINE
  5
315
330
302
100
AcDbEntity
  8
NOTE
100
AcDbLine
 10
-1444.49238918697
 20
231.45022452801
 30
0.0
 11
-384.2257225203039
 21
231.45022452801
 31
0.0
  0
LINE
  5
316
330
302
100
AcDbEntity
  8
NOTE
100
AcDbLine
 10
-384.2257225203039
 20
231.45022452801
 30
0.0
 11
-295.0718961830871
 21
46.98581769363054
 31
0.0
  0
LINE
  5
317
330
302
100
AcDbEntity
  8
NOTE
  6
Continuous
100
AcDbLine
 10
-295.0718961830871
 20
46.98581769363054
 30
0.0
 11
-279.4063899279286
 21
14.57298206066582
 31
0.0
  0
LINE
  5
318
330
302
100
AcDbEntity
  8
NOTE
  6
Continuous
100
AcDbLine
 10
-303.7568892365432
 20
42.78825798162087
 30
0.0
 11
-279.4063899279286
 21
14.57298206066582
 31
0.0
  0
LINE
  5
319
330
302
100
AcDbEntity
  8
NOTE
  6
Continuous
100
AcDbLine
 10
-279.4063899279286
 20
14.57298206066582
 30
0.0
 11
-286.3869031296311
 21
51.18337740564022
 31
0.0
  0
TEXT
  5
31A
330
302
100
AcDbEntity
  8
NOTE
 62
     2
100
AcDbText
 10
-1444.49238918697
 20
266.45022452801
 30
0.0
 40
70.0
  1
Alternative duct position
100
AcDbText
  0
ENDBLK
  5
31B
330
302
100
AcDbEntity
  8
0
100
AcDbBlockEnd
  0
BLOCK
  5
31D
330
31C
100
AcDbEntity
  8
0
100
AcDbBlockBegin
  2
*D17
 70
     1
 10
0.0
 20
0.0
 30
0.0
  3
*D17
  1

  0
LINE
  5
60C
330
31C
100
AcDbEntity
  8
SIZE
  6
ByBlock
100
AcDbLine
 10
-225.6714850326229
 20
-342.777069293782
 30
0.0
 11
-225.6714850326229
 21
-569.1228391615267
 31
0.0
  0
LINE
  5
60D
330
31C
100
AcDbEntity
  8
SIZE
  6
ByBlock
100
AcDbLine
 10
-339.2714850356429
 20
-212.2270692903157
 30
0.0
 11
-339.2714850356429
 21
-569.1228391615267
 31
0.0
  0
LINE
  5
60E
330
31C
100
AcDbEntity
  8
SIZE
  6
ByBlock
100
AcDbLine
 10
-255.671485032623
 20
-568.1228391615268
 30
0.0
 11
-309.2714850356429
 21
-568.1228391615268
 31
0.0
  0
INSERT
  5
60F
330
31C
100
AcDbEntity
  8
SIZE
100
AcDbBlockReference
  2
_DotBlank
 10
-225.6714850326229
 20
-568.1228391615268
 30
0.0
 41
30.0
 42
30.0
 43
30.0
 50
180.0
  0
LINE
  5
610
330
31C
100
AcDbEntity
  8
SIZE
100
AcDbLine
 10
-195.6714850326229
 20
-568.1228391615268
 30
0.0
 11
-165.6714850326229
 21
-568.1228391615268
 31
0.0
  0
LINE
  5
611
330
31C
100
AcDbEntity
  8
SIZE
  6
ByBlock
100
AcDbLine
 10
-225.6714850326229
 20
-568.1228391615268
 30
0.0
 11
-255.671485032623
 21
-568.1228391615268
 31
0.0
  0
INSERT
  5
612
330
31C
100
AcDbEntity
  8
SIZE
100
AcDbBlockReference
  2
_DotBlank
 10
-339.2714850356429
 20
-568.1228391615268
 30
0.0
 41
30.0
 42
30.0
 43
30.0
 50
180.0
  0
POINT
  5
613
330
31C
100
AcDbEntity
  8
Defpoints
 62
     0
100
AcDbPoint
 10
-225.6714850326229
 20
-341.777069293782
 30
0.0
  0
POINT
  5
614
330
31C
100
AcDbEntity
  8
Defpoints
 62
     0
100
AcDbPoint
 10
-339.2714850356429
 20
-211.2270692903158
 30
0.0
  0
POINT
  5
615
330
31C
100
AcDbEntity
  8
Defpoints
 62
     0
100
AcDbPoint
 10
-339.2714850356429
 20
-568.1228391615268
 30
0.0
  0
ENDBLK
  5
31E
330
31C
100
AcDbEntity
  8
0
100
AcDbBlockEnd
  0
BLOCK
  5
32A
330
329
100
AcDbEntity
  8
0
100
AcDbBlockBegin
  2
*D18
 70
     1
 10
0.0
 20
0.0
 30
0.0
  3
*D18
  1

  0
LINE
  5
4E2
330
329
100
AcDbEntity
  8
SIZE
  6
ByBlock
100
AcDbLine
 10
-339.0714850356109
 20
49.17293071659063
 30
0.0
 11
-502.6524358033515
 21
49.17293071659059
 31
0.0
  0
LINE
  5
4E3
330
329
100
AcDbEntity
  8
SIZE
  6
ByBlock
100
AcDbLine
 10
-225.2714850325862
 20
120.3229307184984
 30
0.0
 11
-502.6524358033515
 21
120.3229307184983
 31
0.0
  0
LINE
  5
4E4
330
329
100
AcDbEntity
  8
SIZE
  6
ByBlock
100
AcDbLine
 10
-501.6524358033515
 20
79.17293071659059
 30
0.0
 11
-501.6524358033515
 21
90.32293071849835
 31
0.0
  0
INSERT
  5
4E5
330
329
100
AcDbEntity
  8
SIZE
100
AcDbBlockReference
  2
_DotBlank
 10
-501.6524358033515
 20
49.17293071659059
 30
0.0
 41
30.0
 42
30.0
 43
30.0
 50
270.0
  0
INSERT
  5
4E6
330
329
100
AcDbEntity
  8
SIZE
100
AcDbBlockReference
  2
_DotBlank
 10
-501.6524358033515
 20
120.3229307184983
 30
0.0
 41
30.0
 42
30.0
 43
30.0
 50
90.0
  0
POINT
  5
4E7
330
329
100
AcDbEntity
  8
Defpoints
 62
     0
100
AcDbPoint
 10
-338.0714850356109
 20
49.17293071659063
 30
0.0
  0
POINT
  5
4E8
330
329
100
AcDbEntity
  8
Defpoints
 62
     0
100
AcDbPoint
 10
-224.2714850325862
 20
120.3229307184984
 30
0.0
  0
POINT
  5
4E9
330
329
100
AcDbEntity
  8
Defpoints
 62
     0
100
AcDbPoint
 10
-501.6524358033515
 20
120.3229307184983
 30
0.0
  0
ENDBLK
  5
32B
330
329
100
AcDbEntity
  8
0
100
AcDbBlockEnd
  0
BLOCK
  5
335
330
334
100
AcDbEntity
  8
0
100
AcDbBlockBegin
  2
*D19
 70
     1
 10
0.0
 20
0.0
 30
0.0
  3
*D19
  1

  0
LINE
  5
4EA
330
334
100
AcDbEntity
  8
SIZE
  6
ByBlock
100
AcDbLine
 10
-225.0714850325809
 20
-343.3770692938389
 30
0.0
 11
-587.5759571781241
 21
-343.3770692938389
 31
0.0
  0
LINE
  5
4EB
330
334
100
AcDbEntity
  8
SIZE
  6
ByBlock
100
AcDbLine
 10
-225.2714850325862
 20
120.3229307184984
 30
0.0
 11
-587.5759571781242
 21
120.3229307184983
 31
0.0
  0
LINE
  5
4EC
330
334
100
AcDbEntity
  8
SIZE
  6
ByBlock
100
AcDbLine
 10
-586.575957178124
 20
-313.3770692938389
 30
0.0
 11
-586.5759571781242
 21
90.32293071849835
 31
0.0
  0
INSERT
  5
4ED
330
334
100
AcDbEntity
  8
SIZE
100
AcDbBlockReference
  2
_DotBlank
 10
-586.575957178124
 20
-343.3770692938389
 30
0.0
 41
30.0
 42
30.0
 43
30.0
 50
270.0
  0
INSERT
  5
4EE
330
334
100
AcDbEntity
  8
SIZE
100
AcDbBlockReference
  2
_DotBlank
 10
-586.5759571781242
 20
120.3229307184983
 30
0.0
 41
30.0
 42
30.0
 43
30.0
 50
90.0
  0
POINT
  5
4EF
330
334
100
AcDbEntity
  8
Defpoints
 62
     0
100
AcDbPoint
 10
-224.0714850325809
 20
-343.3770692938389
 30
0.0
  0
POINT
  5
4F0
330
334
100
AcDbEntity
  8
Defpoints
 62
     0
100
AcDbPoint
 10
-224.2714850325862
 20
120.3229307184984
 30
0.0
  0
POINT
  5
4F1
330
334
100
AcDbEntity
  8
Defpoints
 62
     0
100
AcDbPoint
 10
-586.5759571781242
 20
120.3229307184983
 30
0.0
  0
ENDBLK
  5
336
330
334
100
AcDbEntity
  8
0
100
AcDbBlockEnd
  0
BLOCK
  5
340
330
33F
100
AcDbEntity
  8
0
100
AcDbBlockBegin
  2
*D20
 70
     1
 10
0.0
 20
0.0
 30
0.0
  3
*D20
  1

  0
LINE
  5
4F2
330
33F
100
AcDbEntity
  8
SIZE
  6
ByBlock
100
AcDbLine
 10
720.7285149925103
 20
120.3229307184984
 30
0.0
 11
861.9046747776609
 21
120.3229307184984
 31
0.0
  0
LINE
  5
4F3
330
33F
100
AcDbEntity
  8
SIZE
  6
ByBlock
100
AcDbLine
 10
762.928514993631
 20
88.52293071765146
 30
0.0
 11
861.9046747776609
 21
88.52293071765148
 31
0.0
  0
LINE
  5
4F4
330
33F
100
AcDbEntity
  8
SIZE
  6
ByBlock
100
AcDbLine
 10
860.9046747776609
 20
150.3229307184984
 30
0.0
 11
860.9046747776609
 21
180.3229307184984
 31
0.0
  0
LINE
  5
4F5
330
33F
100
AcDbEntity
  8
SIZE
  6
ByBlock
100
AcDbLine
 10
860.9046747776609
 20
58.52293071765148
 30
0.0
 11
860.9046747776609
 21
28.52293071765148
 31
0.0
  0
LINE
  5
4F6
330
33F
100
AcDbEntity
  8
SIZE
  6
ByBlock
100
AcDbLine
 10
860.9046747776609
 20
120.3229307184984
 30
0.0
 11
860.9046747776609
 21
88.52293071765148
 31
0.0
  0
INSERT
  5
4F7
330
33F
100
AcDbEntity
  8
SIZE
100
AcDbBlockReference
  2
_DotBlank
 10
860.9046747776609
 20
120.3229307184984
 30
0.0
 41
30.0
 42
30.0
 43
30.0
 50
270.0
  0
INSERT
  5
4F8
330
33F
100
AcDbEntity
  8
SIZE
100
AcDbBlockReference
  2
_DotBlank
 10
860.9046747776609
 20
88.52293071765148
 30
0.0
 41
30.0
 42
30.0
 43
30.0
 50
90.0
  0
POINT
  5
4F9
330
33F
100
AcDbEntity
  8
Defpoints
 62
     0
100
AcDbPoint
 10
719.7285149925103
 20
120.3229307184984
 30
0.0
  0
POINT
  5
4FA
330
33F
100
AcDbEntity
  8
Defpoints
 62
     0
100
AcDbPoint
 10
761.9285149936311
 20
88.52293071765146
 30
0.0
  0
POINT
  5
4FB
330
33F
100
AcDbEntity
  8
Defpoints
 62
     0
100
AcDbPoint
 10
860.9046747776609
 20
88.52293071765148
 30
0.0
  0
ENDBLK
  5
341
330
33F
100
AcDbEntity
  8
0
100
AcDbBlockEnd
  0
BLOCK
  5
34D
330
34C
100
AcDbEntity
  8
0
100
AcDbBlockBegin
  2
*D21
 70
     1
 10
0.0
 20
0.0
 30
0.0
  3
*D21
  1

  0
LINE
  5
4FC
330
34C
100
AcDbEntity
  8
SIZE
  6
ByBlock
100
AcDbLine
 10
8.835561089584647
 20
-343.3770692938389
 30
0.0
 11
182.9993220351482
 21
-343.3770692938388
 31
0.0
  0
LINE
  5
4FD
330
34C
100
AcDbEntity
  8
SIZE
  6
ByBlock
100
AcDbLine
 10
-72.64668371758128
 20
-408.4567762385606
 30
0.0
 11
182.9993220351482
 21
-408.4567762385606
 31
0.0
  0
LINE
  5
4FE
330
34C
100
AcDbEntity
  8
SIZE
  6
ByBlock
100
AcDbLine
 10
181.9993220351483
 20
-373.3770692938388
 30
0.0
 11
181.9993220351483
 21
-378.4567762385606
 31
0.0
  0
INSERT
  5
4FF
330
34C
100
AcDbEntity
  8
SIZE
100
AcDbBlockReference
  2
_DotBlank
 10
181.9993220351483
 20
-343.3770692938388
 30
0.0
 41
30.0
 42
30.0
 43
30.0
 50
90.0
  0
INSERT
  5
500
330
34C
100
AcDbEntity
  8
SIZE
100
AcDbBlockReference
  2
_DotBlank
 10
181.9993220351483
 20
-408.4567762385606
 30
0.0
 41
30.0
 42
30.0
 43
30.0
 50
270.0
  0
POINT
  5
501
330
34C
100
AcDbEntity
  8
Defpoints
 62
     0
100
AcDbPoint
 10
7.835561089584647
 20
-343.3770692938389
 30
0.0
  0
POINT
  5
502
330
34C
100
AcDbEntity
  8
Defpoints
 62
     0
100
AcDbPoint
 10
-73.64668371758128
 20
-408.4567762385606
 30
0.0
  0
POINT
  5
503
330
34C
100
AcDbEntity
  8
Defpoints
 62
     0
100
AcDbPoint
 10
181.9993220351483
 20
-408.4567762385606
 30
0.0
  0
ENDBLK
  5
34E
330
34C
100
AcDbEntity
  8
0
100
AcDbBlockEnd
  0
BLOCK
  5
358
330
357
100
AcDbEntity
  8
0
100
AcDbBlockBegin
  2
*D22
 70
     1
 10
0.0
 20
0.0
 30
0.0
  3
*D22
  1

  0
LINE
  5
616
330
357
100
AcDbEntity
  8
SIZE
  6
ByBlock
100
AcDbLine
 10
-73.64683151958161
 20
-445.9407134917028
 30
0.0
 11
-73.64683151958162
 21
-569.1228391615267
 31
0.0
  0
LINE
  5
617
330
357
100
AcDbEntity
  8
SIZE
  6
ByBlock
100
AcDbLine
 10
-225.4714850326172
 20
97.72293071791773
 30
0.0
 11
-225.4714850326173
 21
-569.1228391615267
 31
0.0
  0
LINE
  5
618
330
357
100
AcDbEntity
  8
SIZE
  6
ByBlock
100
AcDbLine
 10
-103.6468315195816
 20
-568.1228391615268
 30
0.0
 11
-195.4714850326172
 21
-568.1228391615268
 31
0.0
  0
INSERT
  5
619
330
357
100
AcDbEntity
  8
SIZE
100
AcDbBlockReference
  2
_DotBlank
 10
-73.64683151958162
 20
-568.1228391615268
 30
0.0
 41
30.0
 42
30.0
 43
30.0
 50
180.0
  0
LINE
  5
61A
330
357
100
AcDbEntity
  8
SIZE
100
AcDbLine
 10
-43.64683151958162
 20
-568.1228391615268
 30
0.0
 11
-13.64683151958162
 21
-568.1228391615268
 31
0.0
  0
LINE
  5
61B
330
357
100
AcDbEntity
  8
SIZE
  6
ByBlock
100
AcDbLine
 10
-73.64683151958162
 20
-568.1228391615268
 30
0.0
 11
-103.6468315195816
 21
-568.1228391615268
 31
0.0
  0
INSERT
  5
61C
330
357
100
AcDbEntity
  8
SIZE
100
AcDbBlockReference
  2
_DotBlank
 10
-225.4714850326173
 20
-568.1228391615268
 30
0.0
 41
30.0
 42
30.0
 43
30.0
 50
180.0
  0
POINT
  5
61D
330
357
100
AcDbEntity
  8
Defpoints
 62
     0
100
AcDbPoint
 10
-73.64683151958161
 20
-444.9407134917028
 30
0.0
  0
POINT
  5
61E
330
357
100
AcDbEntity
  8
Defpoints
 62
     0
100
AcDbPoint
 10
-225.4714850326172
 20
98.72293071791773
 30
0.0
  0
POINT
  5
61F
330
357
100
AcDbEntity
  8
Defpoints
 62
     0
100
AcDbPoint
 10
-225.4714850326173
 20
-568.1228391615268
 30
0.0
  0
ENDBLK
  5
359
330
357
100
AcDbEntity
  8
0
100
AcDbBlockEnd
  0
BLOCK
  5
365
330
364
100
AcDbEntity
  8
0
100
AcDbBlockBegin
  2
*D23
 70
     1
 10
0.0
 20
0.0
 30
0.0
  3
*D23
  1

  0
LINE
  5
620
330
364
100
AcDbEntity
  8
SIZE
  6
ByBlock
100
AcDbLine
 10
-213.8350674477966
 20
-44.82701793490288
 30
0.0
 11
-389.7970994869268
 21
-44.8270179349029
 31
0.0
  0
LINE
  5
621
330
364
100
AcDbEntity
  8
SIZE
  6
ByBlock
100
AcDbLine
 10
-225.2714850325857
 20
120.3229307184984
 30
0.0
 11
-389.7970994869268
 21
120.3229307184984
 31
0.0
  0
LINE
  5
622
330
364
100
AcDbEntity
  8
SIZE
  6
ByBlock
100
AcDbLine
 10
-388.7970994869268
 20
-14.8270179349029
 30
0.0
 11
-388.7970994869268
 21
90.32293071849839
 31
0.0
  0
INSERT
  5
623
330
364
100
AcDbEntity
  8
SIZE
100
AcDbBlockReference
  2
_DotBlank
 10
-388.7970994869268
 20
-44.8270179349029
 30
0.0
 41
30.0
 42
30.0
 43
30.0
 50
90.0
  0
LINE
  5
624
330
364
100
AcDbEntity
  8
SIZE
100
AcDbLine
 10
-388.7970994869268
 20
-74.82701793490291
 30
0.0
 11
-388.7970994869268
 21
-104.8270179349029
 31
0.0
  0
LINE
  5
625
330
364
100
AcDbEntity
  8
SIZE
  6
ByBlock
100
AcDbLine
 10
-388.7970994869268
 20
-44.8270179349029
 30
0.0
 11
-388.7970994869268
 21
-14.8270179349029
 31
0.0
  0
INSERT
  5
626
330
364
100
AcDbEntity
  8
SIZE
100
AcDbBlockReference
  2
_DotBlank
 10
-388.7970994869268
 20
120.3229307184984
 30
0.0
 41
30.0
 42
30.0
 43
30.0
 50
270.0
  0
LINE
  5
627
330
364
100
AcDbEntity
  8
SIZE
100
AcDbLine
 10
-388.7970994869268
 20
150.3229307184984
 30
0.0
 11
-388.7970994869268
 21
180.3229307184984
 31
0.0
  0
LINE
  5
628
330
364
100
AcDbEntity
  8
SIZE
  6
ByBlock
100
AcDbLine
 10
-388.7970994869268
 20
120.3229307184984
 30
0.0
 11
-388.7970994869268
 21
90.32293071849837
 31
0.0
  0
POINT
  5
629
330
364
100
AcDbEntity
  8
Defpoints
 62
     0
100
AcDbPoint
 10
-212.8350674477966
 20
-44.82701793490288
 30
0.0
  0
POINT
  5
62A
330
364
100
AcDbEntity
  8
Defpoints
 62
     0
100
AcDbPoint
 10
-224.2714850325857
 20
120.3229307184984
 30
0.0
  0
POINT
  5
62B
330
364
100
AcDbEntity
  8
Defpoints
 62
     0
100
AcDbPoint
 10
-388.7970994869268
 20
120.3229307184984
 30
0.0
  0
ENDBLK
  5
366
330
364
100
AcDbEntity
  8
0
100
AcDbBlockEnd
  0
BLOCK
  5
374
330
373
100
AcDbEntity
  8
0
100
AcDbBlockBegin
  2
*D24
 70
     1
 10
0.0
 20
0.0
 30
0.0
  3
*D24
  1

  0
LINE
  5
51A
330
373
100
AcDbEntity
  8
SIZE
  6
ByBlock
100
AcDbLine
 10
-98.27148503764147
 20
82.17483567066574
 30
0.0
 11
-98.27148503764146
 21
302.3664989723355
 31
0.0
  0
LINE
  5
51B
330
373
100
AcDbEntity
  8
SIZE
  6
ByBlock
100
AcDbLine
 10
593.7285149643575
 20
94.11410705537036
 30
0.0
 11
593.7285149643575
 21
302.3664989723355
 31
0.0
  0
LINE
  5
51C
330
373
100
AcDbEntity
  8
SIZE
  6
ByBlock
100
AcDbLine
 10
-68.27148503764146
 20
301.3664989723356
 30
0.0
 11
563.7285149643576
 21
301.3664989723356
 31
0.0
  0
INSERT
  5
51D
330
373
100
AcDbEntity
  8
SIZE
100
AcDbBlockReference
  2
_DotBlank
 10
-98.27148503764146
 20
301.3664989723356
 30
0.0
 41
30.0
 42
30.0
 43
30.0
 50
180.0
  0
INSERT
  5
51E
330
373
100
AcDbEntity
  8
SIZE
100
AcDbBlockReference
  2
_DotBlank
 10
593.7285149643575
 20
301.3664989723356
 30
0.0
 41
30.0
 42
30.0
 43
30.0
  0
POINT
  5
51F
330
373
100
AcDbEntity
  8
Defpoints
 62
     0
100
AcDbPoint
 10
-98.27148503764147
 20
81.17483567066575
 30
0.0
  0
POINT
  5
520
330
373
100
AcDbEntity
  8
Defpoints
 62
     0
100
AcDbPoint
 10
593.7285149643575
 20
93.11410705537037
 30
0.0
  0
POINT
  5
521
330
373
100
AcDbEntity
  8
Defpoints
 62
     0
100
AcDbPoint
 10
593.7285149643575
 20
301.3664989723356
 30
0.0
  0
ENDBLK
  5
375
330
373
100
AcDbEntity
  8
0
100
AcDbBlockEnd
  0
BLOCK
  5
37F
330
37E
100
AcDbEntity
  8
0
100
AcDbBlockBegin
  2
*D25
 70
     1
 10
0.0
 20
0.0
 30
0.0
  3
*D25
  1

  0
LINE
  5
522
330
37E
100
AcDbEntity
  8
SIZE
  6
ByBlock
100
AcDbLine
 10
720.9285149643594
 20
115.1229307096755
 30
0.0
 11
720.9285149643594
 21
378.9564517983471
 31
0.0
  0
LINE
  5
523
330
37E
100
AcDbEntity
  8
SIZE
  6
ByBlock
100
AcDbLine
 10
-225.4714850356438
 20
115.1229307096755
 30
0.0
 11
-225.4714850356438
 21
378.9564517983471
 31
0.0
  0
LINE
  5
524
330
37E
100
AcDbEntity
  8
SIZE
  6
ByBlock
100
AcDbLine
 10
690.9285149643594
 20
377.9564517983471
 30
0.0
 11
-195.4714850356437
 21
377.9564517983471
 31
0.0
  0
INSERT
  5
525
330
37E
100
AcDbEntity
  8
SIZE
100
AcDbBlockReference
  2
_DotBlank
 10
720.9285149643594
 20
377.9564517983471
 30
0.0
 41
30.0
 42
30.0
 43
30.0
  0
INSERT
  5
526
330
37E
100
AcDbEntity
  8
SIZE
100
AcDbBlockReference
  2
_DotBlank
 10
-225.4714850356438
 20
377.9564517983471
 30
0.0
 41
30.0
 42
30.0
 43
30.0
 50
180.0
  0
POINT
  5
527
330
37E
100
AcDbEntity
  8
Defpoints
 62
     0
100
AcDbPoint
 10
720.9285149643594
 20
114.1229307096755
 30
0.0
  0
POINT
  5
528
330
37E
100
AcDbEntity
  8
Defpoints
 62
     0
100
AcDbPoint
 10
-225.4714850356438
 20
114.1229307096755
 30
0.0
  0
POINT
  5
529
330
37E
100
AcDbEntity
  8
Defpoints
 62
     0
100
AcDbPoint
 10
-225.4714850356438
 20
377.9564517983471
 30
0.0
  0
ENDBLK
  5
380
330
37E
100
AcDbEntity
  8
0
100
AcDbBlockEnd
  0
BLOCK
  5
38A
330
389
100
AcDbEntity
  8
0
100
AcDbBlockBegin
  2
*D26
 70
     1
 10
0.0
 20
0.0
 30
0.0
  3
*D26
  1

  0
LINE
  5
52A
330
389
100
AcDbEntity
  8
SIZE
  6
ByBlock
100
AcDbLine
 10
748.3285149643598
 20
118.9970857130492
 30
0.0
 11
748.3285149643598
 21
460.1431101114457
 31
0.0
  0
LINE
  5
52B
330
389
100
AcDbEntity
  8
SIZE
  6
ByBlock
100
AcDbLine
 10
-252.871485035641
 20
118.9970857130492
 30
0.0
 11
-252.8714850356409
 21
460.1431101114457
 31
0.0
  0
LINE
  5
52C
330
389
100
AcDbEntity
  8
SIZE
  6
ByBlock
100
AcDbLine
 10
718.3285149643597
 20
459.1431101114457
 30
0.0
 11
-222.8714850356409
 21
459.1431101114457
 31
0.0
  0
INSERT
  5
52D
330
389
100
AcDbEntity
  8
SIZE
100
AcDbBlockReference
  2
_DotBlank
 10
748.3285149643598
 20
459.1431101114457
 30
0.0
 41
30.0
 42
30.0
 43
30.0
  0
INSERT
  5
52E
330
389
100
AcDbEntity
  8
SIZE
100
AcDbBlockReference
  2
_DotBlank
 10
-252.8714850356409
 20
459.1431101114457
 30
0.0
 41
30.0
 42
30.0
 43
30.0
 50
180.0
  0
POINT
  5
52F
330
389
100
AcDbEntity
  8
Defpoints
 62
     0
100
AcDbPoint
 10
748.3285149643598
 20
117.9970857130492
 30
0.0
  0
POINT
  5
530
330
389
100
AcDbEntity
  8
Defpoints
 62
     0
100
AcDbPoint
 10
-252.871485035641
 20
117.9970857130492
 30
0.0
  0
POINT
  5
531
330
389
100
AcDbEntity
  8
Defpoints
 62
     0
100
AcDbPoint
 10
-252.8714850356409
 20
459.1431101114457
 30
0.0
  0
ENDBLK
  5
38B
330
389
100
AcDbEntity
  8
0
100
AcDbBlockEnd
  0
BLOCK
  5
395
330
394
100
AcDbEntity
  8
0
100
AcDbBlockBegin
  2
*D27
 70
     1
 10
0.0
 20
0.0
 30
0.0
  3
*D27
  1

  0
LINE
  5
532
330
394
100
AcDbEntity
  8
SIZE
  6
ByBlock
100
AcDbLine
 10
532.8373169722175
 20
-19.36607938258379
 30
0.0
 11
654.619712956498
 21
-70.28805919806001
 31
0.0
  0
LINE
  5
533
330
394
100
AcDbEntity
  8
SIZE
  6
ByBlock
100
AcDbLine
 10
682.2975302256529
 20
-81.86123642885005
 30
0.0
 11
896.8791832706923
 21
-171.5862128247936
 31
0.0
  0
INSERT
  5
534
330
394
100
AcDbEntity
  8
SIZE
100
AcDbBlockReference
  2
_DotBlank
 10
505.1594997030627
 20
-7.792902151793725
 30
0.0
 41
30.0
 42
30.0
 43
30.0
 50
157.3082890016191
  0
INSERT
  5
535
330
394
100
AcDbEntity
  8
SIZE
100
AcDbBlockReference
  2
_DotBlank
 10
682.2975302256529
 20
-81.86123642885005
 30
0.0
 41
30.0
 42
30.0
 43
30.0
 50
337.3082890016191
  0
POINT
  5
536
330
394
100
AcDbEntity
  8
Defpoints
 62
     0
100
AcDbPoint
 10
682.2975302256529
 20
-81.86123642885005
 30
0.0
  0
POINT
  5
537
330
394
100
AcDbEntity
  8
Defpoints
 62
     0
100
AcDbPoint
 10
505.1594997030627
 20
-7.792902151793725
 30
0.0
  0
ENDBLK
  5
396
330
394
100
AcDbEntity
  8
0
100
AcDbBlockEnd
  0
BLOCK
  5
39E
330
39D
100
AcDbEntity
  8
0
100
AcDbBlockBegin
  2
*D28
 70
     1
 10
0.0
 20
0.0
 30
0.0
  3
*D28
  1

  0
LINE
  5
538
330
39D
100
AcDbEntity
  8
SIZE
  6
ByBlock
100
AcDbLine
 10
539.0694605890119
 20
5.056673299756141
 30
0.0
 11
648.3875693396998
 21
-94.7108118803988
 31
0.0
  0
LINE
  5
539
330
39D
100
AcDbEntity
  8
SIZE
  6
ByBlock
100
AcDbLine
 10
670.5466454378125
 20
-114.9339507682681
 30
0.0
 11
836.2639800461799
 21
-266.1733191911234
 31
0.0
  0
INSERT
  5
53A
330
39D
100
AcDbEntity
  8
SIZE
100
AcDbBlockReference
  2
_DotBlank
 10
516.9103844908992
 20
25.27981218762554
 30
0.0
 41
30.0
 42
30.0
 43
30.0
 50
137.6153419070306
  0
INSERT
  5
53B
330
39D
100
AcDbEntity
  8
SIZE
100
AcDbBlockReference
  2
_DotBlank
 10
670.5466454378125
 20
-114.9339507682681
 30
0.0
 41
30.0
 42
30.0
 43
30.0
 50
317.6153419070307
  0
POINT
  5
53C
330
39D
100
AcDbEntity
  8
Defpoints
 62
     0
100
AcDbPoint
 10
670.5466454378125
 20
-114.9339507682681
 30
0.0
  0
POINT
  5
53D
330
39D
100
AcDbEntity
  8
Defpoints
 62
     0
100
AcDbPoint
 10
516.9103844908992
 20
25.27981218762554
 30
0.0
  0
ENDBLK
  5
39F
330
39D
100
AcDbEntity
  8
0
100
AcDbBlockEnd
  0
ENDSEC
  0
SECTION
  2
ENTITIES
  0
LINE
  5
C6
330
70
100
AcDbEntity
  8
DETAIL
 48
0.2
100
AcDbLine
 10
-339.2714850356424
 20
47.97293070968135
 30
0.0
 11
-339.2714850356424
 21
-211.2270692903158
 31
0.0
  0
LINE
  5
C9
330
70
100
AcDbEntity
  8
DETAIL
 48
0.2
100
AcDbLine
 10
-338.0714850356417
 20
-212.4270692903274
 30
0.0
 11
-338.0714850356417
 21
-211.2270692903158
 31
0.0
  0
LINE
  5
CA
330
70
100
AcDbEntity
  8
DETAIL
 48
0.2
100
AcDbLine
 10
-338.0714850356417
 20
49.17293070966389
 30
0.0
 11
-338.0714850356417
 21
47.97293070968135
 31
0.0
  0
LINE
  5
CB
330
70
100
AcDbEntity
  8
DETAIL
 48
0.2
100
AcDbLine
 10
-272.8714850356409
 20
95.32293070967261
 30
0.0
 11
-272.8714850356409
 21
91.72293070968136
 31
0.0
  0
LINE
  5
CC
330
70
100
AcDbEntity
  8
DETAIL
 48
0.2
100
AcDbLine
 10
-272.8714850356409
 20
82.12293070967552
 30
0.0
 11
-272.8714850356409
 21
78.52293070968426
 31
0.0
  0
LINE
  5
CD
330
70
100
AcDbEntity
  8
DETAIL
 48
0.2
100
AcDbLine
 10
-269.6714850356402
 20
95.32293070967261
 30
0.0
 11
-269.6714850356402
 21
91.72293070968136
 31
0.0
  0
LINE
  5
CE
330
70
100
AcDbEntity
  8
DETAIL
 48
0.2
100
AcDbLine
 10
-269.6714850356402
 20
82.12293070967552
 30
0.0
 11
-269.6714850356402
 21
78.52293070968426
 31
0.0
  0
LINE
  5
CF
330
70
100
AcDbEntity
  8
DETAIL
 48
0.2
100
AcDbLine
 10
-235.3714850356409
 20
116.0229307096842
 30
0.0
 11
-240.371485035641
 21
111.0229307096842
 31
0.0
  0
LINE
  5
D0
330
70
100
AcDbEntity
  8
DETAIL
 48
0.2
100
AcDbLine
 10
-241.1714850356402
 20
-100.7770692903186
 30
0.0
 11
-241.1714850356402
 21
85.32293070967261
 31
0.0
  0
LINE
  5
D1
330
70
100
AcDbEntity
  8
DETAIL
 48
0.2
100
AcDbLine
 10
-241.1714850356402
 20
88.52293070968427
 30
0.0
 11
-241.1714850356402
 21
111.0229307096842
 31
0.0
  0
LINE
  5
D2
330
70
100
AcDbEntity
  8
DETAIL
 48
0.2
100
AcDbLine
 10
-237.6714850356402
 20
-105.3770692903244
 30
0.0
 11
-237.6714850356402
 21
-284.9770692903157
 31
0.0
  0
LINE
  5
D3
330
70
100
AcDbEntity
  8
DETAIL
 48
0.2
100
AcDbLine
 10
-237.6714850356402
 20
-288.7770692903332
 30
0.0
 11
-237.6714850356402
 21
-289.5770692903361
 31
0.0
  0
LINE
  5
D4
330
70
100
AcDbEntity
  8
DETAIL
 48
0.2
100
AcDbLine
 10
-236.6714850356402
 20
-102.3770692903244
 30
0.0
 11
-236.6714850356402
 21
-103.1770692903128
 31
0.0
  0
LINE
  5
D5
330
70
100
AcDbEntity
  8
DETAIL
 48
0.2
100
AcDbLine
 10
-234.6714850356402
 20
-288.7770692903332
 30
0.0
 11
-234.6714850356402
 21
-289.5770692903361
 31
0.0
  0
LINE
  5
D6
330
70
100
AcDbEntity
  8
DETAIL
 48
0.2
100
AcDbLine
 10
-233.6714850356402
 20
-97.77706929031865
 30
0.0
 11
-233.6714850356402
 21
85.32293070967261
 31
0.0
  0
LINE
  5
D7
330
70
100
AcDbEntity
  8
DETAIL
 48
0.2
100
AcDbLine
 10
-233.6714850356402
 20
88.52293070968427
 30
0.0
 11
-233.6714850356402
 21
108.0229307096697
 31
0.0
  0
LINE
  5
D8
330
70
100
AcDbEntity
  8
DETAIL
 48
0.2
100
AcDbLine
 10
-230.3714850356409
 20
116.8229307096871
 30
0.0
 11
-230.3714850356409
 21
88.52293070968427
 31
0.0
  0
LINE
  5
D9
330
70
100
AcDbEntity
  8
DETAIL
 48
0.2
100
AcDbLine
 10
-230.3714850356409
 20
85.32293070967261
 30
0.0
 11
-230.3714850356409
 21
-103.1770692903128
 31
0.0
  0
LINE
  5
DA
330
70
100
AcDbEntity
  8
DETAIL
 48
0.2
100
AcDbLine
 10
-226.5714850356417
 20
79.42293070966389
 30
0.0
 11
-226.5714850356417
 21
67.62293070967553
 31
0.0
  0
LINE
  5
DB
330
70
100
AcDbEntity
  8
DETAIL
 48
0.2
100
AcDbLine
 10
-226.0714850356417
 20
38.52293070968426
 30
0.0
 11
-226.0714850356417
 21
82.12293070967552
 31
0.0
  0
LINE
  5
DC
330
70
100
AcDbEntity
  8
DETAIL
 48
0.2
100
AcDbLine
 10
-225.6714850356402
 20
-341.7770692903186
 30
0.0
 11
-225.6714850356402
 21
-167.5774598703328
 31
0.0
  0
LINE
  5
DD
330
70
100
AcDbEntity
  8
DETAIL
 48
0.2
100
AcDbLine
 10
-225.6714850356402
 20
-167.551140376564
 30
0.0
 11
-225.6714850356402
 21
-103.1770692903128
 31
0.0
  0
LINE
  5
DE
330
70
100
AcDbEntity
  8
DETAIL
 48
0.2
100
AcDbLine
 10
-225.4714850356413
 20
114.1229307096755
 30
0.0
 11
-225.4714850356413
 21
98.7229307096668
 31
0.0
  0
LINE
  5
DF
330
70
100
AcDbEntity
  8
DETAIL
 48
0.2
100
AcDbLine
 10
-224.8714850356409
 20
-267.5767646343202
 30
0.0
 11
-224.8714850356409
 21
-261.2770692903332
 31
0.0
  0
LINE
  5
E0
330
70
100
AcDbEntity
  8
DETAIL
 48
0.2
100
AcDbLine
 10
-224.8714850356409
 20
-258.2770692903186
 30
0.0
 11
-224.8714850356409
 21
-168.7328286123275
 31
0.0
  0
LINE
  5
E1
330
70
100
AcDbEntity
  8
DETAIL
 48
0.2
100
AcDbLine
 10
-224.8714850356409
 20
-168.8916717541224
 30
0.0
 11
-224.8714850356409
 21
-113.7770692903332
 31
0.0
  0
LINE
  5
E2
330
70
100
AcDbEntity
  8
DETAIL
 48
0.2
100
AcDbLine
 10
-224.8714850356409
 20
-110.7770692903186
 30
0.0
 11
-224.8714850356409
 21
-103.1770692903128
 31
0.0
  0
LINE
  5
E3
330
70
100
AcDbEntity
  8
DETAIL
 48
0.2
100
AcDbLine
 10
-224.8714850356409
 20
114.1229307096755
 30
0.0
 11
-224.8714850356409
 21
98.7229307096668
 31
0.0
  0
LINE
  5
E4
330
70
100
AcDbEntity
  8
DETAIL
 48
0.2
100
AcDbLine
 10
-224.8714850356409
 20
-269.3770692903245
 30
0.0
 11
-224.8714850356409
 21
-341.7770692903186
 31
0.0
  0
LINE
  5
E5
330
70
100
AcDbEntity
  8
DETAIL
 48
0.2
100
AcDbLine
 10
-224.2714850356424
 20
115.3229307096726
 30
0.0
 11
-224.2714850356424
 21
90.32293070967261
 31
0.0
  0
LINE
  5
E6
330
70
100
AcDbEntity
  8
DETAIL
 48
0.2
100
AcDbLine
 10
-224.0714850356417
 20
-343.3770692903245
 30
0.0
 11
-224.0714850356417
 21
-272.3770692903245
 31
0.0
  0
LINE
  5
E7
330
70
100
AcDbEntity
  8
DETAIL
 48
0.2
100
AcDbLine
 10
-223.9714850356395
 20
-195.2770692903186
 30
0.0
 11
-223.9714850356395
 21
24.72293070968135
 31
0.0
  0
LINE
  5
E8
330
70
100
AcDbEntity
  8
DETAIL
 48
0.2
100
AcDbLine
 10
-223.371485035641
 20
24.72293070968135
 30
0.0
 11
-223.371485035641
 21
-195.2770692903186
 31
0.0
  0
LINE
  5
E9
330
70
100
AcDbEntity
  8
DETAIL
 48
0.2
100
AcDbLine
 10
-223.0714850356417
 20
-114.2270692903303
 30
0.0
 11
-223.0714850356417
 21
-113.7770692903332
 31
0.0
  0
LINE
  5
EA
330
70
100
AcDbEntity
  8
DETAIL
 48
0.2
100
AcDbLine
 10
-223.0714850356417
 20
-110.7770692903186
 30
0.0
 11
-223.0714850356417
 21
-103.1770692903128
 31
0.0
  0
LINE
  5
EB
330
70
100
AcDbEntity
  8
DETAIL
 48
0.2
100
AcDbLine
 10
-222.8714850356409
 20
88.92293070967843
 30
0.0
 11
-222.8714850356409
 21
82.12293070967552
 31
0.0
  0
LINE
  5
EC
330
70
100
AcDbEntity
  8
DETAIL
 48
0.2
100
AcDbLine
 10
-222.8714850356409
 20
82.12293070967552
 30
0.0
 11
-222.8714850356409
 21
38.52293070968426
 31
0.0
  0
LINE
  5
ED
330
70
100
AcDbEntity
  8
DETAIL
 48
0.2
100
AcDbLine
 10
-222.8714850356409
 20
38.52293070968426
 30
0.0
 11
-222.8714850356409
 21
-271.1770692903274
 31
0.0
  0
LINE
  5
EE
330
70
100
AcDbEntity
  8
DETAIL
 48
0.2
100
AcDbLine
 10
-222.3714850356409
 20
116.8229307096871
 30
0.0
 11
-222.3714850356409
 21
115.3229307096726
 31
0.0
  0
LINE
  5
EF
330
70
100
AcDbEntity
  8
DETAIL
 48
0.2
100
AcDbLine
 10
-216.8714850356409
 20
116.8229307096871
 30
0.0
 11
-216.8714850356409
 21
116.0229307096842
 31
0.0
  0
LINE
  5
F0
330
70
100
AcDbEntity
  8
DETAIL
 48
0.2
100
AcDbLine
 10
-215.1714850356402
 20
116.8229307096871
 30
0.0
 11
-215.1714850356402
 21
117.6229307096755
 31
0.0
  0
LINE
  5
F1
330
70
100
AcDbEntity
  8
DETAIL
 48
0.2
100
AcDbLine
 10
-213.8714850356409
 20
116.8229307096871
 30
0.0
 11
-213.8714850356409
 21
116.0229307096842
 31
0.0
  0
LINE
  5
F2
330
70
100
AcDbEntity
  8
DETAIL
 48
0.2
100
AcDbLine
 10
-210.1714850356402
 20
116.8229307096871
 30
0.0
 11
-210.1714850356402
 21
117.6229307096755
 31
0.0
  0
LINE
  5
F3
330
70
100
AcDbEntity
  8
DETAIL
 48
0.2
100
AcDbLine
 10
-205.2714850356406
 20
3.723929546681574
 30
0.0
 11
-205.2714850356406
 21
-93.37806812632061
 31
0.0
  0
LINE
  5
F4
330
70
100
AcDbEntity
  8
DETAIL
 48
0.2
100
AcDbLine
 10
-202.871485035641
 20
43.52293070968426
 30
0.0
 11
-202.871485035641
 21
50.02079438667988
 31
0.0
  0
LINE
  5
F5
330
70
100
AcDbEntity
  8
DETAIL
 48
0.2
100
AcDbLine
 10
-236.6714850356402
 20
-100.7770692903186
 30
0.0
 11
-233.6714850356402
 21
-97.77706929031865
 31
0.0
  0
LINE
  5
F6
330
70
100
AcDbEntity
  8
DETAIL
 48
0.2
100
AcDbLine
 10
-234.6714850356402
 20
-102.3770692903244
 30
0.0
 11
-237.6714850356402
 21
-105.3770692903244
 31
0.0
  0
LINE
  5
F7
330
70
100
AcDbEntity
  8
DETAIL
 48
0.2
100
AcDbLine
 10
8.7285149643576
 20
3.724043902674566
 30
0.0
 11
8.7285149643576
 21
-93.37818248232816
 31
0.0
  0
LINE
  5
F8
330
70
100
AcDbEntity
  8
DETAIL
 48
0.2
100
AcDbLine
 10
-221.0714850356417
 20
-269.3770692903245
 30
0.0
 11
-224.0714850356417
 21
-272.3770692903245
 31
0.0
  0
LINE
  5
F9
330
70
100
AcDbEntity
  8
DETAIL
 48
0.2
100
AcDbLine
 10
-229.5714850356417
 20
117.6229307096755
 30
0.0
 11
-210.1714850356402
 21
117.6229307096755
 31
0.0
  0
LINE
  5
FA
330
70
100
AcDbEntity
  8
DETAIL
 48
0.2
100
AcDbLine
 10
-230.3714850356409
 20
116.8229307096871
 30
0.0
 11
-222.3714850356409
 21
116.8229307096871
 31
0.0
  0
LINE
  5
FB
330
70
100
AcDbEntity
  8
DETAIL
 48
0.2
100
AcDbLine
 10
-222.3714850356409
 20
116.8229307096871
 30
0.0
 11
-210.1714850356402
 21
116.8229307096871
 31
0.0
  0
LINE
  5
FC
330
70
100
AcDbEntity
  8
DETAIL
 48
0.2
100
AcDbLine
 10
-210.1714850356402
 20
116.0229307096842
 30
0.0
 11
-216.8714850356409
 21
116.0229307096842
 31
0.0
  0
LINE
  5
FD
330
70
100
AcDbEntity
  8
DETAIL
 48
0.2
100
AcDbLine
 10
-230.3714850356409
 20
116.0229307096842
 30
0.0
 11
-235.3714850356409
 21
116.0229307096842
 31
0.0
  0
LINE
  5
FE
330
70
100
AcDbEntity
  8
DETAIL
 48
0.2
100
AcDbLine
 10
-224.2714850356424
 20
115.3229307096726
 30
0.0
 11
719.7285149643594
 21
115.3229307096726
 31
0.0
  0
LINE
  5
FF
330
70
100
AcDbEntity
  8
DETAIL
 48
0.2
100
AcDbLine
 10
-241.1714850356402
 20
111.0229307096842
 30
0.0
 11
-236.6714850356402
 21
111.0229307096842
 31
0.0
  0
LINE
  5
100
330
70
100
AcDbEntity
  8
DETAIL
 48
0.2
100
AcDbLine
 10
-224.8714850356409
 20
101.7229307096813
 30
0.0
 11
-225.4714850356413
 21
101.7229307096813
 31
0.0
  0
LINE
  5
101
330
70
100
AcDbEntity
  8
DETAIL
 48
0.2
100
AcDbLine
 10
-224.8714850356409
 20
98.7229307096668
 30
0.0
 11
-225.4714850356413
 21
98.7229307096668
 31
0.0
  0
LINE
  5
102
330
70
100
AcDbEntity
  8
DETAIL
 48
0.2
100
AcDbLine
 10
-269.6714850356402
 20
95.32293070967261
 30
0.0
 11
-272.8714850356409
 21
95.32293070967261
 31
0.0
  0
LINE
  5
103
330
70
100
AcDbEntity
  8
DETAIL
 48
0.2
100
AcDbLine
 10
765.128514964359
 20
95.32293070967261
 30
0.0
 11
768.3285149643597
 21
95.32293070967261
 31
0.0
  0
LINE
  5
104
330
70
100
AcDbEntity
  8
DETAIL
 48
0.2
100
AcDbLine
 10
720.3285149643598
 20
90.32293070967261
 30
0.0
 11
720.9285149643583
 21
90.32293070967261
 31
0.0
  0
LINE
  5
105
330
70
100
AcDbEntity
  8
DETAIL
 48
0.2
100
AcDbLine
 10
761.9285149643583
 20
88.52293070968427
 30
0.0
 11
724.7285149643594
 21
88.52293070968427
 31
0.0
  0
LINE
  5
106
330
70
100
AcDbEntity
  8
DETAIL
 48
0.2
100
AcDbLine
 10
-266.4714850356395
 20
88.52293070968427
 30
0.0
 11
-229.2714850356424
 21
88.52293070968427
 31
0.0
  0
LINE
  5
107
330
70
100
AcDbEntity
  8
DETAIL
 48
0.2
100
AcDbLine
 10
-221.2714850356406
 20
87.32293070967262
 30
0.0
 11
716.7285149643576
 21
87.32293070967262
 31
0.0
  0
LINE
  5
108
330
70
100
AcDbEntity
  8
DETAIL
 48
0.2
100
AcDbLine
 10
720.3285149643598
 20
87.32293070967262
 30
0.0
 11
720.9285149643583
 21
87.32293070967262
 31
0.0
  0
LINE
  5
109
330
70
100
AcDbEntity
  8
DETAIL
 48
0.2
100
AcDbLine
 10
718.3285149643597
 20
86.82293070968716
 30
0.0
 11
719.4285149643583
 21
86.82293070968716
 31
0.0
  0
LINE
  5
10A
330
70
100
AcDbEntity
  8
DETAIL
 48
0.2
100
AcDbLine
 10
761.9285149643583
 20
85.32293070967261
 30
0.0
 11
724.7285149643594
 21
85.32293070967261
 31
0.0
  0
LINE
  5
10B
330
70
100
AcDbEntity
  8
DETAIL
 48
0.2
100
AcDbLine
 10
-266.4714850356395
 20
85.32293070967261
 30
0.0
 11
-229.2714850356424
 21
85.32293070967261
 31
0.0
  0
LINE
  5
10C
330
70
100
AcDbEntity
  8
DETAIL
 48
0.2
100
AcDbLine
 10
-226.5714850356417
 20
79.42293070966389
 30
0.0
 11
-226.0714850356417
 21
79.42293070966389
 31
0.0
  0
LINE
  5
10D
330
70
100
AcDbEntity
  8
DETAIL
 48
0.2
100
AcDbLine
 10
-269.6714850356402
 20
78.52293070968426
 30
0.0
 11
-272.8714850356409
 21
78.52293070968426
 31
0.0
  0
LINE
  5
10E
330
70
100
AcDbEntity
  8
DETAIL
 48
0.2
100
AcDbLine
 10
765.128514964359
 20
78.52293070968426
 30
0.0
 11
768.3285149643597
 21
78.52293070968426
 31
0.0
  0
LINE
  5
10F
330
70
100
AcDbEntity
  8
DETAIL
 48
0.2
100
AcDbLine
 10
-226.5714850356417
 20
67.62293070967553
 30
0.0
 11
-226.0714850356417
 21
67.62293070967553
 31
0.0
  0
LINE
  5
110
330
70
100
AcDbEntity
  8
DETAIL
 48
0.2
100
AcDbLine
 10
-220.252359923641
 20
59.52293070966971
 30
0.0
 11
-220.7850379086413
 21
59.52293070966971
 31
0.0
  0
LINE
  5
111
330
70
100
AcDbEntity
  8
DETAIL
 48
0.2
100
AcDbLine
 10
715.7093898523599
 20
59.52293070966971
 30
0.0
 11
716.24206783736
 21
59.52293070966971
 31
0.0
  0
LINE
  5
112
330
70
100
AcDbEntity
  8
DETAIL
 48
0.2
100
AcDbLine
 10
-241.1714850356402
 20
49.17293070966389
 30
0.0
 11
-338.0714850356417
 21
49.17293070966389
 31
0.0
  0
LINE
  5
113
330
70
100
AcDbEntity
  8
DETAIL
 48
0.2
100
AcDbLine
 10
-339.2714850356424
 20
47.97293070968135
 30
0.0
 11
-338.0714850356417
 21
47.97293070968135
 31
0.0
  0
LINE
  5
114
330
70
100
AcDbEntity
  8
DETAIL
 48
0.2
100
AcDbLine
 10
721.5285149643587
 20
38.52293070968426
 30
0.0
 11
718.3285149643597
 21
38.52293070968426
 31
0.0
  0
LINE
  5
115
330
70
100
AcDbEntity
  8
DETAIL
 48
0.2
100
AcDbLine
 10
-226.0714850356417
 20
38.52293070968426
 30
0.0
 11
-222.8714850356409
 21
38.52293070968426
 31
0.0
  0
LINE
  5
116
330
70
100
AcDbEntity
  8
DETAIL
 48
0.2
100
AcDbLine
 10
-222.8714850356409
 20
38.52293070968426
 30
0.0
 11
-207.8714850356409
 21
38.52293070968426
 31
0.0
  0
LINE
  5
117
330
70
100
AcDbEntity
  8
DETAIL
 48
0.2
100
AcDbLine
 10
703.3285149643598
 20
38.52293070968426
 30
0.0
 11
718.3285149643597
 21
38.52293070968426
 31
0.0
  0
LINE
  5
118
330
70
100
AcDbEntity
  8
DETAIL
 48
0.2
100
AcDbLine
 10
-223.9714850356395
 20
24.72293070968135
 30
0.0
 11
-223.371485035641
 21
24.72293070968135
 31
0.0
  0
LINE
  5
119
330
70
100
AcDbEntity
  8
DETAIL
 48
0.2
100
AcDbLine
 10
719.4285149643583
 20
15.17293070967844
 30
0.0
 11
718.8285149643597
 21
15.17293070967844
 31
0.0
  0
LINE
  5
11A
330
70
100
AcDbEntity
  8
DETAIL
 48
0.2
100
AcDbLine
 10
719.5285149643587
 20
-272.3770692903245
 30
0.0
 11
716.5285149643587
 21
-269.3770692903245
 31
0.0
  0
LINE
  5
11B
330
70
100
AcDbEntity
  8
DETAIL
 48
0.2
100
AcDbLine
 10
-223.9714850356395
 20
-25.27706929031865
 30
0.0
 11
-223.371485035641
 21
-25.27706929031865
 31
0.0
  0
LINE
  5
11C
330
70
100
AcDbEntity
  8
DETAIL
 48
0.2
100
AcDbLine
 10
701.6197996493592
 20
54.71976150468527
 30
0.0
 11
714.0006745373575
 21
59.22189782767509
 31
0.0
  0
LINE
  5
11D
330
70
100
AcDbEntity
  8
DETAIL
 48
0.2
100
AcDbLine
 10
-230.3714850356409
 20
-100.7770692903186
 30
0.0
 11
-236.6714850356402
 21
-100.7770692903186
 31
0.0
  0
LINE
  5
11E
330
70
100
AcDbEntity
  8
DETAIL
 48
0.2
100
AcDbLine
 10
-241.1714850356402
 20
-100.7770692903186
 30
0.0
 11
-236.6714850356402
 21
-100.7770692903186
 31
0.0
  0
LINE
  5
11F
330
70
100
AcDbEntity
  8
DETAIL
 48
0.2
100
AcDbLine
 10
-231.9714850356413
 20
-101.5770692903215
 30
0.0
 11
-240.371485035641
 21
-101.5770692903215
 31
0.0
  0
LINE
  5
120
330
70
100
AcDbEntity
  8
DETAIL
 48
0.2
100
AcDbLine
 10
-227.2714850356424
 20
-102.3770692903244
 30
0.0
 11
-240.371485035641
 21
-102.3770692903244
 31
0.0
  0
LINE
  5
121
330
70
100
AcDbEntity
  8
DETAIL
 48
0.2
100
AcDbLine
 10
-240.371485035641
 20
-103.1770692903128
 30
0.0
 11
-235.4714850356413
 21
-103.1770692903128
 31
0.0
  0
LINE
  5
122
330
70
100
AcDbEntity
  8
DETAIL
 48
0.2
100
AcDbLine
 10
-230.3714850356409
 20
-103.1770692903128
 30
0.0
 11
-223.9714850356395
 21
-103.1770692903128
 31
0.0
  0
LINE
  5
123
330
70
100
AcDbEntity
  8
DETAIL
 48
0.2
100
AcDbLine
 10
-223.371485035641
 20
-103.1770692903128
 30
0.0
 11
-222.8714850356409
 21
-103.1770692903128
 31
0.0
  0
LINE
  5
124
330
70
100
AcDbEntity
  8
DETAIL
 48
0.2
100
AcDbLine
 10
719.4285149643583
 20
-104.8270692903215
 30
0.0
 11
718.8285149643597
 21
-104.8270692903215
 31
0.0
  0
LINE
  5
125
330
70
100
AcDbEntity
  8
DETAIL
 48
0.2
100
AcDbLine
 10
-225.6714850356402
 20
-110.7770692903186
 30
0.0
 11
-223.9714850356395
 21
-110.7770692903186
 31
0.0
  0
LINE
  5
126
330
70
100
AcDbEntity
  8
DETAIL
 48
0.2
100
AcDbLine
 10
-223.371485035641
 20
-110.7770692903186
 30
0.0
 11
-222.8714850356409
 21
-110.7770692903186
 31
0.0
  0
LINE
  5
127
330
70
100
AcDbEntity
  8
DETAIL
 48
0.2
100
AcDbLine
 10
-225.6714850356402
 20
-113.7770692903332
 30
0.0
 11
-223.9714850356395
 21
-113.7770692903332
 31
0.0
  0
LINE
  5
128
330
70
100
AcDbEntity
  8
DETAIL
 48
0.2
100
AcDbLine
 10
-223.371485035641
 20
-113.7770692903332
 30
0.0
 11
-222.8714850356409
 21
-113.7770692903332
 31
0.0
  0
LINE
  5
129
330
70
100
AcDbEntity
  8
DETAIL
 48
0.2
100
AcDbLine
 10
-206.1627697206404
 20
54.71976150468527
 30
0.0
 11
-218.5436446086423
 21
59.22189782767509
 31
0.0
  0
LINE
  5
12A
330
70
100
AcDbEntity
  8
DETAIL
 48
0.2
100
AcDbLine
 10
-223.9714850356395
 20
-145.2770692903186
 30
0.0
 11
-223.371485035641
 21
-145.2770692903186
 31
0.0
  0
LINE
  5
12B
330
70
100
AcDbEntity
  8
DETAIL
 48
0.2
100
AcDbLine
 10
719.4285149643583
 20
-154.8270692903215
 30
0.0
 11
718.8285149643597
 21
-154.8270692903215
 31
0.0
  0
LINE
  5
12C
330
70
100
AcDbEntity
  8
DETAIL
 48
0.2
100
AcDbLine
 10
718.8285149643597
 20
-162.3269622653215
 30
0.0
 11
719.4285149643583
 21
-162.3269622653215
 31
0.0
  0
LINE
  5
12D
330
70
100
AcDbEntity
  8
DETAIL
 48
0.2
100
AcDbLine
 10
-223.9714850356395
 20
-195.2770692903186
 30
0.0
 11
-223.371485035641
 21
-195.2770692903186
 31
0.0
  0
LINE
  5
12E
330
70
100
AcDbEntity
  8
DETAIL
 48
0.2
100
AcDbLine
 10
-224.8714850356409
 20
-211.2270692903158
 30
0.0
 11
-225.6714850356402
 21
-211.2270692903158
 31
0.0
  0
LINE
  5
12F
330
70
100
AcDbEntity
  8
DETAIL
 48
0.2
100
AcDbLine
 10
-339.2714850356424
 20
-211.2270692903158
 30
0.0
 11
-338.0714850356417
 21
-211.2270692903158
 31
0.0
  0
LINE
  5
130
330
70
100
AcDbEntity
  8
DETAIL
 48
0.2
100
AcDbLine
 10
-338.0714850356417
 20
-212.4270692903274
 30
0.0
 11
-237.6714850356402
 21
-212.4270692903274
 31
0.0
  0
LINE
  5
131
330
70
100
AcDbEntity
  8
DETAIL
 48
0.2
100
AcDbLine
 10
-225.6714850356402
 20
-258.2770692903186
 30
0.0
 11
-222.8714850356409
 21
-258.2770692903186
 31
0.0
  0
LINE
  5
132
330
70
100
AcDbEntity
  8
DETAIL
 48
0.2
100
AcDbLine
 10
-225.6714850356402
 20
-261.2770692903332
 30
0.0
 11
-222.8714850356409
 21
-261.2770692903332
 31
0.0
  0
LINE
  5
133
330
70
100
AcDbEntity
  8
DETAIL
 48
0.2
100
AcDbLine
 10
719.4285149643583
 20
-265.5770692903361
 30
0.0
 11
718.8285149643597
 21
-265.5770692903361
 31
0.0
  0
LINE
  5
134
330
70
100
AcDbEntity
  8
DETAIL
 48
0.2
100
AcDbLine
 10
718.3285149643597
 20
-268.5770692903215
 30
0.0
 11
719.4285149643583
 21
-268.5770692903215
 31
0.0
  0
LINE
  5
135
330
70
100
AcDbEntity
  8
DETAIL
 48
0.2
100
AcDbLine
 10
716.5285149643587
 20
-269.3770692903245
 30
0.0
 11
-221.0714850356417
 21
-269.3770692903245
 31
0.0
  0
LINE
  5
136
330
70
100
AcDbEntity
  8
DETAIL
 48
0.2
100
AcDbLine
 10
-224.8714850356409
 20
-269.3770692903245
 30
0.0
 11
-225.6714850356402
 21
-269.3770692903245
 31
0.0
  0
LINE
  5
137
330
70
100
AcDbEntity
  8
DETAIL
 48
0.2
100
AcDbLine
 10
720.3285149643598
 20
-269.3770692903245
 30
0.0
 11
721.1285149643591
 21
-269.3770692903245
 31
0.0
  0
LINE
  5
138
330
70
100
AcDbEntity
  8
DETAIL
 48
0.2
100
AcDbLine
 10
-224.8714850356409
 20
-272.3770692903245
 30
0.0
 11
-225.6714850356402
 21
-272.3770692903245
 31
0.0
  0
LINE
  5
139
330
70
100
AcDbEntity
  8
DETAIL
 48
0.2
100
AcDbLine
 10
720.3285149643598
 20
-272.3770692903245
 30
0.0
 11
721.1285149643591
 21
-272.3770692903245
 31
0.0
  0
LINE
  5
13A
330
70
100
AcDbEntity
  8
DETAIL
 48
0.2
100
AcDbLine
 10
-222.8714850356409
 20
-269.5770692903361
 30
0.0
 11
-222.906389848642
 21
-269.5764600243174
 31
0.0
  0
LINE
  5
13B
330
70
100
AcDbEntity
  8
DETAIL
 48
0.2
100
AcDbLine
 10
716.7285149643576
 20
87.32293070967262
 30
0.0
 11
719.7285149643594
 21
90.32293070967261
 31
0.0
  0
LINE
  5
13C
330
70
100
AcDbEntity
  8
DETAIL
 48
0.2
100
AcDbLine
 10
-225.6714850356402
 20
-287.9770692903303
 30
0.0
 11
-234.6714850356402
 21
-287.9770692903303
 31
0.0
  0
LINE
  5
13D
330
70
100
AcDbEntity
  8
DETAIL
 48
0.2
100
AcDbLine
 10
-237.6714850356402
 20
-288.7770692903332
 30
0.0
 11
-227.2714850356424
 21
-288.7770692903332
 31
0.0
  0
LINE
  5
13E
330
70
100
AcDbEntity
  8
DETAIL
 48
0.2
100
AcDbLine
 10
-227.2714850356424
 20
-289.5770692903361
 30
0.0
 11
-237.6714850356402
 21
-289.5770692903361
 31
0.0
  0
LINE
  5
13F
330
70
100
AcDbEntity
  8
DETAIL
 48
0.2
100
AcDbLine
 10
486.7285149643576
 20
3.723929546681574
 30
0.0
 11
486.7285149643576
 21
-93.37806812632061
 31
0.0
  0
LINE
  5
140
330
70
100
AcDbEntity
  8
DETAIL
 48
0.2
100
AcDbLine
 10
719.5285149643587
 20
-343.3770692903245
 30
0.0
 11
-224.0714850356417
 21
-343.3770692903245
 31
0.0
  0
LINE
  5
141
330
70
100
AcDbEntity
  8
DETAIL
 48
0.2
100
AcDbLine
 10
-233.6714850356402
 20
108.0229307096697
 30
0.0
 11
-236.6714850356402
 21
111.0229307096842
 31
0.0
  0
LINE
  5
142
330
70
100
AcDbEntity
  8
DETAIL
 48
0.2
100
AcDbLine
 10
-224.2714850356424
 20
90.32293070967261
 30
0.0
 11
-221.2714850356406
 21
87.32293070967262
 31
0.0
  0
LINE
  5
143
330
70
100
AcDbEntity
  8
DETAIL
 48
0.2
100
AcDbLine
 10
-223.0714850356417
 20
-114.2270692903303
 30
0.0
 11
-222.8714850356409
 21
-114.4270692903128
 31
0.0
  0
LINE
  5
144
330
70
100
AcDbEntity
  8
DETAIL
 48
0.2
100
AcDbLine
 10
698.3285149643598
 20
43.52293070968426
 30
0.0
 11
698.3285149643598
 21
50.02079438667988
 31
0.0
  0
LINE
  5
145
330
70
100
AcDbEntity
  8
DETAIL
 48
0.2
100
AcDbLine
 10
700.7285149643576
 20
3.724043902674566
 30
0.0
 11
700.7285149643576
 21
-93.37818248232816
 31
0.0
  0
LINE
  5
146
330
70
100
AcDbEntity
  8
DETAIL
 48
0.2
100
AcDbLine
 10
718.3285149643597
 20
88.92293070967843
 30
0.0
 11
718.3285149643597
 21
82.12293070967552
 31
0.0
  0
LINE
  5
147
330
70
100
AcDbEntity
  8
DETAIL
 48
0.2
100
AcDbLine
 10
718.3285149643597
 20
82.12293070967552
 30
0.0
 11
718.3285149643597
 21
38.52293070968426
 31
0.0
  0
LINE
  5
148
330
70
100
AcDbEntity
  8
DETAIL
 48
0.2
100
AcDbLine
 10
718.3285149643597
 20
38.52293070968426
 30
0.0
 11
718.3285149643597
 21
-271.1770692903274
 31
0.0
  0
LINE
  5
149
330
70
100
AcDbEntity
  8
DETAIL
 48
0.2
100
AcDbLine
 10
718.8285149643597
 20
84.59920455167139
 30
0.0
 11
718.8285149643597
 21
86.82293070968716
 31
0.0
  0
LINE
  5
14A
330
70
100
AcDbEntity
  8
DETAIL
 48
0.2
100
AcDbLine
 10
718.8285149643597
 20
38.52293070968426
 30
0.0
 11
718.8285149643597
 21
-268.5770692903215
 31
0.0
  0
LINE
  5
14B
330
70
100
AcDbEntity
  8
DETAIL
 48
0.2
100
AcDbLine
 10
719.4285149643583
 20
86.82293070968716
 30
0.0
 11
719.4285149643583
 21
85.70742089367831
 31
0.0
  0
LINE
  5
14C
330
70
100
AcDbEntity
  8
DETAIL
 48
0.2
100
AcDbLine
 10
719.4285149643583
 20
38.52293070968426
 30
0.0
 11
719.4285149643583
 21
-154.8270692903215
 31
0.0
  0
LINE
  5
14D
330
70
100
AcDbEntity
  8
DETAIL
 48
0.2
100
AcDbLine
 10
719.4285149643583
 20
-154.8270692903215
 30
0.0
 11
719.4285149643583
 21
-268.5770692903215
 31
0.0
  0
LINE
  5
14E
330
70
100
AcDbEntity
  8
DETAIL
 48
0.2
100
AcDbLine
 10
719.5285149643587
 20
-272.3770692903245
 30
0.0
 11
719.5285149643587
 21
-343.3770692903245
 31
0.0
  0
LINE
  5
14F
330
70
100
AcDbEntity
  8
DETAIL
 48
0.2
100
AcDbLine
 10
719.7285149643594
 20
115.3229307096726
 30
0.0
 11
719.7285149643594
 21
90.32293070967261
 31
0.0
  0
LINE
  5
150
330
70
100
AcDbEntity
  8
DETAIL
 48
0.2
100
AcDbLine
 10
720.3285149643598
 20
-341.7770692903186
 30
0.0
 11
720.3285149643598
 21
-269.3770692903245
 31
0.0
  0
LINE
  5
151
330
70
100
AcDbEntity
  8
DETAIL
 48
0.2
100
AcDbLine
 10
720.3285149643598
 20
114.1229307096755
 30
0.0
 11
720.3285149643598
 21
87.32293070967262
 31
0.0
  0
LINE
  5
152
330
70
100
AcDbEntity
  8
DETAIL
 48
0.2
100
AcDbLine
 10
720.9285149643583
 20
114.1229307096755
 30
0.0
 11
720.9285149643583
 21
87.32293070967262
 31
0.0
  0
LINE
  5
153
330
70
100
AcDbEntity
  8
DETAIL
 48
0.2
100
AcDbLine
 10
721.1285149643591
 20
-269.3770692903245
 30
0.0
 11
721.1285149643591
 21
-341.7770692903186
 31
0.0
  0
LINE
  5
154
330
70
100
AcDbEntity
  8
DETAIL
 48
0.2
100
AcDbLine
 10
721.5285149643587
 20
38.52293070968426
 30
0.0
 11
721.5285149643587
 21
82.12293070967552
 31
0.0
  0
LINE
  5
155
330
70
100
AcDbEntity
  8
DETAIL
 48
0.2
100
AcDbLine
 10
765.128514964359
 20
95.32293070967261
 30
0.0
 11
765.128514964359
 21
91.72293070968136
 31
0.0
  0
LINE
  5
156
330
70
100
AcDbEntity
  8
DETAIL
 48
0.2
100
AcDbLine
 10
765.128514964359
 20
82.12293070967552
 30
0.0
 11
765.128514964359
 21
78.52293070968426
 31
0.0
  0
LINE
  5
157
330
70
100
AcDbEntity
  8
DETAIL
 48
0.2
100
AcDbLine
 10
768.3285149643597
 20
95.32293070967261
 30
0.0
 11
768.3285149643597
 21
91.72293070968136
 31
0.0
  0
LINE
  5
158
330
70
100
AcDbEntity
  8
DETAIL
 48
0.2
100
AcDbLine
 10
768.3285149643597
 20
82.12293070967552
 30
0.0
 11
768.3285149643597
 21
78.52293070968426
 31
0.0
  0
LINE
  5
159
330
70
100
AcDbEntity
  8
DETAIL
 48
0.2
100
AcDbLine
 10
-237.6714850356402
 20
-284.9770692903157
 30
0.0
 11
-234.6714850356402
 21
-287.9770692903303
 31
0.0
  0
ARC
  5
15A
330
70
100
AcDbEntity
  8
DETAIL
 48
0.2
100
AcDbCircle
 10
-266.4714850356395
 20
91.72293070968136
 30
0.0
 40
6.4
100
AcDbArc
 50
180.0
 51
228.6564551520679
  0
ARC
  5
15B
330
70
100
AcDbEntity
  8
DETAIL
 48
0.2
100
AcDbCircle
 10
-266.4714850356395
 20
82.12293070967552
 30
0.0
 40
6.4
100
AcDbArc
 50
90.0
 51
180.0
  0
ARC
  5
15C
330
70
100
AcDbEntity
  8
DETAIL
 48
0.2
100
AcDbCircle
 10
-266.4714850356395
 20
82.12293070967552
 30
0.0
 40
3.2
100
AcDbArc
 50
90.0
 51
180.0
  0
ARC
  5
15D
330
70
100
AcDbEntity
  8
DETAIL
 48
0.2
100
AcDbCircle
 10
-266.4714850356395
 20
91.72293070968136
 30
0.0
 40
3.2
100
AcDbArc
 50
180.0
 51
270.0
  0
ARC
  5
15E
330
70
100
AcDbEntity
  8
DETAIL
 48
0.2
100
AcDbCircle
 10
-221.1772542666404
 20
73.52293070968426
 30
0.0
 40
7.994230769
100
AcDbArc
 50
132.4359391536412
 51
227.5640608463588
  0
ARC
  5
15F
330
70
100
AcDbEntity
  8
DETAIL
 48
0.2
100
AcDbCircle
 10
-229.2714850356424
 20
82.12293070967552
 30
0.0
 40
6.4
100
AcDbArc
 50
0.0
 51
90.0
  0
ARC
  5
160
330
70
100
AcDbEntity
  8
DETAIL
 48
0.2
100
AcDbCircle
 10
-229.2714850356424
 20
82.12293070967552
 30
0.0
 40
3.2
100
AcDbArc
 50
0.0
 51
90.0
  0
ARC
  5
161
330
70
100
AcDbEntity
  8
DETAIL
 48
0.2
100
AcDbCircle
 10
-229.5714850356417
 20
116.0229307096842
 30
0.0
 40
1.6
100
AcDbArc
 50
90.0
 51
180.0
  0
ARC
  5
162
330
70
100
AcDbEntity
  8
DETAIL
 48
0.2
100
AcDbCircle
 10
-224.2714850356424
 20
114.1229307096755
 30
0.0
 40
1.199999999999999
100
AcDbArc
 50
90.0
 51
180.0
  0
ARC
  5
163
330
70
100
AcDbEntity
  8
DETAIL
 48
0.2
100
AcDbCircle
 10
-210.1714850356402
 20
116.8229307096871
 30
0.0
 40
0.8
100
AcDbArc
 50
270.0
 51
90.0
  0
ARC
  5
164
330
70
100
AcDbEntity
  8
DETAIL
 48
0.2
100
AcDbCircle
 10
-224.2714850356424
 20
114.1229307096755
 30
0.0
 40
0.6
100
AcDbArc
 50
90.0
 51
180.0
  0
ARC
  5
165
330
70
100
AcDbEntity
  8
DETAIL
 48
0.2
100
AcDbCircle
 10
-337.2714850356424
 20
47.17293070967843
 30
0.0
 40
1.4
100
AcDbArc
 50
124.876778840073
 51
145.1232211600721
  0
ARC
  5
166
330
70
100
AcDbEntity
  8
DETAIL
 48
0.2
100
AcDbCircle
 10
-207.8714850356409
 20
50.02079438667988
 30
0.0
 40
5.0
100
AcDbArc
 50
0.0
 51
70.01689347808221
  0
ARC
  5
167
330
70
100
AcDbEntity
  8
DETAIL
 48
0.2
100
AcDbCircle
 10
-220.252359923641
 20
54.52293070966971
 30
0.0
 40
5.0
100
AcDbArc
 50
70.01689347808221
 51
89.99999999989578
  0
ARC
  5
168
330
70
100
AcDbEntity
  8
DETAIL
 48
0.2
100
AcDbCircle
 10
-207.8714850356409
 20
43.52293070968426
 30
0.0
 40
5.0
100
AcDbArc
 50
270.0
 51
0.0
  0
ARC
  5
169
330
70
100
AcDbEntity
  8
DETAIL
 48
0.2
100
AcDbCircle
 10
-98.27148503764147
 20
-44.82712064031966
 30
0.0
 40
117.499944326
100
AcDbArc
 50
24.40613347159864
 51
155.5939173063586
  0
ARC
  5
16A
330
70
100
AcDbEntity
  8
DETAIL
 48
0.2
100
AcDbCircle
 10
-98.27148503764147
 20
-44.82701793933393
 30
0.0
 40
117.499944326
100
AcDbArc
 50
204.4060826936414
 51
335.5938665284014
  0
CIRCLE
  5
16B
330
70
100
AcDbEntity
  8
DETAIL
 48
0.2
100
AcDbCircle
 10
-98.2714850356424
 20
-44.82706929032156
 30
0.0
 40
104.0
  0
CIRCLE
  5
16C
330
70
100
AcDbEntity
  8
DETAIL
 48
0.2
100
AcDbCircle
 10
-98.2714850356424
 20
-44.82706929032156
 30
0.0
 40
96.0
  0
CIRCLE
  5
16D
330
70
100
AcDbEntity
  8
DETAIL
 48
0.2
100
AcDbCircle
 10
-98.2714850356424
 20
-44.82706929032156
 30
0.0
 40
93.8
  0
ARC
  5
16E
330
70
100
AcDbEntity
  8
DETAIL
 48
0.2
100
AcDbCircle
 10
-220.2489850356414
 20
-123.6270692903244
 30
0.0
 40
6.522499999999999
100
AcDbArc
 50
135.2045870518028
 51
146.4170913715131
  0
ARC
  5
16F
330
70
100
AcDbEntity
  8
DETAIL
 48
0.2
100
AcDbCircle
 10
-220.2489850356414
 20
-123.6270692903244
 30
0.0
 40
6.522499999999999
100
AcDbArc
 50
213.5829086284868
 51
224.7954129481972
  0
ARC
  5
170
330
70
100
AcDbEntity
  8
DETAIL
 48
0.2
100
AcDbCircle
 10
-231.9714850356413
 20
-100.7770692903186
 30
0.0
 40
1.6
100
AcDbArc
 50
270.0
 51
0.0
  0
ARC
  5
171
330
70
100
AcDbEntity
  8
DETAIL
 48
0.2
100
AcDbCircle
 10
-231.9714850356413
 20
-100.7770692903186
 30
0.0
 40
0.8
100
AcDbArc
 50
270.0
 51
0.0
  0
ARC
  5
172
330
70
100
AcDbEntity
  8
DETAIL
 48
0.2
100
AcDbCircle
 10
-240.371485035641
 20
-102.3770692903244
 30
0.0
 40
0.8
100
AcDbArc
 50
90.0
 51
270.0
  0
ARC
  5
173
330
70
100
AcDbEntity
  8
DETAIL
 48
0.2
100
AcDbCircle
 10
761.9285149643583
 20
91.72293070968136
 30
0.0
 40
6.4
100
AcDbArc
 50
311.3435448479322
 51
0.0
  0
ARC
  5
174
330
70
100
AcDbEntity
  8
DETAIL
 48
0.2
100
AcDbCircle
 10
761.9285149643583
 20
82.12293070967552
 30
0.0
 40
6.4
100
AcDbArc
 50
0.0
 51
90.0
  0
ARC
  5
175
330
70
100
AcDbEntity
  8
DETAIL
 48
0.2
100
AcDbCircle
 10
724.7285149643594
 20
82.12293070967552
 30
0.0
 40
6.4
100
AcDbArc
 50
90.0
 51
180.0
  0
ARC
  5
176
330
70
100
AcDbEntity
  8
DETAIL
 48
0.2
100
AcDbCircle
 10
715.7093898523599
 20
54.52293070966971
 30
0.0
 40
5.0
100
AcDbArc
 50
90.0
 51
109.9831065219178
  0
ARC
  5
177
330
70
100
AcDbEntity
  8
DETAIL
 48
0.2
100
AcDbCircle
 10
703.3285149643598
 20
50.02079438667988
 30
0.0
 40
5.0
100
AcDbArc
 50
109.9831065219178
 51
180.0
  0
ARC
  5
178
330
70
100
AcDbEntity
  8
DETAIL
 48
0.2
100
AcDbCircle
 10
703.3285149643598
 20
43.52293070968426
 30
0.0
 40
5.0
100
AcDbArc
 50
180.0
 51
270.0
  0
ARC
  5
179
330
70
100
AcDbEntity
  8
DETAIL
 48
0.2
100
AcDbCircle
 10
761.9285149643583
 20
82.12293070967552
 30
0.0
 40
3.2
100
AcDbArc
 50
0.0
 51
90.0
  0
ARC
  5
17A
330
70
100
AcDbEntity
  8
DETAIL
 48
0.2
100
AcDbCircle
 10
724.7285149643594
 20
82.12293070967552
 30
0.0
 40
3.2
100
AcDbArc
 50
90.0
 51
180.0
  0
ARC
  5
17B
330
70
100
AcDbEntity
  8
DETAIL
 48
0.2
100
AcDbCircle
 10
761.9285149643583
 20
91.72293070968136
 30
0.0
 40
3.2
100
AcDbArc
 50
270.0
 51
0.0
  0
ARC
  5
17C
330
70
100
AcDbEntity
  8
DETAIL
 48
0.2
100
AcDbCircle
 10
719.7285149643594
 20
114.1229307096755
 30
0.0
 40
1.199999999999999
100
AcDbArc
 50
0.0
 51
90.0
  0
ARC
  5
17D
330
70
100
AcDbEntity
  8
DETAIL
 48
0.2
100
AcDbCircle
 10
719.7285149643594
 20
114.1229307096755
 30
0.0
 40
0.6
100
AcDbArc
 50
0.0
 51
90.0
  0
ARC
  5
17E
330
70
100
AcDbEntity
  8
DETAIL
 48
0.2
100
AcDbCircle
 10
593.7285149623585
 20
-44.82712064031966
 30
0.0
 40
117.499944326
100
AcDbArc
 50
24.40613347159864
 51
155.5939173063586
  0
ARC
  5
17F
330
70
100
AcDbEntity
  8
DETAIL
 48
0.2
100
AcDbCircle
 10
593.7285149623585
 20
-44.82701793933393
 30
0.0
 40
117.499944326
100
AcDbArc
 50
204.4060826936414
 51
335.5938665284014
  0
CIRCLE
  5
180
330
70
100
AcDbEntity
  8
DETAIL
 48
0.2
100
AcDbCircle
 10
593.7285149643575
 20
-44.82706929032156
 30
0.0
 40
104.0
  0
CIRCLE
  5
181
330
70
100
AcDbEntity
  8
DETAIL
 48
0.2
100
AcDbCircle
 10
593.7285149643575
 20
-44.82706929032156
 30
0.0
 40
96.0
  0
CIRCLE
  5
182
330
70
100
AcDbEntity
  8
DETAIL
 48
0.2
100
AcDbCircle
 10
593.7285149643575
 20
-44.82706929032156
 30
0.0
 40
93.8
  0
ARC
  5
183
330
70
100
AcDbEntity
  8
DETAIL
 48
0.2
100
AcDbCircle
 10
-222.8714850356409
 20
-267.5767646343202
 30
0.0
 40
2.0
100
AcDbArc
 50
180.0
 51
269.0000000000238
  0
ARC
  5
184
330
70
100
AcDbEntity
  8
DETAIL
 48
0.2
100
AcDbCircle
 10
-227.2714850356424
 20
-287.9770692903303
 30
0.0
 40
1.6
100
AcDbArc
 50
270.0
 51
0.0
  0
ARC
  5
185
330
70
100
AcDbEntity
  8
DETAIL
 48
0.2
100
AcDbCircle
 10
-337.2714850356424
 20
-210.4270692903128
 30
0.0
 40
1.4
100
AcDbArc
 50
214.8767788399279
 51
235.123221159927
  0
ARC
  5
186
330
70
100
AcDbEntity
  8
DETAIL
 48
0.2
100
AcDbCircle
 10
-227.2714850356424
 20
-287.9770692903303
 30
0.0
 40
0.8
100
AcDbArc
 50
270.0
 51
0.0
  0
ARC
  5
187
330
70
100
AcDbEntity
  8
DETAIL
 48
0.2
100
AcDbCircle
 10
-224.0714850356417
 20
-341.7770692903186
 30
0.0
 40
1.6
100
AcDbArc
 50
180.0
 51
270.0
  0
ARC
  5
188
330
70
100
AcDbEntity
  8
DETAIL
 48
0.2
100
AcDbCircle
 10
-224.0714850356417
 20
-341.7770692903186
 30
0.0
 40
0.8
100
AcDbArc
 50
180.0
 51
270.0
  0
ARC
  5
189
330
70
100
AcDbEntity
  8
DETAIL
 48
0.2
100
AcDbCircle
 10
719.5285149643587
 20
-341.7770692903186
 30
0.0
 40
1.6
100
AcDbArc
 50
270.0
 51
0.0
  0
ARC
  5
18A
330
70
100
AcDbEntity
  8
DETAIL
 48
0.2
100
AcDbCircle
 10
719.5285149643587
 20
-341.7770692903186
 30
0.0
 40
0.8
100
AcDbArc
 50
270.0
 51
0.0
  0
SPLINE
  5
18B
330
70
100
AcDbEntity
  8
DETAIL
 48
0.2
100
AcDbSpline
210
0.0
220
0.0
230
1.0
 70
     8
 71
     3
 72
    19
 73
    15
 74
     0
 42
0.0000001
 43
0.0000000001
 40
0.0
 40
0.0
 40
0.0
 40
0.0
 40
0.125
 40
0.25
 40
0.3125
 40
0.375
 40
0.4375
 40
0.5
 40
0.5625
 40
0.625
 40
0.6875
 40
0.75
 40
0.875
 40
1.0
 40
1.0
 40
1.0
 40
1.0
 10
-229.1504549946403
 20
73.11317728166887
 30
0.0
 10
-229.1518627446421
 20
73.12794262766965
 30
0.0
 10
-229.1547890176407
 20
73.15720623367361
 30
0.0
 10
-229.1578929986408
 20
73.19512116867826
 30
0.0
 10
-229.1602268366405
 20
73.2227064066783
 30
0.0
 10
-229.1621013436416
 20
73.25086305067362
 30
0.0
 10
-229.1638891046423
 20
73.28014504066505
 30
0.0
 10
-229.1660672656399
 20
73.31226935467111
 30
0.0
 10
-229.1667705696418
 20
73.33189902867434
 30
0.0
 10
-229.1678824896408
 20
73.35437583966541
 30
0.0
 10
-229.168834804641
 20
73.37795874368294
 30
0.0
 10
-229.1699519276408
 20
73.41945379967637
 30
0.0
 10
-229.1711707076411
 20
73.46722300967212
 30
0.0
 10
-229.1713106716415
 20
73.50426356667139
 30
0.0
 10
-229.1714850356402
 20
73.52293069667485
 30
0.0
  0
SPLINE
  5
18C
330
70
100
AcDbEntity
  8
DETAIL
 48
0.2
100
AcDbSpline
210
0.0
220
0.0
230
1.0
 70
     8
 71
     3
 72
    21
 73
    17
 74
     0
 42
0.0000001
 43
0.0000000001
 40
0.0
 40
0.0
 40
0.0
 40
0.0
 40
0.125
 40
0.1875
 40
0.25
 40
0.3125
 40
0.375
 40
0.4375
 40
0.5
 40
0.5625
 40
0.625
 40
0.6875
 40
0.75
 40
0.8125
 40
0.875
 40
1.0
 40
1.0
 40
1.0
 40
1.0
 10
-228.7705227056394
 20
71.75516375666029
 30
0.0
 10
-228.7931158676402
 20
71.80701795668119
 30
0.0
 10
-228.8271443296399
 20
71.88401735666684
 30
0.0
 10
-228.8719607396415
 20
71.98981081867078
 30
0.0
 10
-228.9034301046413
 20
72.07743852967815
 30
0.0
 10
-228.9366884356423
 20
72.16257518466864
 30
0.0
 10
-228.964933841642
 20
72.24939344568247
 30
0.0
 10
-228.9909969766413
 20
72.33548010367212
 30
0.0
 10
-229.020579620641
 20
72.4245634496865
 30
0.0
 10
-229.038266498641
 20
72.50239164568029
 30
0.0
 10
-229.059325843642
 20
72.58272730768204
 30
0.0
 10
-229.0787910876407
 20
72.66428825868479
 30
0.0
 10
-229.0949813606421
 20
72.75411795867967
 30
0.0
 10
-229.1133078046405
 20
72.84100212467729
 30
0.0
 10
-229.1307167806408
 20
72.9615321946867
 30
0.0
 10
-229.1423729716407
 20
73.05260995466506
 30
0.0
 10
-229.1504549966412
 20
73.11317730467544
 30
0.0
  0
SPLINE
  5
18D
330
70
100
AcDbEntity
  8
DETAIL
 48
0.2
100
AcDbSpline
210
0.0
220
0.0
230
1.0
 70
     8
 71
     3
 72
    19
 73
    15
 74
     0
 42
0.0000001
 43
0.0000000001
 40
0.0
 40
0.0
 40
0.0
 40
0.0
 40
0.125
 40
0.25
 40
0.3125
 40
0.375
 40
0.4375
 40
0.5
 40
0.5625
 40
0.625
 40
0.6875
 40
0.75
 40
0.875
 40
1.0
 40
1.0
 40
1.0
 40
1.0
 10
-229.1714850356402
 20
73.52293070968426
 30
0.0
 10
-229.1713754536413
 20
73.53772936967562
 30
0.0
 10
-229.1712941496407
 20
73.56706598266737
 30
0.0
 10
-229.1705032176415
 20
73.60504027467232
 30
0.0
 10
-229.1700030916418
 20
73.63267256968083
 30
0.0
 10
-229.1689862646417
 20
73.66085122267668
 30
0.0
 10
-229.1677675586416
 20
73.69014781567511
 30
0.0
 10
-229.1666468536423
 20
73.7222992656707
 30
0.0
 10
-229.1653360246419
 20
73.74191334968327
 30
0.0
 10
-229.1641408696414
 20
73.76438802467146
 30
0.0
 10
-229.1626731426404
 20
73.78795770267152
 30
0.0
 10
-229.1595335746424
 20
73.82940085867722
 30
0.0
 10
-229.1558522166415
 20
73.87710687466733
 30
0.0
 10
-229.1521947006404
 20
73.91405716468125
 30
0.0
 10
-229.1504549956408
 20
73.93268412467569
 30
0.0
  0
SPLINE
  5
18E
330
70
100
AcDbEntity
  8
DETAIL
 48
0.2
100
AcDbSpline
210
0.0
220
0.0
230
1.0
 70
     8
 71
     3
 72
    23
 73
    19
 74
     0
 42
0.0000001
 43
0.0000000001
 40
0.0
 40
0.0
 40
0.0
 40
0.0
 40
0.125
 40
0.15625
 40
0.1875
 40
0.25
 40
0.3125
 40
0.375
 40
0.4375
 40
0.5
 40
0.5625
 40
0.625
 40
0.65625
 40
0.6875
 40
0.75
 40
0.8125
 40
0.875
 40
1.0
 40
1.0
 40
1.0
 40
1.0
 10
-229.1504549946403
 20
73.93268413867463
 30
0.0
 10
-229.1434245346409
 20
73.98671533166908
 30
0.0
 10
-229.1340312056418
 20
74.05496925467287
 30
0.0
 10
-229.1245749736408
 20
74.13472916668524
 30
0.0
 10
-229.1143971936399
 20
74.19247800466383
 30
0.0
 10
-229.099983239641
 20
74.26626557367399
 30
0.0
 10
-229.0846828186404
 20
74.35419834767071
 30
0.0
 10
-229.0641038686408
 20
74.44201792067452
 30
0.0
 10
-229.0418510336422
 20
74.5286379626732
 30
0.0
 10
-229.0211764306405
 20
74.61903700767561
 30
0.0
 10
-228.9958627866399
 20
74.69551957267231
 30
0.0
 10
-228.9752932396404
 20
74.76291469168336
 30
0.0
 10
-228.9598967466409
 20
74.81500587067694
 30
0.0
 10
-228.9398435496405
 20
74.87146899368508
 30
0.0
 10
-228.9127591086399
 20
74.9435544716789
 30
0.0
 10
-228.8826812526422
 20
75.02907357368804
 30
0.0
 10
-228.8339571996403
 20
75.14513019666901
 30
0.0
 10
-228.7956630106419
 20
75.232516539686
 30
0.0
 10
-228.7705226956405
 20
75.29069768468161
 30
0.0
  0
SPLINE
  5
18F
330
70
100
AcDbEntity
  8
DETAIL
 48
0.2
100
AcDbSpline
210
0.0
220
0.0
230
1.0
 70
     8
 71
     3
 72
    14
 73
    10
 74
     0
 42
0.0000001
 43
0.0000000001
 40
0.0
 40
0.0
 40
0.0
 40
0.0
 40
0.1421331441
 40
0.2676787152
 40
0.374996645
 40
0.4727944380000001
 40
0.5789719152
 40
0.7038343848000001
 40
1.0
 40
1.0
 40
1.0
 40
1.0
 10
716.24206783736
 20
59.52293070966971
 30
0.0
 10
716.4357093713588
 20
59.52293070966971
 30
0.0
 10
716.8006699263587
 20
59.52703378368005
 30
0.0
 10
717.3097013853585
 20
59.57871362167771
 30
0.0
 10
717.7461666963591
 20
59.72035616467019
 30
0.0
 10
718.069342987359
 20
60.01817638567718
 30
0.0
 10
718.2367768313597
 20
60.44436511068034
 30
0.0
 10
718.33440678236
 20
61.15755064568202
 30
0.0
 10
718.3279749693574
 20
61.73285912168921
 30
0.0
 10
718.3284238103587
 20
62.1363535286755
 30
0.0
  0
SPLINE
  5
190
330
70
100
AcDbEntity
  8
DETAIL
 48
0.2
100
AcDbSpline
210
0.0
220
0.0
230
1.0
 70
     8
 71
     3
 72
    14
 73
    10
 74
     0
 42
0.0000001
 43
0.0000000001
 40
0.0
 40
0.0
 40
0.0
 40
0.0
 40
0.1421331441
 40
0.2676787152
 40
0.374996645
 40
0.4727944380000001
 40
0.5789719152
 40
0.7038343848000001
 40
1.0
 40
1.0
 40
1.0
 40
1.0
 10
-220.7850379086413
 20
59.52293070966971
 30
0.0
 10
-220.97867944264
 20
59.52293070966971
 30
0.0
 10
-221.3436399976417
 20
59.52703378368005
 30
0.0
 10
-221.8526714566396
 20
59.57871362167771
 30
0.0
 10
-222.2891367666416
 20
59.72035616467019
 30
0.0
 10
-222.612313058642
 20
60.01817638567718
 30
0.0
 10
-222.7797469026409
 20
60.44436511068034
 30
0.0
 10
-222.8773768536412
 20
61.15755064568202
 30
0.0
 10
-222.8709450406404
 20
61.73285912168921
 30
0.0
 10
-222.87139388164
 20
62.1363535286755
 30
0.0
  0
LINE
  5
191
330
70
100
AcDbEntity
  8
BASIS
  6
CENTER
 48
0.2
100
AcDbLine
 10
247.7285149643594
 20
170.4413390484833
 30
0.0
 11
247.7285149643594
 21
-416.1530293298283
 31
0.0
1001
GENIUS_GENODEF_13
1002
{
1000
HIER
1070
     0
1002
}
1002
{
1000
MANEDIT
1070
     0
1002
}
1002
{
1000
NOSEL
1070
     0
1002
}
1002
{
1000
BEHIND
1070
     0
1002
}
1002
{
1000
OTHER
1070
     0
1002
}
1002
{
1000
REACTOR
1002
}
1001
GENIUS_GENOBJ-N-CEN_13
1002
{
1000
OWNER
1000
GEN
1002
}
1001
GENIUS_GENCEN_19
1002
{
1040
5.0
1002
}
  0
LINE
  5
194
330
70
100
AcDbEntity
  8
NOTE
  6
CENTER
 48
0.1
100
AcDbLine
 10
593.7285149643575
 20
93.11410705537037
 30
0.0
 11
593.7285149643575
 21
-184.6724630940307
 31
0.0
1001
GENIUS_GENODEF_13
1002
{
1000
HIER
1070
     0
1002
}
1002
{
1000
MANEDIT
1070
     0
1002
}
1002
{
1000
NOSEL
1070
     0
1002
}
1002
{
1000
BEHIND
1070
     0
1002
}
1002
{
1000
OTHER
1070
     0
1002
}
1002
{
1000
REACTOR
1002
}
1001
GENIUS_GENOBJ-N-CEN_13
1002
{
1000
OWNER
1000
GEN
1002
}
1001
GENIUS_GENCEN_19
1002
{
1040
5.0
1002
}
  0
LINE
  5
197
330
70
100
AcDbEntity
  8
NOTE
  6
CENTER
 48
0.1
100
AcDbLine
 10
-98.27148503764147
 20
81.17483567066575
 30
0.0
 11
-98.27148503764147
 21
-179.4229602460409
 31
0.0
1001
GENIUS_GENODEF_13
1002
{
1000
HIER
1070
     0
1002
}
1002
{
1000
MANEDIT
1070
     0
1002
}
1002
{
1000
NOSEL
1070
     0
1002
}
1002
{
1000
BEHIND
1070
     0
1002
}
1002
{
1000
OTHER
1070
     0
1002
}
1002
{
1000
REACTOR
1002
}
1001
GENIUS_GENOBJ-N-CEN_13
1002
{
1000
OWNER
1000
GEN
1002
}
1001
GENIUS_GENCEN_19
1002
{
1040
5.0
1002
}
  0
LINE
  5
198
330
70
100
AcDbEntity
  8
BASIS
  6
CENTER
 48
0.2
100
AcDbLine
 10
-212.8350674511566
 20
-44.82701793933393
 30
0.0
 11
713.759290912063
 21
-44.82701793933393
 31
0.0
1001
GENIUS_GENODEF_13
1002
{
1000
HIER
1070
     0
1002
}
1002
{
1000
MANEDIT
1070
     0
1002
}
1002
{
1000
NOSEL
1070
     0
1002
}
1002
{
1000
BEHIND
1070
     0
1002
}
1002
{
1000
OTHER
1070
     0
1002
}
1002
{
1000
REACTOR
1002
}
1001
GENIUS_GENOBJ-N-CEN_13
1002
{
1000
OWNER
1000
GEN
1002
}
1001
GENIUS_GENCEN_19
1002
{
1040
5.0
1002
}
  0
LINE
  5
199
330
70
100
AcDbEntity
  8
DETAIL
 48
0.2
100
AcDbLine
 10
-69.83730983964051
 20
-408.1785397493249
 30
0.0
 11
-66.8701477336399
 21
-407.8764984883246
 31
0.0
  0
LINE
  5
19A
330
70
100
AcDbEntity
  8
DETAIL
 48
0.2
100
AcDbLine
 10
-66.8701477336399
 20
-407.8764984883246
 30
0.0
 11
-65.66940423563938
 21
-407.7569479043241
 31
0.0
  0
LINE
  5
19B
330
70
100
AcDbEntity
  8
DETAIL
 48
0.2
100
AcDbLine
 10
-65.66940423563938
 20
-407.7569479043241
 30
0.0
 11
-64.77050282264099
 21
-407.6705918763245
 31
0.0
  0
LINE
  5
19C
330
70
100
AcDbEntity
  8
DETAIL
 48
0.2
100
AcDbLine
 10
-70.73682938163983
 20
-408.2649586853249
 30
0.0
 11
-69.83730983964051
 21
-408.1785397493249
 31
0.0
  0
LINE
  5
19D
330
70
100
AcDbEntity
  8
DETAIL
 48
0.2
100
AcDbLine
 10
-64.77050282264099
 20
-407.6705918763245
 30
0.0
 11
-63.77021954764131
 21
-407.5783154033242
 31
0.0
  0
LWPOLYLINE
  5
19E
330
70
100
AcDbEntity
  8
DETAIL
 48
0.2
100
AcDbPolyline
 90
        7
 70
     0
 43
0.0
 10
-63.77021954764131
 20
-407.5783154033242
 10
-62.63321205764078
 20
-407.4787515283251
 10
-62.00313970664137
 20
-407.4261062053238
 10
-61.3345945646397
 20
-407.3722409753254
 10
-60.63049966864127
 20
-407.3177334103247
 10
-59.89551595264129
 20
-407.2632617693243
 10
-59.13816976864109
 20
-407.2097178023259
  0
LWPOLYLINE
  5
19F
330
70
100
AcDbEntity
  8
DETAIL
 48
0.2
100
AcDbPolyline
 90
       80
 70
     0
 43
0.0
 10
-59.13816976864109
 20
-407.2097178023259
 10
-56.95963107564239
 20
-407.0637307993247
 10
-55.34362470963969
 20
-406.9532243293243
 10
-53.76746106264182
 20
-406.842859561325
 10
-52.23094028664127
 20
-406.7327439183254
 10
-50.73389781964215
 20
-406.6229853583254
 10
-49.27607077064021
 20
-406.5136800983245
 10
-47.85713338064306
 20
-406.4049149903248
 10
-46.47672950164087
 20
-406.2967722603252
 10
-45.13443821264082
 20
-406.1893244483244
 10
-43.82984726664107
 20
-406.0826401493259
 10
-42.5624655606407
 20
-405.9767797993235
 10
-41.33173752263973
 20
-405.8717947373233
 10
-40.13708871064227
 20
-405.7677298353237
 10
-38.97789995463972
 20
-405.6646232283246
 10
-37.85352391564084
 20
-405.5625076283258
 10
-36.76329559864098
 20
-405.4614093463251
 10
-35.70653781864166
 20
-405.3613494083247
 10
-34.68254564364179
 20
-405.2623440193246
 10
-33.69057584664188
 20
-405.1644013753257
 10
-32.73001868464053
 20
-405.0675382223244
 10
-31.80018810264119
 20
-404.9717608003239
 10
-30.90050258064002
 20
-404.877084081324
 10
-30.0303480936418
 20
-404.7835162053242
 10
-29.18911058263984
 20
-404.6910616243248
 10
-28.37616958164108
 20
-404.5997219003247
 10
-27.59087734164132
 20
-404.5094933683258
 10
-26.83259971564075
 20
-404.4203699913241
 10
-26.1007009246423
 20
-404.3323415593249
 10
-25.39454795763959
 20
-404.2453954533239
 10
-24.71349235564048
 20
-404.1595146253248
 10
-24.05684971964002
 20
-404.0746729133251
 10
-23.42414810963965
 20
-403.9908674113258
 10
-22.81482496964236
 20
-403.9080809643246
 10
-22.22843140764235
 20
-403.8263106243257
 10
-21.66448621264135
 20
-403.7455467693243
 10
-21.12246243164191
 20
-403.6657701473241
 10
-20.60184869164004
 20
-403.5869604283243
 10
-20.10206886464221
 20
-403.5090854313247
 10
-19.62256974364209
 20
-403.432113001324
 10
-19.16270921564137
 20
-403.3559914173247
 10
-18.72188398064099
 20
-403.2806688033242
 10
-18.2994125346413
 20
-403.2060731723259
 10
-17.89463269464249
 20
-403.1321291993235
 10
-17.50682054764183
 20
-403.0587407513239
 10
-17.13516864664052
 20
-402.9857827823243
 10
-16.77923015964188
 20
-402.9131889083246
 10
-16.43842068564118
 20
-402.8408575063249
 10
-16.11205530564257
 20
-402.7686555853242
 10
-15.79948125763985
 20
-402.6964428443252
 10
-15.49969790864088
 20
-402.6239777233249
 10
-15.21181591863933
 20
-402.5510145433245
 10
-14.9346140446396
 20
-402.4771854813234
 10
-14.66704226264119
 20
-402.4021190913235
 10
-14.40751229664238
 20
-402.3252286573233
 10
-14.15473332164038
 20
-402.2459243593248
 10
-13.90676493264072
 20
-402.1632988643241
 10
-13.66206790164142
 20
-402.0764214133241
 10
-13.41839065364183
 20
-401.9839143063245
 10
-13.17386958964198
 20
-401.8842792743243
 10
-12.92643784764004
 20
-401.7756192083242
 10
-12.67433507964233
 20
-401.6557712753247
 10
-12.41588788064109
 20
-401.5221378693249
 10
-12.14942807864099
 20
-401.3715156283242
 10
-11.87523984264044
 20
-401.2011633233242
 10
-11.59250611664174
 20
-401.0069808533235
 10
-11.30570631163937
 20
-400.787989389325
 10
-11.01760652464145
 20
-400.5420679993249
 10
-10.73413972164053
 20
-400.2700907213247
 10
-10.46082116964135
 20
-399.9737572553249
 10
-10.20089584464222
 20
-399.653357934324
 10
-9.958491666642657
 20
-399.3110306803255
 10
-9.735732386641757
 20
-398.9469269433257
 10
-9.5355668796401
 20
-398.5628574943248
 10
-9.359625009641604
 20
-398.158435989325
 10
-9.210330887641248
 20
-397.7346080383258
 10
-9.089717708640819
 20
-397.2906263693248
 10
-9.000558383639145
 20
-396.8265189273234
 10
-8.946106954641436
 20
-396.3424604183247
 10
-8.930850148641184
 20
-396.0034796733244
  0
LWPOLYLINE
  5
1A0
330
70
100
AcDbEntity
  8
DETAIL
 48
0.2
100
AcDbPolyline
 90
        9
 70
     0
 43
0.0
 10
-73.42202382464165
 20
-408.4488822563243
 10
-73.25224740064005
 20
-408.4421656573258
 10
-72.93746403964178
 20
-408.4278776123255
 10
-72.61481213364096
 20
-408.4106388033242
 10
-72.29027812064123
 20
-408.3906302673248
 10
-71.96903833764008
 20
-408.3683402953256
 10
-71.65351598864072
 20
-408.3442737013256
 10
-71.34348369864165
 20
-408.3188213263246
 10
-70.73682938163983
 20
-408.2649586853249
  0
LINE
  5
1A1
330
70
100
AcDbEntity
  8
DETAIL
 48
0.2
100
AcDbLine
 10
-73.64680782964206
 20
-408.4567801593248
 30
0.0
 11
-73.42224313663973
 21
-408.4488905523257
 31
0.0
  0
LINE
  5
1A2
330
70
100
AcDbEntity
  8
DETAIL
 48
0.2
100
AcDbLine
 10
-73.87327612664012
 20
-408.4488207343246
 30
0.0
 11
-73.64680783564108
 21
-408.4567801593248
 31
0.0
  0
LWPOLYLINE
  5
1A3
330
70
100
AcDbEntity
  8
DETAIL
 48
0.2
100
AcDbPolyline
 90
        6
 70
     0
 43
0.0
 10
-90.34335490964076
 20
-407.0631008213249
 10
-88.1744674276415
 20
-407.2084099183239
 10
-87.42095420364057
 20
-407.2616110643257
 10
-86.68721927063961
 20
-407.3159113453248
 10
-85.98277635464183
 20
-407.3703685603259
 10
-85.31292505864257
 20
-407.4242679883254
  0
LWPOLYLINE
  5
1A4
330
70
100
AcDbEntity
  8
DETAIL
 48
0.2
100
AcDbPolyline
 90
        8
 70
     0
 43
0.0
 10
-75.96257935363974
 20
-408.3177683203257
 10
-75.65287100464047
 20
-408.3432612423248
 10
-75.33773134764124
 20
-408.3673828853252
 10
-75.01680959964142
 20
-408.3897481353242
 10
-74.69233871264077
 20
-408.4098580563249
 10
-74.36948866464081
 20
-408.4272176383247
 10
-74.05438597264219
 20
-408.4416259473246
 10
-73.87348656164249
 20
-408.4488127683243
  0
LINE
  5
1A5
330
70
100
AcDbEntity
  8
DETAIL
 48
0.2
100
AcDbLine
 10
-85.31292505864257
 20
-407.4242679883254
 30
0.0
 11
-84.09257721564063
 21
-407.5277516923242
 31
0.0
  0
LINE
  5
1A6
330
70
100
AcDbEntity
  8
DETAIL
 48
0.2
100
AcDbLine
 10
-76.56870098864238
 20
-408.2638632183233
 30
0.0
 11
-75.96257935363974
 21
-408.3177683203257
 31
0.0
  0
LINE
  5
1A7
330
70
100
AcDbEntity
  8
DETAIL
 48
0.2
100
AcDbLine
 10
-84.09257721564063
 20
-407.5277516923242
 30
0.0
 11
-83.02576059563945
 21
-407.6236975063247
 31
0.0
  0
LINE
  5
1A8
330
70
100
AcDbEntity
  8
DETAIL
 48
0.2
100
AcDbLine
 10
-83.02576059563945
 20
-407.6236975063247
 30
0.0
 11
-82.07819710364129
 21
-407.7129580053251
 31
0.0
  0
LINE
  5
1A9
330
70
100
AcDbEntity
  8
DETAIL
 48
0.2
100
AcDbLine
 10
-77.46805787464109
 20
-408.1773799833253
 30
0.0
 11
-76.56870098864238
 21
-408.2638632183233
 31
0.0
  0
LINE
  5
1AA
330
70
100
AcDbEntity
  8
DETAIL
 48
0.2
100
AcDbLine
 10
-82.07819710364129
 20
-407.7129580053251
 30
0.0
 11
-81.22092939764115
 21
-407.7966306103235
 31
0.0
  0
LINE
  5
1AB
330
70
100
AcDbEntity
  8
DETAIL
 48
0.2
100
AcDbLine
 10
-81.22092939764115
 20
-407.7966306103235
 30
0.0
 11
-80.06821493964162
 21
-407.9125674363249
 31
0.0
  0
LINE
  5
1AC
330
70
100
AcDbEntity
  8
DETAIL
 48
0.2
100
AcDbLine
 10
-80.06821493964162
 20
-407.9125674363249
 30
0.0
 11
-77.46805787464109
 21
-408.1773799833253
 31
0.0
  0
LINE
  5
1AD
330
70
100
AcDbEntity
  8
DETAIL
 48
0.2
100
AcDbLine
 10
7.774401250359005
 20
-348.8770692903245
 30
0.0
 11
-28.40998491364008
 21
-348.8770692903245
 31
0.0
  0
LINE
  5
1AE
330
70
100
AcDbEntity
  8
DETAIL
 48
0.2
100
AcDbLine
 10
-118.8836524136422
 20
-348.8770692903245
 30
0.0
 11
-155.0681313696405
 21
-348.8770692903245
 31
0.0
  0
LINE
  5
1AF
330
70
100
AcDbEntity
  8
DETAIL
 48
0.2
100
AcDbLine
 10
-16.54848012264119
 20
-346.3770692903245
 30
0.0
 11
-130.7451844826428
 21
-346.3770692903245
 31
0.0
  0
LINE
  5
1B0
330
70
100
AcDbEntity
  8
DETAIL
 48
0.2
100
AcDbLine
 10
-156.0679791016409
 20
-347.8945216973234
 30
0.0
 11
-156.12907182864
 21
-344.3945216973252
 31
0.0
  0
LWPOLYLINE
  5
1B1
330
70
100
AcDbEntity
  8
DETAIL
 48
0.2
100
AcDbPolyline
 90
       79
 70
     0
 43
0.0
 10
-138.3628128156415
 20
-396.0034779973257
 10
-138.3475655606416
 20
-396.3423279323242
 10
-138.29313170764
 20
-396.8263405263251
 10
-138.2039947386402
 20
-397.2904126243238
 10
-138.0834070976416
 20
-397.7343672033248
 10
-137.9341409636399
 20
-398.1581739623243
 10
-137.7582298556408
 20
-398.5625774203245
 10
-137.5580979576407
 20
-398.9466312153245
 10
-137.3353761326398
 20
-399.3107201323246
 10
-137.0930132736412
 20
-399.6530337723243
 10
-136.8331346886407
 20
-399.973419302326
 10
-136.5598654336409
 20
-400.2697423423241
 10
-136.276448148641
 20
-400.5417141833249
 10
-135.9883955776422
 20
-400.7876357213254
 10
-135.7016370586425
 20
-401.0066336493245
 10
-135.4189384386409
 20
-401.2008272063257
 10
-135.1447770536397
 20
-401.371194723325
 10
-134.8783381136418
 20
-401.5218338703244
 10
-134.6199070256407
 20
-401.655484515325
 10
-134.3678177296424
 20
-401.775348801325
 10
-134.1203987266417
 20
-401.8840235423239
 10
-133.8758916176411
 20
-401.9836710043246
 10
-133.6322324346401
 20
-402.076187581325
 10
-133.3875566416409
 20
-402.1630724383258
 10
-133.1396123576414
 20
-402.2457037273243
 10
-132.8868602366419
 20
-402.3250124483247
 10
-132.6273591966419
 20
-402.4019063193236
 10
-132.3598194746409
 20
-402.476974969325
 10
-132.0826539206428
 20
-402.550804968324
 10
-131.7948122216403
 20
-402.6237680693238
 10
-131.4950730186392
 20
-402.6962322623249
 10
-131.1825470336407
 20
-402.7684432873257
 10
-130.8562333506415
 20
-402.8406428353236
 10
-130.5154803356417
 20
-402.9129710193237
 10
-130.1596051436408
 20
-402.9855605343246
 10
-129.7880219526414
 20
-403.0585134363255
 10
-129.4002825976422
 20
-403.1318964033244
 10
-128.995579687642
 20
-403.2058344973238
 10
-128.5731887236397
 20
-403.2804239703246
 10
-128.1324479986397
 20
-403.3557401253246
 10
-127.6726763766419
 20
-403.4318549483259
 10
-127.1932704606406
 20
-403.5088203403256
 10
-126.6935879656412
 20
-403.5866880573239
 10
-126.1730760256396
 20
-403.6654902103245
 10
-125.6311593666396
 20
-403.7452589273243
 10
-125.0673265856421
 20
-403.8260145763242
 10
-124.4810505606401
 20
-403.9077764433249
 10
-123.8718504366406
 20
-403.9905541073249
 10
-123.2392781266426
 20
-404.0743504503234
 10
-122.5827707956414
 20
-404.159182731325
 10
-121.901855837641
 20
-404.2450539483243
 10
-121.1958490436409
 20
-404.3319902453249
 10
-120.4641020456401
 20
-404.4200086793252
 10
-119.7059822416413
 20
-404.5091218843236
 10
-118.9208537616396
 20
-404.5993400943234
 10
-118.108082508641
 20
-404.6906693463252
 10
-117.2670208576419
 20
-404.7831133073241
 10
-116.3970487426413
 20
-404.8766704373238
 10
-115.4975520506414
 20
-404.9713363033233
 10
-114.5679167096423
 20
-405.067102777325
 10
-113.6075613456414
 20
-405.1639548963257
 10
-112.6158000716423
 20
-405.2618864643236
 10
-111.5920227076421
 20
-405.3608807903247
 10
-110.5354861886408
 20
-405.4609296643256
 10
-109.4454859696416
 20
-405.5620168953255
 10
-108.3213452506424
 20
-405.6641214693236
 10
-107.1623990406406
 20
-405.7672170843243
 10
-105.9680001696397
 20
-405.8712710363242
 10
-104.7375298826409
 20
-405.9762452243239
 10
-103.470413563642
 20
-406.082094813325
 10
-102.166095314642
 20
-406.1887685033243
 10
-100.8240843966414
 20
-406.2962059033243
 10
-99.44396878064072
 20
-406.4043384453243
 10
-98.02532710864035
 20
-406.5130936383257
 10
-96.56780287464062
 20
-406.6223893313244
 10
-95.07107040264235
 20
-406.732138729324
 10
-93.53486711864025
 20
-406.8422456303242
 10
-91.95902872563966
 20
-406.9526021033243
 10
-90.34335490964076
 20
-407.0631008213249
  0
LINE
  5
1B2
330
70
100
AcDbEntity
  8
DETAIL
 48
0.2
100
AcDbLine
 10
-139.1682574586411
 20
-349.859616884326
 30
0.0
 11
-138.3628119926397
 21
-396.0035566753258
 31
0.0
  0
LINE
  5
1B3
330
70
100
AcDbEntity
  8
DETAIL
 48
0.2
100
AcDbLine
 10
-134.8521600026397
 20
-347.8945216973234
 30
0.0
 11
-134.8796966696391
 21
-345.6109160643255
 31
0.0
  0
LINE
  5
1B4
330
70
100
AcDbEntity
  8
DETAIL
 48
0.2
100
AcDbLine
 10
-122.8087914486423
 20
-347.359616884326
 30
0.0
 11
-122.8155383006415
 21
-347.8945216973234
 31
0.0
  0
LINE
  5
1B5
330
70
100
AcDbEntity
  8
DETAIL
 48
0.2
100
AcDbLine
 10
-24.48487160564037
 20
-347.359616884326
 30
0.0
 11
-24.47812475364117
 21
-347.8945216973234
 31
0.0
  0
LINE
  5
1B6
330
70
100
AcDbEntity
  8
DETAIL
 48
0.2
100
AcDbLine
 10
-12.41396429364249
 20
-345.6109239293246
 30
0.0
 11
-12.4415030516393
 21
-347.8945216973234
 31
0.0
  0
LINE
  5
1B7
330
70
100
AcDbEntity
  8
DETAIL
 48
0.2
100
AcDbLine
 10
-8.125405595641495
 20
-349.859616884326
 30
0.0
 11
-8.930851062639703
 21
-396.003556749326
 31
0.0
  0
LINE
  5
1B8
330
70
100
AcDbEntity
  8
DETAIL
 48
0.2
100
AcDbLine
 10
8.774316048358741
 20
-347.8945216973234
 30
0.0
 11
8.835408775357791
 21
-344.3945216973252
 31
0.0
  0
ARC
  5
1B9
330
70
100
AcDbEntity
  8
DETAIL
 48
0.2
100
AcDbCircle
 10
-155.0681314066423
 20
-347.8770692903245
 30
0.0
 40
1.0
100
AcDbArc
 50
181.0000000000794
 51
270.0
  0
ARC
  5
1BA
330
70
100
AcDbEntity
  8
DETAIL
 48
0.2
100
AcDbCircle
 10
-140.1681051536398
 20
-349.8770692903245
 30
0.0
 40
1.0
100
AcDbArc
 50
1.00000000007946
 51
90.0
  0
ARC
  5
1BB
330
70
100
AcDbEntity
  8
DETAIL
 48
0.2
100
AcDbCircle
 10
-155.1292241336414
 20
-344.3770692903245
 30
0.0
 40
1.0
100
AcDbArc
 50
90.0
 51
181.0000000000794
  0
ARC
  5
1BC
330
70
100
AcDbEntity
  8
DETAIL
 48
0.2
100
AcDbCircle
 10
7.77446835235969
 20
-347.8770692903245
 30
0.0
 40
1.0
100
AcDbArc
 50
270.0
 51
358.9999999999205
  0
ARC
  5
1BD
330
70
100
AcDbEntity
  8
DETAIL
 48
0.2
100
AcDbCircle
 10
-7.125557900641069
 20
-349.8770692903245
 30
0.0
 40
1.0
100
AcDbArc
 50
90.0
 51
178.9999999999205
  0
ARC
  5
1BE
330
70
100
AcDbEntity
  8
DETAIL
 48
0.2
100
AcDbCircle
 10
7.835561080359184
 20
-344.3770692903245
 30
0.0
 40
1.0
100
AcDbArc
 50
358.9999999999205
 51
90.0
  0
SPLINE
  5
1BF
330
70
100
AcDbEntity
  8
DETAIL
 48
0.2
100
AcDbSpline
210
0.0
220
0.0
230
1.0
 70
     8
 71
     3
 72
     8
 73
     4
 74
     0
 42
0.0000001
 43
0.0000000001
 40
0.0
 40
0.0
 40
0.0
 40
0.0
 40
1.0
 40
1.0
 40
1.0
 40
1.0
 10
-12.46140572964214
 20
-345.3945216973234
 30
0.0
 10
-12.42112707264096
 20
-345.4564166413247
 30
0.0
 10
-12.41308626264072
 20
-345.5370823493258
 30
0.0
 10
-12.41396869364143
 20
-345.6109239073239
 30
0.0
  0
SPLINE
  5
1C0
330
70
100
AcDbEntity
  8
DETAIL
 48
0.2
100
AcDbSpline
210
0.0
220
0.0
230
1.0
 70
     8
 71
     3
 72
     8
 73
     4
 74
     0
 42
0.0000001
 43
0.0000000001
 40
0.0
 40
0.0
 40
0.0
 40
0.0
 40
1.0
 40
1.0
 40
1.0
 40
1.0
 10
-134.8796934776401
 20
-345.6109160483257
 30
0.0
 10
-134.8805851726392
 20
-345.5370774553239
 30
0.0
 10
-134.8726055166407
 20
-345.4563700403241
 30
0.0
 10
-134.8322605616413
 20
-345.3945216973234
 30
0.0
  0
SPLINE
  5
1C1
330
70
100
AcDbEntity
  8
DETAIL
 48
0.2
100
AcDbSpline
210
0.0
220
0.0
230
1.0
 70
     8
 71
     3
 72
     9
 73
     5
 74
     0
 42
0.0000001
 43
0.0000000001
 40
0.0
 40
0.0
 40
0.0
 40
0.0
 40
0.7524919673000001
 40
1.0
 40
1.0
 40
1.0
 40
1.0
 10
-73.64810402263902
 20
-408.4010415173243
 30
0.0
 10
-73.64805522764072
 20
-408.4150263303245
 30
0.0
 10
-73.65486434164267
 20
-408.4262757023252
 30
0.0
 10
-73.64208952664194
 20
-408.4570048443247
 30
0.0
 10
-73.64668372464075
 20
-408.4567762333254
 30
0.0
  0
SPLINE
  5
1C2
330
70
100
AcDbEntity
  8
DETAIL
 48
0.2
100
AcDbSpline
210
0.0
220
0.0
230
1.0
 70
     8
 71
     3
 72
    11
 73
     7
 74
     0
 42
0.0000001
 43
0.0000000001
 40
0.0
 40
0.0
 40
0.0
 40
0.0
 40
0.2911308791
 40
0.5596909213
 40
0.7937004373000001
 40
1.0
 40
1.0
 40
1.0
 40
1.0
 10
-134.8521600026397
 20
-347.8945216973234
 30
0.0
 10
-134.850625227642
 20
-348.0218363623253
 30
0.0
 10
-134.8156623036411
 20
-348.2676936433245
 30
0.0
 10
-134.6705751336412
 20
-348.5887683243245
 30
0.0
 10
-134.4479043626416
 20
-348.8169772163246
 30
0.0
 10
-134.2532047186396
 20
-348.8770692903245
 30
0.0
 10
-134.1629811456405
 20
-348.8770692903245
 30
0.0
  0
SPLINE
  5
1C3
330
70
100
AcDbEntity
  8
DETAIL
 48
0.2
100
AcDbSpline
210
0.0
220
0.0
230
1.0
 70
     8
 71
     3
 72
    11
 73
     7
 74
     0
 42
0.0000001
 43
0.0000000001
 40
0.0
 40
0.0
 40
0.0
 40
0.0
 40
0.2860131986
 40
0.5520940763000001
 40
0.7879531835
 40
1.0
 40
1.0
 40
1.0
 40
1.0
 10
-122.8155383006415
 20
-347.8945216973234
 30
0.0
 10
-122.8171438336412
 20
-348.0218127243252
 30
0.0
 10
-122.85396135064
 20
-348.2686873973244
 30
0.0
 10
-123.0067153846412
 20
-348.5907319843254
 30
0.0
 10
-123.2412791326405
 20
-348.8183725623248
 30
0.0
 10
-123.4430500396411
 20
-348.8770692903245
 30
0.0
 10
-123.5374296146401
 20
-348.8770692903245
 30
0.0
  0
SPLINE
  5
1C4
330
70
100
AcDbEntity
  8
DETAIL
 48
0.2
100
AcDbSpline
210
0.0
220
0.0
230
1.0
 70
     8
 71
     3
 72
    11
 73
     7
 74
     0
 42
0.0000001
 43
0.0000000001
 40
0.0
 40
0.0
 40
0.0
 40
0.0
 40
0.2857968029
 40
0.5517101966000001
 40
0.7875879683
 40
1.0
 40
1.0
 40
1.0
 40
1.0
 10
-122.8087914486423
 20
-347.359616884326
 30
0.0
 10
-122.8071859336414
 20
-347.2323291853254
 30
0.0
 10
-122.7703705906424
 20
-346.9854460803244
 30
0.0
 10
-122.6175211666413
 20
-346.6633216283235
 30
0.0
 10
-122.382488628642
 20
-346.4356304353251
 30
0.0
 10
-122.18036065864
 20
-346.3770692903245
 30
0.0
 10
-122.0857494206429
 20
-346.3770692903245
 30
0.0
  0
SPLINE
  5
1C5
330
70
100
AcDbEntity
  8
DETAIL
 48
0.2
100
AcDbSpline
210
0.0
220
0.0
230
1.0
 70
     8
 71
     3
 72
    11
 73
     7
 74
     0
 42
0.0000001
 43
0.0000000001
 40
0.0
 40
0.0
 40
0.0
 40
0.0
 40
0.2857968029
 40
0.5517101966000001
 40
0.7875879683
 40
1.0
 40
1.0
 40
1.0
 40
1.0
 10
-24.48487160564037
 20
-347.359616884326
 30
0.0
 10
-24.48647712064121
 20
-347.2323291853254
 30
0.0
 10
-24.5232924626398
 20
-346.9854460803244
 30
0.0
 10
-24.67614188764128
 20
-346.6633216283235
 30
0.0
 10
-24.9111744246402
 20
-346.4356304353251
 30
0.0
 10
-25.11330239564268
 20
-346.3770692903245
 30
0.0
 10
-25.20791363363969
 20
-346.3770692903245
 30
0.0
  0
SPLINE
  5
1C6
330
70
100
AcDbEntity
  8
DETAIL
 48
0.2
100
AcDbSpline
210
0.0
220
0.0
230
1.0
 70
     8
 71
     3
 72
    11
 73
     7
 74
     0
 42
0.0000001
 43
0.0000000001
 40
0.0
 40
0.0
 40
0.0
 40
0.0
 40
0.2860131986
 40
0.5520940763000001
 40
0.7879531835
 40
1.0
 40
1.0
 40
1.0
 40
1.0
 10
-24.47812475364117
 20
-347.8945216973234
 30
0.0
 10
-24.4765192206396
 20
-348.0218127243252
 30
0.0
 10
-24.4397017026422
 20
-348.2686873973244
 30
0.0
 10
-24.28694766963963
 20
-348.5907319843254
 30
0.0
 10
-24.05238392164029
 20
-348.8183725623248
 30
0.0
 10
-23.85061301464157
 20
-348.8770692903245
 30
0.0
 10
-23.75623343964071
 20
-348.8770692903245
 30
0.0
  0
SPLINE
  5
1C7
330
70
100
AcDbEntity
  8
DETAIL
 48
0.2
100
AcDbSpline
210
0.0
220
0.0
230
1.0
 70
     8
 71
     3
 72
    11
 73
     7
 74
     0
 42
0.0000001
 43
0.0000000001
 40
0.0
 40
0.0
 40
0.0
 40
0.0
 40
0.291130879
 40
0.5596909211
 40
0.7937004373000001
 40
1.0
 40
1.0
 40
1.0
 40
1.0
 10
-12.4415030516393
 20
-347.8945216973234
 30
0.0
 10
-12.44303782664065
 20
-348.0218363623253
 30
0.0
 10
-12.47800075064151
 20
-348.2676936433245
 30
0.0
 10
-12.62308792064141
 20
-348.5887683243245
 30
0.0
 10
-12.84575869164109
 20
-348.8169772163246
 30
0.0
 10
-13.04045833564123
 20
-348.8770692903245
 30
0.0
 10
-13.13068190864214
 20
-348.8770692903245
 30
0.0
  0
LINE
  5
1C8
330
70
100
AcDbEntity
  8
DETAIL
 48
0.2
370
    13
100
AcDbLine
 10
-224.2714850356424
 20
120.3229307096762
 30
0.0
 11
719.7285149643594
 21
120.3229307096762
 31
0.0
  0
LINE
  5
1C9
330
70
100
AcDbEntity
  8
DETAIL
  6
CENTER
 48
0.1
370
    13
100
AcDbLine
 10
-224.2714850356424
 20
120.3229307096762
 30
0.0
 11
-224.2714850356424
 21
117.6101785086894
 31
-0.0000000000000142
  0
LINE
  5
1CA
330
70
100
AcDbEntity
  8
DETAIL
  6
CENTER
 48
0.1
370
    13
100
AcDbLine
 10
-224.2714850356424
 20
116.8229307096799
 30
-0.0000000000000142
 11
-224.2714850356424
 21
115.3229307096762
 31
0.0
  0
LINE
  5
1CB
330
70
100
AcDbEntity
  8
DETAIL
  6
CENTER
 48
0.1
370
    13
100
AcDbLine
 10
-200.2714850356424
 20
120.3229307096762
 30
0.0
 11
-200.2714850356424
 21
115.3229307096762
 31
0.0
  0
LINE
  5
1CC
330
70
100
AcDbEntity
  8
DETAIL
  6
CENTER
 48
0.1
370
    13
100
AcDbLine
 10
719.7285149643594
 20
115.3229307096762
 30
0.0
 11
719.7285149643594
 21
120.3229307096762
 31
0.0
  0
CIRCLE
  5
1CD
330
70
100
AcDbEntity
  8
ARRANGE
  6
Continuous
 62
     1
100
AcDbCircle
 10
247.7285149643594
 20
120.3229307096744
 30
0.0
 40
50.0
  0
LINE
  5
1D0
330
70
100
AcDbEntity
  8
ARRANGE
  6
Continuous
 62
     1
100
AcDbLine
 10
197.6911649330304
 20
70.80057755934831
 30
0.0
 11
297.7658649956884
 21
169.8452838599996
 31
0.0
  0
LINE
  5
1D1
330
70
100
AcDbEntity
  8
ARRANGE
  6
Continuous
 62
     1
100
AcDbLine
 10
197.7647516538582
 20
169.9195255076593
 30
0.0
 11
297.6922782748606
 21
70.72633591169233
 31
0.0
  0
LINE
  5
1D2
330
70
100
AcDbEntity
  8
NOTE
  6
CENTER
 48
0.2
100
AcDbLine
 10
451.9399884274426
 20
-44.82701793933393
 30
0.0
 11
735.5170415012726
 21
-44.82701793933393
 31
0.0
1001
GENIUS_GENODEF_13
1002
{
1000
HIER
1070
     0
1002
}
1002
{
1000
MANEDIT
1070
     0
1002
}
1002
{
1000
NOSEL
1070
     0
1002
}
1002
{
1000
BEHIND
1070
     0
1002
}
1002
{
1000
OTHER
1070
     0
1002
}
1002
{
1000
REACTOR
1002
}
1001
GENIUS_GENOBJ-N-CEN_13
1002
{
1000
OWNER
1000
GEN
1002
}
1001
GENIUS_GENCEN_19
1002
{
1040
5.0
1002
}
  0
LINE
  5
1D3
330
70
100
AcDbEntity
  8
NOTE
  6
CENTER
 48
0.2
100
AcDbLine
 10
-240.0600115745565
 20
-44.82701793933393
 30
0.0
 11
43.51704149927354
 21
-44.82701793933393
 31
0.0
1001
GENIUS_GENODEF_13
1002
{
1000
HIER
1070
     0
1002
}
1002
{
1000
MANEDIT
1070
     0
1002
}
1002
{
1000
NOSEL
1070
     0
1002
}
1002
{
1000
BEHIND
1070
     0
1002
}
1002
{
1000
OTHER
1070
     0
1002
}
1002
{
1000
REACTOR
1002
}
1001
GENIUS_GENOBJ-N-CEN_13
1002
{
1000
OWNER
1000
GEN
1002
}
1001
GENIUS_GENCEN_19
1002
{
1040
5.0
1002
}
  0
LINE
  5
1D4
330
70
100
AcDbEntity
  8
OUTLINE
 48
0.2
100
AcDbLine
 10
-339.2714850356424
 20
47.97293070968135
 30
0.0
 11
-339.2714850356424
 21
-211.2270692903158
 31
0.0
  0
LINE
  5
1D7
330
70
100
AcDbEntity
  8
OUTLINE
 48
0.2
100
AcDbLine
 10
-338.0714850356417
 20
-212.4270692903274
 30
0.0
 11
-338.0714850356417
 21
-211.2270692903158
 31
0.0
  0
LINE
  5
1D8
330
70
100
AcDbEntity
  8
OUTLINE
 48
0.2
100
AcDbLine
 10
-338.0714850356417
 20
49.17293070966389
 30
0.0
 11
-338.0714850356417
 21
47.97293070968135
 31
0.0
  0
LINE
  5
1D9
330
70
100
AcDbEntity
  8
OUTLINE
 48
0.2
100
AcDbLine
 10
-272.8714850356409
 20
95.32293070967261
 30
0.0
 11
-272.8714850356409
 21
91.72293070968136
 31
0.0
  0
LINE
  5
1DA
330
70
100
AcDbEntity
  8
OUTLINE
 48
0.2
100
AcDbLine
 10
-272.8714850356409
 20
82.12293070967552
 30
0.0
 11
-272.8714850356409
 21
78.52293070968426
 31
0.0
  0
LINE
  5
1DB
330
70
100
AcDbEntity
  8
OUTLINE
 48
0.2
100
AcDbLine
 10
-269.6714850356402
 20
95.32293070967261
 30
0.0
 11
-269.6714850356402
 21
91.72293070968136
 31
0.0
  0
LINE
  5
1DC
330
70
100
AcDbEntity
  8
OUTLINE
 48
0.2
100
AcDbLine
 10
-269.6714850356402
 20
82.12293070967552
 30
0.0
 11
-269.6714850356402
 21
78.52293070968426
 31
0.0
  0
LINE
  5
1DD
330
70
100
AcDbEntity
  8
OUTLINE
 48
0.2
100
AcDbLine
 10
-235.3714850356409
 20
116.0229307096842
 30
0.0
 11
-240.371485035641
 21
111.0229307096842
 31
0.0
  0
LINE
  5
1DE
330
70
100
AcDbEntity
  8
OUTLINE
 48
0.2
100
AcDbLine
 10
-241.1714850356402
 20
-100.7770692903186
 30
0.0
 11
-241.1714850356402
 21
85.32293070967261
 31
0.0
  0
LINE
  5
1DF
330
70
100
AcDbEntity
  8
OUTLINE
 48
0.2
100
AcDbLine
 10
-241.1714850356402
 20
88.52293070968427
 30
0.0
 11
-241.1714850356402
 21
111.0229307096842
 31
0.0
  0
LINE
  5
1E0
330
70
100
AcDbEntity
  8
OUTLINE
 48
0.2
100
AcDbLine
 10
-237.6714850356402
 20
-105.3770692903244
 30
0.0
 11
-237.6714850356402
 21
-284.9770692903157
 31
0.0
  0
LINE
  5
1E1
330
70
100
AcDbEntity
  8
OUTLINE
 48
0.2
100
AcDbLine
 10
-237.6714850356402
 20
-288.7770692903332
 30
0.0
 11
-237.6714850356402
 21
-289.5770692903361
 31
0.0
  0
LINE
  5
1E2
330
70
100
AcDbEntity
  8
OUTLINE
 48
0.2
100
AcDbLine
 10
-225.6714850356402
 20
-341.7770692903186
 30
0.0
 11
-225.6714850356402
 21
-167.5774598703328
 31
0.0
  0
LINE
  5
1E3
330
70
100
AcDbEntity
  8
OUTLINE
 48
0.2
100
AcDbLine
 10
-229.5714850356417
 20
117.6229307096755
 30
0.0
 11
-210.1714850356402
 21
117.6229307096755
 31
0.0
  0
LINE
  5
1E4
330
70
100
AcDbEntity
  8
OUTLINE
 48
0.2
100
AcDbLine
 10
-230.3714850356409
 20
116.0229307096842
 30
0.0
 11
-235.3714850356409
 21
116.0229307096842
 31
0.0
  0
LINE
  5
1E5
330
70
100
AcDbEntity
  8
OUTLINE
 48
0.2
100
AcDbLine
 10
-241.1714850356402
 20
111.0229307096842
 30
0.0
 11
-236.6714850356402
 21
111.0229307096842
 31
0.0
  0
LINE
  5
1E6
330
70
100
AcDbEntity
  8
OUTLINE
 48
0.2
100
AcDbLine
 10
-269.6714850356402
 20
95.32293070967261
 30
0.0
 11
-272.8714850356409
 21
95.32293070967261
 31
0.0
  0
LINE
  5
1E7
330
70
100
AcDbEntity
  8
OUTLINE
 48
0.2
100
AcDbLine
 10
765.128514964359
 20
95.32293070967261
 30
0.0
 11
768.3285149643597
 21
95.32293070967261
 31
0.0
  0
LINE
  5
1E8
330
70
100
AcDbEntity
  8
OUTLINE
 48
0.2
100
AcDbLine
 10
761.9285149643583
 20
88.52293070968427
 30
0.0
 11
724.7285149643594
 21
88.52293070968427
 31
0.0
  0
LINE
  5
1E9
330
70
100
AcDbEntity
  8
OUTLINE
 48
0.2
100
AcDbLine
 10
-266.4714850356395
 20
88.52293070968427
 30
0.0
 11
-229.2714850356424
 21
88.52293070968427
 31
0.0
  0
LINE
  5
1EA
330
70
100
AcDbEntity
  8
OUTLINE
 48
0.2
100
AcDbLine
 10
761.9285149643583
 20
85.32293070967261
 30
0.0
 11
724.7285149643594
 21
85.32293070967261
 31
0.0
  0
LINE
  5
1EB
330
70
100
AcDbEntity
  8
OUTLINE
 48
0.2
100
AcDbLine
 10
-266.4714850356395
 20
85.32293070967261
 30
0.0
 11
-229.2714850356424
 21
85.32293070967261
 31
0.0
  0
LINE
  5
1EC
330
70
100
AcDbEntity
  8
OUTLINE
 48
0.2
100
AcDbLine
 10
-269.6714850356402
 20
78.52293070968426
 30
0.0
 11
-272.8714850356409
 21
78.52293070968426
 31
0.0
  0
LINE
  5
1ED
330
70
100
AcDbEntity
  8
OUTLINE
 48
0.2
100
AcDbLine
 10
765.128514964359
 20
78.52293070968426
 30
0.0
 11
768.3285149643597
 21
78.52293070968426
 31
0.0
  0
LINE
  5
1EE
330
70
100
AcDbEntity
  8
OUTLINE
 48
0.2
100
AcDbLine
 10
-241.1714850356402
 20
49.17293070966389
 30
0.0
 11
-338.0714850356417
 21
49.17293070966389
 31
0.0
  0
LINE
  5
1EF
330
70
100
AcDbEntity
  8
OUTLINE
 48
0.2
100
AcDbLine
 10
-339.2714850356424
 20
47.97293070968135
 30
0.0
 11
-338.0714850356417
 21
47.97293070968135
 31
0.0
  0
LINE
  5
1F0
330
70
100
AcDbEntity
  8
OUTLINE
 48
0.2
100
AcDbLine
 10
721.5285149643587
 20
38.52293070968426
 30
0.0
 11
718.3285149643597
 21
38.52293070968426
 31
0.0
  0
LINE
  5
1F1
330
70
100
AcDbEntity
  8
OUTLINE
 48
0.2
100
AcDbLine
 10
-339.2714850356424
 20
-211.2270692903158
 30
0.0
 11
-338.0714850356417
 21
-211.2270692903158
 31
0.0
  0
LINE
  5
1F2
330
70
100
AcDbEntity
  8
OUTLINE
 48
0.2
100
AcDbLine
 10
-338.0714850356417
 20
-212.4270692903274
 30
0.0
 11
-237.6714850356402
 21
-212.4270692903274
 31
0.0
  0
LINE
  5
1F3
330
70
100
AcDbEntity
  8
OUTLINE
 48
0.2
100
AcDbLine
 10
720.3285149643598
 20
-269.3770692903245
 30
0.0
 11
721.1285149643591
 21
-269.3770692903245
 31
0.0
  0
LINE
  5
1F4
330
70
100
AcDbEntity
  8
OUTLINE
 48
0.2
100
AcDbLine
 10
-225.6714850356402
 20
-287.9770692903303
 30
0.0
 11
-234.6714850356402
 21
-287.9770692903303
 31
0.0
  0
LINE
  5
1F5
330
70
100
AcDbEntity
  8
OUTLINE
 48
0.2
100
AcDbLine
 10
-237.6714850356402
 20
-288.7770692903332
 30
0.0
 11
-227.2714850356424
 21
-288.7770692903332
 31
0.0
  0
LINE
  5
1F6
330
70
100
AcDbEntity
  8
OUTLINE
 48
0.2
100
AcDbLine
 10
-227.2714850356424
 20
-289.5770692903361
 30
0.0
 11
-237.6714850356402
 21
-289.5770692903361
 31
0.0
  0
LINE
  5
1F7
330
70
100
AcDbEntity
  8
OUTLINE
 48
0.2
100
AcDbLine
 10
719.5285149643587
 20
-343.3770692903245
 30
0.0
 11
-224.0714850356417
 21
-343.3770692903245
 31
0.0
  0
LINE
  5
1F8
330
70
100
AcDbEntity
  8
OUTLINE
 48
0.2
100
AcDbLine
 10
719.4285149643583
 20
38.52293070968426
 30
0.0
 11
719.4285149643583
 21
-154.8270692903215
 31
0.0
  0
LINE
  5
1F9
330
70
100
AcDbEntity
  8
OUTLINE
 48
0.2
100
AcDbLine
 10
719.4285149643583
 20
-154.8270692903215
 30
0.0
 11
719.4285149643583
 21
-268.5770692903215
 31
0.0
  0
LINE
  5
1FA
330
70
100
AcDbEntity
  8
OUTLINE
 48
0.2
100
AcDbLine
 10
720.9285149643583
 20
114.1229307096755
 30
0.0
 11
720.9285149643583
 21
87.32293070967262
 31
0.0
  0
LINE
  5
1FB
330
70
100
AcDbEntity
  8
OUTLINE
 48
0.2
100
AcDbLine
 10
721.1285149643591
 20
-269.3770692903245
 30
0.0
 11
721.1285149643591
 21
-341.7770692903186
 31
0.0
  0
LINE
  5
1FC
330
70
100
AcDbEntity
  8
OUTLINE
 48
0.2
100
AcDbLine
 10
721.5285149643587
 20
38.52293070968426
 30
0.0
 11
721.5285149643587
 21
82.12293070967552
 31
0.0
  0
LINE
  5
1FD
330
70
100
AcDbEntity
  8
OUTLINE
 48
0.2
100
AcDbLine
 10
765.128514964359
 20
95.32293070967261
 30
0.0
 11
765.128514964359
 21
91.72293070968136
 31
0.0
  0
LINE
  5
1FE
330
70
100
AcDbEntity
  8
OUTLINE
 48
0.2
100
AcDbLine
 10
765.128514964359
 20
82.12293070967552
 30
0.0
 11
765.128514964359
 21
78.52293070968426
 31
0.0
  0
LINE
  5
1FF
330
70
100
AcDbEntity
  8
OUTLINE
 48
0.2
100
AcDbLine
 10
768.3285149643597
 20
95.32293070967261
 30
0.0
 11
768.3285149643597
 21
91.72293070968136
 31
0.0
  0
LINE
  5
200
330
70
100
AcDbEntity
  8
OUTLINE
 48
0.2
100
AcDbLine
 10
768.3285149643597
 20
82.12293070967552
 30
0.0
 11
768.3285149643597
 21
78.52293070968426
 31
0.0
  0
LINE
  5
201
330
70
100
AcDbEntity
  8
OUTLINE
 48
0.2
100
AcDbLine
 10
-237.6714850356402
 20
-284.9770692903157
 30
0.0
 11
-234.6714850356402
 21
-287.9770692903303
 31
0.0
  0
ARC
  5
202
330
70
100
AcDbEntity
  8
OUTLINE
 48
0.2
100
AcDbCircle
 10
-266.4714850356395
 20
91.72293070968136
 30
0.0
 40
6.4
100
AcDbArc
 50
180.0
 51
228.6564551520679
  0
ARC
  5
203
330
70
100
AcDbEntity
  8
OUTLINE
 48
0.2
100
AcDbCircle
 10
-266.4714850356395
 20
82.12293070967552
 30
0.0
 40
6.4
100
AcDbArc
 50
90.0
 51
180.0
  0
ARC
  5
204
330
70
100
AcDbEntity
  8
OUTLINE
 48
0.2
100
AcDbCircle
 10
-266.4714850356395
 20
82.12293070967552
 30
0.0
 40
3.2
100
AcDbArc
 50
90.0
 51
180.0
  0
ARC
  5
205
330
70
100
AcDbEntity
  8
OUTLINE
 48
0.2
100
AcDbCircle
 10
-266.4714850356395
 20
91.72293070968136
 30
0.0
 40
3.2
100
AcDbArc
 50
180.0
 51
270.0
  0
ARC
  5
206
330
70
100
AcDbEntity
  8
OUTLINE
 48
0.2
100
AcDbCircle
 10
-229.5714850356417
 20
116.0229307096842
 30
0.0
 40
1.6
100
AcDbArc
 50
90.0
 51
180.0
  0
ARC
  5
207
330
70
100
AcDbEntity
  8
OUTLINE
 48
0.2
100
AcDbCircle
 10
761.9285149643583
 20
91.72293070968136
 30
0.0
 40
6.4
100
AcDbArc
 50
311.3435448479322
 51
0.0
  0
ARC
  5
208
330
70
100
AcDbEntity
  8
OUTLINE
 48
0.2
100
AcDbCircle
 10
761.9285149643583
 20
82.12293070967552
 30
0.0
 40
6.4
100
AcDbArc
 50
0.0
 51
90.0
  0
ARC
  5
209
330
70
100
AcDbEntity
  8
OUTLINE
 48
0.2
100
AcDbCircle
 10
724.7285149643594
 20
82.12293070967552
 30
0.0
 40
6.4
100
AcDbArc
 50
90.0
 51
180.0
  0
ARC
  5
20A
330
70
100
AcDbEntity
  8
OUTLINE
 48
0.2
100
AcDbCircle
 10
761.9285149643583
 20
82.12293070967552
 30
0.0
 40
3.2
100
AcDbArc
 50
0.0
 51
90.0
  0
ARC
  5
20B
330
70
100
AcDbEntity
  8
OUTLINE
 48
0.2
100
AcDbCircle
 10
724.7285149643594
 20
82.12293070967552
 30
0.0
 40
3.2
100
AcDbArc
 50
90.0
 51
180.0
  0
ARC
  5
20C
330
70
100
AcDbEntity
  8
OUTLINE
 48
0.2
100
AcDbCircle
 10
761.9285149643583
 20
91.72293070968136
 30
0.0
 40
3.2
100
AcDbArc
 50
270.0
 51
0.0
  0
ARC
  5
20D
330
70
100
AcDbEntity
  8
OUTLINE
 48
0.2
100
AcDbCircle
 10
719.7285149643594
 20
114.1229307096755
 30
0.0
 40
1.199999999999999
100
AcDbArc
 50
0.0
 51
90.0
  0
ARC
  5
20E
330
70
100
AcDbEntity
  8
OUTLINE
 48
0.2
100
AcDbCircle
 10
-227.2714850356424
 20
-287.9770692903303
 30
0.0
 40
1.6
100
AcDbArc
 50
270.0
 51
0.0
  0
ARC
  5
20F
330
70
100
AcDbEntity
  8
OUTLINE
 48
0.2
100
AcDbCircle
 10
-227.2714850356424
 20
-287.9770692903303
 30
0.0
 40
0.8
100
AcDbArc
 50
270.0
 51
0.0
  0
ARC
  5
210
330
70
100
AcDbEntity
  8
OUTLINE
 48
0.2
100
AcDbCircle
 10
-224.0714850356417
 20
-341.7770692903186
 30
0.0
 40
1.6
100
AcDbArc
 50
180.0
 51
270.0
  0
ARC
  5
211
330
70
100
AcDbEntity
  8
OUTLINE
 48
0.2
100
AcDbCircle
 10
719.5285149643587
 20
-341.7770692903186
 30
0.0
 40
1.6
100
AcDbArc
 50
270.0
 51
0.0
  0
LINE
  5
212
330
70
100
AcDbEntity
  8
OUTLINE
 48
0.2
370
    13
100
AcDbLine
 10
-224.2714850356424
 20
120.3229307096762
 30
0.0
 11
719.7285149643594
 21
120.3229307096762
 31
0.0
  0
LINE
  5
213
330
70
100
AcDbEntity
  8
OUTLINE
  6
CENTER
 48
0.1
370
    13
100
AcDbLine
 10
-224.2714850356424
 20
120.3229307096762
 30
0.0
 11
-224.2714850356424
 21
117.6101785086894
 31
-0.0000000000000142
  0
LINE
  5
214
330
70
100
AcDbEntity
  8
OUTLINE
  6
CENTER
 48
0.1
370
    13
100
AcDbLine
 10
719.7285149643594
 20
115.3229307096762
 30
0.0
 11
719.7285149643594
 21
120.3229307096762
 31
0.0
  0
CIRCLE
  5
215
330
70
100
AcDbEntity
  8
FIX
  6
Continuous
 62
    11
100
AcDbCircle
 10
748.3285149643598
 20
88.52293070968427
 30
0.0
 40
15.47544973867843
  0
LINE
  5
218
330
70
100
AcDbEntity
  8
AM_7
  6
AM_ISO08W050x2
100
AcDbLine
 10
706.3434461737597
 20
88.52293070968427
 30
0.0
 11
789.3922974679408
 21
88.52293070968427
 31
0.0
1001
GENIUS_GENODEF_13
1002
{
1000
HIER
1070
     0
1002
}
1002
{
1000
MANEDIT
1070
     0
1002
}
1002
{
1000
NOSEL
1070
     0
1002
}
1002
{
1000
BEHIND
1070
     0
1002
}
1002
{
1000
OTHER
1070
     0
1002
}
1002
{
1000
REACTOR
1002
}
1001
GENIUS_GENOBJ-N-CEN_13
1002
{
1000
OWNER
1000
GEN
1002
}
1001
GENIUS_GENCEN_19
1002
{
1040
5.0
1002
}
  0
LINE
  5
21A
330
70
100
AcDbEntity
  8
AM_7
  6
AM_ISO08W050x2
100
AcDbLine
 10
748.3285149643598
 20
62.41270230622013
 30
0.0
 11
748.3285149643598
 21
117.9970857130492
 31
0.0
1001
GENIUS_GENODEF_13
1002
{
1000
HIER
1070
     0
1002
}
1002
{
1000
MANEDIT
1070
     0
1002
}
1002
{
1000
NOSEL
1070
     0
1002
}
1002
{
1000
BEHIND
1070
     0
1002
}
1002
{
1000
OTHER
1070
     0
1002
}
1002
{
1000
REACTOR
1002
}
1001
GENIUS_GENOBJ-N-CEN_13
1002
{
1000
OWNER
1000
GEN
1002
}
1001
GENIUS_GENCEN_19
1002
{
1040
5.0
1002
}
  0
CIRCLE
  5
21B
330
70
100
AcDbEntity
  8
FIX
  6
Continuous
 62
    11
100
AcDbCircle
 10
-252.871485035641
 20
88.52293070968427
 30
0.0
 40
15.47544973867843
  0
LINE
  5
21C
330
70
100
AcDbEntity
  8
AM_7
  6
AM_ISO08W050x2
100
AcDbLine
 10
-210.8864162450409
 20
88.52293070968427
 30
0.0
 11
-293.935267539222
 21
88.52293070968427
 31
0.0
1001
GENIUS_GENODEF_13
1002
{
1000
HIER
1070
     0
1002
}
1002
{
1000
MANEDIT
1070
     0
1002
}
1002
{
1000
NOSEL
1070
     0
1002
}
1002
{
1000
BEHIND
1070
     0
1002
}
1002
{
1000
OTHER
1070
     0
1002
}
1002
{
1000
REACTOR
1002
}
1001
GENIUS_GENOBJ-N-CEN_13
1002
{
1000
OWNER
1000
GEN
1002
}
1001
GENIUS_GENCEN_19
1002
{
1040
5.0
1002
}
  0
LINE
  5
21D
330
70
100
AcDbEntity
  8
AM_7
  6
AM_ISO08W050x2
100
AcDbLine
 10
-252.871485035641
 20
62.41270230622013
 30
0.0
 11
-252.871485035641
 21
117.9970857130492
 31
0.0
1001
GENIUS_GENODEF_13
1002
{
1000
HIER
1070
     0
1002
}
1002
{
1000
MANEDIT
1070
     0
1002
}
1002
{
1000
NOSEL
1070
     0
1002
}
1002
{
1000
BEHIND
1070
     0
1002
}
1002
{
1000
OTHER
1070
     0
1002
}
1002
{
1000
REACTOR
1002
}
1001
GENIUS_GENOBJ-N-CEN_13
1002
{
1000
OWNER
1000
GEN
1002
}
1001
GENIUS_GENCEN_19
1002
{
1040
5.0
1002
}
  0
LINE
  5
21E
330
70
100
AcDbEntity
  8
NOTE
  6
CENTER
100
AcDbLine
 10
-73.64683307864471
 20
-309.9899500593683
 30
0.0
 11
-73.64683307864471
 21
-445.2897456271066
 31
0.0
1001
GENIUS_GENODEF_13
1002
{
1000
HIER
1070
     0
1002
}
1002
{
1000
MANEDIT
1070
     0
1002
}
1002
{
1000
NOSEL
1070
     0
1002
}
1002
{
1000
BEHIND
1070
     0
1002
}
1002
{
1000
OTHER
1070
     0
1002
}
1002
{
1000
REACTOR
1002
}
1001
GENIUS_GENOBJ-N-CEN_13
1002
{
1000
OWNER
1000
GEN
1002
}
1001
GENIUS_GENCEN_19
1002
{
1040
5.0
1002
}
  0
LINE
  5
21F
330
70
100
AcDbEntity
  8
DETAIL
  6
PHANTOM
 62
     5
100
AcDbLine
 10
794.3285149643579
 20
10.57298206067298
 30
0.0
 11
725.328514964358
 21
18.57298206065843
 31
0.0
  0
LINE
  5
220
330
70
100
AcDbEntity
  8
DETAIL
  6
PHANTOM
 62
     5
100
AcDbLine
 10
725.328514964358
 20
18.57298206065843
 30
0.0
 11
719.4285149643583
 21
18.57298206065843
 31
0.0
  0
LINE
  5
221
330
70
100
AcDbEntity
  8
DETAIL
  6
PHANTOM
 62
     5
100
AcDbLine
 10
801.8285149643579
 20
10.57298206067298
 30
0.0
 11
794.3285149643579
 21
10.57298206067298
 31
0.0
  0
LINE
  5
222
330
70
100
AcDbEntity
  8
DETAIL
  6
PHANTOM
 62
     5
100
AcDbLine
 10
725.328514964358
 20
-189.427017939055
 30
0.0
 11
725.328514964358
 21
18.57298206065843
 31
0.0
  0
LINE
  5
223
330
70
100
AcDbEntity
  8
DETAIL
  6
PHANTOM
 62
     5
100
AcDbLine
 10
794.3285149643579
 20
-181.4270179393415
 30
0.0
 11
794.3285149643579
 21
10.57298206067298
 31
0.0
  0
LINE
  5
224
330
70
100
AcDbEntity
  8
DETAIL
  6
PHANTOM
 62
     5
100
AcDbLine
 10
802.9285149643582
 20
-180.3270179393357
 30
0.0
 11
802.9285149643582
 21
9.472982060667163
 31
0.0
  0
LINE
  5
225
330
70
100
AcDbEntity
  8
DETAIL
  6
PHANTOM
 62
     5
100
AcDbLine
 10
801.8285149643579
 20
-181.4270179393415
 30
0.0
 11
794.3285149643579
 21
-181.4270179393415
 31
0.0
  0
LINE
  5
226
330
70
100
AcDbEntity
  8
DETAIL
  6
PHANTOM
 62
     5
100
AcDbLine
 10
794.3285149643579
 20
-181.4270179393415
 30
0.0
 11
725.328514964358
 21
-189.427017939055
 31
0.0
  0
ARC
  5
227
330
70
100
AcDbEntity
  8
DETAIL
  6
PHANTOM
 62
     5
100
AcDbCircle
 10
801.8285149643579
 20
9.472982060667163
 30
0.0
 40
1.1
100
AcDbArc
 50
0.0
 51
90.0
  0
ARC
  5
228
330
70
100
AcDbEntity
  8
DETAIL
  6
PHANTOM
 62
     5
100
AcDbCircle
 10
801.8285149643579
 20
-180.3270179393357
 30
0.0
 40
1.1
100
AcDbArc
 50
270.0
 51
0.0
  0
LINE
  5
229
330
70
100
AcDbEntity
  8
NOTE
  6
CENTER
100
AcDbLine
 10
703.2936100720708
 20
-85.4270179393343
 30
0.0
 11
836.5001265378177
 21
-85.4270179393343
 31
0.0
1001
GENIUS_GENOBJ-N-CEN_13
1002
{
1000
OWNER
1000
GEN
1002
}
1001
GENIUS_GENODEF_13
1002
{
1000
HIER
1070
     0
1002
}
1002
{
1000
MANEDIT
1070
     0
1002
}
1002
{
1000
NOSEL
1070
     0
1002
}
1002
{
1000
BEHIND
1070
     0
1002
}
1002
{
1000
OTHER
1070
     0
1002
}
1002
{
1000
REACTOR
1002
}
1001
GENIUS_GENCEN_19
1002
{
1040
5.0
1002
}
  0
LINE
  5
22A
330
70
100
AcDbEntity
  8
DETAIL
  6
PHANTOM
100
AcDbLine
 10
719.4285149643583
 20
18.57298206065843
 30
0.0
 11
719.4285149643583
 21
-189.427017939327
 31
0.0
  0
LINE
  5
22B
330
70
100
AcDbEntity
  8
DETAIL
  6
PHANTOM
 62
     5
100
AcDbLine
 10
725.328514962015
 20
-189.427017939327
 30
0.0
 11
719.4285149643583
 21
-189.427017939327
 31
0.0
  0
LINE
  5
22C
330
70
100
AcDbEntity
  8
DETAIL
  6
PHANTOM
 62
     5
100
AcDbLine
 10
-313.9063899279281
 20
10.57298206067298
 30
0.0
 11
-244.9063899279281
 21
18.57298206065843
 31
0.0
  0
LINE
  5
22D
330
70
100
AcDbEntity
  8
DETAIL
  6
PHANTOM
 62
     5
100
AcDbLine
 10
-244.9063899279281
 20
18.57298206065843
 30
0.0
 11
-239.0063899279285
 21
18.57298206065843
 31
0.0
  0
LINE
  5
22E
330
70
100
AcDbEntity
  8
DETAIL
  6
PHANTOM
 62
     5
100
AcDbLine
 10
-321.4063899279281
 20
10.57298206067298
 30
0.0
 11
-313.9063899279281
 21
10.57298206067298
 31
0.0
  0
LINE
  5
22F
330
70
100
AcDbEntity
  8
DETAIL
  6
PHANTOM
 62
     5
100
AcDbLine
 10
-244.9063899279281
 20
-189.427017939055
 30
0.0
 11
-244.9063899279281
 21
18.57298206065843
 31
0.0
  0
LINE
  5
230
330
70
100
AcDbEntity
  8
DETAIL
  6
PHANTOM
 62
     5
100
AcDbLine
 10
-313.9063899279281
 20
-181.4270179393415
 30
0.0
 11
-313.9063899279281
 21
10.57298206067298
 31
0.0
  0
LINE
  5
231
330
70
100
AcDbEntity
  8
DETAIL
  6
PHANTOM
 62
     5
100
AcDbLine
 10
-322.5063899279285
 20
-180.3270179393357
 30
0.0
 11
-322.5063899279285
 21
9.472982060667163
 31
0.0
  0
LINE
  5
232
330
70
100
AcDbEntity
  8
DETAIL
  6
PHANTOM
 62
     5
100
AcDbLine
 10
-321.4063899279281
 20
-181.4270179393415
 30
0.0
 11
-313.9063899279281
 21
-181.4270179393415
 31
0.0
  0
LINE
  5
233
330
70
100
AcDbEntity
  8
DETAIL
  6
PHANTOM
 62
     5
100
AcDbLine
 10
-313.9063899279281
 20
-181.4270179393415
 30
0.0
 11
-244.9063899279281
 21
-189.427017939055
 31
0.0
  0
ARC
  5
234
330
70
100
AcDbEntity
  8
DETAIL
  6
PHANTOM
 62
     5
100
AcDbCircle
 10
-321.4063899279281
 20
9.472982060667163
 30
0.0
 40
1.1
100
AcDbArc
 50
90.0
 51
180.0
  0
ARC
  5
235
330
70
100
AcDbEntity
  8
DETAIL
  6
PHANTOM
 62
     5
100
AcDbCircle
 10
-321.4063899279281
 20
-180.3270179393357
 30
0.0
 40
1.1
100
AcDbArc
 50
180.0
 51
270.0
  0
LINE
  5
236
330
70
100
AcDbEntity
  8
NOTE
  6
CENTER
100
AcDbLine
 10
-222.8714850356409
 20
-85.4270179393343
 30
0.0
 11
-356.0780015013879
 21
-85.4270179393343
 31
0.0
1001
GENIUS_GENOBJ-N-CEN_13
1002
{
1000
OWNER
1000
GEN
1002
}
1001
GENIUS_GENODEF_13
1002
{
1000
HIER
1070
     0
1002
}
1002
{
1000
MANEDIT
1070
     0
1002
}
1002
{
1000
NOSEL
1070
     0
1002
}
1002
{
1000
BEHIND
1070
     0
1002
}
1002
{
1000
OTHER
1070
     0
1002
}
1002
{
1000
REACTOR
1002
}
1001
GENIUS_GENCEN_19
1002
{
1040
5.0
1002
}
  0
LINE
  5
237
330
70
100
AcDbEntity
  8
DETAIL
  6
PHANTOM
100
AcDbLine
 10
-239.0063899279285
 20
18.57298206065843
 30
0.0
 11
-239.0063899279285
 21
-189.427017939327
 31
0.0
  0
LINE
  5
238
330
70
100
AcDbEntity
  8
DETAIL
  6
PHANTOM
 62
     5
100
AcDbLine
 10
-244.9063899255853
 20
-189.427017939327
 30
0.0
 11
-239.0063899279285
 21
-189.427017939327
 31
0.0
  0
TEXT
  5
24A
330
70
100
AcDbEntity
  8
ETC
  6
Continuous
 62
    61
100
AcDbText
 10
-283.0692854684603
 20
899.4631361841138
 30
0.0
 40
80.0
  1
LGH-50RVS-E_4
 50
0.0000029998804485
 41
0.8
  7
STANDARD_MODELNAME
100
AcDbText
  0
DIMENSION
  5
24D
330
70
100
AcDbEntity
  8
SIZE
100
AcDbDimension
  2
*D17
 10
-339.2714850356429
 20
-568.1228391615268
 30
0.0
 11
-282.4714850341329
 21
-568.1228391615268
 31
0.0
 70
   160
  1
 
 71
     5
 42
113.6000000030199
  3
JIS2$0
100
AcDbAlignedDimension
 13
-225.6714850326229
 23
-341.777069293782
 33
0.0
 14
-339.2714850356429
 24
-211.2270692903158
 34
0.0
100
AcDbRotatedDimension
1001
ACAD_DSTYLE_DIMINSPECT
1070
   396
1000
100%
1070
   395
1000

1070
   394
1070
    33
1070
   393
1070
     0
1001
ACAD
1000
DSTYLE
1002
{
1070
    41
1040
30.0
1070
   144
1040
15.0
1070
   173
1070
     1
1070
   271
1070
     0
1070
   342
1005
0
1070
   343
1005
256
1070
   344
1005
256
1002
}
1001
ACAD_DSTYLE_DIMFLIPARROW_WHICH_SYMBOL
1070
   386
1070
     1
  0
DIMENSION
  5
262
330
70
100
AcDbEntity
  8
SIZE
100
AcDbDimension
  2
*D18
 10
-501.6524358033515
 20
120.3229307184983
 30
0.0
 11
-501.6524358033514
 21
84.74793071754447
 31
0.0
 70
   160
  1
 
 71
     5
 42
71.15000000190775
  3
JIS2$0
100
AcDbAlignedDimension
 13
-338.0714850356107
 23
49.17293071659059
 33
0.0
 14
-224.271485032586
 24
120.3229307184983
 34
0.0
 50
270.0
100
AcDbRotatedDimension
1001
ACAD_DIMASSOC_OVERRIDDEN_DIMLFAC
1040
15.0
1001
ACAD_DIMASSOC_CALC_DIMLFAC
1040
-19.9999999889444
1001
ACAD_DIMASSOC_DIMLFAC
1040
-19.9999999889444
1001
ACAD_DSTYLE_DIMINSPECT
1070
   396
1000
100%
1070
   395
1000

1070
   394
1070
    33
1070
   393
1070
     0
1001
ACAD
1000
DSTYLE
1002
{
1070
    41
1040
30.0
1070
   343
1005
256
1070
   342
1005
0
1070
   173
1070
     1
1070
   344
1005
256
1070
   144
1040
19.9999999889444
1070
   147
1040
1.0
1070
   271
1070
     0
1002
}
  0
DIMENSION
  5
26E
330
70
100
AcDbEntity
  8
SIZE
100
AcDbDimension
  2
*D19
 10
-586.5759571781242
 20
120.3229307184983
 30
0.0
 11
-586.575957178124
 21
-113.1361676326023
 31
0.0
 70
   160
  1
 
 71
     5
 42
463.7000000123371
  3
JIS2$0
100
AcDbAlignedDimension
 13
-224.0714850325808
 23
-343.3770692938387
 33
0.0
 14
-224.271485032586
 24
120.3229307184983
 34
0.0
 50
270.0
100
AcDbRotatedDimension
1001
ACAD_DIMASSOC_OVERRIDDEN_DIMLFAC
1040
15.0
1001
ACAD_DIMASSOC_CALC_DIMLFAC
1040
-19.9999999889444
1001
ACAD_DIMASSOC_DIMLFAC
1040
-19.9999999889444
1001
ACAD_DSTYLE_DIMINSPECT
1070
   396
1000
100%
1070
   395
1000

1070
   394
1070
    33
1070
   393
1070
     0
1001
ACAD
1000
DSTYLE
1002
{
1070
    41
1040
30.0
1070
   343
1005
256
1070
   342
1005
0
1070
   173
1070
     1
1070
   344
1005
256
1070
   144
1040
19.9999999889444
1070
   271
1070
     0
1002
}
  0
DIMENSION
  5
27A
330
70
100
AcDbEntity
  8
SIZE
100
AcDbDimension
  2
*D20
 10
860.9046747776609
 20
88.52293071765148
 30
0.0
 11
860.9046747776607
 21
104.4229307180747
 31
0.0
 70
   160
  1
 
 71
     5
 42
31.80000000084695
  3
JIS2$0
100
AcDbAlignedDimension
 13
719.72851499251
 23
120.3229307184983
 33
0.0
 14
761.9285149936309
 24
88.52293071765144
 34
0.0
 50
270.0
100
AcDbRotatedDimension
1001
ACAD_DIMASSOC_OVERRIDDEN_DIMLFAC
1040
15.0
1001
ACAD_DIMASSOC_CALC_DIMLFAC
1040
-19.9999999889444
1001
ACAD_DIMASSOC_DIMLFAC
1040
-19.9999999889444
1001
ACAD_DSTYLE_DIMINSPECT
1070
   396
1000
100%
1070
   395
1000

1070
   394
1070
    33
1070
   393
1070
     0
1001
ACAD
1000
DSTYLE
1002
{
1070
    41
1040
30.0
1070
   343
1005
256
1070
   342
1005
0
1070
   173
1070
     1
1070
   344
1005
256
1070
   144
1040
19.9999999889444
1070
   271
1070
     0
1002
}
  0
DIMENSION
  5
288
330
70
100
AcDbEntity
  8
SIZE
100
AcDbDimension
  2
*D21
 10
181.9993220351483
 20
-408.4567762385606
 30
0.0
 11
181.9993220351481
 21
-375.9169227661997
 31
0.0
 70
   160
  1
 
 71
     5
 42
65.07970694472175
  3
JIS2$0
100
AcDbAlignedDimension
 13
7.835561089584643
 23
-343.3770692938387
 33
0.0
 14
-73.64668371758125
 24
-408.4567762385604
 34
0.0
 50
270.0
100
AcDbRotatedDimension
1001
ACAD_DIMASSOC_OVERRIDDEN_DIMLFAC
1040
15.0
1001
ACAD_DIMASSOC_CALC_DIMLFAC
1040
-19.9999999889444
1001
ACAD_DIMASSOC_DIMLFAC
1040
-19.9999999889444
1001
ACAD_DSTYLE_DIMINSPECT
1070
   396
1000
100%
1070
   395
1000

1070
   394
1070
    33
1070
   393
1070
     0
1001
ACAD
1000
DSTYLE
1002
{
1070
    41
1040
30.0
1070
   144
1040
19.9999999889444
1070
   173
1070
     1
1070
   271
1070
     0
1070
   342
1005
0
1070
   343
1005
256
1070
   344
1005
256
1002
}
  0
DIMENSION
  5
294
330
70
100
AcDbEntity
  8
SIZE
100
AcDbDimension
  2
*D22
 10
-225.4714850326173
 20
-568.1228391615268
 30
0.0
 11
-127.6191681288328
 21
-568.1228391615268
 31
0.0
 70
   160
  1
 
 71
     5
 42
151.8246535130356
  3
JIS2$0
100
AcDbAlignedDimension
 13
-73.64683151958161
 23
-444.9407134917028
 33
0.0
 14
-225.4714850326172
 24
98.72293071791773
 34
0.0
100
AcDbRotatedDimension
1001
ACAD_DIMASSOC_OVERRIDDEN_DIMLFAC
1040
15.0
1001
ACAD_DIMASSOC_CALC_DIMLFAC
1040
-19.9999999889444
1001
ACAD_DIMASSOC_DIMLFAC
1040
-19.9999999889444
1001
ACAD_DSTYLE_DIMINSPECT
1070
   396
1000
100%
1070
   395
1000

1070
   394
1070
    33
1070
   393
1070
     0
1001
ACAD
1000
DSTYLE
1002
{
1070
    41
1040
30.0
1070
   144
1040
19.9999999889444
1070
   173
1070
     1
1070
   271
1070
     0
1070
   342
1005
0
1070
   343
1005
256
1070
   344
1005
256
1002
}
1001
ACAD_DSTYLE_DIMFLIPARROW_WHICH_SYMBOL
1070
   386
1070
     1
  0
DIMENSION
  5
2A2
330
70
100
AcDbEntity
  8
SIZE
100
AcDbDimension
  2
*D23
 10
-388.7970994869268
 20
120.3229307184984
 30
0.0
 11
-388.7970994869267
 21
37.74795639179775
 31
0.0
 70
   160
  1
 
 71
     5
 42
165.1499486534013
  3
JIS2$0
100
AcDbAlignedDimension
 13
-212.8350674477965
 23
-44.82701793490287
 33
0.0
 14
-224.2714850325856
 24
120.3229307184983
 34
0.0
 50
270.0
100
AcDbRotatedDimension
1001
ACAD_DIMASSOC_CALC_DIMLFAC
1040
-19.99999999946832
1001
ACAD_DIMASSOC_DIMLFAC
1040
-19.99999999946832
1001
ACAD_DIMASSOC_OVERRIDDEN_DIMLFAC
1040
15.0
1001
ACAD_DSTYLE_DIMINSPECT
1070
   396
1000
100%
1070
   395
1000

1070
   394
1070
    33
1070
   393
1070
     0
1001
ACAD
1000
DSTYLE
1002
{
1070
    41
1040
30.0
1070
   343
1005
256
1070
   342
1005
0
1070
   173
1070
     1
1070
   344
1005
256
1070
   144
1040
19.99999999946832
1070
   147
1040
1.0
1070
   271
1070
     0
1002
}
1001
ACAD_DSTYLE_DIMFLIPARROW_WHICH_SYMBOL
1070
   386
1070
     3
  0
MTEXT
  5
2B2
330
70
100
AcDbEntity
  8
SIZE
100
AcDbMText
 10
807.0055507029209
 20
191.8596708805998
 30
0.0
 40
40.0
 41
242.2450763362503
 71
     3
 72
     5
  1
32
 11
0.0000000000000001
 21
1.0
 31
0.0
 73
     1
 44
1.0
1001
ACAD
1000
ACAD_MTEXT_COLUMN_INFO_BEGIN
1070
    75
1070
     2
1070
    79
1070
     0
1070
    76
1070
     1
1070
    78
1070
     0
1070
    48
1040
242.2450763362503
1070
    49
1040
17.5
1070
    50
1070
     1
1040
0.0
1000
ACAD_MTEXT_COLUMN_INFO_END
1000
MTEXTBEGIN
1070
    73
1070
     1
1070
    44
1040
1.0
1070
    74
1070
     0
1000
MTEXTEND
  0
MTEXT
  5
2B3
330
70
100
AcDbEntity
  8
SIZE
100
AcDbMText
 10
-112.5056096903372
 20
-516.4702148611673
 30
0.0
 40
40.0
 41
242.2450763362503
 71
     3
 72
     5
  1
153
 73
     1
 44
1.0
1001
ACAD
1000
ACAD_MTEXT_COLUMN_INFO_BEGIN
1070
    75
1070
     2
1070
    79
1070
     0
1070
    76
1070
     1
1070
    78
1070
     0
1070
    48
1040
242.2450763362503
1070
    49
1040
17.5
1070
    50
1070
     1
1040
0.0
1000
ACAD_MTEXT_COLUMN_INFO_END
1000
MTEXTBEGIN
1070
    73
1070
     1
1070
    44
1040
1.0
1070
    74
1070
     0
1000
MTEXTEND
  0
MTEXT
  5
2B4
330
70
100
AcDbEntity
  8
SIZE
100
AcDbMText
 10
-253.4538920771083
 20
-517.9314948800319
 30
0.0
 40
40.0
 41
242.2450763362503
 71
     3
 72
     5
  1
115
 73
     1
 44
1.0
1001
ACAD
1000
ACAD_MTEXT_COLUMN_INFO_BEGIN
1070
    75
1070
     2
1070
    79
1070
     0
1070
    76
1070
     1
1070
    78
1070
     0
1070
    48
1040
242.2450763362503
1070
    49
1040
17.5
1070
    50
1070
     1
1040
0.0
1000
ACAD_MTEXT_COLUMN_INFO_END
1000
MTEXTBEGIN
1070
    73
1070
     1
1070
    44
1040
1.0
1070
    74
1070
     0
1000
MTEXTEND
  0
MTEXT
  5
2B5
330
70
100
AcDbEntity
  8
SIZE
100
AcDbMText
 10
113.4673251859985
 20
-351.781524661747
 30
0.0
 40
40.0
 41
242.2450763362503
 71
     3
 72
     5
  1
64
 11
0.0000000000000001
 21
1.0
 31
0.0
 73
     1
 44
1.0
1001
ACAD
1000
ACAD_MTEXT_COLUMN_INFO_BEGIN
1070
    75
1070
     2
1070
    79
1070
     0
1070
    76
1070
     1
1070
    78
1070
     0
1070
    48
1040
242.2450763362503
1070
    49
1040
17.5
1070
    50
1070
     1
1040
0.0
1000
ACAD_MTEXT_COLUMN_INFO_END
1000
MTEXTBEGIN
1070
    73
1070
     1
1070
    44
1040
1.0
1070
    74
1070
     0
1000
MTEXTEND
  0
MTEXT
  5
2B6
330
70
100
AcDbEntity
  8
SIZE
100
AcDbMText
 10
-638.1627902108102
 20
-63.53830872512571
 30
0.0
 40
40.0
 41
242.2450763362503
 71
     3
 72
     5
  1
465
 11
0.0000000000000001
 21
1.0
 31
0.0
 73
     1
 44
1.0
1001
ACAD
1000
ACAD_MTEXT_COLUMN_INFO_BEGIN
1070
    75
1070
     2
1070
    79
1070
     0
1070
    76
1070
     1
1070
    78
1070
     0
1070
    48
1040
242.2450763362503
1070
    49
1040
17.5
1070
    50
1070
     1
1040
0.0
1000
ACAD_MTEXT_COLUMN_INFO_END
1000
MTEXTBEGIN
1070
    73
1070
     1
1070
    44
1040
1.0
1070
    74
1070
     0
1000
MTEXTEND
  0
MTEXT
  5
2B7
330
70
100
AcDbEntity
  8
SIZE
100
AcDbMText
 10
-557.9781275633349
 20
108.2541161893323
 30
0.0
 40
40.0
 41
242.2450763362503
 71
     3
 72
     5
  1
71
 11
0.0000000000000001
 21
1.0
 31
0.0
 73
     1
 44
1.0
1001
ACAD
1000
ACAD_MTEXT_COLUMN_INFO_BEGIN
1070
    75
1070
     2
1070
    79
1070
     0
1070
    76
1070
     1
1070
    78
1070
     0
1070
    48
1040
242.2450763362503
1070
    49
1040
17.5
1070
    50
1070
     1
1040
0.0
1000
ACAD_MTEXT_COLUMN_INFO_END
1000
MTEXTBEGIN
1070
    73
1070
     1
1070
    44
1040
1.0
1070
    74
1070
     0
1000
MTEXTEND
  0
MTEXT
  5
2B8
330
70
100
AcDbEntity
  8
SIZE
100
AcDbMText
 10
-450.7771060377099
 20
32.93885188663399
 30
0.0
 40
40.0
 41
242.2450763362503
 71
     3
 72
     5
  1
165
 11
0.0000000000000001
 21
1.0
 31
0.0
 73
     1
 44
1.0
1001
ACAD
1000
ACAD_MTEXT_COLUMN_INFO_BEGIN
1070
    75
1070
     2
1070
    79
1070
     0
1070
    76
1070
     1
1070
    78
1070
     0
1070
    48
1040
242.2450763362503
1070
    49
1040
17.5
1070
    50
1070
     1
1040
0.0
1000
ACAD_MTEXT_COLUMN_INFO_END
1000
MTEXTBEGIN
1070
    73
1070
     1
1070
    44
1040
1.0
1070
    74
1070
     0
1000
MTEXTEND
  0
DIMENSION
  5
2B9
102
{ACAD_XDICTIONARY
360
2BA
102
}
102
{ACAD_REACTORS
330
2BB
102
}
330
70
100
AcDbEntity
  8
SIZE
100
AcDbDimension
  2
*D24
 10
593.7285149643575
 20
301.3664989723356
 30
0.0
 11
247.7285149633581
 21
301.3664989723356
 31
0.0
 70
    32
  1
 
 71
     5
 42
692.0000000019991
  3
JIS2$0
100
AcDbAlignedDimension
 13
-98.27148503764147
 23
81.17483567066575
 33
0.0
 14
593.7285149643575
 24
93.11410705537037
 34
0.0
100
AcDbRotatedDimension
1001
ACAD_DIMASSOC_CALC_DIMLFAC
1040
-1.0
1001
ACAD_DIMASSOC_DIMLFAC
1040
-1.0
1001
ACAD_DIMASSOC_OVERRIDDEN_DIMLFAC
1040
-1.0
1001
ACAD_DSTYLE_DIMINSPECT
1070
   396
1000
100%
1070
   395
1000

1070
   394
1070
    33
1070
   393
1070
     0
1001
ACAD
1000
DSTYLE
1002
{
1070
    41
1040
30.0
1070
   343
1005
256
1070
   342
1005
0
1070
   173
1070
     1
1070
   344
1005
256
1070
     3
1000

1070
   144
1040
1.0
1002
}
  0
MTEXT
  5
2C7
330
70
100
AcDbEntity
  8
SIZE
100
AcDbMText
 10
285.822174853256
 20
355.4900815717406
 30
0.0
 40
40.0
 41
242.2450763362503
 71
     3
 72
     5
  1
692
 73
     1
 44
1.0
1001
ACAD
1000
ACAD_MTEXT_COLUMN_INFO_BEGIN
1070
    75
1070
     2
1070
    79
1070
     0
1070
    76
1070
     1
1070
    78
1070
     0
1070
    48
1040
242.2450763362503
1070
    49
1040
17.5
1070
    50
1070
     1
1040
0.0
1000
ACAD_MTEXT_COLUMN_INFO_END
1000
MTEXTBEGIN
1070
    73
1070
     1
1070
    44
1040
1.0
1070
    74
1070
     0
1000
MTEXTEND
  0
DIMENSION
  5
2C8
102
{ACAD_XDICTIONARY
360
2C9
102
}
102
{ACAD_REACTORS
330
2CA
102
}
330
70
100
AcDbEntity
  8
SIZE
100
AcDbDimension
  2
*D25
 10
-225.4714850356438
 20
377.9564517983471
 30
0.0
 11
247.7285149643578
 21
377.9564517983471
 31
0.0
 70
    32
  1
 
 71
     5
 42
946.4000000000032
  3
JIS2$0
100
AcDbAlignedDimension
 13
720.9285149643594
 23
114.1229307096755
 33
0.0
 14
-225.4714850356438
 24
114.1229307096755
 34
0.0
100
AcDbRotatedDimension
1001
ACAD_DIMASSOC_CALC_DIMLFAC
1040
-1.0
1001
ACAD_DIMASSOC_DIMLFAC
1040
-1.0
1001
ACAD_DIMASSOC_OVERRIDDEN_DIMLFAC
1040
-1.0
1001
ACAD_DSTYLE_DIMINSPECT
1070
   396
1000
100%
1070
   395
1000

1070
   394
1070
    33
1070
   393
1070
     0
1001
ACAD
1000
DSTYLE
1002
{
1070
    41
1040
30.0
1070
   343
1005
256
1070
   342
1005
0
1070
   173
1070
     1
1070
   344
1005
256
1070
     3
1000

1070
   144
1040
1.0
1002
}
  0
MTEXT
  5
2D6
330
70
100
AcDbEntity
  8
SIZE
100
AcDbMText
 10
279.0201556086558
 20
426.4525336968695
 30
0.0
 40
40.0
 41
242.2450763362503
 71
     3
 72
     5
  1
946
 73
     1
 44
1.0
1001
ACAD
1000
ACAD_MTEXT_COLUMN_INFO_BEGIN
1070
    75
1070
     2
1070
    79
1070
     0
1070
    76
1070
     1
1070
    78
1070
     0
1070
    48
1040
242.2450763362503
1070
    49
1040
17.5
1070
    50
1070
     1
1040
0.0
1000
ACAD_MTEXT_COLUMN_INFO_END
1000
MTEXTBEGIN
1070
    73
1070
     1
1070
    44
1040
1.0
1070
    74
1070
     0
1000
MTEXTEND
  0
DIMENSION
  5
2D7
102
{ACAD_XDICTIONARY
360
2D8
102
}
102
{ACAD_REACTORS
330
2D9
102
}
330
70
100
AcDbEntity
  8
SIZE
100
AcDbDimension
  2
*D26
 10
-252.8714850356409
 20
459.1431101114457
 30
0.0
 11
250.8458811753885
 21
459.1431101114457
 31
0.0
 70
   160
  1
 
 71
     5
 42
1001.2
  3
JIS2$0
100
AcDbAlignedDimension
 13
748.3285149643598
 23
117.9970857130492
 33
0.0
 14
-252.871485035641
 24
117.9970857130492
 34
0.0
100
AcDbRotatedDimension
1001
ACAD_DIMASSOC_CALC_DIMLFAC
1040
-1.0
1001
ACAD_DIMASSOC_DIMLFAC
1040
-1.0
1001
ACAD_DIMASSOC_OVERRIDDEN_DIMLFAC
1040
-1.0
1001
ACAD_DSTYLE_DIMINSPECT
1070
   396
1000
100%
1070
   395
1000

1070
   394
1070
    33
1070
   393
1070
     0
1001
ACAD
1000
DSTYLE
1002
{
1070
    41
1040
30.0
1070
   144
1040
1.0
1070
   173
1070
     1
1070
   342
1005
0
1070
   343
1005
256
1070
   344
1005
256
1002
}
  0
MTEXT
  5
2E5
330
70
100
AcDbEntity
  8
SIZE
100
AcDbMText
 10
294.050962065161
 20
505.9383928540969
 30
0.0
 40
40.0
 41
242.2450763362503
 71
     3
 72
     5
  1
1001
 73
     1
 44
1.0
1001
ACAD
1000
ACAD_MTEXT_COLUMN_INFO_BEGIN
1070
    75
1070
     2
1070
    79
1070
     0
1070
    76
1070
     1
1070
    78
1070
     0
1070
    48
1040
242.2450763362503
1070
    49
1040
17.5
1070
    50
1070
     1
1040
0.0
1000
ACAD_MTEXT_COLUMN_INFO_END
1000
MTEXTBEGIN
1070
    73
1070
     1
1070
    44
1040
1.0
1070
    74
1070
     0
1000
MTEXTEND
  0
DIMENSION
  5
2E6
102
{ACAD_XDICTIONARY
360
2E7
102
}
102
{ACAD_REACTORS
330
2E8
102
}
330
70
100
AcDbEntity
  8
SIZE
100
AcDbDimension
  2
*D27
 10
505.1594997030627
 20
-7.792902151793725
 30
0.0
 11
896.4178863162066
 21
-171.3933265376134
 31
0.0
 70
   163
  1
 
 71
     5
 42
191.9999999999995
  3
JIS2$3
100
AcDbDiametricDimension
 15
682.2975302256529
 25
-81.86123642885005
 35
0.0
 40
0.0
1001
ACAD_DIMASSOC_CALC_DIMLFAC
1040
-1.0
1001
ACAD_DIMASSOC_DIMLFAC
1040
-1.0
1001
ACAD_DIMASSOC_OVERRIDDEN_DIMLFAC
1040
-1.0
1001
ACAD_DSTYLE_DIMRADIAL_EXTENSION
1070
   387
1070
     1
1070
   388
1040
0.0
1070
   390
1040
0.0
1001
ACAD_DSTYLE_DIMINSPECT
1070
   396
1000
100%
1070
   395
1000

1070
   394
1070
    33
1070
   393
1070
     0
1001
ACAD
1000
DSTYLE
1002
{
1070
     3
1000

1070
    41
1040
30.0
1070
   343
1005
256
1070
   342
1005
0
1070
   173
1070
     1
1070
   344
1005
256
1070
   144
1040
1.0
1002
}
  0
MTEXT
  5
2F2
330
70
100
AcDbEntity
  8
SIZE
100
AcDbMText
 10
926.3928789063536
 20
-134.7318617464321
 30
0.0
 40
40.0
 41
242.2450763362503
 71
     3
 72
     5
  1
φ192
 11
0.9180492053685359
 21
-0.3964664633007435
 31
0.0
 73
     1
 44
1.0
1001
ACAD
1000
ACAD_MTEXT_COLUMN_INFO_BEGIN
1070
    75
1070
     2
1070
    79
1070
     0
1070
    76
1070
     1
1070
    78
1070
     0
1070
    48
1040
242.2450763362503
1070
    49
1040
17.5
1070
    50
1070
     1
1040
0.0
1000
ACAD_MTEXT_COLUMN_INFO_END
1000
MTEXTBEGIN
1070
    73
1070
     1
1070
    44
1040
1.0
1070
    74
1070
     0
1000
MTEXTEND
  0
DIMENSION
  5
2F3
102
{ACAD_XDICTIONARY
360
2F4
102
}
102
{ACAD_REACTORS
330
2F5
102
}
330
70
100
AcDbEntity
  8
SIZE
100
AcDbDimension
  2
*D28
 10
516.9103844908992
 20
25.27981218762554
 30
0.0
 11
835.8946621112115
 21
-265.8362668763254
 31
0.0
 70
   163
  1
 
 71
     5
 42
207.9999999999991
  3
JIS2$3
100
AcDbDiametricDimension
 15
670.5466454378125
 25
-114.9339507682681
 35
0.0
 40
0.0
1001
ACAD_DIMASSOC_CALC_DIMLFAC
1040
-1.0
1001
ACAD_DIMASSOC_DIMLFAC
1040
-1.0
1001
ACAD_DIMASSOC_OVERRIDDEN_DIMLFAC
1040
-1.0
1001
ACAD_DSTYLE_DIMRADIAL_EXTENSION
1070
   387
1070
     1
1070
   388
1040
0.0
1070
   390
1040
0.0
1001
ACAD_DSTYLE_DIMINSPECT
1070
   396
1000
100%
1070
   395
1000

1070
   394
1070
    33
1070
   393
1070
     0
1001
ACAD
1000
DSTYLE
1002
{
1070
    41
1040
30.0
1070
   144
1040
1.0
1070
   173
1070
     1
1070
   342
1005
0
1070
   343
1005
256
1070
   344
1005
256
1002
}
  0
MTEXT
  5
2FF
330
70
100
AcDbEntity
  8
SIZE
100
AcDbMText
 10
891.2445462357519
 20
-245.7241253901653
 30
0.0
 40
40.0
 41
242.2450763362503
 71
     3
 72
     5
  1
φ208
 11
0.7451066841859819
 21
-0.6669452969932181
 31
0.0
 73
     1
 44
1.0
1001
ACAD
1000
ACAD_MTEXT_COLUMN_INFO_BEGIN
1070
    75
1070
     2
1070
    79
1070
     0
1070
    76
1070
     1
1070
    78
1070
     0
1070
    48
1040
242.2450763362503
1070
    49
1040
17.5
1070
    50
1070
     1
1040
0.0
1000
ACAD_MTEXT_COLUMN_INFO_END
1000
MTEXTBEGIN
1070
    73
1070
     1
1070
    44
1040
1.0
1070
    74
1070
     0
1000
MTEXTEND
  0
INSERT
  5
300
330
70
100
AcDbEntity
  8
0
100
AcDbBlockReference
  2
CustomObjectsInViewport1_0
 10
0.0
 20
0.0
 30
0.0
  0
ENDSEC
  0
SECTION
  2
OBJECTS
  0
DICTIONARY
  5
C
330
0
100
AcDbDictionary
281
     1
  3
ACAD_2007HEADERVARS_RT
350
5C1
  3
ACAD_CIP_PREVIOUS_PRODUCT_INFO
350
55A
  3
ACAD_COLOR
350
63
  3
ACAD_DETAILVIEWSTYLE
350
6A
  3
ACAD_FIELDLIST
350
5AD
  3
ACAD_GROUP
350
D
  3
ACAD_LAYOUT
350
62
  3
ACAD_MATERIAL
350
10
  3
ACAD_MLEADERSTYLE
350
66
  3
ACAD_MLINESTYLE
350
5F
  3
ACAD_PLOTSETTINGS
350
61
  3
ACAD_PLOTSTYLENAME
350
E
  3
ACAD_SCALELIST
350
42
  3
ACAD_SECTIONVIEWSTYLE
350
68
  3
ACAD_TABLESTYLE
350
64
  3
ACAD_VISUALSTYLE
350
29
  3
ACDB_RECOMPOSE_DATA
350
5BF
  3
AcDbVariableDictionary
350
542
  3
AcmDictionary
350
57B
  3
AMG
350
55B
  3
ASE_INDEX_DICTIONARY
350
53F
  3
DWGPROPS
350
5C0
  0
DICTIONARY
  5
C4
330
C3
100
AcDbDictionary
280
     1
281
     1
  3
ADSK_XREC_LAYER_RECONCILED
360
C5
  0
DICTIONARY
  5
C8
330
C7
100
AcDbDictionary
280
     1
281
     1
  0
DICTIONARY
  5
193
330
192
100
AcDbDictionary
280
     1
281
     1
  0
DICTIONARY
  5
196
330
195
100
AcDbDictionary
280
     1
281
     1
  0
DICTIONARY
  5
1CF
330
1CE
100
AcDbDictionary
280
     1
281
     1
  0
DICTIONARY
  5
1D6
330
1D5
100
AcDbDictionary
280
     1
281
     1
  0
DICTIONARY
  5
217
330
216
100
AcDbDictionary
280
     1
281
     1
  0
DICTIONARY
  5
24C
330
24B
100
AcDbDictionary
280
     1
281
     1
  0
DICTIONARY
  5
24F
330
24E
100
AcDbDictionary
280
     1
281
     1
  0
DICTIONARY
  5
248
330
70
100
AcDbDictionary
280
     1
281
     1
  3
ACAD_SORTENTS
360
249
  0
DICTIONARY
  5
2BA
330
2B9
100
AcDbDictionary
280
     1
281
     1
  3
ACAD_DIMASSOC
360
2BB
  0
DICTIONARY
  5
2C9
330
2C8
100
AcDbDictionary
280
     1
281
     1
  3
ACAD_DIMASSOC
360
2CA
  0
DICTIONARY
  5
2D8
330
2D7
100
AcDbDictionary
280
     1
281
     1
  3
ACAD_DIMASSOC
360
2D9
  0
DICTIONARY
  5
2E7
330
2E6
100
AcDbDictionary
280
     1
281
     1
  3
ACAD_DIMASSOC
360
2E8
  0
DICTIONARY
  5
2F4
330
2F3
100
AcDbDictionary
280
     1
281
     1
  3
ACAD_DIMASSOC
360
2F5
  0
DICTIONARY
  5
5C1
102
{ACAD_REACTORS
330
C
102
}
330
C
100
AcDbDictionary
281
     1
  3
DIMARCSYM
350
5C2
  3
DIMLTEX1
350
5C4
  3
DIMLTEX2
350
5C5
  3
DIMLTYPE
350
5C3
  0
XRECORD
  5
55A
102
{ACAD_REACTORS
330
C
102
}
330
C
100
AcDbXrecord
280
     1
300
AMECH_PP
300
2019
300
87089AMECH_PP_2019_0F
  0
DICTIONARY
  5
63
102
{ACAD_REACTORS
330
C
102
}
330
C
100
AcDbDictionary
281
     1
  0
DICTIONARY
  5
6A
102
{ACAD_REACTORS
330
C
102
}
330
C
100
AcDbDictionary
281
     1
  3
Imperial24
350
6B
  3
Metric50
350
54F
  0
FIELDLIST
  5
5AD
102
{ACAD_REACTORS
330
C
102
}
330
C
100
AcDbIdSet
 90
        3
330
5AB
330
5AC
330
5AE
100
AcDbFieldList
  0
DICTIONARY
  5
D
102
{ACAD_REACTORS
330
C
102
}
330
C
100
AcDbDictionary
281
     1
  0
DICTIONARY
  5
62
102
{ACAD_REACTORS
330
C
102
}
330
C
100
AcDbDictionary
281
     1
  3
Model
350
73
  3
レイアウト1
350
6F
  3
レイアウト2
350
77
  0
DICTIONARY
  5
10
102
{ACAD_REACTORS
330
C
102
}
330
C
100
AcDbDictionary
281
     1
  3
ByBlock
350
19
  3
ByLayer
350
11
  3
Global
350
21
  0
DICTIONARY
  5
66
102
{ACAD_REACTORS
330
C
102
}
330
C
100
AcDbDictionary
281
     1
  3
Standard
350
67
  0
DICTIONARY
  5
5F
102
{ACAD_REACTORS
330
C
102
}
330
C
100
AcDbDictionary
281
     1
  3
Standard
350
60
  0
DICTIONARY
  5
61
102
{ACAD_REACTORS
330
C
102
}
330
C
100
AcDbDictionary
281
     1
  0
ACDBDICTIONARYWDFLT
  5
E
102
{ACAD_REACTORS
330
C
102
}
330
C
100
AcDbDictionary
281
     1
  3
Normal
350
F
100
AcDbDictionaryWithDefault
340
F
  0
DICTIONARY
  5
42
102
{ACAD_REACTORS
330
C
102
}
330
C
100
AcDbDictionary
281
     1
  3
*A1
350
BE
  3
*A2
350
BF
  3
*A3
350
C0
  3
*A4
350
C1
  3
A0
350
43
  3
A1
350
44
  3
A2
350
45
  3
A3
350
46
  3
A4
350
47
  3
A5
350
48
  3
A6
350
49
  3
A7
350
4A
  3
A8
350
4B
  3
A9
350
4C
  3
B0
350
4D
  3
B1
350
4E
  3
B2
350
4F
  3
B3
350
50
  3
B4
350
51
  3
B5
350
52
  3
B6
350
53
  0
DICTIONARY
  5
68
102
{ACAD_REACTORS
330
C
102
}
330
C
100
AcDbDictionary
281
     1
  3
Imperial24
350
69
  3
Metric50
350
54E
  0
DICTIONARY
  5
64
102
{ACAD_REACTORS
330
C
102
}
330
C
100
AcDbDictionary
281
     1
  3
Standard
350
65
  0
DICTIONARY
  5
29
102
{ACAD_REACTORS
330
C
102
}
330
C
100
AcDbDictionary
281
     1
  3
2dWireframe
350
2F
  3
Basic
350
2E
  3
Brighten
350
35
  3
ColorChange
350
39
  3
Conceptual
350
32
  3
Dim
350
34
  3
EdgeColorOff
350
41
  3
Facepattern
350
38
  3
Flat
350
2A
  3
FlatWithEdges
350
2B
  3
Gouraud
350
2C
  3
GouraudWithEdges
350
2D
  3
Hidden
350
31
  3
JitterOff
350
3F
  3
Linepattern
350
37
  3
OverhangOff
350
40
  3
Realistic
350
33
  3
Shaded
350
3E
  3
Shaded with edges
350
3D
  3
Shades of Gray
350
3A
  3
Sketchy
350
3B
  3
Thicken
350
36
  3
Wireframe
350
30
  3
X-Ray
350
3C
  0
XRECORD
  5
5BF
102
{ACAD_REACTORS
330
C
102
}
330
C
100
AcDbXrecord
280
     1
 90
        1
330
65
330
2B2
330
2B3
330
2B4
330
2B5
330
2B6
330
2B7
330
2B8
330
2C7
330
2D6
330
2E5
330
2F2
330
2FF
  0
DICTIONARY
  5
542
102
{ACAD_REACTORS
330
C
102
}
330
C
100
AcDbDictionary
281
     1
  3
ANNOALLVISIBLE
350
548
  3
CANNOSCALE
350
549
  3
CMLEADERSTYLE
350
544
  3
CTABLESTYLE
350
543
  3
CVIEWDETAILSTYLE
350
545
  3
CVIEWSECTIONSTYLE
350
546
  3
DIMASSOC
350
5BA
  3
HIDETEXT
350
5B8
  3
INDEXCTL
350
5B7
  3
LAYEREVAL
350
54B
  3
LAYERNOTIFY
350
54C
  3
LIGHTINGUNITS
350
54A
  3
MSLTSCALE
350
547
  3
SORTENTS
350
5B6
  3
XCLIPFRAME
350
5B9
  0
DICTIONARY
  5
57B
102
{ACAD_REACTORS
330
C
102
}
330
C
100
AcDbDictionary
281
     1
  3
AcmStdDictionary
350
582
  0
DICTIONARY
  5
55B
102
{ACAD_REACTORS
330
C
102
}
330
C
100
AcDbDictionary
281
     1
  3
AcMgSettings
350
55C
  0
DICTIONARY
  5
53F
102
{ACAD_REACTORS
330
C
102
}
330
C
100
AcDbDictionary
281
     1
  3
ASEBlockHierarchyIndexRecord
350
541
1001
DCO15
1040
2031906323.0
  0
XRECORD
  5
5C0
102
{ACAD_REACTORS
330
C
102
}
330
C
100
AcDbXrecord
280
     1
  1
DWGPROPS COOKIE
  2

  3

  4

  6

  7

  8
GM29624
  9

300
=
301
=
302
=
303
=
304
=
305
=
306
=
307
=
308
=
309
=
 40
0.0000578703703704
 41
2459320.646134259
 42
2459320.646145833
  1

 90
        0
  0
XRECORD
  5
C5
102
{ACAD_REACTORS
330
C4
102
}
330
C4
100
AcDbXrecord
280
     1
290
     1
  0
SORTENTSTABLE
  5
249
102
{ACAD_REACTORS
330
248
102
}
330
248
100
AcDbSortentsTable
330
70
  0
DIMASSOC
  5
2BB
102
{ACAD_REACTORS
330
2BA
102
}
330
2BA
100
AcDbDimAssoc
330
2B9
 90
        3
 70
     1
 71
     0
  1
AcDbOsnapPointRef
 72
    13
331
0
331
0
 73
     0
 91
        0
 40
0.0
 10
0.0
 20
0.0
 30
2.000000000000000E+50
 75
     0
  1
AcDbOsnapPointRef
 72
    13
331
0
331
0
 73
     0
 91
        0
 40
0.0
 10
0.0
 20
0.0
 30
2.000000000000000E+50
 75
     0
  0
DIMASSOC
  5
2CA
102
{ACAD_REACTORS
330
2C9
102
}
330
2C9
100
AcDbDimAssoc
330
2C8
 90
        3
 70
     1
 71
     0
  1
AcDbOsnapPointRef
 72
    13
331
0
331
0
 73
     0
 91
        0
 40
0.0
 10
0.0
 20
0.0
 30
2.000000000000000E+50
 75
     0
  1
AcDbOsnapPointRef
 72
     1
331
0
331
0
 73
     0
 91
        0
 40
0.0
 10
0.0
 20
0.0
 30
2.000000000000000E+50
 75
     0
  0
DIMASSOC
  5
2D9
102
{ACAD_REACTORS
330
2D8
102
}
330
2D8
100
AcDbDimAssoc
330
2D7
 90
        3
 70
     1
 71
     0
  1
AcDbOsnapPointRef
 72
     1
331
0
331
0
 73
     0
 91
        0
 40
0.0
 10
0.0
 20
0.0
 30
2.000000000000000E+50
 75
     0
  1
AcDbOsnapPointRef
 72
     1
331
0
331
0
 73
     0
 91
        0
 40
0.0
 10
0.0
 20
0.0
 30
2.000000000000000E+50
 75
     0
  0
DIMASSOC
  5
2E8
102
{ACAD_REACTORS
330
2E7
102
}
330
2E7
100
AcDbDimAssoc
330
2E6
 90
        2
 70
     1
 71
     0
  1
AcDbOsnapPointRef
 72
     3
331
0
331
0
 73
     2
 91
        0
 40
0.0
 10
0.0
 20
0.0
 30
0.0
 75
     0
  0
DIMASSOC
  5
2F5
102
{ACAD_REACTORS
330
2F4
102
}
330
2F4
100
AcDbDimAssoc
330
2F3
 90
        2
 70
     1
 71
     0
  1
AcDbOsnapPointRef
 72
     3
331
0
331
0
 73
     2
 91
        0
 40
0.0
 10
0.0
 20
0.0
 30
0.0
 75
     0
  0
XRECORD
  5
5C2
102
{ACAD_REACTORS
330
5C1
102
}
330
5C1
100
AcDbXrecord
280
     1
 70
     1
  0
XRECORD
  5
5C4
102
{ACAD_REACTORS
330
5C1
102
}
330
5C1
100
AcDbXrecord
280
     1
340
5B
  0
XRECORD
  5
5C5
102
{ACAD_REACTORS
330
5C1
102
}
330
5C1
100
AcDbXrecord
280
     1
340
5B
  0
XRECORD
  5
5C3
102
{ACAD_REACTORS
330
5C1
102
}
330
5C1
100
AcDbXrecord
280
     1
340
5B
  0
ACDBDETAILVIEWSTYLE
  5
6B
102
{ACAD_XDICTIONARY
360
5FF
102
}
102
{ACAD_REACTORS
330
6A
330
5A0
102
}
330
6A
100
AcDbModelDocViewStyle
 70
     0
  3
Imperial24
290
     0
100
AcDbDetailViewStyle
 70
     0
 71
     0
 90
        3
 71
     1
340
55
 40
0.24
340
0
 40
0.24
300

 40
0.36
280
     3
 71
     2
340
5D
 90
       25
 71
     3
340
55
 40
0.24
 90
        1
 40
0.75
 90
        1
300
%<\AcVar ViewType \f "%tc1">% %<\AcVar ViewDetailId>%\PSCALE %<\AcVar ViewScale \f "%sn">%
 71
     4
340
5D
 90
       25
340
5D
 90
       25
280
     0
  0
ACDBDETAILVIEWSTYLE
  5
54F
102
{ACAD_XDICTIONARY
360
62E
102
}
102
{ACAD_REACTORS
330
6A
330
5A1
102
}
330
6A
100
AcDbModelDocViewStyle
 70
     0
  3
Metric50
290
     0
100
AcDbDetailViewStyle
 70
     0
 71
     0
 90
        3
 71
     1
340
55
 40
5.0
340
0
 40
5.0
300

 40
0.0
280
     1
 71
     2
340
5D
 90
       25
 71
     3
340
55
 40
5.0
 90
        0
 40
15.0
 90
        1
300
%<\AcVar ViewDetailId>% (%<\AcVar ViewScale \f "%sn">%)
 71
     4
340
5D
 90
       25
340
5D
 90
       25
280
     0
  0
LAYOUT
  5
73
102
{ACAD_XDICTIONARY
360
603
102
}
102
{ACAD_REACTORS
330
62
102
}
330
62
100
AcDbPlotSettings
  1

  2
なし
  4
ISO_A4_(210.00_x_297.00_MM)
  6

 40
7.5
 41
20.0
 42
7.5
 43
20.0
 44
210.0
 45
297.0
 46
0.0
 47
0.0
 48
0.0
 49
0.0
140
0.0
141
0.0
142
1.0
143
16.62137910189627
 70
 11952
 72
     1
 73
     1
 74
     0
  7
monochrome.ctb
 75
     0
147
0.0601634794483398
148
1452.08863671513
149
794.8012255874858
100
AcDbLayout
  1
Model
 70
     1
 71
     0
 10
0.0
 20
0.0
 11
12.0
 21
9.0
 12
0.0
 22
0.0
 32
0.0
 14
0.0
 24
0.0
 34
0.0
 15
0.0
 25
0.0
 35
0.0
146
0.0
 13
0.0
 23
0.0
 33
0.0
 16
1.0
 26
0.0
 36
0.0
 17
0.0
 27
1.0
 37
0.0
 76
     0
330
70
1001
ACAD_PSEXT
1000
なし
1000
なし
1000
適切ではありません
1000
新しいプロッタ環境設定名を選択しない限り、レイアウトは印刷されません。
1070
     0
  0
LAYOUT
  5
6F
102
{ACAD_XDICTIONARY
360
601
102
}
102
{ACAD_REACTORS
330
62
102
}
330
62
100
AcDbPlotSettings
  1

  2
AutoCAD PDF (General Documentation).pc3
  4

  6

 40
0.0
 41
0.0
 42
0.0
 43
0.0
 44
0.0
 45
0.0
 46
0.0
 47
0.0
 48
0.0
 49
0.0
140
0.0
141
0.0
142
1.0
143
1.0
 70
   688
 72
     0
 73
     0
 74
     5
  7
monochrome.ctb
 75
    16
147
1.0
148
0.0
149
0.0
100
AcDbLayout
  1
レイアウト1
 70
     1
 71
     1
 10
0.0
 20
0.0
 11
12.0
 21
9.0
 12
0.0
 22
0.0
 32
0.0
 14
1.000000000000000E+20
 24
1.000000000000000E+20
 34
1.000000000000000E+20
 15
-1.000000000000000E+20
 25
-1.000000000000000E+20
 35
-1.000000000000000E+20
146
0.0
 13
0.0
 23
0.0
 33
0.0
 16
1.0
 26
0.0
 36
0.0
 17
0.0
 27
1.0
 37
0.0
 76
     0
330
6C
  0
LAYOUT
  5
77
102
{ACAD_XDICTIONARY
360
605
102
}
102
{ACAD_REACTORS
330
62
102
}
330
62
100
AcDbPlotSettings
  1

  2
AutoCAD PDF (General Documentation).pc3
  4

  6

 40
0.0
 41
0.0
 42
0.0
 43
0.0
 44
0.0
 45
0.0
 46
0.0
 47
0.0
 48
0.0
 49
0.0
140
0.0
141
0.0
142
1.0
143
1.0
 70
   688
 72
     0
 73
     0
 74
     5
  7
monochrome.ctb
 75
    16
147
1.0
148
0.0
149
0.0
100
AcDbLayout
  1
レイアウト2
 70
     1
 71
     2
 10
0.0
 20
0.0
 11
12.0
 21
9.0
 12
0.0
 22
0.0
 32
0.0
 14
0.0
 24
0.0
 34
0.0
 15
0.0
 25
0.0
 35
0.0
146
0.0
 13
0.0
 23
0.0
 33
0.0
 16
1.0
 26
0.0
 36
0.0
 17
0.0
 27
1.0
 37
0.0
 76
     0
330
74
  0
MATERIAL
  5
19
102
{ACAD_XDICTIONARY
360
1A
102
}
102
{ACAD_REACTORS
330
10
102
}
330
10
100
AcDbMaterial
  1
ByBlock
 72
     0
 43
0.0208333333333333
 43
0.0
 43
0.0
 43
0.0
 43
0.0
 43
0.0208333333333333
 43
0.0
 43
0.0
 43
0.0
 43
0.0
 43
1.0
 43
0.0
 43
0.0
 43
0.0
 43
0.0
 43
1.0
 77
     0
 47
0.0208333333333333
 47
0.0
 47
0.0
 47
0.0
 47
0.0
 47
0.0208333333333333
 47
0.0
 47
0.0
 47
0.0
 47
0.0
 47
1.0
 47
0.0
 47
0.0
 47
0.0
 47
0.0
 47
1.0
171
     0
 49
0.0208333333333333
 49
0.0
 49
0.0
 49
0.0
 49
0.0
 49
0.0208333333333333
 49
0.0
 49
0.0
 49
0.0
 49
0.0
 49
1.0
 49
0.0
 49
0.0
 49
0.0
 49
0.0
 49
1.0
175
     0
142
0.0208333333333333
142
0.0
142
0.0
142
0.0
142
0.0
142
0.0208333333333333
142
0.0
142
0.0
142
0.0
142
0.0
142
1.0
142
0.0
142
0.0
142
0.0
142
0.0
142
1.0
179
     0
144
0.0208333333333333
144
0.0
144
0.0
144
0.0
144
0.0
144
0.0208333333333333
144
0.0
144
0.0
144
0.0
144
0.0
144
1.0
144
0.0
144
0.0
144
0.0
144
0.0
144
1.0
147
0.0208333333333333
147
0.0
147
0.0
147
0.0
147
0.0
147
0.0208333333333333
147
0.0
147
0.0
147
0.0
147
0.0
147
1.0
147
0.0
147
0.0
147
0.0
147
0.0
147
1.0
  0
MATERIAL
  5
11
102
{ACAD_XDICTIONARY
360
12
102
}
102
{ACAD_REACTORS
330
10
102
}
330
10
100
AcDbMaterial
  1
ByLayer
 72
     0
 43
0.0208333333333333
 43
0.0
 43
0.0
 43
0.0
 43
0.0
 43
0.0208333333333333
 43
0.0
 43
0.0
 43
0.0
 43
0.0
 43
1.0
 43
0.0
 43
0.0
 43
0.0
 43
0.0
 43
1.0
 77
     0
 47
0.0208333333333333
 47
0.0
 47
0.0
 47
0.0
 47
0.0
 47
0.0208333333333333
 47
0.0
 47
0.0
 47
0.0
 47
0.0
 47
1.0
 47
0.0
 47
0.0
 47
0.0
 47
0.0
 47
1.0
171
     0
 49
0.0208333333333333
 49
0.0
 49
0.0
 49
0.0
 49
0.0
 49
0.0208333333333333
 49
0.0
 49
0.0
 49
0.0
 49
0.0
 49
1.0
 49
0.0
 49
0.0
 49
0.0
 49
0.0
 49
1.0
175
     0
142
0.0208333333333333
142
0.0
142
0.0
142
0.0
142
0.0
142
0.0208333333333333
142
0.0
142
0.0
142
0.0
142
0.0
142
1.0
142
0.0
142
0.0
142
0.0
142
0.0
142
1.0
179
     0
144
0.0208333333333333
144
0.0
144
0.0
144
0.0
144
0.0
144
0.0208333333333333
144
0.0
144
0.0
144
0.0
144
0.0
144
1.0
144
0.0
144
0.0
144
0.0
144
0.0
144
1.0
147
0.0208333333333333
147
0.0
147
0.0
147
0.0
147
0.0
147
0.0208333333333333
147
0.0
147
0.0
147
0.0
147
0.0
147
1.0
147
0.0
147
0.0
147
0.0
147
0.0
147
1.0
  0
MATERIAL
  5
21
102
{ACAD_XDICTIONARY
360
22
102
}
102
{ACAD_REACTORS
330
10
102
}
330
10
100
AcDbMaterial
  1
Global
 72
     0
 43
0.0208333333333333
 43
0.0
 43
0.0
 43
0.0
 43
0.0
 43
0.0208333333333333
 43
0.0
 43
0.0
 43
0.0
 43
0.0
 43
1.0
 43
0.0
 43
0.0
 43
0.0
 43
0.0
 43
1.0
 77
     0
 47
0.0208333333333333
 47
0.0
 47
0.0
 47
0.0
 47
0.0
 47
0.0208333333333333
 47
0.0
 47
0.0
 47
0.0
 47
0.0
 47
1.0
 47
0.0
 47
0.0
 47
0.0
 47
0.0
 47
1.0
171
     0
 49
0.0208333333333333
 49
0.0
 49
0.0
 49
0.0
 49
0.0
 49
0.0208333333333333
 49
0.0
 49
0.0
 49
0.0
 49
0.0
 49
1.0
 49
0.0
 49
0.0
 49
0.0
 49
0.0
 49
1.0
175
     0
142
0.0208333333333333
142
0.0
142
0.0
142
0.0
142
0.0
142
0.0208333333333333
142
0.0
142
0.0
142
0.0
142
0.0
142
1.0
142
0.0
142
0.0
142
0.0
142
0.0
142
1.0
179
     0
144
0.0208333333333333
144
0.0
144
0.0
144
0.0
144
0.0
144
0.0208333333333333
144
0.0
144
0.0
144
0.0
144
0.0
144
1.0
144
0.0
144
0.0
144
0.0
144
0.0
144
1.0
147
0.0208333333333333
147
0.0
147
0.0
147
0.0
147
0.0
147
0.0208333333333333
147
0.0
147
0.0
147
0.0
147
0.0
147
1.0
147
0.0
147
0.0
147
0.0
147
0.0
147
1.0
  0
MLEADERSTYLE
  5
67
102
{ACAD_XDICTIONARY
360
5FB
102
}
102
{ACAD_REACTORS
330
66
102
}
330
66
100
AcDbMLeaderStyle
170
     2
171
     1
172
     0
 90
        2
 40
0.0
 41
0.0
173
     1
 91
-1056964608
340
5B
 92
       -2
290
     1
 42
0.09
291
     1
 43
0.36
  3
Standard
 44
0.18
300

342
55
174
     1
178
     6
175
     1
176
     0
 93
-1056964608
 45
0.18
292
     0
297
     0
 46
0.18
 94
-1056964608
 47
1.0
 49
1.0
140
1.0
293
     1
141
0.0
294
     1
177
     0
142
1.0
295
     0
296
     0
143
0.125
1001
ACAD_MLEADERVER
1070
     2
  0
MLINESTYLE
  5
60
102
{ACAD_REACTORS
330
5F
102
}
330
5F
100
AcDbMlineStyle
  2
STANDARD
 70
     0
  3

 62
   256
 51
90.0
 52
90.0
 71
     2
 49
0.5
 62
   256
  6
BYLAYER
 49
-0.5
 62
   256
  6
BYLAYER
  0
ACDBPLACEHOLDER
  5
F
102
{ACAD_REACTORS
330
E
102
}
330
E
  0
SCALE
  5
BE
102
{ACAD_REACTORS
330
42
102
}
330
42
100
AcDbScale
 70
     0
300
1:38
140
1.0
141
38.0
290
     0
  0
SCALE
  5
BF
102
{ACAD_REACTORS
330
42
102
}
330
42
100
AcDbScale
 70
     0
300
1:35
140
1.0
141
35.0
290
     0
  0
SCALE
  5
C0
102
{ACAD_REACTORS
330
42
102
}
330
42
100
AcDbScale
 70
     0
300
1:33
140
1.0
141
33.0
290
     0
  0
SCALE
  5
C1
102
{ACAD_REACTORS
330
42
102
}
330
42
100
AcDbScale
 70
     0
300
IMAGE
140
1.0
141
3.0
290
     0
  0
SCALE
  5
43
102
{ACAD_REACTORS
330
42
102
}
330
42
100
AcDbScale
 70
     0
300
1:1
140
1.0
141
1.0
290
     1
  0
SCALE
  5
44
102
{ACAD_REACTORS
330
42
102
}
330
42
100
AcDbScale
 70
     0
300
1:2
140
1.0
141
2.0
290
     0
  0
SCALE
  5
45
102
{ACAD_REACTORS
330
42
102
}
330
42
100
AcDbScale
 70
     0
300
1:4
140
1.0
141
4.0
290
     0
  0
SCALE
  5
46
102
{ACAD_REACTORS
330
42
102
}
330
42
100
AcDbScale
 70
     0
300
1:5
140
1.0
141
5.0
290
     0
  0
SCALE
  5
47
102
{ACAD_REACTORS
330
42
102
}
330
42
100
AcDbScale
 70
     0
300
1:8
140
1.0
141
8.0
290
     0
  0
SCALE
  5
48
102
{ACAD_REACTORS
330
42
102
}
330
42
100
AcDbScale
 70
     0
300
1:10
140
1.0
141
10.0
290
     0
  0
SCALE
  5
49
102
{ACAD_REACTORS
330
42
102
}
330
42
100
AcDbScale
 70
     0
300
1:16
140
1.0
141
16.0
290
     0
  0
SCALE
  5
4A
102
{ACAD_REACTORS
330
42
102
}
330
42
100
AcDbScale
 70
     0
300
1:20
140
1.0
141
20.0
290
     0
  0
SCALE
  5
4B
102
{ACAD_REACTORS
330
42
102
}
330
42
100
AcDbScale
 70
     0
300
1:30
140
1.0
141
30.0
290
     0
  0
SCALE
  5
4C
102
{ACAD_REACTORS
330
42
102
}
330
42
100
AcDbScale
 70
     0
300
1:40
140
1.0
141
40.0
290
     0
  0
SCALE
  5
4D
102
{ACAD_REACTORS
330
42
102
}
330
42
100
AcDbScale
 70
     0
300
1:50
140
1.0
141
50.0
290
     0
  0
SCALE
  5
4E
102
{ACAD_REACTORS
330
42
102
}
330
42
100
AcDbScale
 70
     0
300
1:100
140
1.0
141
100.0
290
     0
  0
SCALE
  5
4F
102
{ACAD_REACTORS
330
42
102
}
330
42
100
AcDbScale
 70
     0
300
2:1
140
2.0
141
1.0
290
     0
  0
SCALE
  5
50
102
{ACAD_REACTORS
330
42
102
}
330
42
100
AcDbScale
 70
     0
300
4:1
140
4.0
141
1.0
290
     0
  0
SCALE
  5
51
102
{ACAD_REACTORS
330
42
102
}
330
42
100
AcDbScale
 70
     0
300
8:1
140
8.0
141
1.0
290
     0
  0
SCALE
  5
52
102
{ACAD_REACTORS
330
42
102
}
330
42
100
AcDbScale
 70
     0
300
10:1
140
10.0
141
1.0
290
     0
  0
SCALE
  5
53
102
{ACAD_REACTORS
330
42
102
}
330
42
100
AcDbScale
 70
     0
300
100:1
140
100.0
141
1.0
290
     0
  0
ACDBSECTIONVIEWSTYLE
  5
69
102
{ACAD_XDICTIONARY
360
5FD
102
}
102
{ACAD_REACTORS
330
68
330
59E
102
}
330
68
100
AcDbModelDocViewStyle
 70
     0
  3
Imperial24
290
     0
100
AcDbSectionViewStyle
 70
     0
 71
     0
 90
       78
 71
     1
340
55
 40
0.24
340
0
340
0
 40
0.24
300
I, O, Q, S, X, Z
 40
0.48
 90
        3
 40
0.18
 90
        1
 71
     2
340
5D
 90
       25
340
5D
 90
       50
 40
0.24
 40
0.0
 40
0.24
 71
     3
340
55
 40
0.24
 90
        1
 40
0.75
 90
        1
300
%<\AcVar ViewType \f "%tc1">% %<\AcVar ViewSectionStartId>%-%<\AcVar ViewSectionEndId>%\PSCALE %<\AcVar ViewScale \f "%sn">%
 71
     4
300
ANSI31
 40
1.0
 90
        0
290
     0
290
     0
 90
        6
 40
0.0
 40
1.570796326794896
 40
0.2617993877991494
 40
1.308996938995747
 40
-0.2617993877991494
 40
1.832595714594046
  0
ACDBSECTIONVIEWSTYLE
  5
54E
102
{ACAD_XDICTIONARY
360
62C
102
}
102
{ACAD_REACTORS
330
68
330
59F
102
}
330
68
100
AcDbModelDocViewStyle
 70
     0
  3
Metric50
290
     0
100
AcDbSectionViewStyle
 70
     0
 71
     0
 90
      102
 71
     1
340
55
 40
5.0
340
0
340
0
 40
5.0
300
I, O, Q, S, X, Z
 40
10.0
 90
        0
 40
2.5
 90
        0
 71
     2
340
5D
 90
       25
340
5D
 90
       50
 40
5.0
 40
2.5
 40
5.0
 71
     3
340
55
 40
5.0
 90
        0
 40
15.0
 90
        1
300
%<\AcVar ViewSectionStartId>%-%<\AcVar ViewSectionEndId>% (%<\AcVar ViewScale \f "%sn">%)
 71
     4
300
ANSI31
 40
1.0
 90
        0
290
     0
290
     0
 90
        6
 40
0.0
 40
1.570796326794896
 40
0.2617993877991494
 40
1.308996938995747
 40
-0.2617993877991494
 40
1.832595714594046
  0
TABLESTYLE
  5
65
102
{ACAD_XDICTIONARY
360
5BD
102
}
102
{ACAD_REACTORS
330
64
102
}
330
64
100
AcDbTableStyle
  3
Standard
 70
     0
 71
     3
 40
1.5
 41
1.5
280
     0
281
     0
  7
STANDARD
140
3.5
170
     2
 62
     0
 63
     7
283
     0
274
    -2
284
     1
 64
     0
275
    -2
285
     1
 65
     0
276
    -2
286
     1
 66
     0
277
    -2
287
     1
 67
     0
278
    -2
288
     1
 68
     0
279
    -2
289
     1
 69
     0
  7
STANDARD
140
3.5
170
     5
 62
     0
 63
     7
283
     0
274
    -2
284
     1
 64
     0
275
    -2
285
     1
 65
     0
276
    -2
286
     1
 66
     0
277
    -2
287
     1
 67
     0
278
    -2
288
     1
 68
     0
279
    -2
289
     1
 69
     0
  7
STANDARD
140
3.5
170
     5
 62
     0
 63
     7
283
     0
274
    -2
284
     1
 64
     0
275
    -2
285
     1
 65
     0
276
    -2
286
     1
 66
     0
277
    -2
287
     1
 67
     0
278
    -2
288
     1
 68
     0
279
    -2
289
     1
 69
     0
  0
VISUALSTYLE
  5
2F
102
{ACAD_XDICTIONARY
360
5D3
102
}
102
{ACAD_REACTORS
330
29
102
}
330
29
100
AcDbVisualStyle
  2
2dWireframe
 70
     4
 71
     0
 72
     2
 73
     0
 90
        0
 40
-0.6
 41
-30.0
 62
     5
 63
     7
 74
     1
 91
        4
 64
     7
 65
   257
 75
     1
175
     1
 42
1.0
 92
        0
 66
   257
 43
1.0
 76
     1
 77
     6
 78
     2
 67
     7
 79
     5
170
     0
171
     0
290
     0
174
     0
 93
        1
 44
0.0
173
     0
291
     0
 45
0.0
1001
ACAD
1000
AcDbSavedByObjectVersion
1070
     0
  0
VISUALSTYLE
  5
2E
102
{ACAD_XDICTIONARY
360
5D1
102
}
102
{ACAD_REACTORS
330
29
102
}
330
29
100
AcDbVisualStyle
  2
Basic
 70
     7
 71
     1
 72
     0
 73
     1
 90
        0
 40
-0.6
 41
-30.0
 62
     5
 63
     7
 74
     0
 91
        4
 64
     7
 65
   257
 75
     1
175
     1
 42
1.0
 92
        8
 66
     7
 43
1.0
 76
     1
 77
     6
 78
     2
 67
     7
 79
     5
170
     0
171
     0
290
     0
174
     0
 93
        1
 44
0.0
173
     0
291
     1
 45
0.0
1001
ACAD
1000
AcDbSavedByObjectVersion
1070
     0
  0
VISUALSTYLE
  5
35
102
{ACAD_XDICTIONARY
360
5DF
102
}
102
{ACAD_REACTORS
330
29
102
}
330
29
100
AcDbVisualStyle
  2
Brighten
 70
    12
 71
     2
 72
     2
 73
     0
 90
        0
 40
-0.6
 41
-30.0
 62
     5
 63
     7
 74
     1
 91
        4
 64
     7
 65
   257
 75
     1
175
     1
 42
1.0
 92
        8
 66
     7
 43
1.0
 76
     1
 77
     6
 78
     2
 67
     7
 79
     5
170
     0
171
     0
290
     0
174
     0
 93
        1
 44
50.0
173
     0
291
     1
 45
0.0
1001
ACAD
1000
AcDbSavedByObjectVersion
1070
     0
  0
VISUALSTYLE
  5
39
102
{ACAD_XDICTIONARY
360
5E7
102
}
102
{ACAD_REACTORS
330
29
102
}
330
29
100
AcDbVisualStyle
  2
ColorChange
 70
    16
 71
     2
 72
     2
 73
     3
 90
        0
 40
-0.6
 41
-30.0
 62
     5
 63
     8
 74
     1
 91
        4
 64
     7
 65
   257
 75
     1
175
     1
 42
1.0
 92
        8
 66
     8
 43
1.0
 76
     1
 77
     6
 78
     2
 67
     7
 79
     5
170
     0
171
     0
290
     0
174
     0
 93
        1
 44
0.0
173
     0
291
     1
 45
0.0
1001
ACAD
1000
AcDbSavedByObjectVersion
1070
     0
  0
VISUALSTYLE
  5
32
102
{ACAD_XDICTIONARY
360
5D9
102
}
102
{ACAD_REACTORS
330
29
102
}
330
29
100
AcDbVisualStyle
  2
Conceptual
 70
     9
 71
     3
 72
     2
 73
     0
 90
        0
 40
-0.6
 41
-30.0
 62
     5
 63
     7
 74
     2
 91
        2
 64
     7
 65
   257
 75
     1
175
     1
 42
179.0
 92
        8
 66
     7
 43
1.0
 76
     1
 77
     6
 78
     2
 67
     7
 79
     3
170
     0
171
     0
290
     0
174
     0
 93
        1
 44
0.0
173
     0
291
     0
 45
0.0
1001
ACAD
1000
AcDbSavedByObjectVersion
1070
     0
  0
VISUALSTYLE
  5
34
102
{ACAD_XDICTIONARY
360
5DD
102
}
102
{ACAD_REACTORS
330
29
102
}
330
29
100
AcDbVisualStyle
  2
Dim
 70
    11
 71
     2
 72
     2
 73
     0
 90
        0
 40
-0.6
 41
-30.0
 62
     5
 63
     7
 74
     1
 91
        4
 64
     7
 65
   257
 75
     1
175
     1
 42
1.0
 92
        8
 66
     7
 43
1.0
 76
     1
 77
     6
 78
     2
 67
     7
 79
     5
170
     0
171
     0
290
     0
174
     0
 93
        1
 44
-50.0
173
     0
291
     1
 45
0.0
1001
ACAD
1000
AcDbSavedByObjectVersion
1070
     0
  0
VISUALSTYLE
  5
41
102
{ACAD_XDICTIONARY
360
5F7
102
}
102
{ACAD_REACTORS
330
29
102
}
330
29
100
AcDbVisualStyle
  2
EdgeColorOff
 70
    22
 71
     2
 72
     2
 73
     0
 90
        0
 40
-0.6
 41
-30.0
 62
     5
 63
     7
 74
     1
 91
        4
 64
     7
 65
   257
 75
     1
175
     1
 42
1.0
 92
        8
 66
     7
 43
1.0
 76
     1
 77
     6
 78
     2
 67
     7
 79
     5
170
     0
171
     0
290
     0
174
     0
 93
        1
 44
0.0
173
     0
291
     1
 45
0.0
1001
ACAD
1000
AcDbSavedByObjectVersion
1070
     0
  0
VISUALSTYLE
  5
38
102
{ACAD_XDICTIONARY
360
5E5
102
}
102
{ACAD_REACTORS
330
29
102
}
330
29
100
AcDbVisualStyle
  2
Facepattern
 70
    15
 71
     2
 72
     2
 73
     0
 90
        0
 40
-0.6
 41
-30.0
 62
     5
 63
     7
 74
     1
 91
        4
 64
     7
 65
   257
 75
     1
175
     1
 42
1.0
 92
        8
 66
     7
 43
1.0
 76
     1
 77
     6
 78
     2
 67
     7
 79
     5
170
     0
171
     0
290
     0
174
     0
 93
        1
 44
0.0
173
     0
291
     1
 45
0.0
1001
ACAD
1000
AcDbSavedByObjectVersion
1070
     0
  0
VISUALSTYLE
  5
2A
102
{ACAD_XDICTIONARY
360
5C9
102
}
102
{ACAD_REACTORS
330
29
102
}
330
29
100
AcDbVisualStyle
  2
Flat
 70
     0
 71
     2
 72
     1
 73
     1
 90
        2
 40
-0.6
 41
30.0
 62
     5
 63
     7
 74
     0
 91
        0
 64
     7
 65
   257
 75
     1
175
     1
 42
1.0
 92
        8
 66
     7
 43
1.0
 76
     1
 77
     6
 78
     2
 67
     7
 79
     5
170
     0
171
     0
290
     0
174
     0
 93
       13
 44
0.0
173
     0
291
     1
 45
0.0
1001
ACAD
1000
AcDbSavedByObjectVersion
1070
     0
  0
VISUALSTYLE
  5
2B
102
{ACAD_XDICTIONARY
360
5CB
102
}
102
{ACAD_REACTORS
330
29
102
}
330
29
100
AcDbVisualStyle
  2
FlatWithEdges
 70
     1
 71
     2
 72
     1
 73
     1
 90
        2
 40
-0.6
 41
30.0
 62
     5
 63
     7
 74
     1
 91
        0
 64
     7
 65
   257
 75
     1
175
     1
 42
1.0
 92
        0
 66
   257
 43
1.0
 76
     1
 77
     6
 78
     2
 67
     7
 79
     5
170
     0
171
     0
290
     0
174
     0
 93
       13
 44
0.0
173
     0
291
     1
 45
0.0
1001
ACAD
1000
AcDbSavedByObjectVersion
1070
     0
  0
VISUALSTYLE
  5
2C
102
{ACAD_XDICTIONARY
360
5CD
102
}
102
{ACAD_REACTORS
330
29
102
}
330
29
100
AcDbVisualStyle
  2
Gouraud
 70
     2
 71
     2
 72
     2
 73
     1
 90
        2
 40
-0.6
 41
30.0
 62
     5
 63
     7
 74
     0
 91
        0
 64
     7
 65
   257
 75
     1
175
     1
 42
1.0
 92
        0
 66
     7
 43
1.0
 76
     1
 77
     6
 78
     2
 67
     7
 79
     5
170
     0
171
     0
290
     0
174
     0
 93
       13
 44
0.0
173
     0
291
     1
 45
0.0
1001
ACAD
1000
AcDbSavedByObjectVersion
1070
     0
  0
VISUALSTYLE
  5
2D
102
{ACAD_XDICTIONARY
360
5CF
102
}
102
{ACAD_REACTORS
330
29
102
}
330
29
100
AcDbVisualStyle
  2
GouraudWithEdges
 70
     3
 71
     2
 72
     2
 73
     1
 90
        2
 40
-0.6
 41
30.0
 62
     5
 63
     7
 74
     1
 91
        0
 64
     7
 65
   257
 75
     1
175
     1
 42
1.0
 92
        0
 66
   257
 43
1.0
 76
     1
 77
     6
 78
     2
 67
     7
 79
     5
170
     0
171
     0
290
     0
174
     0
 93
       13
 44
0.0
173
     0
291
     1
 45
0.0
1001
ACAD
1000
AcDbSavedByObjectVersion
1070
     0
  0
VISUALSTYLE
  5
31
102
{ACAD_XDICTIONARY
360
5D7
102
}
102
{ACAD_REACTORS
330
29
102
}
330
29
100
AcDbVisualStyle
  2
Hidden
 70
     6
 71
     1
 72
     2
 73
     2
 90
        0
 40
-0.6
 41
-30.0
 62
     5
 63
     7
 74
     2
 91
        2
 64
     7
 65
   257
 75
     2
175
     1
 42
40.0
 92
        0
 66
   257
 43
1.0
 76
     1
 77
     6
 78
     2
 67
     7
 79
     3
170
     0
171
     0
290
     0
174
     0
 93
        1
 44
0.0
173
     0
291
     0
 45
0.0
1001
ACAD
1000
AcDbSavedByObjectVersion
1070
     0
  0
VISUALSTYLE
  5
3F
102
{ACAD_XDICTIONARY
360
5F3
102
}
102
{ACAD_REACTORS
330
29
102
}
330
29
100
AcDbVisualStyle
  2
JitterOff
 70
    20
 71
     2
 72
     2
 73
     0
 90
        0
 40
-0.6
 41
-30.0
 62
     5
 63
     7
 74
     1
 91
        4
 64
     7
 65
   257
 75
     1
175
     1
 42
1.0
 92
       10
 66
     7
 43
1.0
 76
     1
 77
     6
 78
     2
 67
     7
 79
     5
170
     0
171
     0
290
     0
174
     0
 93
        1
 44
0.0
173
     0
291
     1
 45
0.0
1001
ACAD
1000
AcDbSavedByObjectVersion
1070
     0
  0
VISUALSTYLE
  5
37
102
{ACAD_XDICTIONARY
360
5E3
102
}
102
{ACAD_REACTORS
330
29
102
}
330
29
100
AcDbVisualStyle
  2
Linepattern
 70
    14
 71
     2
 72
     2
 73
     0
 90
        0
 40
-0.6
 41
-30.0
 62
     5
 63
     7
 74
     1
 91
        4
 64
     7
 65
   257
 75
     7
175
     7
 42
1.0
 92
        8
 66
     7
 43
1.0
 76
     1
 77
     6
 78
     2
 67
     7
 79
     5
170
     0
171
     0
290
     0
174
     0
 93
        1
 44
0.0
173
     0
291
     1
 45
0.0
1001
ACAD
1000
AcDbSavedByObjectVersion
1070
     0
  0
VISUALSTYLE
  5
40
102
{ACAD_XDICTIONARY
360
5F5
102
}
102
{ACAD_REACTORS
330
29
102
}
330
29
100
AcDbVisualStyle
  2
OverhangOff
 70
    21
 71
     2
 72
     2
 73
     0
 90
        0
 40
-0.6
 41
-30.0
 62
     5
 63
     7
 74
     1
 91
        4
 64
     7
 65
   257
 75
     1
175
     1
 42
1.0
 92
        9
 66
     7
 43
1.0
 76
     1
 77
     6
 78
     2
 67
     7
 79
     5
170
     0
171
     0
290
     0
174
     0
 93
        1
 44
0.0
173
     0
291
     1
 45
0.0
1001
ACAD
1000
AcDbSavedByObjectVersion
1070
     0
  0
VISUALSTYLE
  5
33
102
{ACAD_XDICTIONARY
360
5DB
102
}
102
{ACAD_REACTORS
330
29
102
}
330
29
100
AcDbVisualStyle
  2
Realistic
 70
     8
 71
     2
 72
     3
 73
     0
 90
        2
 40
-0.6
 41
30.0
 62
     5
 63
     7
 74
     0
 91
        0
 64
     7
 65
   257
 75
     1
175
     1
 42
1.0
 92
        8
 66
   257
 43
1.0
 76
     1
 77
     6
 78
     2
 67
     7
 79
     3
170
     0
171
     0
290
     0
174
     0
 93
       13
 44
0.0
173
     0
291
     0
 45
0.0
1001
ACAD
1000
AcDbSavedByObjectVersion
1070
     0
  0
VISUALSTYLE
  5
3E
102
{ACAD_XDICTIONARY
360
5F1
102
}
102
{ACAD_REACTORS
330
29
102
}
330
29
100
AcDbVisualStyle
  2
Shaded
 70
    27
 71
     2
 72
     2
 73
     1
 90
        2
 40
-0.6
 41
30.0
 62
     5
 63
     7
 74
     0
 91
        4
 64
     7
 65
   257
 75
     1
175
     1
 42
1.0
 92
        8
 66
   257
 43
1.0
 76
     1
 77
     6
 78
     2
 67
     8
 79
     3
170
     0
171
     0
290
     0
174
     0
 93
        5
 44
0.0
173
     0
291
     0
 45
0.0
1001
ACAD
1000
AcDbSavedByObjectVersion
1070
     0
  0
VISUALSTYLE
  5
3D
102
{ACAD_XDICTIONARY
360
5EF
102
}
102
{ACAD_REACTORS
330
29
102
}
330
29
100
AcDbVisualStyle
  2
Shaded with edges
 70
    26
 71
     2
 72
     2
 73
     1
 90
        2
 40
-0.6
 41
30.0
 62
     5
 63
     7
 74
     1
 91
        2
 64
     7
 65
   257
 75
     2
175
     1
 42
1.0
 92
        8
 66
   257
 43
1.0
 76
     1
 77
     6
 78
     2
 67
     7
 79
     3
170
     0
171
     0
290
     0
174
     0
 93
        5
 44
0.0
173
     0
291
     0
 45
0.0
1001
ACAD
1000
AcDbSavedByObjectVersion
1070
     0
  0
VISUALSTYLE
  5
3A
102
{ACAD_XDICTIONARY
360
5E9
102
}
102
{ACAD_REACTORS
330
29
102
}
330
29
100
AcDbVisualStyle
  2
Shades of Gray
 70
    23
 71
     2
 72
     2
 73
     3
 90
        0
 40
-0.6
 41
-30.0
 62
     5
 63
     7
 74
     2
 91
        2
 64
     7
 65
     7
 75
     1
175
     1
 42
40.0
 92
        8
 66
     7
 43
1.0
 76
     1
 77
     6
 78
     2
 67
     7
 79
     3
170
     0
171
     0
290
     0
174
     0
 93
        1
 44
0.0
173
     0
291
     0
 45
0.0
1001
ACAD
1000
AcDbSavedByObjectVersion
1070
     0
  0
VISUALSTYLE
  5
3B
102
{ACAD_XDICTIONARY
360
5EB
102
}
102
{ACAD_REACTORS
330
29
102
}
330
29
100
AcDbVisualStyle
  2
Sketchy
 70
    24
 71
     1
 72
     2
 73
     2
 90
        0
 40
-0.6
 41
-30.0
 62
     5
 63
     7
 74
     2
 91
        2
 64
     7
 65
     7
 75
     1
175
     1
 42
40.0
 92
       11
 66
     7
 43
1.0
 76
     1
 77
     6
 78
     2
 67
     7
 79
     6
170
     0
171
     0
290
     0
174
     0
 93
        1
 44
0.0
173
     0
291
     0
 45
0.0
1001
ACAD
1000
AcDbSavedByObjectVersion
1070
     0
  0
VISUALSTYLE
  5
36
102
{ACAD_XDICTIONARY
360
5E1
102
}
102
{ACAD_REACTORS
330
29
102
}
330
29
100
AcDbVisualStyle
  2
Thicken
 70
    13
 71
     2
 72
     2
 73
     0
 90
        0
 40
-0.6
 41
-30.0
 62
     5
 63
     7
 74
     1
 91
        4
 64
     7
 65
   257
 75
     1
175
     1
 42
1.0
 92
       12
 66
     7
 43
1.0
 76
     1
 77
     6
 78
     2
 67
     7
 79
     5
170
     0
171
     0
290
     0
174
     0
 93
        1
 44
0.0
173
     0
291
     1
 45
0.0
1001
ACAD
1000
AcDbSavedByObjectVersion
1070
     0
  0
VISUALSTYLE
  5
30
102
{ACAD_XDICTIONARY
360
5D5
102
}
102
{ACAD_REACTORS
330
29
102
}
330
29
100
AcDbVisualStyle
  2
Wireframe
 70
     5
 71
     0
 72
     2
 73
     0
 90
        0
 40
-0.6
 41
-30.0
 62
     5
 63
     7
 74
     1
 91
        4
 64
     7
 65
   257
 75
     1
175
     1
 42
1.0
 92
        0
 66
   257
 43
1.0
 76
     1
 77
     6
 78
     2
 67
     7
 79
     3
170
     0
171
     0
290
     0
174
     0
 93
        1
 44
0.0
173
     0
291
     0
 45
0.0
1001
ACAD
1000
AcDbSavedByObjectVersion
1070
     0
  0
VISUALSTYLE
  5
3C
102
{ACAD_XDICTIONARY
360
5ED
102
}
102
{ACAD_REACTORS
330
29
102
}
330
29
100
AcDbVisualStyle
  2
X-Ray
 70
    25
 71
     2
 72
     2
 73
     1
 90
        1
 40
0.5
 41
-30.0
 62
     5
 63
     7
 74
     1
 91
        0
 64
     7
 65
   257
 75
     1
175
     1
 42
1.0
 92
        8
 66
     7
 43
1.0
 76
     1
 77
     6
 78
     2
 67
     7
 79
     3
170
     0
171
     0
290
     0
174
     0
 93
       13
 44
0.0
173
     0
291
     0
 45
0.0
1001
ACAD
1000
AcDbSavedByObjectVersion
1070
     0
  0
DICTIONARYVAR
  5
548
102
{ACAD_REACTORS
330
542
102
}
330
542
100
DictionaryVariables
280
     0
  1
1
  0
DICTIONARYVAR
  5
549
102
{ACAD_REACTORS
330
542
102
}
330
542
100
DictionaryVariables
280
     0
  1
1:1
  0
DICTIONARYVAR
  5
544
102
{ACAD_REACTORS
330
542
102
}
330
542
100
DictionaryVariables
280
     0
  1
STANDARD
  0
DICTIONARYVAR
  5
543
102
{ACAD_REACTORS
330
542
102
}
330
542
100
DictionaryVariables
280
     0
  1
STANDARD
  0
DICTIONARYVAR
  5
545
102
{ACAD_REACTORS
330
542
102
}
330
542
100
DictionaryVariables
280
     0
  1
ISO 128-34_2001
  0
DICTIONARYVAR
  5
546
102
{ACAD_REACTORS
330
542
102
}
330
542
100
DictionaryVariables
280
     0
  1
ISO 128-40_2001(E)
  0
DICTIONARYVAR
  5
5BA
102
{ACAD_REACTORS
330
542
102
}
330
542
100
DictionaryVariables
280
     0
  1
2
  0
DICTIONARYVAR
  5
5B8
102
{ACAD_REACTORS
330
542
102
}
330
542
100
DictionaryVariables
280
     0
  1
1
  0
DICTIONARYVAR
  5
5B7
102
{ACAD_REACTORS
330
542
102
}
330
542
100
DictionaryVariables
280
     0
  1
0
  0
DICTIONARYVAR
  5
54B
102
{ACAD_REACTORS
330
542
102
}
330
542
100
DictionaryVariables
280
     0
  1
1
  0
DICTIONARYVAR
  5
54C
102
{ACAD_REACTORS
330
542
102
}
330
542
100
DictionaryVariables
280
     0
  1
15
  0
DICTIONARYVAR
  5
54A
102
{ACAD_REACTORS
330
542
102
}
330
542
100
DictionaryVariables
280
     0
  1
0
  0
DICTIONARYVAR
  5
547
102
{ACAD_REACTORS
330
542
102
}
330
542
100
DictionaryVariables
280
     0
  1
0
  0
DICTIONARYVAR
  5
5B6
102
{ACAD_REACTORS
330
542
102
}
330
542
100
DictionaryVariables
280
     0
  1
127
  0
DICTIONARYVAR
  5
5B9
102
{ACAD_REACTORS
330
542
102
}
330
542
100
DictionaryVariables
280
     0
  1
0
  0
DICTIONARY
  5
582
102
{ACAD_REACTORS
330
57B
102
}
330
57B
100
AcDbDictionary
281
     1
  0
DICTIONARY
  5
55C
102
{ACAD_REACTORS
330
55B
102
}
330
55B
100
AcDbDictionary
281
     1
  3
DWGSETTINGS
350
55D
  3
TRANSSETTINGS
350
55E
  0
XRECORD
  5
541
102
{ACAD_REACTORS
330
53F
102
}
330
53F
100
AcDbXrecord
280
     1
330
4DB
330
4DE
330
4E5
330
4E6
330
4ED
330
4EE
330
4F7
330
4F8
330
4FF
330
500
330
507
330
50A
330
511
330
514
330
51D
330
51E
330
525
330
526
330
52D
330
52E
330
534
330
535
330
53A
330
53B
  0
DICTIONARY
  5
5FF
330
6B
100
AcDbDictionary
280
     1
281
     1
  3
ACAD_XREC_ROUNDTRIP
360
600
  0
DICTIONARY
  5
62E
330
54F
100
AcDbDictionary
280
     1
281
     1
  3
ACAD_XREC_ROUNDTRIP
360
62F
  0
DICTIONARY
  5
603
330
73
100
AcDbDictionary
280
     1
281
     1
  3
ACAD_XREC_ROUNDTRIP
360
604
  0
DICTIONARY
  5
601
330
6F
100
AcDbDictionary
280
     1
281
     1
  3
ACAD_XREC_ROUNDTRIP
360
602
  0
DICTIONARY
  5
605
330
77
100
AcDbDictionary
280
     1
281
     1
  3
ACAD_XREC_ROUNDTRIP
360
606
  0
DICTIONARY
  5
1A
330
19
100
AcDbDictionary
280
     1
281
     1
  3
ACAD_XREC_ROUNDTRIP
360
5C7
  3
BUMPTILE
360
1C
  3
DIFFUSETILE
360
1B
  3
OPACITYTILE
360
1F
  3
REFLECTIONTILE
360
1E
  3
REFRACTIONTILE
360
20
  3
SPECULARTILE
360
1D
  0
DICTIONARY
  5
12
330
11
100
AcDbDictionary
280
     1
281
     1
  3
ACAD_XREC_ROUNDTRIP
360
5C6
  3
BUMPTILE
360
14
  3
DIFFUSETILE
360
13
  3
OPACITYTILE
360
17
  3
REFLECTIONTILE
360
16
  3
REFRACTIONTILE
360
18
  3
SPECULARTILE
360
15
  0
DICTIONARY
  5
22
330
21
100
AcDbDictionary
280
     1
281
     1
  3
ACAD_XREC_ROUNDTRIP
360
5C8
  3
BUMPTILE
360
24
  3
DIFFUSETILE
360
23
  3
OPACITYTILE
360
27
  3
REFLECTIONTILE
360
26
  3
REFRACTIONTILE
360
28
  3
SPECULARTILE
360
25
  0
DICTIONARY
  5
5FB
330
67
100
AcDbDictionary
280
     1
281
     1
  3
ACAD_XREC_ROUNDTRIP
360
5FC
  0
DICTIONARY
  5
5FD
330
69
100
AcDbDictionary
280
     1
281
     1
  3
ACAD_XREC_ROUNDTRIP
360
5FE
  0
DICTIONARY
  5
62C
330
54E
100
AcDbDictionary
280
     1
281
     1
  3
ACAD_XREC_ROUNDTRIP
360
62D
  0
DICTIONARY
  5
5BD
330
65
100
AcDbDictionary
280
     1
281
     1
  3
ACAD_ROUNDTRIP_2008_TABLESTYLE_CELLSTYLEMAP
360
5BE
  3
ACAD_XREC_ROUNDTRIP
360
5F9
  0
DICTIONARY
  5
5D3
330
2F
100
AcDbDictionary
280
     1
281
     1
  3
ACAD_XREC_ROUNDTRIP
360
5D4
  0
DICTIONARY
  5
5D1
330
2E
100
AcDbDictionary
280
     1
281
     1
  3
ACAD_XREC_ROUNDTRIP
360
5D2
  0
DICTIONARY
  5
5DF
330
35
100
AcDbDictionary
280
     1
281
     1
  3
ACAD_XREC_ROUNDTRIP
360
5E0
  0
DICTIONARY
  5
5E7
330
39
100
AcDbDictionary
280
     1
281
     1
  3
ACAD_XREC_ROUNDTRIP
360
5E8
  0
DICTIONARY
  5
5D9
330
32
100
AcDbDictionary
280
     1
281
     1
  3
ACAD_XREC_ROUNDTRIP
360
5DA
  0
DICTIONARY
  5
5DD
330
34
100
AcDbDictionary
280
     1
281
     1
  3
ACAD_XREC_ROUNDTRIP
360
5DE
  0
DICTIONARY
  5
5F7
330
41
100
AcDbDictionary
280
     1
281
     1
  3
ACAD_XREC_ROUNDTRIP
360
5F8
  0
DICTIONARY
  5
5E5
330
38
100
AcDbDictionary
280
     1
281
     1
  3
ACAD_XREC_ROUNDTRIP
360
5E6
  0
DICTIONARY
  5
5C9
330
2A
100
AcDbDictionary
280
     1
281
     1
  3
ACAD_XREC_ROUNDTRIP
360
5CA
  0
DICTIONARY
  5
5CB
330
2B
100
AcDbDictionary
280
     1
281
     1
  3
ACAD_XREC_ROUNDTRIP
360
5CC
  0
DICTIONARY
  5
5CD
330
2C
100
AcDbDictionary
280
     1
281
     1
  3
ACAD_XREC_ROUNDTRIP
360
5CE
  0
DICTIONARY
  5
5CF
330
2D
100
AcDbDictionary
280
     1
281
     1
  3
ACAD_XREC_ROUNDTRIP
360
5D0
  0
DICTIONARY
  5
5D7
330
31
100
AcDbDictionary
280
     1
281
     1
  3
ACAD_XREC_ROUNDTRIP
360
5D8
  0
DICTIONARY
  5
5F3
330
3F
100
AcDbDictionary
280
     1
281
     1
  3
ACAD_XREC_ROUNDTRIP
360
5F4
  0
DICTIONARY
  5
5E3
330
37
100
AcDbDictionary
280
     1
281
     1
  3
ACAD_XREC_ROUNDTRIP
360
5E4
  0
DICTIONARY
  5
5F5
330
40
100
AcDbDictionary
280
     1
281
     1
  3
ACAD_XREC_ROUNDTRIP
360
5F6
  0
DICTIONARY
  5
5DB
330
33
100
AcDbDictionary
280
     1
281
     1
  3
ACAD_XREC_ROUNDTRIP
360
5DC
  0
DICTIONARY
  5
5F1
330
3E
100
AcDbDictionary
280
     1
281
     1
  3
ACAD_XREC_ROUNDTRIP
360
5F2
  0
DICTIONARY
  5
5EF
330
3D
100
AcDbDictionary
280
     1
281
     1
  3
ACAD_XREC_ROUNDTRIP
360
5F0
  0
DICTIONARY
  5
5E9
330
3A
100
AcDbDictionary
280
     1
281
     1
  3
ACAD_XREC_ROUNDTRIP
360
5EA
  0
DICTIONARY
  5
5EB
330
3B
100
AcDbDictionary
280
     1
281
     1
  3
ACAD_XREC_ROUNDTRIP
360
5EC
  0
DICTIONARY
  5
5E1
330
36
100
AcDbDictionary
280
     1
281
     1
  3
ACAD_XREC_ROUNDTRIP
360
5E2
  0
DICTIONARY
  5
5D5
330
30
100
AcDbDictionary
280
     1
281
     1
  3
ACAD_XREC_ROUNDTRIP
360
5D6
  0
DICTIONARY
  5
5ED
330
3C
100
AcDbDictionary
280
     1
281
     1
  3
ACAD_XREC_ROUNDTRIP
360
5EE
  0
XRECORD
  5
600
102
{ACAD_REACTORS
330
5FF
102
}
330
5FF
100
AcDbXrecord
280
     1
102
DISPLAYNAME
  1
Imperial24
102
FLAGS
 90
        0
  0
XRECORD
  5
62F
102
{ACAD_REACTORS
330
62E
102
}
330
62E
100
AcDbXrecord
280
     1
102
DISPLAYNAME
  1
Metric50
102
FLAGS
 90
        0
  0
XRECORD
  5
604
102
{ACAD_REACTORS
330
603
102
}
330
603
100
AcDbXrecord
280
     1
102
SHADEPLOT
 70
     0
102
SHADEPLOTRESLEVEL
 70
     2
102
SHADEPLOTCUSTOMDPI
 70
   300
  0
XRECORD
  5
602
102
{ACAD_REACTORS
330
601
102
}
330
601
100
AcDbXrecord
280
     1
102
SHADEPLOT
 70
     0
102
SHADEPLOTRESLEVEL
 70
     2
102
SHADEPLOTCUSTOMDPI
 70
   300
  0
XRECORD
  5
606
102
{ACAD_REACTORS
330
605
102
}
330
605
100
AcDbXrecord
280
     1
102
SHADEPLOT
 70
     0
102
SHADEPLOTRESLEVEL
 70
     2
102
SHADEPLOTCUSTOMDPI
 70
   300
  0
XRECORD
  5
5C7
102
{ACAD_REACTORS
330
1A
102
}
330
1A
100
AcDbXrecord
280
     1
102
MATERIAL
148
0.0
149
0.0
149
0.0
 93
        0
 94
      127
282
     0
 72
     0
 77
     0
171
     0
175
     0
179
     0
273
     0
  0
XRECORD
  5
1C
102
{ACAD_REACTORS
330
1A
102
}
330
1A
100
AcDbXrecord
280
     1
270
     1
271
     1
  0
XRECORD
  5
1B
102
{ACAD_REACTORS
330
1A
102
}
330
1A
100
AcDbXrecord
280
     1
270
     1
271
     1
  0
XRECORD
  5
1F
102
{ACAD_REACTORS
330
1A
102
}
330
1A
100
AcDbXrecord
280
     1
270
     1
271
     1
  0
XRECORD
  5
1E
102
{ACAD_REACTORS
330
1A
102
}
330
1A
100
AcDbXrecord
280
     1
270
     1
271
     1
  0
XRECORD
  5
20
102
{ACAD_REACTORS
330
1A
102
}
330
1A
100
AcDbXrecord
280
     1
270
     1
271
     1
  0
XRECORD
  5
1D
102
{ACAD_REACTORS
330
1A
102
}
330
1A
100
AcDbXrecord
280
     1
270
     1
271
     1
  0
XRECORD
  5
5C6
102
{ACAD_REACTORS
330
12
102
}
330
12
100
AcDbXrecord
280
     1
102
MATERIAL
148
0.0
149
0.0
149
0.0
 93
        0
 94
      127
282
     0
 72
     0
 77
     0
171
     0
175
     0
179
     0
273
     0
  0
XRECORD
  5
14
102
{ACAD_REACTORS
330
12
102
}
330
12
100
AcDbXrecord
280
     1
270
     1
271
     1
  0
XRECORD
  5
13
102
{ACAD_REACTORS
330
12
102
}
330
12
100
AcDbXrecord
280
     1
270
     1
271
     1
  0
XRECORD
  5
17
102
{ACAD_REACTORS
330
12
102
}
330
12
100
AcDbXrecord
280
     1
270
     1
271
     1
  0
XRECORD
  5
16
102
{ACAD_REACTORS
330
12
102
}
330
12
100
AcDbXrecord
280
     1
270
     1
271
     1
  0
XRECORD
  5
18
102
{ACAD_REACTORS
330
12
102
}
330
12
100
AcDbXrecord
280
     1
270
     1
271
     1
  0
XRECORD
  5
15
102
{ACAD_REACTORS
330
12
102
}
330
12
100
AcDbXrecord
280
     1
270
     1
271
     1
  0
XRECORD
  5
5C8
102
{ACAD_REACTORS
330
22
102
}
330
22
100
AcDbXrecord
280
     1
102
MATERIAL
148
0.0
149
0.0
149
0.0
 93
        0
 94
      127
282
     0
 72
     0
 77
     0
171
     0
175
     0
179
     0
273
     0
  0
XRECORD
  5
24
102
{ACAD_REACTORS
330
22
102
}
330
22
100
AcDbXrecord
280
     1
270
     1
271
     1
  0
XRECORD
  5
23
102
{ACAD_REACTORS
330
22
102
}
330
22
100
AcDbXrecord
280
     1
270
     1
271
     1
  0
XRECORD
  5
27
102
{ACAD_REACTORS
330
22
102
}
330
22
100
AcDbXrecord
280
     1
270
     1
271
     1
  0
XRECORD
  5
26
102
{ACAD_REACTORS
330
22
102
}
330
22
100
AcDbXrecord
280
     1
270
     1
271
     1
  0
XRECORD
  5
28
102
{ACAD_REACTORS
330
22
102
}
330
22
100
AcDbXrecord
280
     1
270
     1
271
     1
  0
XRECORD
  5
25
102
{ACAD_REACTORS
330
22
102
}
330
22
100
AcDbXrecord
280
     1
270
     1
271
     1
  0
XRECORD
  5
5FC
102
{ACAD_REACTORS
330
5FB
102
}
330
5FB
100
AcDbXrecord
280
     1
102
ACAD_ROUNDTRIP_2012_MLEADER_STYLE
298
     1
  0
XRECORD
  5
5FE
102
{ACAD_REACTORS
330
5FD
102
}
330
5FD
100
AcDbXrecord
280
     1
102
DISPLAYNAME
  1
Imperial24
102
FLAGS
 90
        0
  0
XRECORD
  5
62D
102
{ACAD_REACTORS
330
62C
102
}
330
62C
100
AcDbXrecord
280
     1
102
DISPLAYNAME
  1
Metric50
102
FLAGS
 90
        0
  0
CELLSTYLEMAP
  5
5BE
102
{ACAD_REACTORS
330
5BD
102
}
330
5BD
100
AcDbCellStyleMap
 90
        3
300
CELLSTYLE
  1
TABLEFORMAT_BEGIN
 90
        5
170
     1
 91
        0
 92
    32768
 62
   257
 93
        1
300
CONTENTFORMAT
  1
CONTENTFORMAT_BEGIN
 90
        0
 91
        0
 92
      512
 93
        0
300

 40
0.0
140
1.0
 94
        5
 62
     0
340
55
144
3.5
309
CONTENTFORMAT_END
171
     1
301
MARGIN
  1
CELLMARGIN_BEGIN
 40
1.5
 40
1.5
 40
1.5
 40
1.5
 40
4.5
 40
4.5
309
CELLMARGIN_END
 94
        6
 95
        1
302
GRIDFORMAT
  1
GRIDFORMAT_BEGIN
 90
        0
 91
        1
 62
     0
 92
       -2
340
5B
 93
        0
 40
1.125
309
GRIDFORMAT_END
 95
        2
302
GRIDFORMAT
  1
GRIDFORMAT_BEGIN
 90
        0
 91
        1
 62
     0
 92
       -2
340
5B
 93
        0
 40
1.125
309
GRIDFORMAT_END
 95
        4
302
GRIDFORMAT
  1
GRIDFORMAT_BEGIN
 90
        0
 91
        1
 62
     0
 92
       -2
340
5B
 93
        0
 40
1.125
309
GRIDFORMAT_END
 95
        8
302
GRIDFORMAT
  1
GRIDFORMAT_BEGIN
 90
        0
 91
        1
 62
     0
 92
       -2
340
5B
 93
        0
 40
1.125
309
GRIDFORMAT_END
 95
       16
302
GRIDFORMAT
  1
GRIDFORMAT_BEGIN
 90
        0
 91
        1
 62
     0
 92
       -2
340
5B
 93
        0
 40
1.125
309
GRIDFORMAT_END
 95
       32
302
GRIDFORMAT
  1
GRIDFORMAT_BEGIN
 90
        0
 91
        1
 62
     0
 92
       -2
340
5B
 93
        0
 40
1.125
309
GRIDFORMAT_END
309
TABLEFORMAT_END
  1
CELLSTYLE_BEGIN
 90
        1
 91
        1
300
_TITLE
309
CELLSTYLE_END
300
CELLSTYLE
  1
TABLEFORMAT_BEGIN
 90
        5
170
     1
 91
        0
 92
        0
 62
   257
 93
        1
300
CONTENTFORMAT
  1
CONTENTFORMAT_BEGIN
 90
        0
 91
        0
 92
      512
 93
        0
300

 40
0.0
140
1.0
 94
        5
 62
     0
340
55
144
3.5
309
CONTENTFORMAT_END
171
     1
301
MARGIN
  1
CELLMARGIN_BEGIN
 40
1.5
 40
1.5
 40
1.5
 40
1.5
 40
4.5
 40
4.5
309
CELLMARGIN_END
 94
        6
 95
        1
302
GRIDFORMAT
  1
GRIDFORMAT_BEGIN
 90
        0
 91
        1
 62
     0
 92
       -2
340
5B
 93
        0
 40
1.125
309
GRIDFORMAT_END
 95
        2
302
GRIDFORMAT
  1
GRIDFORMAT_BEGIN
 90
        0
 91
        1
 62
     0
 92
       -2
340
5B
 93
        0
 40
1.125
309
GRIDFORMAT_END
 95
        4
302
GRIDFORMAT
  1
GRIDFORMAT_BEGIN
 90
        0
 91
        1
 62
     0
 92
       -2
340
5B
 93
        0
 40
1.125
309
GRIDFORMAT_END
 95
        8
302
GRIDFORMAT
  1
GRIDFORMAT_BEGIN
 90
        0
 91
        1
 62
     0
 92
       -2
340
5B
 93
        0
 40
1.125
309
GRIDFORMAT_END
 95
       16
302
GRIDFORMAT
  1
GRIDFORMAT_BEGIN
 90
        0
 91
        1
 62
     0
 92
       -2
340
5B
 93
        0
 40
1.125
309
GRIDFORMAT_END
 95
       32
302
GRIDFORMAT
  1
GRIDFORMAT_BEGIN
 90
        0
 91
        1
 62
     0
 92
       -2
340
5B
 93
        0
 40
1.125
309
GRIDFORMAT_END
309
TABLEFORMAT_END
  1
CELLSTYLE_BEGIN
 90
        2
 91
        1
300
_HEADER
309
CELLSTYLE_END
300
CELLSTYLE
  1
TABLEFORMAT_BEGIN
 90
        5
170
     1
 91
        0
 92
        0
 62
   257
 93
        1
300
CONTENTFORMAT
  1
CONTENTFORMAT_BEGIN
 90
        0
 91
        0
 92
      512
 93
        0
300

 40
0.0
140
1.0
 94
        2
 62
     0
340
55
144
3.5
309
CONTENTFORMAT_END
171
     1
301
MARGIN
  1
CELLMARGIN_BEGIN
 40
1.5
 40
1.5
 40
1.5
 40
1.5
 40
4.5
 40
4.5
309
CELLMARGIN_END
 94
        6
 95
        1
302
GRIDFORMAT
  1
GRIDFORMAT_BEGIN
 90
        0
 91
        1
 62
     0
 92
       -2
340
5B
 93
        0
 40
1.125
309
GRIDFORMAT_END
 95
        2
302
GRIDFORMAT
  1
GRIDFORMAT_BEGIN
 90
        0
 91
        1
 62
     0
 92
       -2
340
5B
 93
        0
 40
1.125
309
GRIDFORMAT_END
 95
        4
302
GRIDFORMAT
  1
GRIDFORMAT_BEGIN
 90
        0
 91
        1
 62
     0
 92
       -2
340
5B
 93
        0
 40
1.125
309
GRIDFORMAT_END
 95
        8
302
GRIDFORMAT
  1
GRIDFORMAT_BEGIN
 90
        0
 91
        1
 62
     0
 92
       -2
340
5B
 93
        0
 40
1.125
309
GRIDFORMAT_END
 95
       16
302
GRIDFORMAT
  1
GRIDFORMAT_BEGIN
 90
        0
 91
        1
 62
     0
 92
       -2
340
5B
 93
        0
 40
1.125
309
GRIDFORMAT_END
 95
       32
302
GRIDFORMAT
  1
GRIDFORMAT_BEGIN
 90
        0
 91
        1
 62
     0
 92
       -2
340
5B
 93
        0
 40
1.125
309
GRIDFORMAT_END
309
TABLEFORMAT_END
  1
CELLSTYLE_BEGIN
 90
        3
 91
        2
300
_DATA
309
CELLSTYLE_END
  0
XRECORD
  5
5F9
102
{ACAD_REACTORS
330
5BD
102
}
330
5BD
100
AcDbXrecord
280
     1
102
ACAD_ROUNDTRIP_PRE2007_TABLESTYLE
 90
      512
 91
        0
  1

 92
      512
 93
        0
  2

 94
      512
 95
        0
  3

  0
XRECORD
  5
5D4
102
{ACAD_REACTORS
330
5D3
102
}
330
5D3
100
AcDbXrecord
280
     1
102
RTVSPost2010Prop28
280
     1
102
RTVSPost2010PropOp28
 70
     1
102
RTVSPost2010Prop29
280
     1
102
RTVSPost2010PropOp29
 70
     1
102
RTVSPost2010Prop30
280
     0
102
RTVSPost2010PropOp30
 70
     1
102
RTVSPost2010Prop31
280
     0
102
RTVSPost2010PropOp31
 70
     1
102
RTVSPost2010Prop32
280
     0
102
RTVSPost2010PropOp32
 70
     1
102
RTVSPost2010Prop33
280
     0
102
RTVSPost2010PropOp33
 70
     1
102
RTVSPost2010Prop34
280
     0
102
RTVSPost2010PropOp34
 70
     1
102
RTVSPost2010Prop35
280
     0
102
RTVSPost2010PropOp35
 70
     1
102
RTVSPost2010Prop36
280
     0
102
RTVSPost2010PropOp36
 70
     1
102
RTVSPost2010Prop37
 90
       50
102
RTVSPost2010PropOp37
 70
     1
102
RTVSPost2010Prop38
140
0.0
102
RTVSPost2010PropOp38
 70
     1
102
RTVSPost2010Prop39
140
1.0
102
RTVSPost2010PropOp39
 70
     1
102
RTVSPost2010Prop40
 90
        0
102
RTVSPost2010PropOp40
 70
     1
102
RTVSPost2010Prop41ColorIndex
 90
       18
102
RTVSPost2010Prop41ColorRGB
 90
        0
102
RTVSPost2010PropOp41
 70
     1
102
RTVSPost2010Prop42
 90
       50
102
RTVSPost2010PropOp42
 70
     1
102
RTVSPost2010Prop43
 90
        3
102
RTVSPost2010PropOp43
 70
     1
102
RTVSPost2010Prop44ColorIndex
 90
        5
102
RTVSPost2010Prop44ColorRGB
 90
      255
102
RTVSPost2010PropOp44
 70
     1
102
RTVSPost2010Prop45
280
     0
102
RTVSPost2010PropOp45
 70
     1
102
RTVSPost2010Prop46
 90
       50
102
RTVSPost2010PropOp46
 70
     1
102
RTVSPost2010Prop47
 90
       50
102
RTVSPost2010PropOp47
 70
     1
102
RTVSPost2010Prop48
 90
       50
102
RTVSPost2010PropOp48
 70
     1
102
RTVSPost2010Prop49
280
     0
102
RTVSPost2010PropOp49
 70
     1
102
RTVSPost2010Prop50
 90
       50
102
RTVSPost2010PropOp50
 70
     1
102
RTVSPost2010Prop51ColorIndex
 90
      256
102
RTVSPost2010Prop51ColorRGB
 90
-16777216
102
RTVSPost2010PropOp51
 70
     0
102
RTVSPost2010Prop52
140
1.0
102
RTVSPost2010PropOp52
 70
     0
102
RTVSPost2010Prop53
 90
        2
102
RTVSPost2010PropOp53
 70
     1
102
RTVSPost2010Prop54
  1
strokes_ogs.tif
102
RTVSPost2010PropOp54
 70
     1
102
RTVSPost2010Prop55
280
     0
102
RTVSPost2010PropOp55
 70
     1
102
RTVSPost2010Prop56
140
1.0
102
RTVSPost2010PropOp56
 70
     1
102
RTVSPost2010Prop57
140
1.0
102
RTVSPost2010PropOp57
 70
     1
102
RTVSPropertyOp0
 70
     1
102
RTVSPropertyOp1
 70
     1
102
RTVSPropertyOp2
 70
     1
102
RTVSPropertyOp3
 70
     1
102
RTVSPropertyOp4
 70
     1
102
RTVSPropertyOp5
 70
     1
102
RTVSPropertyOp6
 70
     1
102
RTVSPropertyOp7
 70
     1
102
RTVSPropertyOp8
 70
     1
102
RTVSPropertyOp9
 70
     1
102
RTVSPropertyOp10
 70
     1
102
RTVSPropertyOp11
 70
     1
102
RTVSPropertyOp12
 70
     1
102
RTVSPropertyOp13
 70
     1
102
RTVSPropertyOp14
 70
     1
102
RTVSPropertyOp15
 70
     1
102
RTVSPropertyOp16
 70
     1
102
RTVSPropertyOp17
 70
     1
102
RTVSPropertyOp18
 70
     1
102
RTVSPropertyOp19
 70
     1
102
RTVSPropertyOp20
 70
     1
102
RTVSPropertyOp21
 70
     1
102
RTVSPropertyOp22
 70
     1
102
RTVSPropertyOp23
 70
     1
102
RTVSPropertyOp24
 70
     1
102
RTVSPropertyOp25
 70
     1
102
RTVSPropertyOp26
 70
     1
102
RTVSPropertyOp27
 70
     1
102
RTVSPropertyOp28
 70
     1
102
RTVSPropertyOp29
 70
     1
102
RTVSPropertyOp30
 70
     1
102
RTVSPropertyOp31
 70
     1
102
RTVSPropertyOp32
 70
     1
102
RTVSPropertyOp33
 70
     1
102
RTVSPropertyOp34
 70
     1
102
RTVSPropertyOp35
 70
     1
102
RTVSPropertyOp36
 70
     1
102
RTVSPropertyOp37
 70
     1
102
RTVSPropertyOp38
 70
     1
102
RTVSPropertyOp39
 70
     1
102
RTVSPropertyOp40
 70
     1
102
RTVSPropertyOp41
 70
     1
102
RTVSPropertyOp42
 70
     1
102
RTVSPropertyOp43
 70
     1
102
RTVSPropertyOp44
 70
     1
102
RTVSPropertyOp45
 70
     1
102
RTVSPropertyOp46
 70
     1
102
RTVSPropertyOp47
 70
     1
102
RTVSPropertyOp48
 70
     1
102
RTVSPropertyOp49
 70
     1
102
RTVSPropertyOp50
 70
     1
102
RTVSPropertyOp51
 70
     0
102
RTVSPropertyOp52
 70
     0
102
RTVSPropertyOp53
 70
     1
102
RTVSPropertyOp54
 70
     1
102
RTVSPropertyOp55
 70
     1
102
RTVSPropertyOp56
 70
     1
102
RTVSPropertyOp57
 70
     1
102
RTVSPropertyOp58
 70
     1
102
RTVSPropertyOp59
 70
     1
102
RTVSPropertyOp60
 70
     1
102
RTVSPropertyOp61
 70
     1
102
RTVSPropertyOp62
 70
     1
  0
XRECORD
  5
5D2
102
{ACAD_REACTORS
330
5D1
102
}
330
5D1
100
AcDbXrecord
280
     1
102
RTVSPost2010Prop28
280
     0
102
RTVSPost2010PropOp28
 70
     1
102
RTVSPost2010Prop29
280
     1
102
RTVSPost2010PropOp29
 70
     1
102
RTVSPost2010Prop30
280
     1
102
RTVSPost2010PropOp30
 70
     1
102
RTVSPost2010Prop31
280
     0
102
RTVSPost2010PropOp31
 70
     1
102
RTVSPost2010Prop32
280
     0
102
RTVSPost2010PropOp32
 70
     1
102
RTVSPost2010Prop33
280
     0
102
RTVSPost2010PropOp33
 70
     1
102
RTVSPost2010Prop34
280
     0
102
RTVSPost2010PropOp34
 70
     1
102
RTVSPost2010Prop35
280
     0
102
RTVSPost2010PropOp35
 70
     1
102
RTVSPost2010Prop36
280
     0
102
RTVSPost2010PropOp36
 70
     1
102
RTVSPost2010Prop37
 90
       50
102
RTVSPost2010PropOp37
 70
     1
102
RTVSPost2010Prop38
140
0.0
102
RTVSPost2010PropOp38
 70
     1
102
RTVSPost2010Prop39
140
1.0
102
RTVSPost2010PropOp39
 70
     1
102
RTVSPost2010Prop40
 90
        0
102
RTVSPost2010PropOp40
 70
     1
102
RTVSPost2010Prop41ColorIndex
 90
       18
102
RTVSPost2010Prop41ColorRGB
 90
        0
102
RTVSPost2010PropOp41
 70
     1
102
RTVSPost2010Prop42
 90
       50
102
RTVSPost2010PropOp42
 70
     1
102
RTVSPost2010Prop43
 90
        3
102
RTVSPost2010PropOp43
 70
     1
102
RTVSPost2010Prop44ColorIndex
 90
        5
102
RTVSPost2010Prop44ColorRGB
 90
      255
102
RTVSPost2010PropOp44
 70
     1
102
RTVSPost2010Prop45
280
     0
102
RTVSPost2010PropOp45
 70
     1
102
RTVSPost2010Prop46
 90
       50
102
RTVSPost2010PropOp46
 70
     1
102
RTVSPost2010Prop47
 90
       50
102
RTVSPost2010PropOp47
 70
     1
102
RTVSPost2010Prop48
 90
       50
102
RTVSPost2010PropOp48
 70
     1
102
RTVSPost2010Prop49
280
     0
102
RTVSPost2010PropOp49
 70
     1
102
RTVSPost2010Prop50
 90
       50
102
RTVSPost2010PropOp50
 70
     1
102
RTVSPost2010Prop51ColorIndex
 90
      256
102
RTVSPost2010Prop51ColorRGB
 90
-16777216
102
RTVSPost2010PropOp51
 70
     0
102
RTVSPost2010Prop52
140
1.0
102
RTVSPost2010PropOp52
 70
     0
102
RTVSPost2010Prop53
 90
        2
102
RTVSPost2010PropOp53
 70
     1
102
RTVSPost2010Prop54
  1
strokes_ogs.tif
102
RTVSPost2010PropOp54
 70
     1
102
RTVSPost2010Prop55
280
     0
102
RTVSPost2010PropOp55
 70
     1
102
RTVSPost2010Prop56
140
1.0
102
RTVSPost2010PropOp56
 70
     1
102
RTVSPost2010Prop57
140
1.0
102
RTVSPost2010PropOp57
 70
     1
102
RTVSPropertyOp0
 70
     1
102
RTVSPropertyOp1
 70
     1
102
RTVSPropertyOp2
 70
     1
102
RTVSPropertyOp3
 70
     1
102
RTVSPropertyOp4
 70
     1
102
RTVSPropertyOp5
 70
     1
102
RTVSPropertyOp6
 70
     1
102
RTVSPropertyOp7
 70
     1
102
RTVSPropertyOp8
 70
     1
102
RTVSPropertyOp9
 70
     1
102
RTVSPropertyOp10
 70
     1
102
RTVSPropertyOp11
 70
     1
102
RTVSPropertyOp12
 70
     1
102
RTVSPropertyOp13
 70
     1
102
RTVSPropertyOp14
 70
     1
102
RTVSPropertyOp15
 70
     1
102
RTVSPropertyOp16
 70
     1
102
RTVSPropertyOp17
 70
     1
102
RTVSPropertyOp18
 70
     1
102
RTVSPropertyOp19
 70
     1
102
RTVSPropertyOp20
 70
     1
102
RTVSPropertyOp21
 70
     1
102
RTVSPropertyOp22
 70
     1
102
RTVSPropertyOp23
 70
     1
102
RTVSPropertyOp24
 70
     1
102
RTVSPropertyOp25
 70
     1
102
RTVSPropertyOp26
 70
     1
102
RTVSPropertyOp27
 70
     1
102
RTVSPropertyOp28
 70
     1
102
RTVSPropertyOp29
 70
     1
102
RTVSPropertyOp30
 70
     1
102
RTVSPropertyOp31
 70
     1
102
RTVSPropertyOp32
 70
     1
102
RTVSPropertyOp33
 70
     1
102
RTVSPropertyOp34
 70
     1
102
RTVSPropertyOp35
 70
     1
102
RTVSPropertyOp36
 70
     1
102
RTVSPropertyOp37
 70
     1
102
RTVSPropertyOp38
 70
     1
102
RTVSPropertyOp39
 70
     1
102
RTVSPropertyOp40
 70
     1
102
RTVSPropertyOp41
 70
     1
102
RTVSPropertyOp42
 70
     1
102
RTVSPropertyOp43
 70
     1
102
RTVSPropertyOp44
 70
     1
102
RTVSPropertyOp45
 70
     1
102
RTVSPropertyOp46
 70
     1
102
RTVSPropertyOp47
 70
     1
102
RTVSPropertyOp48
 70
     1
102
RTVSPropertyOp49
 70
     1
102
RTVSPropertyOp50
 70
     1
102
RTVSPropertyOp51
 70
     0
102
RTVSPropertyOp52
 70
     0
102
RTVSPropertyOp53
 70
     1
102
RTVSPropertyOp54
 70
     1
102
RTVSPropertyOp55
 70
     1
102
RTVSPropertyOp56
 70
     1
102
RTVSPropertyOp57
 70
     1
102
RTVSPropertyOp58
 70
     1
102
RTVSPropertyOp59
 70
     1
102
RTVSPropertyOp60
 70
     1
102
RTVSPropertyOp61
 70
     1
102
RTVSPropertyOp62
 70
     1
  0
XRECORD
  5
5E0
102
{ACAD_REACTORS
330
5DF
102
}
330
5DF
100
AcDbXrecord
280
     1
102
RTVSPost2010Prop28
280
     0
102
RTVSPost2010PropOp28
 70
     1
102
RTVSPost2010Prop29
280
     1
102
RTVSPost2010PropOp29
 70
     1
102
RTVSPost2010Prop30
280
     1
102
RTVSPost2010PropOp30
 70
     1
102
RTVSPost2010Prop31
280
     0
102
RTVSPost2010PropOp31
 70
     1
102
RTVSPost2010Prop32
280
     0
102
RTVSPost2010PropOp32
 70
     1
102
RTVSPost2010Prop33
280
     0
102
RTVSPost2010PropOp33
 70
     1
102
RTVSPost2010Prop34
280
     0
102
RTVSPost2010PropOp34
 70
     1
102
RTVSPost2010Prop35
280
     0
102
RTVSPost2010PropOp35
 70
     1
102
RTVSPost2010Prop36
280
     0
102
RTVSPost2010PropOp36
 70
     1
102
RTVSPost2010Prop37
 90
       50
102
RTVSPost2010PropOp37
 70
     1
102
RTVSPost2010Prop38
140
0.0
102
RTVSPost2010PropOp38
 70
     1
102
RTVSPost2010Prop39
140
1.0
102
RTVSPost2010PropOp39
 70
     1
102
RTVSPost2010Prop40
 90
        0
102
RTVSPost2010PropOp40
 70
     1
102
RTVSPost2010Prop41ColorIndex
 90
       18
102
RTVSPost2010Prop41ColorRGB
 90
        0
102
RTVSPost2010PropOp41
 70
     1
102
RTVSPost2010Prop42
 90
       50
102
RTVSPost2010PropOp42
 70
     1
102
RTVSPost2010Prop43
 90
        3
102
RTVSPost2010PropOp43
 70
     1
102
RTVSPost2010Prop44ColorIndex
 90
        5
102
RTVSPost2010Prop44ColorRGB
 90
      255
102
RTVSPost2010PropOp44
 70
     1
102
RTVSPost2010Prop45
280
     0
102
RTVSPost2010PropOp45
 70
     1
102
RTVSPost2010Prop46
 90
       50
102
RTVSPost2010PropOp46
 70
     1
102
RTVSPost2010Prop47
 90
       50
102
RTVSPost2010PropOp47
 70
     1
102
RTVSPost2010Prop48
 90
       50
102
RTVSPost2010PropOp48
 70
     1
102
RTVSPost2010Prop49
280
     0
102
RTVSPost2010PropOp49
 70
     1
102
RTVSPost2010Prop50
 90
       50
102
RTVSPost2010PropOp50
 70
     1
102
RTVSPost2010Prop51ColorIndex
 90
      256
102
RTVSPost2010Prop51ColorRGB
 90
-16777216
102
RTVSPost2010PropOp51
 70
     0
102
RTVSPost2010Prop52
140
1.0
102
RTVSPost2010PropOp52
 70
     0
102
RTVSPost2010Prop53
 90
        2
102
RTVSPost2010PropOp53
 70
     1
102
RTVSPost2010Prop54
  1
strokes_ogs.tif
102
RTVSPost2010PropOp54
 70
     1
102
RTVSPost2010Prop55
280
     0
102
RTVSPost2010PropOp55
 70
     1
102
RTVSPost2010Prop56
140
1.0
102
RTVSPost2010PropOp56
 70
     1
102
RTVSPost2010Prop57
140
1.0
102
RTVSPost2010PropOp57
 70
     1
102
RTVSPropertyOp0
 70
     1
102
RTVSPropertyOp1
 70
     1
102
RTVSPropertyOp2
 70
     1
102
RTVSPropertyOp3
 70
     1
102
RTVSPropertyOp4
 70
     1
102
RTVSPropertyOp5
 70
     1
102
RTVSPropertyOp6
 70
     1
102
RTVSPropertyOp7
 70
     1
102
RTVSPropertyOp8
 70
     1
102
RTVSPropertyOp9
 70
     1
102
RTVSPropertyOp10
 70
     1
102
RTVSPropertyOp11
 70
     1
102
RTVSPropertyOp12
 70
     1
102
RTVSPropertyOp13
 70
     1
102
RTVSPropertyOp14
 70
     1
102
RTVSPropertyOp15
 70
     1
102
RTVSPropertyOp16
 70
     1
102
RTVSPropertyOp17
 70
     1
102
RTVSPropertyOp18
 70
     1
102
RTVSPropertyOp19
 70
     1
102
RTVSPropertyOp20
 70
     1
102
RTVSPropertyOp21
 70
     1
102
RTVSPropertyOp22
 70
     1
102
RTVSPropertyOp23
 70
     1
102
RTVSPropertyOp24
 70
     1
102
RTVSPropertyOp25
 70
     1
102
RTVSPropertyOp26
 70
     1
102
RTVSPropertyOp27
 70
     1
102
RTVSPropertyOp28
 70
     1
102
RTVSPropertyOp29
 70
     1
102
RTVSPropertyOp30
 70
     1
102
RTVSPropertyOp31
 70
     1
102
RTVSPropertyOp32
 70
     1
102
RTVSPropertyOp33
 70
     1
102
RTVSPropertyOp34
 70
     1
102
RTVSPropertyOp35
 70
     1
102
RTVSPropertyOp36
 70
     1
102
RTVSPropertyOp37
 70
     1
102
RTVSPropertyOp38
 70
     1
102
RTVSPropertyOp39
 70
     1
102
RTVSPropertyOp40
 70
     1
102
RTVSPropertyOp41
 70
     1
102
RTVSPropertyOp42
 70
     1
102
RTVSPropertyOp43
 70
     1
102
RTVSPropertyOp44
 70
     1
102
RTVSPropertyOp45
 70
     1
102
RTVSPropertyOp46
 70
     1
102
RTVSPropertyOp47
 70
     1
102
RTVSPropertyOp48
 70
     1
102
RTVSPropertyOp49
 70
     1
102
RTVSPropertyOp50
 70
     1
102
RTVSPropertyOp51
 70
     0
102
RTVSPropertyOp52
 70
     0
102
RTVSPropertyOp53
 70
     1
102
RTVSPropertyOp54
 70
     1
102
RTVSPropertyOp55
 70
     1
102
RTVSPropertyOp56
 70
     1
102
RTVSPropertyOp57
 70
     1
102
RTVSPropertyOp58
 70
     1
102
RTVSPropertyOp59
 70
     1
102
RTVSPropertyOp60
 70
     1
102
RTVSPropertyOp61
 70
     1
102
RTVSPropertyOp62
 70
     1
  0
XRECORD
  5
5E8
102
{ACAD_REACTORS
330
5E7
102
}
330
5E7
100
AcDbXrecord
280
     1
102
RTVSPost2010Prop28
280
     0
102
RTVSPost2010PropOp28
 70
     1
102
RTVSPost2010Prop29
280
     1
102
RTVSPost2010PropOp29
 70
     1
102
RTVSPost2010Prop30
280
     1
102
RTVSPost2010PropOp30
 70
     1
102
RTVSPost2010Prop31
280
     0
102
RTVSPost2010PropOp31
 70
     1
102
RTVSPost2010Prop32
280
     0
102
RTVSPost2010PropOp32
 70
     1
102
RTVSPost2010Prop33
280
     0
102
RTVSPost2010PropOp33
 70
     1
102
RTVSPost2010Prop34
280
     0
102
RTVSPost2010PropOp34
 70
     1
102
RTVSPost2010Prop35
280
     0
102
RTVSPost2010PropOp35
 70
     1
102
RTVSPost2010Prop36
280
     0
102
RTVSPost2010PropOp36
 70
     1
102
RTVSPost2010Prop37
 90
       50
102
RTVSPost2010PropOp37
 70
     1
102
RTVSPost2010Prop38
140
0.0
102
RTVSPost2010PropOp38
 70
     1
102
RTVSPost2010Prop39
140
1.0
102
RTVSPost2010PropOp39
 70
     1
102
RTVSPost2010Prop40
 90
        0
102
RTVSPost2010PropOp40
 70
     1
102
RTVSPost2010Prop41ColorIndex
 90
       18
102
RTVSPost2010Prop41ColorRGB
 90
        0
102
RTVSPost2010PropOp41
 70
     1
102
RTVSPost2010Prop42
 90
       50
102
RTVSPost2010PropOp42
 70
     1
102
RTVSPost2010Prop43
 90
        3
102
RTVSPost2010PropOp43
 70
     1
102
RTVSPost2010Prop44ColorIndex
 90
        5
102
RTVSPost2010Prop44ColorRGB
 90
      255
102
RTVSPost2010PropOp44
 70
     1
102
RTVSPost2010Prop45
280
     0
102
RTVSPost2010PropOp45
 70
     1
102
RTVSPost2010Prop46
 90
       50
102
RTVSPost2010PropOp46
 70
     1
102
RTVSPost2010Prop47
 90
       50
102
RTVSPost2010PropOp47
 70
     1
102
RTVSPost2010Prop48
 90
       50
102
RTVSPost2010PropOp48
 70
     1
102
RTVSPost2010Prop49
280
     0
102
RTVSPost2010PropOp49
 70
     1
102
RTVSPost2010Prop50
 90
       50
102
RTVSPost2010PropOp50
 70
     1
102
RTVSPost2010Prop51ColorIndex
 90
      256
102
RTVSPost2010Prop51ColorRGB
 90
-16777216
102
RTVSPost2010PropOp51
 70
     0
102
RTVSPost2010Prop52
140
1.0
102
RTVSPost2010PropOp52
 70
     0
102
RTVSPost2010Prop53
 90
        2
102
RTVSPost2010PropOp53
 70
     1
102
RTVSPost2010Prop54
  1
strokes_ogs.tif
102
RTVSPost2010PropOp54
 70
     1
102
RTVSPost2010Prop55
280
     0
102
RTVSPost2010PropOp55
 70
     1
102
RTVSPost2010Prop56
140
1.0
102
RTVSPost2010PropOp56
 70
     1
102
RTVSPost2010Prop57
140
1.0
102
RTVSPost2010PropOp57
 70
     1
102
RTVSPropertyOp0
 70
     1
102
RTVSPropertyOp1
 70
     1
102
RTVSPropertyOp2
 70
     1
102
RTVSPropertyOp3
 70
     1
102
RTVSPropertyOp4
 70
     1
102
RTVSPropertyOp5
 70
     1
102
RTVSPropertyOp6
 70
     1
102
RTVSPropertyOp7
 70
     1
102
RTVSPropertyOp8
 70
     1
102
RTVSPropertyOp9
 70
     1
102
RTVSPropertyOp10
 70
     1
102
RTVSPropertyOp11
 70
     1
102
RTVSPropertyOp12
 70
     1
102
RTVSPropertyOp13
 70
     1
102
RTVSPropertyOp14
 70
     1
102
RTVSPropertyOp15
 70
     1
102
RTVSPropertyOp16
 70
     1
102
RTVSPropertyOp17
 70
     1
102
RTVSPropertyOp18
 70
     1
102
RTVSPropertyOp19
 70
     1
102
RTVSPropertyOp20
 70
     1
102
RTVSPropertyOp21
 70
     1
102
RTVSPropertyOp22
 70
     1
102
RTVSPropertyOp23
 70
     1
102
RTVSPropertyOp24
 70
     1
102
RTVSPropertyOp25
 70
     1
102
RTVSPropertyOp26
 70
     1
102
RTVSPropertyOp27
 70
     1
102
RTVSPropertyOp28
 70
     1
102
RTVSPropertyOp29
 70
     1
102
RTVSPropertyOp30
 70
     1
102
RTVSPropertyOp31
 70
     1
102
RTVSPropertyOp32
 70
     1
102
RTVSPropertyOp33
 70
     1
102
RTVSPropertyOp34
 70
     1
102
RTVSPropertyOp35
 70
     1
102
RTVSPropertyOp36
 70
     1
102
RTVSPropertyOp37
 70
     1
102
RTVSPropertyOp38
 70
     1
102
RTVSPropertyOp39
 70
     1
102
RTVSPropertyOp40
 70
     1
102
RTVSPropertyOp41
 70
     1
102
RTVSPropertyOp42
 70
     1
102
RTVSPropertyOp43
 70
     1
102
RTVSPropertyOp44
 70
     1
102
RTVSPropertyOp45
 70
     1
102
RTVSPropertyOp46
 70
     1
102
RTVSPropertyOp47
 70
     1
102
RTVSPropertyOp48
 70
     1
102
RTVSPropertyOp49
 70
     1
102
RTVSPropertyOp50
 70
     1
102
RTVSPropertyOp51
 70
     0
102
RTVSPropertyOp52
 70
     0
102
RTVSPropertyOp53
 70
     1
102
RTVSPropertyOp54
 70
     1
102
RTVSPropertyOp55
 70
     1
102
RTVSPropertyOp56
 70
     1
102
RTVSPropertyOp57
 70
     1
102
RTVSPropertyOp58
 70
     1
102
RTVSPropertyOp59
 70
     1
102
RTVSPropertyOp60
 70
     1
102
RTVSPropertyOp61
 70
     1
102
RTVSPropertyOp62
 70
     1
  0
XRECORD
  5
5DA
102
{ACAD_REACTORS
330
5D9
102
}
330
5D9
100
AcDbXrecord
280
     1
102
RTVSPost2010Prop28
280
     0
102
RTVSPost2010PropOp28
 70
     1
102
RTVSPost2010Prop29
280
     1
102
RTVSPost2010PropOp29
 70
     1
102
RTVSPost2010Prop30
280
     1
102
RTVSPost2010PropOp30
 70
     1
102
RTVSPost2010Prop31
280
     0
102
RTVSPost2010PropOp31
 70
     1
102
RTVSPost2010Prop32
280
     0
102
RTVSPost2010PropOp32
 70
     1
102
RTVSPost2010Prop33
280
     0
102
RTVSPost2010PropOp33
 70
     1
102
RTVSPost2010Prop34
280
     0
102
RTVSPost2010PropOp34
 70
     1
102
RTVSPost2010Prop35
280
     0
102
RTVSPost2010PropOp35
 70
     1
102
RTVSPost2010Prop36
280
     0
102
RTVSPost2010PropOp36
 70
     1
102
RTVSPost2010Prop37
 90
       50
102
RTVSPost2010PropOp37
 70
     1
102
RTVSPost2010Prop38
140
0.0
102
RTVSPost2010PropOp38
 70
     1
102
RTVSPost2010Prop39
140
1.0
102
RTVSPost2010PropOp39
 70
     1
102
RTVSPost2010Prop40
 90
        0
102
RTVSPost2010PropOp40
 70
     1
102
RTVSPost2010Prop41ColorIndex
 90
       18
102
RTVSPost2010Prop41ColorRGB
 90
        0
102
RTVSPost2010PropOp41
 70
     1
102
RTVSPost2010Prop42
 90
       50
102
RTVSPost2010PropOp42
 70
     1
102
RTVSPost2010Prop43
 90
        3
102
RTVSPost2010PropOp43
 70
     1
102
RTVSPost2010Prop44ColorIndex
 90
        5
102
RTVSPost2010Prop44ColorRGB
 90
      255
102
RTVSPost2010PropOp44
 70
     1
102
RTVSPost2010Prop45
280
     0
102
RTVSPost2010PropOp45
 70
     1
102
RTVSPost2010Prop46
 90
       50
102
RTVSPost2010PropOp46
 70
     1
102
RTVSPost2010Prop47
 90
       50
102
RTVSPost2010PropOp47
 70
     1
102
RTVSPost2010Prop48
 90
       50
102
RTVSPost2010PropOp48
 70
     1
102
RTVSPost2010Prop49
280
     0
102
RTVSPost2010PropOp49
 70
     1
102
RTVSPost2010Prop50
 90
       50
102
RTVSPost2010PropOp50
 70
     1
102
RTVSPost2010Prop51ColorIndex
 90
      256
102
RTVSPost2010Prop51ColorRGB
 90
-16777216
102
RTVSPost2010PropOp51
 70
     0
102
RTVSPost2010Prop52
140
1.0
102
RTVSPost2010PropOp52
 70
     0
102
RTVSPost2010Prop53
 90
        2
102
RTVSPost2010PropOp53
 70
     1
102
RTVSPost2010Prop54
  1
strokes_ogs.tif
102
RTVSPost2010PropOp54
 70
     1
102
RTVSPost2010Prop55
280
     0
102
RTVSPost2010PropOp55
 70
     1
102
RTVSPost2010Prop56
140
1.0
102
RTVSPost2010PropOp56
 70
     1
102
RTVSPost2010Prop57
140
1.0
102
RTVSPost2010PropOp57
 70
     1
102
RTVSPropertyOp0
 70
     1
102
RTVSPropertyOp1
 70
     1
102
RTVSPropertyOp2
 70
     1
102
RTVSPropertyOp3
 70
     1
102
RTVSPropertyOp4
 70
     1
102
RTVSPropertyOp5
 70
     1
102
RTVSPropertyOp6
 70
     1
102
RTVSPropertyOp7
 70
     1
102
RTVSPropertyOp8
 70
     1
102
RTVSPropertyOp9
 70
     1
102
RTVSPropertyOp10
 70
     1
102
RTVSPropertyOp11
 70
     1
102
RTVSPropertyOp12
 70
     1
102
RTVSPropertyOp13
 70
     1
102
RTVSPropertyOp14
 70
     1
102
RTVSPropertyOp15
 70
     1
102
RTVSPropertyOp16
 70
     1
102
RTVSPropertyOp17
 70
     1
102
RTVSPropertyOp18
 70
     1
102
RTVSPropertyOp19
 70
     1
102
RTVSPropertyOp20
 70
     1
102
RTVSPropertyOp21
 70
     1
102
RTVSPropertyOp22
 70
     1
102
RTVSPropertyOp23
 70
     1
102
RTVSPropertyOp24
 70
     1
102
RTVSPropertyOp25
 70
     1
102
RTVSPropertyOp26
 70
     1
102
RTVSPropertyOp27
 70
     1
102
RTVSPropertyOp28
 70
     1
102
RTVSPropertyOp29
 70
     1
102
RTVSPropertyOp30
 70
     1
102
RTVSPropertyOp31
 70
     1
102
RTVSPropertyOp32
 70
     1
102
RTVSPropertyOp33
 70
     1
102
RTVSPropertyOp34
 70
     1
102
RTVSPropertyOp35
 70
     1
102
RTVSPropertyOp36
 70
     1
102
RTVSPropertyOp37
 70
     1
102
RTVSPropertyOp38
 70
     1
102
RTVSPropertyOp39
 70
     1
102
RTVSPropertyOp40
 70
     1
102
RTVSPropertyOp41
 70
     1
102
RTVSPropertyOp42
 70
     1
102
RTVSPropertyOp43
 70
     1
102
RTVSPropertyOp44
 70
     1
102
RTVSPropertyOp45
 70
     1
102
RTVSPropertyOp46
 70
     1
102
RTVSPropertyOp47
 70
     1
102
RTVSPropertyOp48
 70
     1
102
RTVSPropertyOp49
 70
     1
102
RTVSPropertyOp50
 70
     1
102
RTVSPropertyOp51
 70
     0
102
RTVSPropertyOp52
 70
     0
102
RTVSPropertyOp53
 70
     1
102
RTVSPropertyOp54
 70
     1
102
RTVSPropertyOp55
 70
     1
102
RTVSPropertyOp56
 70
     1
102
RTVSPropertyOp57
 70
     1
102
RTVSPropertyOp58
 70
     1
102
RTVSPropertyOp59
 70
     1
102
RTVSPropertyOp60
 70
     1
102
RTVSPropertyOp61
 70
     1
102
RTVSPropertyOp62
 70
     1
  0
XRECORD
  5
5DE
102
{ACAD_REACTORS
330
5DD
102
}
330
5DD
100
AcDbXrecord
280
     1
102
RTVSPost2010Prop28
280
     0
102
RTVSPost2010PropOp28
 70
     1
102
RTVSPost2010Prop29
280
     1
102
RTVSPost2010PropOp29
 70
     1
102
RTVSPost2010Prop30
280
     1
102
RTVSPost2010PropOp30
 70
     1
102
RTVSPost2010Prop31
280
     0
102
RTVSPost2010PropOp31
 70
     1
102
RTVSPost2010Prop32
280
     0
102
RTVSPost2010PropOp32
 70
     1
102
RTVSPost2010Prop33
280
     0
102
RTVSPost2010PropOp33
 70
     1
102
RTVSPost2010Prop34
280
     0
102
RTVSPost2010PropOp34
 70
     1
102
RTVSPost2010Prop35
280
     0
102
RTVSPost2010PropOp35
 70
     1
102
RTVSPost2010Prop36
280
     0
102
RTVSPost2010PropOp36
 70
     1
102
RTVSPost2010Prop37
 90
       50
102
RTVSPost2010PropOp37
 70
     1
102
RTVSPost2010Prop38
140
0.0
102
RTVSPost2010PropOp38
 70
     1
102
RTVSPost2010Prop39
140
1.0
102
RTVSPost2010PropOp39
 70
     1
102
RTVSPost2010Prop40
 90
        0
102
RTVSPost2010PropOp40
 70
     1
102
RTVSPost2010Prop41ColorIndex
 90
       18
102
RTVSPost2010Prop41ColorRGB
 90
        0
102
RTVSPost2010PropOp41
 70
     1
102
RTVSPost2010Prop42
 90
       50
102
RTVSPost2010PropOp42
 70
     1
102
RTVSPost2010Prop43
 90
        3
102
RTVSPost2010PropOp43
 70
     1
102
RTVSPost2010Prop44ColorIndex
 90
        5
102
RTVSPost2010Prop44ColorRGB
 90
      255
102
RTVSPost2010PropOp44
 70
     1
102
RTVSPost2010Prop45
280
     0
102
RTVSPost2010PropOp45
 70
     1
102
RTVSPost2010Prop46
 90
       50
102
RTVSPost2010PropOp46
 70
     1
102
RTVSPost2010Prop47
 90
       50
102
RTVSPost2010PropOp47
 70
     1
102
RTVSPost2010Prop48
 90
       50
102
RTVSPost2010PropOp48
 70
     1
102
RTVSPost2010Prop49
280
     0
102
RTVSPost2010PropOp49
 70
     1
102
RTVSPost2010Prop50
 90
       50
102
RTVSPost2010PropOp50
 70
     1
102
RTVSPost2010Prop51ColorIndex
 90
      256
102
RTVSPost2010Prop51ColorRGB
 90
-16777216
102
RTVSPost2010PropOp51
 70
     0
102
RTVSPost2010Prop52
140
1.0
102
RTVSPost2010PropOp52
 70
     0
102
RTVSPost2010Prop53
 90
        2
102
RTVSPost2010PropOp53
 70
     1
102
RTVSPost2010Prop54
  1
strokes_ogs.tif
102
RTVSPost2010PropOp54
 70
     1
102
RTVSPost2010Prop55
280
     0
102
RTVSPost2010PropOp55
 70
     1
102
RTVSPost2010Prop56
140
1.0
102
RTVSPost2010PropOp56
 70
     1
102
RTVSPost2010Prop57
140
1.0
102
RTVSPost2010PropOp57
 70
     1
102
RTVSPropertyOp0
 70
     1
102
RTVSPropertyOp1
 70
     1
102
RTVSPropertyOp2
 70
     1
102
RTVSPropertyOp3
 70
     1
102
RTVSPropertyOp4
 70
     1
102
RTVSPropertyOp5
 70
     1
102
RTVSPropertyOp6
 70
     1
102
RTVSPropertyOp7
 70
     1
102
RTVSPropertyOp8
 70
     1
102
RTVSPropertyOp9
 70
     1
102
RTVSPropertyOp10
 70
     1
102
RTVSPropertyOp11
 70
     1
102
RTVSPropertyOp12
 70
     1
102
RTVSPropertyOp13
 70
     1
102
RTVSPropertyOp14
 70
     1
102
RTVSPropertyOp15
 70
     1
102
RTVSPropertyOp16
 70
     1
102
RTVSPropertyOp17
 70
     1
102
RTVSPropertyOp18
 70
     1
102
RTVSPropertyOp19
 70
     1
102
RTVSPropertyOp20
 70
     1
102
RTVSPropertyOp21
 70
     1
102
RTVSPropertyOp22
 70
     1
102
RTVSPropertyOp23
 70
     1
102
RTVSPropertyOp24
 70
     1
102
RTVSPropertyOp25
 70
     1
102
RTVSPropertyOp26
 70
     1
102
RTVSPropertyOp27
 70
     1
102
RTVSPropertyOp28
 70
     1
102
RTVSPropertyOp29
 70
     1
102
RTVSPropertyOp30
 70
     1
102
RTVSPropertyOp31
 70
     1
102
RTVSPropertyOp32
 70
     1
102
RTVSPropertyOp33
 70
     1
102
RTVSPropertyOp34
 70
     1
102
RTVSPropertyOp35
 70
     1
102
RTVSPropertyOp36
 70
     1
102
RTVSPropertyOp37
 70
     1
102
RTVSPropertyOp38
 70
     1
102
RTVSPropertyOp39
 70
     1
102
RTVSPropertyOp40
 70
     1
102
RTVSPropertyOp41
 70
     1
102
RTVSPropertyOp42
 70
     1
102
RTVSPropertyOp43
 70
     1
102
RTVSPropertyOp44
 70
     1
102
RTVSPropertyOp45
 70
     1
102
RTVSPropertyOp46
 70
     1
102
RTVSPropertyOp47
 70
     1
102
RTVSPropertyOp48
 70
     1
102
RTVSPropertyOp49
 70
     1
102
RTVSPropertyOp50
 70
     1
102
RTVSPropertyOp51
 70
     0
102
RTVSPropertyOp52
 70
     0
102
RTVSPropertyOp53
 70
     1
102
RTVSPropertyOp54
 70
     1
102
RTVSPropertyOp55
 70
     1
102
RTVSPropertyOp56
 70
     1
102
RTVSPropertyOp57
 70
     1
102
RTVSPropertyOp58
 70
     1
102
RTVSPropertyOp59
 70
     1
102
RTVSPropertyOp60
 70
     1
102
RTVSPropertyOp61
 70
     1
102
RTVSPropertyOp62
 70
     1
  0
XRECORD
  5
5F8
102
{ACAD_REACTORS
330
5F7
102
}
330
5F7
100
AcDbXrecord
280
     1
102
RTVSPost2010Prop28
280
     0
102
RTVSPost2010PropOp28
 70
     0
102
RTVSPost2010Prop29
280
     1
102
RTVSPost2010PropOp29
 70
     0
102
RTVSPost2010Prop30
280
     1
102
RTVSPost2010PropOp30
 70
     0
102
RTVSPost2010Prop31
280
     0
102
RTVSPost2010PropOp31
 70
     0
102
RTVSPost2010Prop32
280
     0
102
RTVSPost2010PropOp32
 70
     0
102
RTVSPost2010Prop33
280
     0
102
RTVSPost2010PropOp33
 70
     0
102
RTVSPost2010Prop34
280
     0
102
RTVSPost2010PropOp34
 70
     0
102
RTVSPost2010Prop35
280
     0
102
RTVSPost2010PropOp35
 70
     0
102
RTVSPost2010Prop36
280
     0
102
RTVSPost2010PropOp36
 70
     0
102
RTVSPost2010Prop37
 90
       50
102
RTVSPost2010PropOp37
 70
     0
102
RTVSPost2010Prop38
140
0.0
102
RTVSPost2010PropOp38
 70
     0
102
RTVSPost2010Prop39
140
1.0
102
RTVSPost2010PropOp39
 70
     0
102
RTVSPost2010Prop40
 90
        0
102
RTVSPost2010PropOp40
 70
     0
102
RTVSPost2010Prop41ColorIndex
 90
       18
102
RTVSPost2010Prop41ColorRGB
 90
        0
102
RTVSPost2010PropOp41
 70
     0
102
RTVSPost2010Prop42
 90
       50
102
RTVSPost2010PropOp42
 70
     0
102
RTVSPost2010Prop43
 90
        3
102
RTVSPost2010PropOp43
 70
     0
102
RTVSPost2010Prop44ColorIndex
 90
        5
102
RTVSPost2010Prop44ColorRGB
 90
      255
102
RTVSPost2010PropOp44
 70
     0
102
RTVSPost2010Prop45
280
     0
102
RTVSPost2010PropOp45
 70
     0
102
RTVSPost2010Prop46
 90
       50
102
RTVSPost2010PropOp46
 70
     0
102
RTVSPost2010Prop47
 90
       50
102
RTVSPost2010PropOp47
 70
     0
102
RTVSPost2010Prop48
 90
       50
102
RTVSPost2010PropOp48
 70
     0
102
RTVSPost2010Prop49
280
     0
102
RTVSPost2010PropOp49
 70
     0
102
RTVSPost2010Prop50
 90
       50
102
RTVSPost2010PropOp50
 70
     0
102
RTVSPost2010Prop51ColorIndex
 90
      256
102
RTVSPost2010Prop51ColorRGB
 90
-16777216
102
RTVSPost2010PropOp51
 70
     0
102
RTVSPost2010Prop52
140
1.0
102
RTVSPost2010PropOp52
 70
     0
102
RTVSPost2010Prop53
 90
        2
102
RTVSPost2010PropOp53
 70
     0
102
RTVSPost2010Prop54
  1
strokes_ogs.tif
102
RTVSPost2010PropOp54
 70
     0
102
RTVSPost2010Prop55
280
     0
102
RTVSPost2010PropOp55
 70
     0
102
RTVSPost2010Prop56
140
1.0
102
RTVSPost2010PropOp56
 70
     0
102
RTVSPost2010Prop57
140
1.0
102
RTVSPost2010PropOp57
 70
     0
102
RTVSPropertyOp0
 70
     0
102
RTVSPropertyOp1
 70
     0
102
RTVSPropertyOp2
 70
     0
102
RTVSPropertyOp3
 70
     0
102
RTVSPropertyOp4
 70
     0
102
RTVSPropertyOp5
 70
     0
102
RTVSPropertyOp6
 70
     0
102
RTVSPropertyOp7
 70
     0
102
RTVSPropertyOp8
 70
     0
102
RTVSPropertyOp9
 70
     0
102
RTVSPropertyOp10
 70
     0
102
RTVSPropertyOp11
 70
     0
102
RTVSPropertyOp12
 70
     0
102
RTVSPropertyOp13
 70
     0
102
RTVSPropertyOp14
 70
     2
102
RTVSPropertyOp15
 70
     0
102
RTVSPropertyOp16
 70
     0
102
RTVSPropertyOp17
 70
     0
102
RTVSPropertyOp18
 70
     0
102
RTVSPropertyOp19
 70
     0
102
RTVSPropertyOp20
 70
     0
102
RTVSPropertyOp21
 70
     0
102
RTVSPropertyOp22
 70
     0
102
RTVSPropertyOp23
 70
     0
102
RTVSPropertyOp24
 70
     0
102
RTVSPropertyOp25
 70
     0
102
RTVSPropertyOp26
 70
     0
102
RTVSPropertyOp27
 70
     0
102
RTVSPropertyOp28
 70
     0
102
RTVSPropertyOp29
 70
     0
102
RTVSPropertyOp30
 70
     0
102
RTVSPropertyOp31
 70
     0
102
RTVSPropertyOp32
 70
     0
102
RTVSPropertyOp33
 70
     0
102
RTVSPropertyOp34
 70
     0
102
RTVSPropertyOp35
 70
     0
102
RTVSPropertyOp36
 70
     0
102
RTVSPropertyOp37
 70
     0
102
RTVSPropertyOp38
 70
     0
102
RTVSPropertyOp39
 70
     0
102
RTVSPropertyOp40
 70
     0
102
RTVSPropertyOp41
 70
     0
102
RTVSPropertyOp42
 70
     0
102
RTVSPropertyOp43
 70
     0
102
RTVSPropertyOp44
 70
     0
102
RTVSPropertyOp45
 70
     0
102
RTVSPropertyOp46
 70
     0
102
RTVSPropertyOp47
 70
     0
102
RTVSPropertyOp48
 70
     0
102
RTVSPropertyOp49
 70
     0
102
RTVSPropertyOp50
 70
     0
102
RTVSPropertyOp51
 70
     0
102
RTVSPropertyOp52
 70
     0
102
RTVSPropertyOp53
 70
     0
102
RTVSPropertyOp54
 70
     0
102
RTVSPropertyOp55
 70
     0
102
RTVSPropertyOp56
 70
     0
102
RTVSPropertyOp57
 70
     0
102
RTVSPropertyOp58
 70
     1
102
RTVSPropertyOp59
 70
     1
102
RTVSPropertyOp60
 70
     1
102
RTVSPropertyOp61
 70
     1
102
RTVSPropertyOp62
 70
     1
  0
XRECORD
  5
5E6
102
{ACAD_REACTORS
330
5E5
102
}
330
5E5
100
AcDbXrecord
280
     1
102
RTVSPost2010Prop28
280
     0
102
RTVSPost2010PropOp28
 70
     1
102
RTVSPost2010Prop29
280
     1
102
RTVSPost2010PropOp29
 70
     1
102
RTVSPost2010Prop30
280
     1
102
RTVSPost2010PropOp30
 70
     1
102
RTVSPost2010Prop31
280
     0
102
RTVSPost2010PropOp31
 70
     1
102
RTVSPost2010Prop32
280
     0
102
RTVSPost2010PropOp32
 70
     1
102
RTVSPost2010Prop33
280
     0
102
RTVSPost2010PropOp33
 70
     1
102
RTVSPost2010Prop34
280
     0
102
RTVSPost2010PropOp34
 70
     1
102
RTVSPost2010Prop35
280
     0
102
RTVSPost2010PropOp35
 70
     1
102
RTVSPost2010Prop36
280
     0
102
RTVSPost2010PropOp36
 70
     1
102
RTVSPost2010Prop37
 90
       50
102
RTVSPost2010PropOp37
 70
     1
102
RTVSPost2010Prop38
140
0.0
102
RTVSPost2010PropOp38
 70
     1
102
RTVSPost2010Prop39
140
1.0
102
RTVSPost2010PropOp39
 70
     1
102
RTVSPost2010Prop40
 90
        0
102
RTVSPost2010PropOp40
 70
     1
102
RTVSPost2010Prop41ColorIndex
 90
       18
102
RTVSPost2010Prop41ColorRGB
 90
        0
102
RTVSPost2010PropOp41
 70
     1
102
RTVSPost2010Prop42
 90
       50
102
RTVSPost2010PropOp42
 70
     1
102
RTVSPost2010Prop43
 90
        3
102
RTVSPost2010PropOp43
 70
     1
102
RTVSPost2010Prop44ColorIndex
 90
        5
102
RTVSPost2010Prop44ColorRGB
 90
      255
102
RTVSPost2010PropOp44
 70
     1
102
RTVSPost2010Prop45
280
     0
102
RTVSPost2010PropOp45
 70
     1
102
RTVSPost2010Prop46
 90
       50
102
RTVSPost2010PropOp46
 70
     1
102
RTVSPost2010Prop47
 90
       50
102
RTVSPost2010PropOp47
 70
     1
102
RTVSPost2010Prop48
 90
       50
102
RTVSPost2010PropOp48
 70
     1
102
RTVSPost2010Prop49
280
     0
102
RTVSPost2010PropOp49
 70
     1
102
RTVSPost2010Prop50
 90
       50
102
RTVSPost2010PropOp50
 70
     1
102
RTVSPost2010Prop51ColorIndex
 90
      256
102
RTVSPost2010Prop51ColorRGB
 90
-16777216
102
RTVSPost2010PropOp51
 70
     0
102
RTVSPost2010Prop52
140
1.0
102
RTVSPost2010PropOp52
 70
     0
102
RTVSPost2010Prop53
 90
        2
102
RTVSPost2010PropOp53
 70
     1
102
RTVSPost2010Prop54
  1
strokes_ogs.tif
102
RTVSPost2010PropOp54
 70
     1
102
RTVSPost2010Prop55
280
     0
102
RTVSPost2010PropOp55
 70
     1
102
RTVSPost2010Prop56
140
1.0
102
RTVSPost2010PropOp56
 70
     1
102
RTVSPost2010Prop57
140
1.0
102
RTVSPost2010PropOp57
 70
     1
102
RTVSPropertyOp0
 70
     1
102
RTVSPropertyOp1
 70
     1
102
RTVSPropertyOp2
 70
     1
102
RTVSPropertyOp3
 70
     1
102
RTVSPropertyOp4
 70
     1
102
RTVSPropertyOp5
 70
     1
102
RTVSPropertyOp6
 70
     1
102
RTVSPropertyOp7
 70
     1
102
RTVSPropertyOp8
 70
     1
102
RTVSPropertyOp9
 70
     1
102
RTVSPropertyOp10
 70
     1
102
RTVSPropertyOp11
 70
     1
102
RTVSPropertyOp12
 70
     1
102
RTVSPropertyOp13
 70
     1
102
RTVSPropertyOp14
 70
     1
102
RTVSPropertyOp15
 70
     1
102
RTVSPropertyOp16
 70
     1
102
RTVSPropertyOp17
 70
     1
102
RTVSPropertyOp18
 70
     1
102
RTVSPropertyOp19
 70
     1
102
RTVSPropertyOp20
 70
     1
102
RTVSPropertyOp21
 70
     1
102
RTVSPropertyOp22
 70
     1
102
RTVSPropertyOp23
 70
     1
102
RTVSPropertyOp24
 70
     1
102
RTVSPropertyOp25
 70
     1
102
RTVSPropertyOp26
 70
     1
102
RTVSPropertyOp27
 70
     1
102
RTVSPropertyOp28
 70
     1
102
RTVSPropertyOp29
 70
     1
102
RTVSPropertyOp30
 70
     1
102
RTVSPropertyOp31
 70
     1
102
RTVSPropertyOp32
 70
     1
102
RTVSPropertyOp33
 70
     1
102
RTVSPropertyOp34
 70
     1
102
RTVSPropertyOp35
 70
     1
102
RTVSPropertyOp36
 70
     1
102
RTVSPropertyOp37
 70
     1
102
RTVSPropertyOp38
 70
     1
102
RTVSPropertyOp39
 70
     1
102
RTVSPropertyOp40
 70
     1
102
RTVSPropertyOp41
 70
     1
102
RTVSPropertyOp42
 70
     1
102
RTVSPropertyOp43
 70
     1
102
RTVSPropertyOp44
 70
     1
102
RTVSPropertyOp45
 70
     1
102
RTVSPropertyOp46
 70
     1
102
RTVSPropertyOp47
 70
     1
102
RTVSPropertyOp48
 70
     1
102
RTVSPropertyOp49
 70
     1
102
RTVSPropertyOp50
 70
     1
102
RTVSPropertyOp51
 70
     0
102
RTVSPropertyOp52
 70
     0
102
RTVSPropertyOp53
 70
     1
102
RTVSPropertyOp54
 70
     1
102
RTVSPropertyOp55
 70
     1
102
RTVSPropertyOp56
 70
     1
102
RTVSPropertyOp57
 70
     1
102
RTVSPropertyOp58
 70
     1
102
RTVSPropertyOp59
 70
     1
102
RTVSPropertyOp60
 70
     1
102
RTVSPropertyOp61
 70
     1
102
RTVSPropertyOp62
 70
     1
  0
XRECORD
  5
5CA
102
{ACAD_REACTORS
330
5C9
102
}
330
5C9
100
AcDbXrecord
280
     1
102
RTVSPost2010Prop28
280
     0
102
RTVSPost2010PropOp28
 70
     1
102
RTVSPost2010Prop29
280
     1
102
RTVSPost2010PropOp29
 70
     1
102
RTVSPost2010Prop30
280
     1
102
RTVSPost2010PropOp30
 70
     1
102
RTVSPost2010Prop31
280
     0
102
RTVSPost2010PropOp31
 70
     1
102
RTVSPost2010Prop32
280
     0
102
RTVSPost2010PropOp32
 70
     1
102
RTVSPost2010Prop33
280
     0
102
RTVSPost2010PropOp33
 70
     1
102
RTVSPost2010Prop34
280
     0
102
RTVSPost2010PropOp34
 70
     1
102
RTVSPost2010Prop35
280
     0
102
RTVSPost2010PropOp35
 70
     1
102
RTVSPost2010Prop36
280
     0
102
RTVSPost2010PropOp36
 70
     1
102
RTVSPost2010Prop37
 90
       50
102
RTVSPost2010PropOp37
 70
     1
102
RTVSPost2010Prop38
140
0.0
102
RTVSPost2010PropOp38
 70
     1
102
RTVSPost2010Prop39
140
1.0
102
RTVSPost2010PropOp39
 70
     1
102
RTVSPost2010Prop40
 90
        0
102
RTVSPost2010PropOp40
 70
     1
102
RTVSPost2010Prop41ColorIndex
 90
       18
102
RTVSPost2010Prop41ColorRGB
 90
        0
102
RTVSPost2010PropOp41
 70
     1
102
RTVSPost2010Prop42
 90
       50
102
RTVSPost2010PropOp42
 70
     1
102
RTVSPost2010Prop43
 90
        3
102
RTVSPost2010PropOp43
 70
     1
102
RTVSPost2010Prop44ColorIndex
 90
        5
102
RTVSPost2010Prop44ColorRGB
 90
      255
102
RTVSPost2010PropOp44
 70
     1
102
RTVSPost2010Prop45
280
     0
102
RTVSPost2010PropOp45
 70
     1
102
RTVSPost2010Prop46
 90
       50
102
RTVSPost2010PropOp46
 70
     1
102
RTVSPost2010Prop47
 90
       50
102
RTVSPost2010PropOp47
 70
     1
102
RTVSPost2010Prop48
 90
       50
102
RTVSPost2010PropOp48
 70
     1
102
RTVSPost2010Prop49
280
     0
102
RTVSPost2010PropOp49
 70
     1
102
RTVSPost2010Prop50
 90
       50
102
RTVSPost2010PropOp50
 70
     1
102
RTVSPost2010Prop51ColorIndex
 90
      256
102
RTVSPost2010Prop51ColorRGB
 90
-16777216
102
RTVSPost2010PropOp51
 70
     0
102
RTVSPost2010Prop52
140
1.0
102
RTVSPost2010PropOp52
 70
     0
102
RTVSPost2010Prop53
 90
        2
102
RTVSPost2010PropOp53
 70
     1
102
RTVSPost2010Prop54
  1
strokes_ogs.tif
102
RTVSPost2010PropOp54
 70
     1
102
RTVSPost2010Prop55
280
     0
102
RTVSPost2010PropOp55
 70
     1
102
RTVSPost2010Prop56
140
1.0
102
RTVSPost2010PropOp56
 70
     1
102
RTVSPost2010Prop57
140
1.0
102
RTVSPost2010PropOp57
 70
     1
102
RTVSPropertyOp0
 70
     1
102
RTVSPropertyOp1
 70
     1
102
RTVSPropertyOp2
 70
     1
102
RTVSPropertyOp3
 70
     1
102
RTVSPropertyOp4
 70
     1
102
RTVSPropertyOp5
 70
     1
102
RTVSPropertyOp6
 70
     1
102
RTVSPropertyOp7
 70
     1
102
RTVSPropertyOp8
 70
     1
102
RTVSPropertyOp9
 70
     1
102
RTVSPropertyOp10
 70
     1
102
RTVSPropertyOp11
 70
     1
102
RTVSPropertyOp12
 70
     1
102
RTVSPropertyOp13
 70
     1
102
RTVSPropertyOp14
 70
     1
102
RTVSPropertyOp15
 70
     1
102
RTVSPropertyOp16
 70
     1
102
RTVSPropertyOp17
 70
     1
102
RTVSPropertyOp18
 70
     1
102
RTVSPropertyOp19
 70
     1
102
RTVSPropertyOp20
 70
     1
102
RTVSPropertyOp21
 70
     1
102
RTVSPropertyOp22
 70
     1
102
RTVSPropertyOp23
 70
     1
102
RTVSPropertyOp24
 70
     1
102
RTVSPropertyOp25
 70
     1
102
RTVSPropertyOp26
 70
     1
102
RTVSPropertyOp27
 70
     1
102
RTVSPropertyOp28
 70
     1
102
RTVSPropertyOp29
 70
     1
102
RTVSPropertyOp30
 70
     1
102
RTVSPropertyOp31
 70
     1
102
RTVSPropertyOp32
 70
     1
102
RTVSPropertyOp33
 70
     1
102
RTVSPropertyOp34
 70
     1
102
RTVSPropertyOp35
 70
     1
102
RTVSPropertyOp36
 70
     1
102
RTVSPropertyOp37
 70
     1
102
RTVSPropertyOp38
 70
     1
102
RTVSPropertyOp39
 70
     1
102
RTVSPropertyOp40
 70
     1
102
RTVSPropertyOp41
 70
     1
102
RTVSPropertyOp42
 70
     1
102
RTVSPropertyOp43
 70
     1
102
RTVSPropertyOp44
 70
     1
102
RTVSPropertyOp45
 70
     1
102
RTVSPropertyOp46
 70
     1
102
RTVSPropertyOp47
 70
     1
102
RTVSPropertyOp48
 70
     1
102
RTVSPropertyOp49
 70
     1
102
RTVSPropertyOp50
 70
     1
102
RTVSPropertyOp51
 70
     0
102
RTVSPropertyOp52
 70
     0
102
RTVSPropertyOp53
 70
     1
102
RTVSPropertyOp54
 70
     1
102
RTVSPropertyOp55
 70
     1
102
RTVSPropertyOp56
 70
     1
102
RTVSPropertyOp57
 70
     1
102
RTVSPropertyOp58
 70
     1
102
RTVSPropertyOp59
 70
     1
102
RTVSPropertyOp60
 70
     1
102
RTVSPropertyOp61
 70
     1
102
RTVSPropertyOp62
 70
     1
  0
XRECORD
  5
5CC
102
{ACAD_REACTORS
330
5CB
102
}
330
5CB
100
AcDbXrecord
280
     1
102
RTVSPost2010Prop28
280
     0
102
RTVSPost2010PropOp28
 70
     1
102
RTVSPost2010Prop29
280
     1
102
RTVSPost2010PropOp29
 70
     1
102
RTVSPost2010Prop30
280
     1
102
RTVSPost2010PropOp30
 70
     1
102
RTVSPost2010Prop31
280
     0
102
RTVSPost2010PropOp31
 70
     1
102
RTVSPost2010Prop32
280
     0
102
RTVSPost2010PropOp32
 70
     1
102
RTVSPost2010Prop33
280
     0
102
RTVSPost2010PropOp33
 70
     1
102
RTVSPost2010Prop34
280
     0
102
RTVSPost2010PropOp34
 70
     1
102
RTVSPost2010Prop35
280
     0
102
RTVSPost2010PropOp35
 70
     1
102
RTVSPost2010Prop36
280
     0
102
RTVSPost2010PropOp36
 70
     1
102
RTVSPost2010Prop37
 90
       50
102
RTVSPost2010PropOp37
 70
     1
102
RTVSPost2010Prop38
140
0.0
102
RTVSPost2010PropOp38
 70
     1
102
RTVSPost2010Prop39
140
1.0
102
RTVSPost2010PropOp39
 70
     1
102
RTVSPost2010Prop40
 90
        0
102
RTVSPost2010PropOp40
 70
     1
102
RTVSPost2010Prop41ColorIndex
 90
       18
102
RTVSPost2010Prop41ColorRGB
 90
        0
102
RTVSPost2010PropOp41
 70
     1
102
RTVSPost2010Prop42
 90
       50
102
RTVSPost2010PropOp42
 70
     1
102
RTVSPost2010Prop43
 90
        3
102
RTVSPost2010PropOp43
 70
     1
102
RTVSPost2010Prop44ColorIndex
 90
        5
102
RTVSPost2010Prop44ColorRGB
 90
      255
102
RTVSPost2010PropOp44
 70
     1
102
RTVSPost2010Prop45
280
     0
102
RTVSPost2010PropOp45
 70
     1
102
RTVSPost2010Prop46
 90
       50
102
RTVSPost2010PropOp46
 70
     1
102
RTVSPost2010Prop47
 90
       50
102
RTVSPost2010PropOp47
 70
     1
102
RTVSPost2010Prop48
 90
       50
102
RTVSPost2010PropOp48
 70
     1
102
RTVSPost2010Prop49
280
     0
102
RTVSPost2010PropOp49
 70
     1
102
RTVSPost2010Prop50
 90
       50
102
RTVSPost2010PropOp50
 70
     1
102
RTVSPost2010Prop51ColorIndex
 90
      256
102
RTVSPost2010Prop51ColorRGB
 90
-16777216
102
RTVSPost2010PropOp51
 70
     0
102
RTVSPost2010Prop52
140
1.0
102
RTVSPost2010PropOp52
 70
     0
102
RTVSPost2010Prop53
 90
        2
102
RTVSPost2010PropOp53
 70
     1
102
RTVSPost2010Prop54
  1
strokes_ogs.tif
102
RTVSPost2010PropOp54
 70
     1
102
RTVSPost2010Prop55
280
     0
102
RTVSPost2010PropOp55
 70
     1
102
RTVSPost2010Prop56
140
1.0
102
RTVSPost2010PropOp56
 70
     1
102
RTVSPost2010Prop57
140
1.0
102
RTVSPost2010PropOp57
 70
     1
102
RTVSPropertyOp0
 70
     1
102
RTVSPropertyOp1
 70
     1
102
RTVSPropertyOp2
 70
     1
102
RTVSPropertyOp3
 70
     1
102
RTVSPropertyOp4
 70
     1
102
RTVSPropertyOp5
 70
     1
102
RTVSPropertyOp6
 70
     1
102
RTVSPropertyOp7
 70
     1
102
RTVSPropertyOp8
 70
     1
102
RTVSPropertyOp9
 70
     1
102
RTVSPropertyOp10
 70
     1
102
RTVSPropertyOp11
 70
     1
102
RTVSPropertyOp12
 70
     1
102
RTVSPropertyOp13
 70
     1
102
RTVSPropertyOp14
 70
     1
102
RTVSPropertyOp15
 70
     1
102
RTVSPropertyOp16
 70
     1
102
RTVSPropertyOp17
 70
     1
102
RTVSPropertyOp18
 70
     1
102
RTVSPropertyOp19
 70
     1
102
RTVSPropertyOp20
 70
     1
102
RTVSPropertyOp21
 70
     1
102
RTVSPropertyOp22
 70
     1
102
RTVSPropertyOp23
 70
     1
102
RTVSPropertyOp24
 70
     1
102
RTVSPropertyOp25
 70
     1
102
RTVSPropertyOp26
 70
     1
102
RTVSPropertyOp27
 70
     1
102
RTVSPropertyOp28
 70
     1
102
RTVSPropertyOp29
 70
     1
102
RTVSPropertyOp30
 70
     1
102
RTVSPropertyOp31
 70
     1
102
RTVSPropertyOp32
 70
     1
102
RTVSPropertyOp33
 70
     1
102
RTVSPropertyOp34
 70
     1
102
RTVSPropertyOp35
 70
     1
102
RTVSPropertyOp36
 70
     1
102
RTVSPropertyOp37
 70
     1
102
RTVSPropertyOp38
 70
     1
102
RTVSPropertyOp39
 70
     1
102
RTVSPropertyOp40
 70
     1
102
RTVSPropertyOp41
 70
     1
102
RTVSPropertyOp42
 70
     1
102
RTVSPropertyOp43
 70
     1
102
RTVSPropertyOp44
 70
     1
102
RTVSPropertyOp45
 70
     1
102
RTVSPropertyOp46
 70
     1
102
RTVSPropertyOp47
 70
     1
102
RTVSPropertyOp48
 70
     1
102
RTVSPropertyOp49
 70
     1
102
RTVSPropertyOp50
 70
     1
102
RTVSPropertyOp51
 70
     0
102
RTVSPropertyOp52
 70
     0
102
RTVSPropertyOp53
 70
     1
102
RTVSPropertyOp54
 70
     1
102
RTVSPropertyOp55
 70
     1
102
RTVSPropertyOp56
 70
     1
102
RTVSPropertyOp57
 70
     1
102
RTVSPropertyOp58
 70
     1
102
RTVSPropertyOp59
 70
     1
102
RTVSPropertyOp60
 70
     1
102
RTVSPropertyOp61
 70
     1
102
RTVSPropertyOp62
 70
     1
  0
XRECORD
  5
5CE
102
{ACAD_REACTORS
330
5CD
102
}
330
5CD
100
AcDbXrecord
280
     1
102
RTVSPost2010Prop28
280
     0
102
RTVSPost2010PropOp28
 70
     1
102
RTVSPost2010Prop29
280
     1
102
RTVSPost2010PropOp29
 70
     1
102
RTVSPost2010Prop30
280
     1
102
RTVSPost2010PropOp30
 70
     1
102
RTVSPost2010Prop31
280
     0
102
RTVSPost2010PropOp31
 70
     1
102
RTVSPost2010Prop32
280
     0
102
RTVSPost2010PropOp32
 70
     1
102
RTVSPost2010Prop33
280
     0
102
RTVSPost2010PropOp33
 70
     1
102
RTVSPost2010Prop34
280
     0
102
RTVSPost2010PropOp34
 70
     1
102
RTVSPost2010Prop35
280
     0
102
RTVSPost2010PropOp35
 70
     1
102
RTVSPost2010Prop36
280
     0
102
RTVSPost2010PropOp36
 70
     1
102
RTVSPost2010Prop37
 90
       50
102
RTVSPost2010PropOp37
 70
     1
102
RTVSPost2010Prop38
140
0.0
102
RTVSPost2010PropOp38
 70
     1
102
RTVSPost2010Prop39
140
1.0
102
RTVSPost2010PropOp39
 70
     1
102
RTVSPost2010Prop40
 90
        0
102
RTVSPost2010PropOp40
 70
     1
102
RTVSPost2010Prop41ColorIndex
 90
       18
102
RTVSPost2010Prop41ColorRGB
 90
        0
102
RTVSPost2010PropOp41
 70
     1
102
RTVSPost2010Prop42
 90
       50
102
RTVSPost2010PropOp42
 70
     1
102
RTVSPost2010Prop43
 90
        3
102
RTVSPost2010PropOp43
 70
     1
102
RTVSPost2010Prop44ColorIndex
 90
        5
102
RTVSPost2010Prop44ColorRGB
 90
      255
102
RTVSPost2010PropOp44
 70
     1
102
RTVSPost2010Prop45
280
     0
102
RTVSPost2010PropOp45
 70
     1
102
RTVSPost2010Prop46
 90
       50
102
RTVSPost2010PropOp46
 70
     1
102
RTVSPost2010Prop47
 90
       50
102
RTVSPost2010PropOp47
 70
     1
102
RTVSPost2010Prop48
 90
       50
102
RTVSPost2010PropOp48
 70
     1
102
RTVSPost2010Prop49
280
     0
102
RTVSPost2010PropOp49
 70
     1
102
RTVSPost2010Prop50
 90
       50
102
RTVSPost2010PropOp50
 70
     1
102
RTVSPost2010Prop51ColorIndex
 90
      256
102
RTVSPost2010Prop51ColorRGB
 90
-16777216
102
RTVSPost2010PropOp51
 70
     0
102
RTVSPost2010Prop52
140
1.0
102
RTVSPost2010PropOp52
 70
     0
102
RTVSPost2010Prop53
 90
        2
102
RTVSPost2010PropOp53
 70
     1
102
RTVSPost2010Prop54
  1
strokes_ogs.tif
102
RTVSPost2010PropOp54
 70
     1
102
RTVSPost2010Prop55
280
     0
102
RTVSPost2010PropOp55
 70
     1
102
RTVSPost2010Prop56
140
1.0
102
RTVSPost2010PropOp56
 70
     1
102
RTVSPost2010Prop57
140
1.0
102
RTVSPost2010PropOp57
 70
     1
102
RTVSPropertyOp0
 70
     1
102
RTVSPropertyOp1
 70
     1
102
RTVSPropertyOp2
 70
     1
102
RTVSPropertyOp3
 70
     1
102
RTVSPropertyOp4
 70
     1
102
RTVSPropertyOp5
 70
     1
102
RTVSPropertyOp6
 70
     1
102
RTVSPropertyOp7
 70
     1
102
RTVSPropertyOp8
 70
     1
102
RTVSPropertyOp9
 70
     1
102
RTVSPropertyOp10
 70
     1
102
RTVSPropertyOp11
 70
     1
102
RTVSPropertyOp12
 70
     1
102
RTVSPropertyOp13
 70
     1
102
RTVSPropertyOp14
 70
     1
102
RTVSPropertyOp15
 70
     1
102
RTVSPropertyOp16
 70
     1
102
RTVSPropertyOp17
 70
     1
102
RTVSPropertyOp18
 70
     1
102
RTVSPropertyOp19
 70
     1
102
RTVSPropertyOp20
 70
     1
102
RTVSPropertyOp21
 70
     1
102
RTVSPropertyOp22
 70
     1
102
RTVSPropertyOp23
 70
     1
102
RTVSPropertyOp24
 70
     1
102
RTVSPropertyOp25
 70
     1
102
RTVSPropertyOp26
 70
     1
102
RTVSPropertyOp27
 70
     1
102
RTVSPropertyOp28
 70
     1
102
RTVSPropertyOp29
 70
     1
102
RTVSPropertyOp30
 70
     1
102
RTVSPropertyOp31
 70
     1
102
RTVSPropertyOp32
 70
     1
102
RTVSPropertyOp33
 70
     1
102
RTVSPropertyOp34
 70
     1
102
RTVSPropertyOp35
 70
     1
102
RTVSPropertyOp36
 70
     1
102
RTVSPropertyOp37
 70
     1
102
RTVSPropertyOp38
 70
     1
102
RTVSPropertyOp39
 70
     1
102
RTVSPropertyOp40
 70
     1
102
RTVSPropertyOp41
 70
     1
102
RTVSPropertyOp42
 70
     1
102
RTVSPropertyOp43
 70
     1
102
RTVSPropertyOp44
 70
     1
102
RTVSPropertyOp45
 70
     1
102
RTVSPropertyOp46
 70
     1
102
RTVSPropertyOp47
 70
     1
102
RTVSPropertyOp48
 70
     1
102
RTVSPropertyOp49
 70
     1
102
RTVSPropertyOp50
 70
     1
102
RTVSPropertyOp51
 70
     0
102
RTVSPropertyOp52
 70
     0
102
RTVSPropertyOp53
 70
     1
102
RTVSPropertyOp54
 70
     1
102
RTVSPropertyOp55
 70
     1
102
RTVSPropertyOp56
 70
     1
102
RTVSPropertyOp57
 70
     1
102
RTVSPropertyOp58
 70
     1
102
RTVSPropertyOp59
 70
     1
102
RTVSPropertyOp60
 70
     1
102
RTVSPropertyOp61
 70
     1
102
RTVSPropertyOp62
 70
     1
  0
XRECORD
  5
5D0
102
{ACAD_REACTORS
330
5CF
102
}
330
5CF
100
AcDbXrecord
280
     1
102
RTVSPost2010Prop28
280
     0
102
RTVSPost2010PropOp28
 70
     1
102
RTVSPost2010Prop29
280
     1
102
RTVSPost2010PropOp29
 70
     1
102
RTVSPost2010Prop30
280
     1
102
RTVSPost2010PropOp30
 70
     1
102
RTVSPost2010Prop31
280
     0
102
RTVSPost2010PropOp31
 70
     1
102
RTVSPost2010Prop32
280
     0
102
RTVSPost2010PropOp32
 70
     1
102
RTVSPost2010Prop33
280
     0
102
RTVSPost2010PropOp33
 70
     1
102
RTVSPost2010Prop34
280
     0
102
RTVSPost2010PropOp34
 70
     1
102
RTVSPost2010Prop35
280
     0
102
RTVSPost2010PropOp35
 70
     1
102
RTVSPost2010Prop36
280
     0
102
RTVSPost2010PropOp36
 70
     1
102
RTVSPost2010Prop37
 90
       50
102
RTVSPost2010PropOp37
 70
     1
102
RTVSPost2010Prop38
140
0.0
102
RTVSPost2010PropOp38
 70
     1
102
RTVSPost2010Prop39
140
1.0
102
RTVSPost2010PropOp39
 70
     1
102
RTVSPost2010Prop40
 90
        0
102
RTVSPost2010PropOp40
 70
     1
102
RTVSPost2010Prop41ColorIndex
 90
       18
102
RTVSPost2010Prop41ColorRGB
 90
        0
102
RTVSPost2010PropOp41
 70
     1
102
RTVSPost2010Prop42
 90
       50
102
RTVSPost2010PropOp42
 70
     1
102
RTVSPost2010Prop43
 90
        3
102
RTVSPost2010PropOp43
 70
     1
102
RTVSPost2010Prop44ColorIndex
 90
        5
102
RTVSPost2010Prop44ColorRGB
 90
      255
102
RTVSPost2010PropOp44
 70
     1
102
RTVSPost2010Prop45
280
     0
102
RTVSPost2010PropOp45
 70
     1
102
RTVSPost2010Prop46
 90
       50
102
RTVSPost2010PropOp46
 70
     1
102
RTVSPost2010Prop47
 90
       50
102
RTVSPost2010PropOp47
 70
     1
102
RTVSPost2010Prop48
 90
       50
102
RTVSPost2010PropOp48
 70
     1
102
RTVSPost2010Prop49
280
     0
102
RTVSPost2010PropOp49
 70
     1
102
RTVSPost2010Prop50
 90
       50
102
RTVSPost2010PropOp50
 70
     1
102
RTVSPost2010Prop51ColorIndex
 90
      256
102
RTVSPost2010Prop51ColorRGB
 90
-16777216
102
RTVSPost2010PropOp51
 70
     0
102
RTVSPost2010Prop52
140
1.0
102
RTVSPost2010PropOp52
 70
     0
102
RTVSPost2010Prop53
 90
        2
102
RTVSPost2010PropOp53
 70
     1
102
RTVSPost2010Prop54
  1
strokes_ogs.tif
102
RTVSPost2010PropOp54
 70
     1
102
RTVSPost2010Prop55
280
     0
102
RTVSPost2010PropOp55
 70
     1
102
RTVSPost2010Prop56
140
1.0
102
RTVSPost2010PropOp56
 70
     1
102
RTVSPost2010Prop57
140
1.0
102
RTVSPost2010PropOp57
 70
     1
102
RTVSPropertyOp0
 70
     1
102
RTVSPropertyOp1
 70
     1
102
RTVSPropertyOp2
 70
     1
102
RTVSPropertyOp3
 70
     1
102
RTVSPropertyOp4
 70
     1
102
RTVSPropertyOp5
 70
     1
102
RTVSPropertyOp6
 70
     1
102
RTVSPropertyOp7
 70
     1
102
RTVSPropertyOp8
 70
     1
102
RTVSPropertyOp9
 70
     1
102
RTVSPropertyOp10
 70
     1
102
RTVSPropertyOp11
 70
     1
102
RTVSPropertyOp12
 70
     1
102
RTVSPropertyOp13
 70
     1
102
RTVSPropertyOp14
 70
     1
102
RTVSPropertyOp15
 70
     1
102
RTVSPropertyOp16
 70
     1
102
RTVSPropertyOp17
 70
     1
102
RTVSPropertyOp18
 70
     1
102
RTVSPropertyOp19
 70
     1
102
RTVSPropertyOp20
 70
     1
102
RTVSPropertyOp21
 70
     1
102
RTVSPropertyOp22
 70
     1
102
RTVSPropertyOp23
 70
     1
102
RTVSPropertyOp24
 70
     1
102
RTVSPropertyOp25
 70
     1
102
RTVSPropertyOp26
 70
     1
102
RTVSPropertyOp27
 70
     1
102
RTVSPropertyOp28
 70
     1
102
RTVSPropertyOp29
 70
     1
102
RTVSPropertyOp30
 70
     1
102
RTVSPropertyOp31
 70
     1
102
RTVSPropertyOp32
 70
     1
102
RTVSPropertyOp33
 70
     1
102
RTVSPropertyOp34
 70
     1
102
RTVSPropertyOp35
 70
     1
102
RTVSPropertyOp36
 70
     1
102
RTVSPropertyOp37
 70
     1
102
RTVSPropertyOp38
 70
     1
102
RTVSPropertyOp39
 70
     1
102
RTVSPropertyOp40
 70
     1
102
RTVSPropertyOp41
 70
     1
102
RTVSPropertyOp42
 70
     1
102
RTVSPropertyOp43
 70
     1
102
RTVSPropertyOp44
 70
     1
102
RTVSPropertyOp45
 70
     1
102
RTVSPropertyOp46
 70
     1
102
RTVSPropertyOp47
 70
     1
102
RTVSPropertyOp48
 70
     1
102
RTVSPropertyOp49
 70
     1
102
RTVSPropertyOp50
 70
     1
102
RTVSPropertyOp51
 70
     0
102
RTVSPropertyOp52
 70
     0
102
RTVSPropertyOp53
 70
     1
102
RTVSPropertyOp54
 70
     1
102
RTVSPropertyOp55
 70
     1
102
RTVSPropertyOp56
 70
     1
102
RTVSPropertyOp57
 70
     1
102
RTVSPropertyOp58
 70
     1
102
RTVSPropertyOp59
 70
     1
102
RTVSPropertyOp60
 70
     1
102
RTVSPropertyOp61
 70
     1
102
RTVSPropertyOp62
 70
     1
  0
XRECORD
  5
5D8
102
{ACAD_REACTORS
330
5D7
102
}
330
5D7
100
AcDbXrecord
280
     1
102
RTVSPost2010Prop28
280
     0
102
RTVSPost2010PropOp28
 70
     1
102
RTVSPost2010Prop29
280
     1
102
RTVSPost2010PropOp29
 70
     1
102
RTVSPost2010Prop30
280
     1
102
RTVSPost2010PropOp30
 70
     1
102
RTVSPost2010Prop31
280
     0
102
RTVSPost2010PropOp31
 70
     1
102
RTVSPost2010Prop32
280
     0
102
RTVSPost2010PropOp32
 70
     1
102
RTVSPost2010Prop33
280
     0
102
RTVSPost2010PropOp33
 70
     1
102
RTVSPost2010Prop34
280
     0
102
RTVSPost2010PropOp34
 70
     1
102
RTVSPost2010Prop35
280
     0
102
RTVSPost2010PropOp35
 70
     1
102
RTVSPost2010Prop36
280
     0
102
RTVSPost2010PropOp36
 70
     1
102
RTVSPost2010Prop37
 90
       50
102
RTVSPost2010PropOp37
 70
     1
102
RTVSPost2010Prop38
140
0.0
102
RTVSPost2010PropOp38
 70
     1
102
RTVSPost2010Prop39
140
1.0
102
RTVSPost2010PropOp39
 70
     1
102
RTVSPost2010Prop40
 90
        0
102
RTVSPost2010PropOp40
 70
     1
102
RTVSPost2010Prop41ColorIndex
 90
       18
102
RTVSPost2010Prop41ColorRGB
 90
        0
102
RTVSPost2010PropOp41
 70
     1
102
RTVSPost2010Prop42
 90
       50
102
RTVSPost2010PropOp42
 70
     1
102
RTVSPost2010Prop43
 90
        3
102
RTVSPost2010PropOp43
 70
     1
102
RTVSPost2010Prop44ColorIndex
 90
        5
102
RTVSPost2010Prop44ColorRGB
 90
      255
102
RTVSPost2010PropOp44
 70
     1
102
RTVSPost2010Prop45
280
     0
102
RTVSPost2010PropOp45
 70
     1
102
RTVSPost2010Prop46
 90
       50
102
RTVSPost2010PropOp46
 70
     1
102
RTVSPost2010Prop47
 90
       50
102
RTVSPost2010PropOp47
 70
     1
102
RTVSPost2010Prop48
 90
       50
102
RTVSPost2010PropOp48
 70
     1
102
RTVSPost2010Prop49
280
     0
102
RTVSPost2010PropOp49
 70
     1
102
RTVSPost2010Prop50
 90
       50
102
RTVSPost2010PropOp50
 70
     1
102
RTVSPost2010Prop51ColorIndex
 90
      256
102
RTVSPost2010Prop51ColorRGB
 90
-16777216
102
RTVSPost2010PropOp51
 70
     0
102
RTVSPost2010Prop52
140
1.0
102
RTVSPost2010PropOp52
 70
     0
102
RTVSPost2010Prop53
 90
        2
102
RTVSPost2010PropOp53
 70
     1
102
RTVSPost2010Prop54
  1
strokes_ogs.tif
102
RTVSPost2010PropOp54
 70
     1
102
RTVSPost2010Prop55
280
     0
102
RTVSPost2010PropOp55
 70
     1
102
RTVSPost2010Prop56
140
1.0
102
RTVSPost2010PropOp56
 70
     1
102
RTVSPost2010Prop57
140
1.0
102
RTVSPost2010PropOp57
 70
     1
102
RTVSPropertyOp0
 70
     1
102
RTVSPropertyOp1
 70
     1
102
RTVSPropertyOp2
 70
     1
102
RTVSPropertyOp3
 70
     1
102
RTVSPropertyOp4
 70
     1
102
RTVSPropertyOp5
 70
     1
102
RTVSPropertyOp6
 70
     1
102
RTVSPropertyOp7
 70
     1
102
RTVSPropertyOp8
 70
     1
102
RTVSPropertyOp9
 70
     1
102
RTVSPropertyOp10
 70
     1
102
RTVSPropertyOp11
 70
     1
102
RTVSPropertyOp12
 70
     1
102
RTVSPropertyOp13
 70
     1
102
RTVSPropertyOp14
 70
     1
102
RTVSPropertyOp15
 70
     1
102
RTVSPropertyOp16
 70
     1
102
RTVSPropertyOp17
 70
     1
102
RTVSPropertyOp18
 70
     1
102
RTVSPropertyOp19
 70
     1
102
RTVSPropertyOp20
 70
     1
102
RTVSPropertyOp21
 70
     1
102
RTVSPropertyOp22
 70
     1
102
RTVSPropertyOp23
 70
     1
102
RTVSPropertyOp24
 70
     1
102
RTVSPropertyOp25
 70
     1
102
RTVSPropertyOp26
 70
     1
102
RTVSPropertyOp27
 70
     1
102
RTVSPropertyOp28
 70
     1
102
RTVSPropertyOp29
 70
     1
102
RTVSPropertyOp30
 70
     1
102
RTVSPropertyOp31
 70
     1
102
RTVSPropertyOp32
 70
     1
102
RTVSPropertyOp33
 70
     1
102
RTVSPropertyOp34
 70
     1
102
RTVSPropertyOp35
 70
     1
102
RTVSPropertyOp36
 70
     1
102
RTVSPropertyOp37
 70
     1
102
RTVSPropertyOp38
 70
     1
102
RTVSPropertyOp39
 70
     1
102
RTVSPropertyOp40
 70
     1
102
RTVSPropertyOp41
 70
     1
102
RTVSPropertyOp42
 70
     1
102
RTVSPropertyOp43
 70
     1
102
RTVSPropertyOp44
 70
     1
102
RTVSPropertyOp45
 70
     1
102
RTVSPropertyOp46
 70
     1
102
RTVSPropertyOp47
 70
     1
102
RTVSPropertyOp48
 70
     1
102
RTVSPropertyOp49
 70
     1
102
RTVSPropertyOp50
 70
     1
102
RTVSPropertyOp51
 70
     0
102
RTVSPropertyOp52
 70
     0
102
RTVSPropertyOp53
 70
     1
102
RTVSPropertyOp54
 70
     1
102
RTVSPropertyOp55
 70
     1
102
RTVSPropertyOp56
 70
     1
102
RTVSPropertyOp57
 70
     1
102
RTVSPropertyOp58
 70
     1
102
RTVSPropertyOp59
 70
     1
102
RTVSPropertyOp60
 70
     1
102
RTVSPropertyOp61
 70
     1
102
RTVSPropertyOp62
 70
     1
  0
XRECORD
  5
5F4
102
{ACAD_REACTORS
330
5F3
102
}
330
5F3
100
AcDbXrecord
280
     1
102
RTVSPost2010Prop28
280
     0
102
RTVSPost2010PropOp28
 70
     0
102
RTVSPost2010Prop29
280
     1
102
RTVSPost2010PropOp29
 70
     0
102
RTVSPost2010Prop30
280
     1
102
RTVSPost2010PropOp30
 70
     0
102
RTVSPost2010Prop31
280
     0
102
RTVSPost2010PropOp31
 70
     0
102
RTVSPost2010Prop32
280
     0
102
RTVSPost2010PropOp32
 70
     0
102
RTVSPost2010Prop33
280
     0
102
RTVSPost2010PropOp33
 70
     0
102
RTVSPost2010Prop34
280
     0
102
RTVSPost2010PropOp34
 70
     0
102
RTVSPost2010Prop35
280
     0
102
RTVSPost2010PropOp35
 70
     0
102
RTVSPost2010Prop36
280
     0
102
RTVSPost2010PropOp36
 70
     0
102
RTVSPost2010Prop37
 90
       50
102
RTVSPost2010PropOp37
 70
     0
102
RTVSPost2010Prop38
140
0.0
102
RTVSPost2010PropOp38
 70
     0
102
RTVSPost2010Prop39
140
1.0
102
RTVSPost2010PropOp39
 70
     0
102
RTVSPost2010Prop40
 90
        0
102
RTVSPost2010PropOp40
 70
     0
102
RTVSPost2010Prop41ColorIndex
 90
       18
102
RTVSPost2010Prop41ColorRGB
 90
        0
102
RTVSPost2010PropOp41
 70
     0
102
RTVSPost2010Prop42
 90
       50
102
RTVSPost2010PropOp42
 70
     0
102
RTVSPost2010Prop43
 90
        3
102
RTVSPost2010PropOp43
 70
     0
102
RTVSPost2010Prop44ColorIndex
 90
        5
102
RTVSPost2010Prop44ColorRGB
 90
      255
102
RTVSPost2010PropOp44
 70
     0
102
RTVSPost2010Prop45
280
     0
102
RTVSPost2010PropOp45
 70
     0
102
RTVSPost2010Prop46
 90
       50
102
RTVSPost2010PropOp46
 70
     0
102
RTVSPost2010Prop47
 90
       50
102
RTVSPost2010PropOp47
 70
     0
102
RTVSPost2010Prop48
 90
       50
102
RTVSPost2010PropOp48
 70
     0
102
RTVSPost2010Prop49
280
     0
102
RTVSPost2010PropOp49
 70
     0
102
RTVSPost2010Prop50
 90
       50
102
RTVSPost2010PropOp50
 70
     0
102
RTVSPost2010Prop51ColorIndex
 90
      256
102
RTVSPost2010Prop51ColorRGB
 90
-16777216
102
RTVSPost2010PropOp51
 70
     0
102
RTVSPost2010Prop52
140
1.0
102
RTVSPost2010PropOp52
 70
     0
102
RTVSPost2010Prop53
 90
        2
102
RTVSPost2010PropOp53
 70
     0
102
RTVSPost2010Prop54
  1
strokes_ogs.tif
102
RTVSPost2010PropOp54
 70
     0
102
RTVSPost2010Prop55
280
     0
102
RTVSPost2010PropOp55
 70
     0
102
RTVSPost2010Prop56
140
1.0
102
RTVSPost2010PropOp56
 70
     0
102
RTVSPost2010Prop57
140
1.0
102
RTVSPost2010PropOp57
 70
     0
102
RTVSPropertyOp0
 70
     0
102
RTVSPropertyOp1
 70
     0
102
RTVSPropertyOp2
 70
     0
102
RTVSPropertyOp3
 70
     0
102
RTVSPropertyOp4
 70
     0
102
RTVSPropertyOp5
 70
     0
102
RTVSPropertyOp6
 70
     0
102
RTVSPropertyOp7
 70
     0
102
RTVSPropertyOp8
 70
     0
102
RTVSPropertyOp9
 70
     0
102
RTVSPropertyOp10
 70
     0
102
RTVSPropertyOp11
 70
     0
102
RTVSPropertyOp12
 70
     0
102
RTVSPropertyOp13
 70
     0
102
RTVSPropertyOp14
 70
     2
102
RTVSPropertyOp15
 70
     0
102
RTVSPropertyOp16
 70
     0
102
RTVSPropertyOp17
 70
     0
102
RTVSPropertyOp18
 70
     0
102
RTVSPropertyOp19
 70
     0
102
RTVSPropertyOp20
 70
     0
102
RTVSPropertyOp21
 70
     0
102
RTVSPropertyOp22
 70
     0
102
RTVSPropertyOp23
 70
     0
102
RTVSPropertyOp24
 70
     0
102
RTVSPropertyOp25
 70
     0
102
RTVSPropertyOp26
 70
     0
102
RTVSPropertyOp27
 70
     0
102
RTVSPropertyOp28
 70
     0
102
RTVSPropertyOp29
 70
     0
102
RTVSPropertyOp30
 70
     0
102
RTVSPropertyOp31
 70
     0
102
RTVSPropertyOp32
 70
     0
102
RTVSPropertyOp33
 70
     0
102
RTVSPropertyOp34
 70
     0
102
RTVSPropertyOp35
 70
     0
102
RTVSPropertyOp36
 70
     0
102
RTVSPropertyOp37
 70
     0
102
RTVSPropertyOp38
 70
     0
102
RTVSPropertyOp39
 70
     0
102
RTVSPropertyOp40
 70
     0
102
RTVSPropertyOp41
 70
     0
102
RTVSPropertyOp42
 70
     0
102
RTVSPropertyOp43
 70
     0
102
RTVSPropertyOp44
 70
     0
102
RTVSPropertyOp45
 70
     0
102
RTVSPropertyOp46
 70
     0
102
RTVSPropertyOp47
 70
     0
102
RTVSPropertyOp48
 70
     0
102
RTVSPropertyOp49
 70
     0
102
RTVSPropertyOp50
 70
     0
102
RTVSPropertyOp51
 70
     0
102
RTVSPropertyOp52
 70
     0
102
RTVSPropertyOp53
 70
     0
102
RTVSPropertyOp54
 70
     0
102
RTVSPropertyOp55
 70
     0
102
RTVSPropertyOp56
 70
     0
102
RTVSPropertyOp57
 70
     0
102
RTVSPropertyOp58
 70
     1
102
RTVSPropertyOp59
 70
     1
102
RTVSPropertyOp60
 70
     1
102
RTVSPropertyOp61
 70
     1
102
RTVSPropertyOp62
 70
     1
  0
XRECORD
  5
5E4
102
{ACAD_REACTORS
330
5E3
102
}
330
5E3
100
AcDbXrecord
280
     1
102
RTVSPost2010Prop28
280
     0
102
RTVSPost2010PropOp28
 70
     1
102
RTVSPost2010Prop29
280
     1
102
RTVSPost2010PropOp29
 70
     1
102
RTVSPost2010Prop30
280
     1
102
RTVSPost2010PropOp30
 70
     1
102
RTVSPost2010Prop31
280
     0
102
RTVSPost2010PropOp31
 70
     1
102
RTVSPost2010Prop32
280
     0
102
RTVSPost2010PropOp32
 70
     1
102
RTVSPost2010Prop33
280
     0
102
RTVSPost2010PropOp33
 70
     1
102
RTVSPost2010Prop34
280
     0
102
RTVSPost2010PropOp34
 70
     1
102
RTVSPost2010Prop35
280
     0
102
RTVSPost2010PropOp35
 70
     1
102
RTVSPost2010Prop36
280
     0
102
RTVSPost2010PropOp36
 70
     1
102
RTVSPost2010Prop37
 90
       50
102
RTVSPost2010PropOp37
 70
     1
102
RTVSPost2010Prop38
140
0.0
102
RTVSPost2010PropOp38
 70
     1
102
RTVSPost2010Prop39
140
1.0
102
RTVSPost2010PropOp39
 70
     1
102
RTVSPost2010Prop40
 90
        0
102
RTVSPost2010PropOp40
 70
     1
102
RTVSPost2010Prop41ColorIndex
 90
       18
102
RTVSPost2010Prop41ColorRGB
 90
        0
102
RTVSPost2010PropOp41
 70
     1
102
RTVSPost2010Prop42
 90
       50
102
RTVSPost2010PropOp42
 70
     1
102
RTVSPost2010Prop43
 90
        3
102
RTVSPost2010PropOp43
 70
     1
102
RTVSPost2010Prop44ColorIndex
 90
        5
102
RTVSPost2010Prop44ColorRGB
 90
      255
102
RTVSPost2010PropOp44
 70
     1
102
RTVSPost2010Prop45
280
     0
102
RTVSPost2010PropOp45
 70
     1
102
RTVSPost2010Prop46
 90
       50
102
RTVSPost2010PropOp46
 70
     1
102
RTVSPost2010Prop47
 90
       50
102
RTVSPost2010PropOp47
 70
     1
102
RTVSPost2010Prop48
 90
       50
102
RTVSPost2010PropOp48
 70
     1
102
RTVSPost2010Prop49
280
     0
102
RTVSPost2010PropOp49
 70
     1
102
RTVSPost2010Prop50
 90
       50
102
RTVSPost2010PropOp50
 70
     1
102
RTVSPost2010Prop51ColorIndex
 90
      256
102
RTVSPost2010Prop51ColorRGB
 90
-16777216
102
RTVSPost2010PropOp51
 70
     0
102
RTVSPost2010Prop52
140
1.0
102
RTVSPost2010PropOp52
 70
     0
102
RTVSPost2010Prop53
 90
        2
102
RTVSPost2010PropOp53
 70
     1
102
RTVSPost2010Prop54
  1
strokes_ogs.tif
102
RTVSPost2010PropOp54
 70
     1
102
RTVSPost2010Prop55
280
     0
102
RTVSPost2010PropOp55
 70
     1
102
RTVSPost2010Prop56
140
1.0
102
RTVSPost2010PropOp56
 70
     1
102
RTVSPost2010Prop57
140
1.0
102
RTVSPost2010PropOp57
 70
     1
102
RTVSPropertyOp0
 70
     1
102
RTVSPropertyOp1
 70
     1
102
RTVSPropertyOp2
 70
     1
102
RTVSPropertyOp3
 70
     1
102
RTVSPropertyOp4
 70
     1
102
RTVSPropertyOp5
 70
     1
102
RTVSPropertyOp6
 70
     1
102
RTVSPropertyOp7
 70
     1
102
RTVSPropertyOp8
 70
     1
102
RTVSPropertyOp9
 70
     1
102
RTVSPropertyOp10
 70
     1
102
RTVSPropertyOp11
 70
     1
102
RTVSPropertyOp12
 70
     1
102
RTVSPropertyOp13
 70
     1
102
RTVSPropertyOp14
 70
     1
102
RTVSPropertyOp15
 70
     1
102
RTVSPropertyOp16
 70
     1
102
RTVSPropertyOp17
 70
     1
102
RTVSPropertyOp18
 70
     1
102
RTVSPropertyOp19
 70
     1
102
RTVSPropertyOp20
 70
     1
102
RTVSPropertyOp21
 70
     1
102
RTVSPropertyOp22
 70
     1
102
RTVSPropertyOp23
 70
     1
102
RTVSPropertyOp24
 70
     1
102
RTVSPropertyOp25
 70
     1
102
RTVSPropertyOp26
 70
     1
102
RTVSPropertyOp27
 70
     1
102
RTVSPropertyOp28
 70
     1
102
RTVSPropertyOp29
 70
     1
102
RTVSPropertyOp30
 70
     1
102
RTVSPropertyOp31
 70
     1
102
RTVSPropertyOp32
 70
     1
102
RTVSPropertyOp33
 70
     1
102
RTVSPropertyOp34
 70
     1
102
RTVSPropertyOp35
 70
     1
102
RTVSPropertyOp36
 70
     1
102
RTVSPropertyOp37
 70
     1
102
RTVSPropertyOp38
 70
     1
102
RTVSPropertyOp39
 70
     1
102
RTVSPropertyOp40
 70
     1
102
RTVSPropertyOp41
 70
     1
102
RTVSPropertyOp42
 70
     1
102
RTVSPropertyOp43
 70
     1
102
RTVSPropertyOp44
 70
     1
102
RTVSPropertyOp45
 70
     1
102
RTVSPropertyOp46
 70
     1
102
RTVSPropertyOp47
 70
     1
102
RTVSPropertyOp48
 70
     1
102
RTVSPropertyOp49
 70
     1
102
RTVSPropertyOp50
 70
     1
102
RTVSPropertyOp51
 70
     0
102
RTVSPropertyOp52
 70
     0
102
RTVSPropertyOp53
 70
     1
102
RTVSPropertyOp54
 70
     1
102
RTVSPropertyOp55
 70
     1
102
RTVSPropertyOp56
 70
     1
102
RTVSPropertyOp57
 70
     1
102
RTVSPropertyOp58
 70
     1
102
RTVSPropertyOp59
 70
     1
102
RTVSPropertyOp60
 70
     1
102
RTVSPropertyOp61
 70
     1
102
RTVSPropertyOp62
 70
     1
  0
XRECORD
  5
5F6
102
{ACAD_REACTORS
330
5F5
102
}
330
5F5
100
AcDbXrecord
280
     1
102
RTVSPost2010Prop28
280
     0
102
RTVSPost2010PropOp28
 70
     0
102
RTVSPost2010Prop29
280
     1
102
RTVSPost2010PropOp29
 70
     0
102
RTVSPost2010Prop30
280
     1
102
RTVSPost2010PropOp30
 70
     0
102
RTVSPost2010Prop31
280
     0
102
RTVSPost2010PropOp31
 70
     0
102
RTVSPost2010Prop32
280
     0
102
RTVSPost2010PropOp32
 70
     0
102
RTVSPost2010Prop33
280
     0
102
RTVSPost2010PropOp33
 70
     0
102
RTVSPost2010Prop34
280
     0
102
RTVSPost2010PropOp34
 70
     0
102
RTVSPost2010Prop35
280
     0
102
RTVSPost2010PropOp35
 70
     0
102
RTVSPost2010Prop36
280
     0
102
RTVSPost2010PropOp36
 70
     0
102
RTVSPost2010Prop37
 90
       50
102
RTVSPost2010PropOp37
 70
     0
102
RTVSPost2010Prop38
140
0.0
102
RTVSPost2010PropOp38
 70
     0
102
RTVSPost2010Prop39
140
1.0
102
RTVSPost2010PropOp39
 70
     0
102
RTVSPost2010Prop40
 90
        0
102
RTVSPost2010PropOp40
 70
     0
102
RTVSPost2010Prop41ColorIndex
 90
       18
102
RTVSPost2010Prop41ColorRGB
 90
        0
102
RTVSPost2010PropOp41
 70
     0
102
RTVSPost2010Prop42
 90
       50
102
RTVSPost2010PropOp42
 70
     0
102
RTVSPost2010Prop43
 90
        3
102
RTVSPost2010PropOp43
 70
     0
102
RTVSPost2010Prop44ColorIndex
 90
        5
102
RTVSPost2010Prop44ColorRGB
 90
      255
102
RTVSPost2010PropOp44
 70
     0
102
RTVSPost2010Prop45
280
     0
102
RTVSPost2010PropOp45
 70
     0
102
RTVSPost2010Prop46
 90
       50
102
RTVSPost2010PropOp46
 70
     0
102
RTVSPost2010Prop47
 90
       50
102
RTVSPost2010PropOp47
 70
     0
102
RTVSPost2010Prop48
 90
       50
102
RTVSPost2010PropOp48
 70
     0
102
RTVSPost2010Prop49
280
     0
102
RTVSPost2010PropOp49
 70
     0
102
RTVSPost2010Prop50
 90
       50
102
RTVSPost2010PropOp50
 70
     0
102
RTVSPost2010Prop51ColorIndex
 90
      256
102
RTVSPost2010Prop51ColorRGB
 90
-16777216
102
RTVSPost2010PropOp51
 70
     0
102
RTVSPost2010Prop52
140
1.0
102
RTVSPost2010PropOp52
 70
     0
102
RTVSPost2010Prop53
 90
        2
102
RTVSPost2010PropOp53
 70
     0
102
RTVSPost2010Prop54
  1
strokes_ogs.tif
102
RTVSPost2010PropOp54
 70
     0
102
RTVSPost2010Prop55
280
     0
102
RTVSPost2010PropOp55
 70
     0
102
RTVSPost2010Prop56
140
1.0
102
RTVSPost2010PropOp56
 70
     0
102
RTVSPost2010Prop57
140
1.0
102
RTVSPost2010PropOp57
 70
     0
102
RTVSPropertyOp0
 70
     0
102
RTVSPropertyOp1
 70
     0
102
RTVSPropertyOp2
 70
     0
102
RTVSPropertyOp3
 70
     0
102
RTVSPropertyOp4
 70
     0
102
RTVSPropertyOp5
 70
     0
102
RTVSPropertyOp6
 70
     0
102
RTVSPropertyOp7
 70
     0
102
RTVSPropertyOp8
 70
     0
102
RTVSPropertyOp9
 70
     0
102
RTVSPropertyOp10
 70
     0
102
RTVSPropertyOp11
 70
     0
102
RTVSPropertyOp12
 70
     0
102
RTVSPropertyOp13
 70
     0
102
RTVSPropertyOp14
 70
     2
102
RTVSPropertyOp15
 70
     0
102
RTVSPropertyOp16
 70
     0
102
RTVSPropertyOp17
 70
     0
102
RTVSPropertyOp18
 70
     0
102
RTVSPropertyOp19
 70
     0
102
RTVSPropertyOp20
 70
     0
102
RTVSPropertyOp21
 70
     0
102
RTVSPropertyOp22
 70
     0
102
RTVSPropertyOp23
 70
     0
102
RTVSPropertyOp24
 70
     0
102
RTVSPropertyOp25
 70
     0
102
RTVSPropertyOp26
 70
     0
102
RTVSPropertyOp27
 70
     0
102
RTVSPropertyOp28
 70
     0
102
RTVSPropertyOp29
 70
     0
102
RTVSPropertyOp30
 70
     0
102
RTVSPropertyOp31
 70
     0
102
RTVSPropertyOp32
 70
     0
102
RTVSPropertyOp33
 70
     0
102
RTVSPropertyOp34
 70
     0
102
RTVSPropertyOp35
 70
     0
102
RTVSPropertyOp36
 70
     0
102
RTVSPropertyOp37
 70
     0
102
RTVSPropertyOp38
 70
     0
102
RTVSPropertyOp39
 70
     0
102
RTVSPropertyOp40
 70
     0
102
RTVSPropertyOp41
 70
     0
102
RTVSPropertyOp42
 70
     0
102
RTVSPropertyOp43
 70
     0
102
RTVSPropertyOp44
 70
     0
102
RTVSPropertyOp45
 70
     0
102
RTVSPropertyOp46
 70
     0
102
RTVSPropertyOp47
 70
     0
102
RTVSPropertyOp48
 70
     0
102
RTVSPropertyOp49
 70
     0
102
RTVSPropertyOp50
 70
     0
102
RTVSPropertyOp51
 70
     0
102
RTVSPropertyOp52
 70
     0
102
RTVSPropertyOp53
 70
     0
102
RTVSPropertyOp54
 70
     0
102
RTVSPropertyOp55
 70
     0
102
RTVSPropertyOp56
 70
     0
102
RTVSPropertyOp57
 70
     0
102
RTVSPropertyOp58
 70
     1
102
RTVSPropertyOp59
 70
     1
102
RTVSPropertyOp60
 70
     1
102
RTVSPropertyOp61
 70
     1
102
RTVSPropertyOp62
 70
     1
  0
XRECORD
  5
5DC
102
{ACAD_REACTORS
330
5DB
102
}
330
5DB
100
AcDbXrecord
280
     1
102
RTVSPost2010Prop28
280
     0
102
RTVSPost2010PropOp28
 70
     1
102
RTVSPost2010Prop29
280
     1
102
RTVSPost2010PropOp29
 70
     1
102
RTVSPost2010Prop30
280
     1
102
RTVSPost2010PropOp30
 70
     1
102
RTVSPost2010Prop31
280
     0
102
RTVSPost2010PropOp31
 70
     1
102
RTVSPost2010Prop32
280
     0
102
RTVSPost2010PropOp32
 70
     1
102
RTVSPost2010Prop33
280
     0
102
RTVSPost2010PropOp33
 70
     1
102
RTVSPost2010Prop34
280
     0
102
RTVSPost2010PropOp34
 70
     1
102
RTVSPost2010Prop35
280
     0
102
RTVSPost2010PropOp35
 70
     1
102
RTVSPost2010Prop36
280
     0
102
RTVSPost2010PropOp36
 70
     1
102
RTVSPost2010Prop37
 90
       50
102
RTVSPost2010PropOp37
 70
     1
102
RTVSPost2010Prop38
140
0.0
102
RTVSPost2010PropOp38
 70
     1
102
RTVSPost2010Prop39
140
1.0
102
RTVSPost2010PropOp39
 70
     1
102
RTVSPost2010Prop40
 90
        0
102
RTVSPost2010PropOp40
 70
     1
102
RTVSPost2010Prop41ColorIndex
 90
       18
102
RTVSPost2010Prop41ColorRGB
 90
        0
102
RTVSPost2010PropOp41
 70
     1
102
RTVSPost2010Prop42
 90
       50
102
RTVSPost2010PropOp42
 70
     1
102
RTVSPost2010Prop43
 90
        3
102
RTVSPost2010PropOp43
 70
     1
102
RTVSPost2010Prop44ColorIndex
 90
        5
102
RTVSPost2010Prop44ColorRGB
 90
      255
102
RTVSPost2010PropOp44
 70
     1
102
RTVSPost2010Prop45
280
     0
102
RTVSPost2010PropOp45
 70
     1
102
RTVSPost2010Prop46
 90
       50
102
RTVSPost2010PropOp46
 70
     1
102
RTVSPost2010Prop47
 90
       50
102
RTVSPost2010PropOp47
 70
     1
102
RTVSPost2010Prop48
 90
       50
102
RTVSPost2010PropOp48
 70
     1
102
RTVSPost2010Prop49
280
     0
102
RTVSPost2010PropOp49
 70
     1
102
RTVSPost2010Prop50
 90
       50
102
RTVSPost2010PropOp50
 70
     1
102
RTVSPost2010Prop51ColorIndex
 90
      256
102
RTVSPost2010Prop51ColorRGB
 90
-16777216
102
RTVSPost2010PropOp51
 70
     0
102
RTVSPost2010Prop52
140
1.0
102
RTVSPost2010PropOp52
 70
     0
102
RTVSPost2010Prop53
 90
        2
102
RTVSPost2010PropOp53
 70
     1
102
RTVSPost2010Prop54
  1
strokes_ogs.tif
102
RTVSPost2010PropOp54
 70
     1
102
RTVSPost2010Prop55
280
     0
102
RTVSPost2010PropOp55
 70
     1
102
RTVSPost2010Prop56
140
1.0
102
RTVSPost2010PropOp56
 70
     1
102
RTVSPost2010Prop57
140
1.0
102
RTVSPost2010PropOp57
 70
     1
102
RTVSPropertyOp0
 70
     1
102
RTVSPropertyOp1
 70
     1
102
RTVSPropertyOp2
 70
     1
102
RTVSPropertyOp3
 70
     1
102
RTVSPropertyOp4
 70
     1
102
RTVSPropertyOp5
 70
     1
102
RTVSPropertyOp6
 70
     1
102
RTVSPropertyOp7
 70
     1
102
RTVSPropertyOp8
 70
     1
102
RTVSPropertyOp9
 70
     1
102
RTVSPropertyOp10
 70
     1
102
RTVSPropertyOp11
 70
     1
102
RTVSPropertyOp12
 70
     1
102
RTVSPropertyOp13
 70
     1
102
RTVSPropertyOp14
 70
     1
102
RTVSPropertyOp15
 70
     1
102
RTVSPropertyOp16
 70
     1
102
RTVSPropertyOp17
 70
     1
102
RTVSPropertyOp18
 70
     1
102
RTVSPropertyOp19
 70
     1
102
RTVSPropertyOp20
 70
     1
102
RTVSPropertyOp21
 70
     1
102
RTVSPropertyOp22
 70
     1
102
RTVSPropertyOp23
 70
     1
102
RTVSPropertyOp24
 70
     1
102
RTVSPropertyOp25
 70
     1
102
RTVSPropertyOp26
 70
     1
102
RTVSPropertyOp27
 70
     1
102
RTVSPropertyOp28
 70
     1
102
RTVSPropertyOp29
 70
     1
102
RTVSPropertyOp30
 70
     1
102
RTVSPropertyOp31
 70
     1
102
RTVSPropertyOp32
 70
     1
102
RTVSPropertyOp33
 70
     1
102
RTVSPropertyOp34
 70
     1
102
RTVSPropertyOp35
 70
     1
102
RTVSPropertyOp36
 70
     1
102
RTVSPropertyOp37
 70
     1
102
RTVSPropertyOp38
 70
     1
102
RTVSPropertyOp39
 70
     1
102
RTVSPropertyOp40
 70
     1
102
RTVSPropertyOp41
 70
     1
102
RTVSPropertyOp42
 70
     1
102
RTVSPropertyOp43
 70
     1
102
RTVSPropertyOp44
 70
     1
102
RTVSPropertyOp45
 70
     1
102
RTVSPropertyOp46
 70
     1
102
RTVSPropertyOp47
 70
     1
102
RTVSPropertyOp48
 70
     1
102
RTVSPropertyOp49
 70
     1
102
RTVSPropertyOp50
 70
     1
102
RTVSPropertyOp51
 70
     0
102
RTVSPropertyOp52
 70
     0
102
RTVSPropertyOp53
 70
     1
102
RTVSPropertyOp54
 70
     1
102
RTVSPropertyOp55
 70
     1
102
RTVSPropertyOp56
 70
     1
102
RTVSPropertyOp57
 70
     1
102
RTVSPropertyOp58
 70
     1
102
RTVSPropertyOp59
 70
     1
102
RTVSPropertyOp60
 70
     1
102
RTVSPropertyOp61
 70
     1
102
RTVSPropertyOp62
 70
     1
  0
XRECORD
  5
5F2
102
{ACAD_REACTORS
330
5F1
102
}
330
5F1
100
AcDbXrecord
280
     1
102
RTVSPost2010Prop28
280
     0
102
RTVSPost2010PropOp28
 70
     1
102
RTVSPost2010Prop29
280
     1
102
RTVSPost2010PropOp29
 70
     1
102
RTVSPost2010Prop30
280
     1
102
RTVSPost2010PropOp30
 70
     1
102
RTVSPost2010Prop31
280
     0
102
RTVSPost2010PropOp31
 70
     1
102
RTVSPost2010Prop32
280
     0
102
RTVSPost2010PropOp32
 70
     1
102
RTVSPost2010Prop33
280
     0
102
RTVSPost2010PropOp33
 70
     1
102
RTVSPost2010Prop34
280
     0
102
RTVSPost2010PropOp34
 70
     1
102
RTVSPost2010Prop35
280
     0
102
RTVSPost2010PropOp35
 70
     1
102
RTVSPost2010Prop36
280
     0
102
RTVSPost2010PropOp36
 70
     1
102
RTVSPost2010Prop37
 90
       50
102
RTVSPost2010PropOp37
 70
     1
102
RTVSPost2010Prop38
140
0.0
102
RTVSPost2010PropOp38
 70
     1
102
RTVSPost2010Prop39
140
1.0
102
RTVSPost2010PropOp39
 70
     1
102
RTVSPost2010Prop40
 90
        0
102
RTVSPost2010PropOp40
 70
     1
102
RTVSPost2010Prop41ColorIndex
 90
       18
102
RTVSPost2010Prop41ColorRGB
 90
        0
102
RTVSPost2010PropOp41
 70
     1
102
RTVSPost2010Prop42
 90
       50
102
RTVSPost2010PropOp42
 70
     1
102
RTVSPost2010Prop43
 90
        3
102
RTVSPost2010PropOp43
 70
     1
102
RTVSPost2010Prop44ColorIndex
 90
        5
102
RTVSPost2010Prop44ColorRGB
 90
      255
102
RTVSPost2010PropOp44
 70
     1
102
RTVSPost2010Prop45
280
     0
102
RTVSPost2010PropOp45
 70
     1
102
RTVSPost2010Prop46
 90
       50
102
RTVSPost2010PropOp46
 70
     1
102
RTVSPost2010Prop47
 90
       50
102
RTVSPost2010PropOp47
 70
     1
102
RTVSPost2010Prop48
 90
       50
102
RTVSPost2010PropOp48
 70
     1
102
RTVSPost2010Prop49
280
     0
102
RTVSPost2010PropOp49
 70
     1
102
RTVSPost2010Prop50
 90
       50
102
RTVSPost2010PropOp50
 70
     1
102
RTVSPost2010Prop51ColorIndex
 90
      256
102
RTVSPost2010Prop51ColorRGB
 90
-16777216
102
RTVSPost2010PropOp51
 70
     0
102
RTVSPost2010Prop52
140
1.0
102
RTVSPost2010PropOp52
 70
     0
102
RTVSPost2010Prop53
 90
        2
102
RTVSPost2010PropOp53
 70
     1
102
RTVSPost2010Prop54
  1
strokes_ogs.tif
102
RTVSPost2010PropOp54
 70
     1
102
RTVSPost2010Prop55
280
     0
102
RTVSPost2010PropOp55
 70
     1
102
RTVSPost2010Prop56
140
1.0
102
RTVSPost2010PropOp56
 70
     1
102
RTVSPost2010Prop57
140
1.0
102
RTVSPost2010PropOp57
 70
     1
102
RTVSPropertyOp0
 70
     1
102
RTVSPropertyOp1
 70
     1
102
RTVSPropertyOp2
 70
     1
102
RTVSPropertyOp3
 70
     1
102
RTVSPropertyOp4
 70
     1
102
RTVSPropertyOp5
 70
     1
102
RTVSPropertyOp6
 70
     1
102
RTVSPropertyOp7
 70
     1
102
RTVSPropertyOp8
 70
     1
102
RTVSPropertyOp9
 70
     1
102
RTVSPropertyOp10
 70
     1
102
RTVSPropertyOp11
 70
     1
102
RTVSPropertyOp12
 70
     1
102
RTVSPropertyOp13
 70
     1
102
RTVSPropertyOp14
 70
     1
102
RTVSPropertyOp15
 70
     1
102
RTVSPropertyOp16
 70
     1
102
RTVSPropertyOp17
 70
     1
102
RTVSPropertyOp18
 70
     1
102
RTVSPropertyOp19
 70
     1
102
RTVSPropertyOp20
 70
     1
102
RTVSPropertyOp21
 70
     1
102
RTVSPropertyOp22
 70
     1
102
RTVSPropertyOp23
 70
     1
102
RTVSPropertyOp24
 70
     1
102
RTVSPropertyOp25
 70
     1
102
RTVSPropertyOp26
 70
     1
102
RTVSPropertyOp27
 70
     1
102
RTVSPropertyOp28
 70
     1
102
RTVSPropertyOp29
 70
     1
102
RTVSPropertyOp30
 70
     1
102
RTVSPropertyOp31
 70
     1
102
RTVSPropertyOp32
 70
     1
102
RTVSPropertyOp33
 70
     1
102
RTVSPropertyOp34
 70
     1
102
RTVSPropertyOp35
 70
     1
102
RTVSPropertyOp36
 70
     1
102
RTVSPropertyOp37
 70
     1
102
RTVSPropertyOp38
 70
     1
102
RTVSPropertyOp39
 70
     1
102
RTVSPropertyOp40
 70
     1
102
RTVSPropertyOp41
 70
     1
102
RTVSPropertyOp42
 70
     1
102
RTVSPropertyOp43
 70
     1
102
RTVSPropertyOp44
 70
     1
102
RTVSPropertyOp45
 70
     1
102
RTVSPropertyOp46
 70
     1
102
RTVSPropertyOp47
 70
     1
102
RTVSPropertyOp48
 70
     1
102
RTVSPropertyOp49
 70
     1
102
RTVSPropertyOp50
 70
     1
102
RTVSPropertyOp51
 70
     0
102
RTVSPropertyOp52
 70
     0
102
RTVSPropertyOp53
 70
     1
102
RTVSPropertyOp54
 70
     1
102
RTVSPropertyOp55
 70
     1
102
RTVSPropertyOp56
 70
     1
102
RTVSPropertyOp57
 70
     1
102
RTVSPropertyOp58
 70
     1
102
RTVSPropertyOp59
 70
     1
102
RTVSPropertyOp60
 70
     1
102
RTVSPropertyOp61
 70
     1
102
RTVSPropertyOp62
 70
     1
  0
XRECORD
  5
5F0
102
{ACAD_REACTORS
330
5EF
102
}
330
5EF
100
AcDbXrecord
280
     1
102
RTVSPost2010Prop28
280
     0
102
RTVSPost2010PropOp28
 70
     1
102
RTVSPost2010Prop29
280
     1
102
RTVSPost2010PropOp29
 70
     1
102
RTVSPost2010Prop30
280
     1
102
RTVSPost2010PropOp30
 70
     1
102
RTVSPost2010Prop31
280
     0
102
RTVSPost2010PropOp31
 70
     1
102
RTVSPost2010Prop32
280
     0
102
RTVSPost2010PropOp32
 70
     1
102
RTVSPost2010Prop33
280
     0
102
RTVSPost2010PropOp33
 70
     1
102
RTVSPost2010Prop34
280
     0
102
RTVSPost2010PropOp34
 70
     1
102
RTVSPost2010Prop35
280
     0
102
RTVSPost2010PropOp35
 70
     1
102
RTVSPost2010Prop36
280
     0
102
RTVSPost2010PropOp36
 70
     1
102
RTVSPost2010Prop37
 90
       50
102
RTVSPost2010PropOp37
 70
     1
102
RTVSPost2010Prop38
140
0.0
102
RTVSPost2010PropOp38
 70
     1
102
RTVSPost2010Prop39
140
1.0
102
RTVSPost2010PropOp39
 70
     1
102
RTVSPost2010Prop40
 90
        0
102
RTVSPost2010PropOp40
 70
     1
102
RTVSPost2010Prop41ColorIndex
 90
       18
102
RTVSPost2010Prop41ColorRGB
 90
        0
102
RTVSPost2010PropOp41
 70
     1
102
RTVSPost2010Prop42
 90
       50
102
RTVSPost2010PropOp42
 70
     1
102
RTVSPost2010Prop43
 90
        3
102
RTVSPost2010PropOp43
 70
     1
102
RTVSPost2010Prop44ColorIndex
 90
        5
102
RTVSPost2010Prop44ColorRGB
 90
      255
102
RTVSPost2010PropOp44
 70
     1
102
RTVSPost2010Prop45
280
     0
102
RTVSPost2010PropOp45
 70
     1
102
RTVSPost2010Prop46
 90
       50
102
RTVSPost2010PropOp46
 70
     1
102
RTVSPost2010Prop47
 90
       50
102
RTVSPost2010PropOp47
 70
     1
102
RTVSPost2010Prop48
 90
       50
102
RTVSPost2010PropOp48
 70
     1
102
RTVSPost2010Prop49
280
     0
102
RTVSPost2010PropOp49
 70
     1
102
RTVSPost2010Prop50
 90
       50
102
RTVSPost2010PropOp50
 70
     1
102
RTVSPost2010Prop51ColorIndex
 90
      256
102
RTVSPost2010Prop51ColorRGB
 90
-16777216
102
RTVSPost2010PropOp51
 70
     0
102
RTVSPost2010Prop52
140
1.0
102
RTVSPost2010PropOp52
 70
     0
102
RTVSPost2010Prop53
 90
        2
102
RTVSPost2010PropOp53
 70
     1
102
RTVSPost2010Prop54
  1
strokes_ogs.tif
102
RTVSPost2010PropOp54
 70
     1
102
RTVSPost2010Prop55
280
     0
102
RTVSPost2010PropOp55
 70
     1
102
RTVSPost2010Prop56
140
1.0
102
RTVSPost2010PropOp56
 70
     1
102
RTVSPost2010Prop57
140
1.0
102
RTVSPost2010PropOp57
 70
     1
102
RTVSPropertyOp0
 70
     1
102
RTVSPropertyOp1
 70
     1
102
RTVSPropertyOp2
 70
     1
102
RTVSPropertyOp3
 70
     1
102
RTVSPropertyOp4
 70
     1
102
RTVSPropertyOp5
 70
     1
102
RTVSPropertyOp6
 70
     1
102
RTVSPropertyOp7
 70
     1
102
RTVSPropertyOp8
 70
     1
102
RTVSPropertyOp9
 70
     1
102
RTVSPropertyOp10
 70
     1
102
RTVSPropertyOp11
 70
     1
102
RTVSPropertyOp12
 70
     1
102
RTVSPropertyOp13
 70
     1
102
RTVSPropertyOp14
 70
     1
102
RTVSPropertyOp15
 70
     1
102
RTVSPropertyOp16
 70
     1
102
RTVSPropertyOp17
 70
     1
102
RTVSPropertyOp18
 70
     1
102
RTVSPropertyOp19
 70
     1
102
RTVSPropertyOp20
 70
     1
102
RTVSPropertyOp21
 70
     1
102
RTVSPropertyOp22
 70
     1
102
RTVSPropertyOp23
 70
     1
102
RTVSPropertyOp24
 70
     1
102
RTVSPropertyOp25
 70
     1
102
RTVSPropertyOp26
 70
     1
102
RTVSPropertyOp27
 70
     1
102
RTVSPropertyOp28
 70
     1
102
RTVSPropertyOp29
 70
     1
102
RTVSPropertyOp30
 70
     1
102
RTVSPropertyOp31
 70
     1
102
RTVSPropertyOp32
 70
     1
102
RTVSPropertyOp33
 70
     1
102
RTVSPropertyOp34
 70
     1
102
RTVSPropertyOp35
 70
     1
102
RTVSPropertyOp36
 70
     1
102
RTVSPropertyOp37
 70
     1
102
RTVSPropertyOp38
 70
     1
102
RTVSPropertyOp39
 70
     1
102
RTVSPropertyOp40
 70
     1
102
RTVSPropertyOp41
 70
     1
102
RTVSPropertyOp42
 70
     1
102
RTVSPropertyOp43
 70
     1
102
RTVSPropertyOp44
 70
     1
102
RTVSPropertyOp45
 70
     1
102
RTVSPropertyOp46
 70
     1
102
RTVSPropertyOp47
 70
     1
102
RTVSPropertyOp48
 70
     1
102
RTVSPropertyOp49
 70
     1
102
RTVSPropertyOp50
 70
     1
102
RTVSPropertyOp51
 70
     0
102
RTVSPropertyOp52
 70
     0
102
RTVSPropertyOp53
 70
     1
102
RTVSPropertyOp54
 70
     1
102
RTVSPropertyOp55
 70
     1
102
RTVSPropertyOp56
 70
     1
102
RTVSPropertyOp57
 70
     1
102
RTVSPropertyOp58
 70
     1
102
RTVSPropertyOp59
 70
     1
102
RTVSPropertyOp60
 70
     1
102
RTVSPropertyOp61
 70
     1
102
RTVSPropertyOp62
 70
     1
  0
XRECORD
  5
5EA
102
{ACAD_REACTORS
330
5E9
102
}
330
5E9
100
AcDbXrecord
280
     1
102
RTVSPost2010Prop28
280
     0
102
RTVSPost2010PropOp28
 70
     1
102
RTVSPost2010Prop29
280
     1
102
RTVSPost2010PropOp29
 70
     1
102
RTVSPost2010Prop30
280
     1
102
RTVSPost2010PropOp30
 70
     1
102
RTVSPost2010Prop31
280
     0
102
RTVSPost2010PropOp31
 70
     1
102
RTVSPost2010Prop32
280
     0
102
RTVSPost2010PropOp32
 70
     1
102
RTVSPost2010Prop33
280
     0
102
RTVSPost2010PropOp33
 70
     1
102
RTVSPost2010Prop34
280
     0
102
RTVSPost2010PropOp34
 70
     1
102
RTVSPost2010Prop35
280
     0
102
RTVSPost2010PropOp35
 70
     1
102
RTVSPost2010Prop36
280
     0
102
RTVSPost2010PropOp36
 70
     1
102
RTVSPost2010Prop37
 90
       50
102
RTVSPost2010PropOp37
 70
     1
102
RTVSPost2010Prop38
140
0.0
102
RTVSPost2010PropOp38
 70
     1
102
RTVSPost2010Prop39
140
1.0
102
RTVSPost2010PropOp39
 70
     1
102
RTVSPost2010Prop40
 90
        0
102
RTVSPost2010PropOp40
 70
     1
102
RTVSPost2010Prop41ColorIndex
 90
       18
102
RTVSPost2010Prop41ColorRGB
 90
        0
102
RTVSPost2010PropOp41
 70
     1
102
RTVSPost2010Prop42
 90
       50
102
RTVSPost2010PropOp42
 70
     1
102
RTVSPost2010Prop43
 90
        3
102
RTVSPost2010PropOp43
 70
     1
102
RTVSPost2010Prop44ColorIndex
 90
        5
102
RTVSPost2010Prop44ColorRGB
 90
      255
102
RTVSPost2010PropOp44
 70
     1
102
RTVSPost2010Prop45
280
     0
102
RTVSPost2010PropOp45
 70
     1
102
RTVSPost2010Prop46
 90
       50
102
RTVSPost2010PropOp46
 70
     1
102
RTVSPost2010Prop47
 90
       50
102
RTVSPost2010PropOp47
 70
     1
102
RTVSPost2010Prop48
 90
       50
102
RTVSPost2010PropOp48
 70
     1
102
RTVSPost2010Prop49
280
     0
102
RTVSPost2010PropOp49
 70
     1
102
RTVSPost2010Prop50
 90
       50
102
RTVSPost2010PropOp50
 70
     1
102
RTVSPost2010Prop51ColorIndex
 90
      256
102
RTVSPost2010Prop51ColorRGB
 90
-16777216
102
RTVSPost2010PropOp51
 70
     0
102
RTVSPost2010Prop52
140
1.0
102
RTVSPost2010PropOp52
 70
     0
102
RTVSPost2010Prop53
 90
        2
102
RTVSPost2010PropOp53
 70
     1
102
RTVSPost2010Prop54
  1
strokes_ogs.tif
102
RTVSPost2010PropOp54
 70
     1
102
RTVSPost2010Prop55
280
     0
102
RTVSPost2010PropOp55
 70
     1
102
RTVSPost2010Prop56
140
1.0
102
RTVSPost2010PropOp56
 70
     1
102
RTVSPost2010Prop57
140
1.0
102
RTVSPost2010PropOp57
 70
     1
102
RTVSPropertyOp0
 70
     1
102
RTVSPropertyOp1
 70
     1
102
RTVSPropertyOp2
 70
     1
102
RTVSPropertyOp3
 70
     1
102
RTVSPropertyOp4
 70
     1
102
RTVSPropertyOp5
 70
     1
102
RTVSPropertyOp6
 70
     1
102
RTVSPropertyOp7
 70
     1
102
RTVSPropertyOp8
 70
     1
102
RTVSPropertyOp9
 70
     1
102
RTVSPropertyOp10
 70
     1
102
RTVSPropertyOp11
 70
     1
102
RTVSPropertyOp12
 70
     1
102
RTVSPropertyOp13
 70
     1
102
RTVSPropertyOp14
 70
     1
102
RTVSPropertyOp15
 70
     1
102
RTVSPropertyOp16
 70
     1
102
RTVSPropertyOp17
 70
     1
102
RTVSPropertyOp18
 70
     1
102
RTVSPropertyOp19
 70
     1
102
RTVSPropertyOp20
 70
     1
102
RTVSPropertyOp21
 70
     1
102
RTVSPropertyOp22
 70
     1
102
RTVSPropertyOp23
 70
     1
102
RTVSPropertyOp24
 70
     1
102
RTVSPropertyOp25
 70
     1
102
RTVSPropertyOp26
 70
     1
102
RTVSPropertyOp27
 70
     1
102
RTVSPropertyOp28
 70
     1
102
RTVSPropertyOp29
 70
     1
102
RTVSPropertyOp30
 70
     1
102
RTVSPropertyOp31
 70
     1
102
RTVSPropertyOp32
 70
     1
102
RTVSPropertyOp33
 70
     1
102
RTVSPropertyOp34
 70
     1
102
RTVSPropertyOp35
 70
     1
102
RTVSPropertyOp36
 70
     1
102
RTVSPropertyOp37
 70
     1
102
RTVSPropertyOp38
 70
     1
102
RTVSPropertyOp39
 70
     1
102
RTVSPropertyOp40
 70
     1
102
RTVSPropertyOp41
 70
     1
102
RTVSPropertyOp42
 70
     1
102
RTVSPropertyOp43
 70
     1
102
RTVSPropertyOp44
 70
     1
102
RTVSPropertyOp45
 70
     1
102
RTVSPropertyOp46
 70
     1
102
RTVSPropertyOp47
 70
     1
102
RTVSPropertyOp48
 70
     1
102
RTVSPropertyOp49
 70
     1
102
RTVSPropertyOp50
 70
     1
102
RTVSPropertyOp51
 70
     0
102
RTVSPropertyOp52
 70
     0
102
RTVSPropertyOp53
 70
     1
102
RTVSPropertyOp54
 70
     1
102
RTVSPropertyOp55
 70
     1
102
RTVSPropertyOp56
 70
     1
102
RTVSPropertyOp57
 70
     1
102
RTVSPropertyOp58
 70
     1
102
RTVSPropertyOp59
 70
     1
102
RTVSPropertyOp60
 70
     1
102
RTVSPropertyOp61
 70
     1
102
RTVSPropertyOp62
 70
     1
  0
XRECORD
  5
5EC
102
{ACAD_REACTORS
330
5EB
102
}
330
5EB
100
AcDbXrecord
280
     1
102
RTVSPost2010Prop28
280
     0
102
RTVSPost2010PropOp28
 70
     1
102
RTVSPost2010Prop29
280
     1
102
RTVSPost2010PropOp29
 70
     1
102
RTVSPost2010Prop30
280
     1
102
RTVSPost2010PropOp30
 70
     1
102
RTVSPost2010Prop31
280
     0
102
RTVSPost2010PropOp31
 70
     1
102
RTVSPost2010Prop32
280
     0
102
RTVSPost2010PropOp32
 70
     1
102
RTVSPost2010Prop33
280
     0
102
RTVSPost2010PropOp33
 70
     1
102
RTVSPost2010Prop34
280
     0
102
RTVSPost2010PropOp34
 70
     1
102
RTVSPost2010Prop35
280
     0
102
RTVSPost2010PropOp35
 70
     1
102
RTVSPost2010Prop36
280
     0
102
RTVSPost2010PropOp36
 70
     1
102
RTVSPost2010Prop37
 90
       50
102
RTVSPost2010PropOp37
 70
     1
102
RTVSPost2010Prop38
140
0.0
102
RTVSPost2010PropOp38
 70
     1
102
RTVSPost2010Prop39
140
1.0
102
RTVSPost2010PropOp39
 70
     1
102
RTVSPost2010Prop40
 90
        0
102
RTVSPost2010PropOp40
 70
     1
102
RTVSPost2010Prop41ColorIndex
 90
       18
102
RTVSPost2010Prop41ColorRGB
 90
        0
102
RTVSPost2010PropOp41
 70
     1
102
RTVSPost2010Prop42
 90
       50
102
RTVSPost2010PropOp42
 70
     1
102
RTVSPost2010Prop43
 90
        3
102
RTVSPost2010PropOp43
 70
     1
102
RTVSPost2010Prop44ColorIndex
 90
        5
102
RTVSPost2010Prop44ColorRGB
 90
      255
102
RTVSPost2010PropOp44
 70
     1
102
RTVSPost2010Prop45
280
     0
102
RTVSPost2010PropOp45
 70
     1
102
RTVSPost2010Prop46
 90
       50
102
RTVSPost2010PropOp46
 70
     1
102
RTVSPost2010Prop47
 90
       50
102
RTVSPost2010PropOp47
 70
     1
102
RTVSPost2010Prop48
 90
       50
102
RTVSPost2010PropOp48
 70
     1
102
RTVSPost2010Prop49
280
     0
102
RTVSPost2010PropOp49
 70
     1
102
RTVSPost2010Prop50
 90
       50
102
RTVSPost2010PropOp50
 70
     1
102
RTVSPost2010Prop51ColorIndex
 90
      256
102
RTVSPost2010Prop51ColorRGB
 90
-16777216
102
RTVSPost2010PropOp51
 70
     0
102
RTVSPost2010Prop52
140
1.0
102
RTVSPost2010PropOp52
 70
     0
102
RTVSPost2010Prop53
 90
        2
102
RTVSPost2010PropOp53
 70
     1
102
RTVSPost2010Prop54
  1
strokes_ogs.tif
102
RTVSPost2010PropOp54
 70
     1
102
RTVSPost2010Prop55
280
     0
102
RTVSPost2010PropOp55
 70
     1
102
RTVSPost2010Prop56
140
1.0
102
RTVSPost2010PropOp56
 70
     1
102
RTVSPost2010Prop57
140
1.0
102
RTVSPost2010PropOp57
 70
     1
102
RTVSPropertyOp0
 70
     1
102
RTVSPropertyOp1
 70
     1
102
RTVSPropertyOp2
 70
     1
102
RTVSPropertyOp3
 70
     1
102
RTVSPropertyOp4
 70
     1
102
RTVSPropertyOp5
 70
     1
102
RTVSPropertyOp6
 70
     1
102
RTVSPropertyOp7
 70
     1
102
RTVSPropertyOp8
 70
     1
102
RTVSPropertyOp9
 70
     1
102
RTVSPropertyOp10
 70
     1
102
RTVSPropertyOp11
 70
     1
102
RTVSPropertyOp12
 70
     1
102
RTVSPropertyOp13
 70
     1
102
RTVSPropertyOp14
 70
     1
102
RTVSPropertyOp15
 70
     1
102
RTVSPropertyOp16
 70
     1
102
RTVSPropertyOp17
 70
     1
102
RTVSPropertyOp18
 70
     1
102
RTVSPropertyOp19
 70
     1
102
RTVSPropertyOp20
 70
     1
102
RTVSPropertyOp21
 70
     1
102
RTVSPropertyOp22
 70
     1
102
RTVSPropertyOp23
 70
     1
102
RTVSPropertyOp24
 70
     1
102
RTVSPropertyOp25
 70
     1
102
RTVSPropertyOp26
 70
     1
102
RTVSPropertyOp27
 70
     1
102
RTVSPropertyOp28
 70
     1
102
RTVSPropertyOp29
 70
     1
102
RTVSPropertyOp30
 70
     1
102
RTVSPropertyOp31
 70
     1
102
RTVSPropertyOp32
 70
     1
102
RTVSPropertyOp33
 70
     1
102
RTVSPropertyOp34
 70
     1
102
RTVSPropertyOp35
 70
     1
102
RTVSPropertyOp36
 70
     1
102
RTVSPropertyOp37
 70
     1
102
RTVSPropertyOp38
 70
     1
102
RTVSPropertyOp39
 70
     1
102
RTVSPropertyOp40
 70
     1
102
RTVSPropertyOp41
 70
     1
102
RTVSPropertyOp42
 70
     1
102
RTVSPropertyOp43
 70
     1
102
RTVSPropertyOp44
 70
     1
102
RTVSPropertyOp45
 70
     1
102
RTVSPropertyOp46
 70
     1
102
RTVSPropertyOp47
 70
     1
102
RTVSPropertyOp48
 70
     1
102
RTVSPropertyOp49
 70
     1
102
RTVSPropertyOp50
 70
     1
102
RTVSPropertyOp51
 70
     0
102
RTVSPropertyOp52
 70
     0
102
RTVSPropertyOp53
 70
     1
102
RTVSPropertyOp54
 70
     1
102
RTVSPropertyOp55
 70
     1
102
RTVSPropertyOp56
 70
     1
102
RTVSPropertyOp57
 70
     1
102
RTVSPropertyOp58
 70
     1
102
RTVSPropertyOp59
 70
     1
102
RTVSPropertyOp60
 70
     1
102
RTVSPropertyOp61
 70
     1
102
RTVSPropertyOp62
 70
     1
  0
XRECORD
  5
5E2
102
{ACAD_REACTORS
330
5E1
102
}
330
5E1
100
AcDbXrecord
280
     1
102
RTVSPost2010Prop28
280
     0
102
RTVSPost2010PropOp28
 70
     1
102
RTVSPost2010Prop29
280
     1
102
RTVSPost2010PropOp29
 70
     1
102
RTVSPost2010Prop30
280
     1
102
RTVSPost2010PropOp30
 70
     1
102
RTVSPost2010Prop31
280
     0
102
RTVSPost2010PropOp31
 70
     1
102
RTVSPost2010Prop32
280
     0
102
RTVSPost2010PropOp32
 70
     1
102
RTVSPost2010Prop33
280
     0
102
RTVSPost2010PropOp33
 70
     1
102
RTVSPost2010Prop34
280
     0
102
RTVSPost2010PropOp34
 70
     1
102
RTVSPost2010Prop35
280
     0
102
RTVSPost2010PropOp35
 70
     1
102
RTVSPost2010Prop36
280
     0
102
RTVSPost2010PropOp36
 70
     1
102
RTVSPost2010Prop37
 90
       50
102
RTVSPost2010PropOp37
 70
     1
102
RTVSPost2010Prop38
140
0.0
102
RTVSPost2010PropOp38
 70
     1
102
RTVSPost2010Prop39
140
1.0
102
RTVSPost2010PropOp39
 70
     1
102
RTVSPost2010Prop40
 90
        0
102
RTVSPost2010PropOp40
 70
     1
102
RTVSPost2010Prop41ColorIndex
 90
       18
102
RTVSPost2010Prop41ColorRGB
 90
        0
102
RTVSPost2010PropOp41
 70
     1
102
RTVSPost2010Prop42
 90
       50
102
RTVSPost2010PropOp42
 70
     1
102
RTVSPost2010Prop43
 90
        3
102
RTVSPost2010PropOp43
 70
     1
102
RTVSPost2010Prop44ColorIndex
 90
        5
102
RTVSPost2010Prop44ColorRGB
 90
      255
102
RTVSPost2010PropOp44
 70
     1
102
RTVSPost2010Prop45
280
     0
102
RTVSPost2010PropOp45
 70
     1
102
RTVSPost2010Prop46
 90
       50
102
RTVSPost2010PropOp46
 70
     1
102
RTVSPost2010Prop47
 90
       50
102
RTVSPost2010PropOp47
 70
     1
102
RTVSPost2010Prop48
 90
       50
102
RTVSPost2010PropOp48
 70
     1
102
RTVSPost2010Prop49
280
     0
102
RTVSPost2010PropOp49
 70
     1
102
RTVSPost2010Prop50
 90
       50
102
RTVSPost2010PropOp50
 70
     1
102
RTVSPost2010Prop51ColorIndex
 90
      256
102
RTVSPost2010Prop51ColorRGB
 90
-16777216
102
RTVSPost2010PropOp51
 70
     0
102
RTVSPost2010Prop52
140
1.0
102
RTVSPost2010PropOp52
 70
     0
102
RTVSPost2010Prop53
 90
        2
102
RTVSPost2010PropOp53
 70
     1
102
RTVSPost2010Prop54
  1
strokes_ogs.tif
102
RTVSPost2010PropOp54
 70
     1
102
RTVSPost2010Prop55
280
     0
102
RTVSPost2010PropOp55
 70
     1
102
RTVSPost2010Prop56
140
1.0
102
RTVSPost2010PropOp56
 70
     1
102
RTVSPost2010Prop57
140
1.0
102
RTVSPost2010PropOp57
 70
     1
102
RTVSPropertyOp0
 70
     1
102
RTVSPropertyOp1
 70
     1
102
RTVSPropertyOp2
 70
     1
102
RTVSPropertyOp3
 70
     1
102
RTVSPropertyOp4
 70
     1
102
RTVSPropertyOp5
 70
     1
102
RTVSPropertyOp6
 70
     1
102
RTVSPropertyOp7
 70
     1
102
RTVSPropertyOp8
 70
     1
102
RTVSPropertyOp9
 70
     1
102
RTVSPropertyOp10
 70
     1
102
RTVSPropertyOp11
 70
     1
102
RTVSPropertyOp12
 70
     1
102
RTVSPropertyOp13
 70
     1
102
RTVSPropertyOp14
 70
     1
102
RTVSPropertyOp15
 70
     1
102
RTVSPropertyOp16
 70
     1
102
RTVSPropertyOp17
 70
     1
102
RTVSPropertyOp18
 70
     1
102
RTVSPropertyOp19
 70
     1
102
RTVSPropertyOp20
 70
     1
102
RTVSPropertyOp21
 70
     1
102
RTVSPropertyOp22
 70
     1
102
RTVSPropertyOp23
 70
     1
102
RTVSPropertyOp24
 70
     1
102
RTVSPropertyOp25
 70
     1
102
RTVSPropertyOp26
 70
     1
102
RTVSPropertyOp27
 70
     1
102
RTVSPropertyOp28
 70
     1
102
RTVSPropertyOp29
 70
     1
102
RTVSPropertyOp30
 70
     1
102
RTVSPropertyOp31
 70
     1
102
RTVSPropertyOp32
 70
     1
102
RTVSPropertyOp33
 70
     1
102
RTVSPropertyOp34
 70
     1
102
RTVSPropertyOp35
 70
     1
102
RTVSPropertyOp36
 70
     1
102
RTVSPropertyOp37
 70
     1
102
RTVSPropertyOp38
 70
     1
102
RTVSPropertyOp39
 70
     1
102
RTVSPropertyOp40
 70
     1
102
RTVSPropertyOp41
 70
     1
102
RTVSPropertyOp42
 70
     1
102
RTVSPropertyOp43
 70
     1
102
RTVSPropertyOp44
 70
     1
102
RTVSPropertyOp45
 70
     1
102
RTVSPropertyOp46
 70
     1
102
RTVSPropertyOp47
 70
     1
102
RTVSPropertyOp48
 70
     1
102
RTVSPropertyOp49
 70
     1
102
RTVSPropertyOp50
 70
     1
102
RTVSPropertyOp51
 70
     0
102
RTVSPropertyOp52
 70
     0
102
RTVSPropertyOp53
 70
     1
102
RTVSPropertyOp54
 70
     1
102
RTVSPropertyOp55
 70
     1
102
RTVSPropertyOp56
 70
     1
102
RTVSPropertyOp57
 70
     1
102
RTVSPropertyOp58
 70
     1
102
RTVSPropertyOp59
 70
     1
102
RTVSPropertyOp60
 70
     1
102
RTVSPropertyOp61
 70
     1
102
RTVSPropertyOp62
 70
     1
  0
XRECORD
  5
5D6
102
{ACAD_REACTORS
330
5D5
102
}
330
5D5
100
AcDbXrecord
280
     1
102
RTVSPost2010Prop28
280
     0
102
RTVSPost2010PropOp28
 70
     1
102
RTVSPost2010Prop29
280
     1
102
RTVSPost2010PropOp29
 70
     1
102
RTVSPost2010Prop30
280
     1
102
RTVSPost2010PropOp30
 70
     1
102
RTVSPost2010Prop31
280
     0
102
RTVSPost2010PropOp31
 70
     1
102
RTVSPost2010Prop32
280
     0
102
RTVSPost2010PropOp32
 70
     1
102
RTVSPost2010Prop33
280
     0
102
RTVSPost2010PropOp33
 70
     1
102
RTVSPost2010Prop34
280
     0
102
RTVSPost2010PropOp34
 70
     1
102
RTVSPost2010Prop35
280
     0
102
RTVSPost2010PropOp35
 70
     1
102
RTVSPost2010Prop36
280
     0
102
RTVSPost2010PropOp36
 70
     1
102
RTVSPost2010Prop37
 90
       50
102
RTVSPost2010PropOp37
 70
     1
102
RTVSPost2010Prop38
140
0.0
102
RTVSPost2010PropOp38
 70
     1
102
RTVSPost2010Prop39
140
1.0
102
RTVSPost2010PropOp39
 70
     1
102
RTVSPost2010Prop40
 90
        0
102
RTVSPost2010PropOp40
 70
     1
102
RTVSPost2010Prop41ColorIndex
 90
       18
102
RTVSPost2010Prop41ColorRGB
 90
        0
102
RTVSPost2010PropOp41
 70
     1
102
RTVSPost2010Prop42
 90
       50
102
RTVSPost2010PropOp42
 70
     1
102
RTVSPost2010Prop43
 90
        3
102
RTVSPost2010PropOp43
 70
     1
102
RTVSPost2010Prop44ColorIndex
 90
        5
102
RTVSPost2010Prop44ColorRGB
 90
      255
102
RTVSPost2010PropOp44
 70
     1
102
RTVSPost2010Prop45
280
     0
102
RTVSPost2010PropOp45
 70
     1
102
RTVSPost2010Prop46
 90
       50
102
RTVSPost2010PropOp46
 70
     1
102
RTVSPost2010Prop47
 90
       50
102
RTVSPost2010PropOp47
 70
     1
102
RTVSPost2010Prop48
 90
       50
102
RTVSPost2010PropOp48
 70
     1
102
RTVSPost2010Prop49
280
     0
102
RTVSPost2010PropOp49
 70
     1
102
RTVSPost2010Prop50
 90
       50
102
RTVSPost2010PropOp50
 70
     1
102
RTVSPost2010Prop51ColorIndex
 90
      256
102
RTVSPost2010Prop51ColorRGB
 90
-16777216
102
RTVSPost2010PropOp51
 70
     0
102
RTVSPost2010Prop52
140
1.0
102
RTVSPost2010PropOp52
 70
     0
102
RTVSPost2010Prop53
 90
        2
102
RTVSPost2010PropOp53
 70
     1
102
RTVSPost2010Prop54
  1
strokes_ogs.tif
102
RTVSPost2010PropOp54
 70
     1
102
RTVSPost2010Prop55
280
     0
102
RTVSPost2010PropOp55
 70
     1
102
RTVSPost2010Prop56
140
1.0
102
RTVSPost2010PropOp56
 70
     1
102
RTVSPost2010Prop57
140
1.0
102
RTVSPost2010PropOp57
 70
     1
102
RTVSPropertyOp0
 70
     1
102
RTVSPropertyOp1
 70
     1
102
RTVSPropertyOp2
 70
     1
102
RTVSPropertyOp3
 70
     1
102
RTVSPropertyOp4
 70
     1
102
RTVSPropertyOp5
 70
     1
102
RTVSPropertyOp6
 70
     1
102
RTVSPropertyOp7
 70
     1
102
RTVSPropertyOp8
 70
     1
102
RTVSPropertyOp9
 70
     1
102
RTVSPropertyOp10
 70
     1
102
RTVSPropertyOp11
 70
     1
102
RTVSPropertyOp12
 70
     1
102
RTVSPropertyOp13
 70
     1
102
RTVSPropertyOp14
 70
     1
102
RTVSPropertyOp15
 70
     1
102
RTVSPropertyOp16
 70
     1
102
RTVSPropertyOp17
 70
     1
102
RTVSPropertyOp18
 70
     1
102
RTVSPropertyOp19
 70
     1
102
RTVSPropertyOp20
 70
     1
102
RTVSPropertyOp21
 70
     1
102
RTVSPropertyOp22
 70
     1
102
RTVSPropertyOp23
 70
     1
102
RTVSPropertyOp24
 70
     1
102
RTVSPropertyOp25
 70
     1
102
RTVSPropertyOp26
 70
     1
102
RTVSPropertyOp27
 70
     1
102
RTVSPropertyOp28
 70
     1
102
RTVSPropertyOp29
 70
     1
102
RTVSPropertyOp30
 70
     1
102
RTVSPropertyOp31
 70
     1
102
RTVSPropertyOp32
 70
     1
102
RTVSPropertyOp33
 70
     1
102
RTVSPropertyOp34
 70
     1
102
RTVSPropertyOp35
 70
     1
102
RTVSPropertyOp36
 70
     1
102
RTVSPropertyOp37
 70
     1
102
RTVSPropertyOp38
 70
     1
102
RTVSPropertyOp39
 70
     1
102
RTVSPropertyOp40
 70
     1
102
RTVSPropertyOp41
 70
     1
102
RTVSPropertyOp42
 70
     1
102
RTVSPropertyOp43
 70
     1
102
RTVSPropertyOp44
 70
     1
102
RTVSPropertyOp45
 70
     1
102
RTVSPropertyOp46
 70
     1
102
RTVSPropertyOp47
 70
     1
102
RTVSPropertyOp48
 70
     1
102
RTVSPropertyOp49
 70
     1
102
RTVSPropertyOp50
 70
     1
102
RTVSPropertyOp51
 70
     0
102
RTVSPropertyOp52
 70
     0
102
RTVSPropertyOp53
 70
     1
102
RTVSPropertyOp54
 70
     1
102
RTVSPropertyOp55
 70
     1
102
RTVSPropertyOp56
 70
     1
102
RTVSPropertyOp57
 70
     1
102
RTVSPropertyOp58
 70
     1
102
RTVSPropertyOp59
 70
     1
102
RTVSPropertyOp60
 70
     1
102
RTVSPropertyOp61
 70
     1
102
RTVSPropertyOp62
 70
     1
  0
XRECORD
  5
5EE
102
{ACAD_REACTORS
330
5ED
102
}
330
5ED
100
AcDbXrecord
280
     1
102
RTVSPost2010Prop28
280
     0
102
RTVSPost2010PropOp28
 70
     1
102
RTVSPost2010Prop29
280
     1
102
RTVSPost2010PropOp29
 70
     1
102
RTVSPost2010Prop30
280
     1
102
RTVSPost2010PropOp30
 70
     1
102
RTVSPost2010Prop31
280
     0
102
RTVSPost2010PropOp31
 70
     1
102
RTVSPost2010Prop32
280
     0
102
RTVSPost2010PropOp32
 70
     1
102
RTVSPost2010Prop33
280
     0
102
RTVSPost2010PropOp33
 70
     1
102
RTVSPost2010Prop34
280
     0
102
RTVSPost2010PropOp34
 70
     1
102
RTVSPost2010Prop35
280
     0
102
RTVSPost2010PropOp35
 70
     1
102
RTVSPost2010Prop36
280
     0
102
RTVSPost2010PropOp36
 70
     1
102
RTVSPost2010Prop37
 90
       50
102
RTVSPost2010PropOp37
 70
     1
102
RTVSPost2010Prop38
140
0.0
102
RTVSPost2010PropOp38
 70
     1
102
RTVSPost2010Prop39
140
1.0
102
RTVSPost2010PropOp39
 70
     1
102
RTVSPost2010Prop40
 90
        0
102
RTVSPost2010PropOp40
 70
     1
102
RTVSPost2010Prop41ColorIndex
 90
       18
102
RTVSPost2010Prop41ColorRGB
 90
        0
102
RTVSPost2010PropOp41
 70
     1
102
RTVSPost2010Prop42
 90
       50
102
RTVSPost2010PropOp42
 70
     1
102
RTVSPost2010Prop43
 90
        3
102
RTVSPost2010PropOp43
 70
     1
102
RTVSPost2010Prop44ColorIndex
 90
        5
102
RTVSPost2010Prop44ColorRGB
 90
      255
102
RTVSPost2010PropOp44
 70
     1
102
RTVSPost2010Prop45
280
     0
102
RTVSPost2010PropOp45
 70
     1
102
RTVSPost2010Prop46
 90
       50
102
RTVSPost2010PropOp46
 70
     1
102
RTVSPost2010Prop47
 90
       50
102
RTVSPost2010PropOp47
 70
     1
102
RTVSPost2010Prop48
 90
       50
102
RTVSPost2010PropOp48
 70
     1
102
RTVSPost2010Prop49
280
     0
102
RTVSPost2010PropOp49
 70
     1
102
RTVSPost2010Prop50
 90
       50
102
RTVSPost2010PropOp50
 70
     1
102
RTVSPost2010Prop51ColorIndex
 90
      256
102
RTVSPost2010Prop51ColorRGB
 90
-16777216
102
RTVSPost2010PropOp51
 70
     0
102
RTVSPost2010Prop52
140
1.0
102
RTVSPost2010PropOp52
 70
     0
102
RTVSPost2010Prop53
 90
        2
102
RTVSPost2010PropOp53
 70
     1
102
RTVSPost2010Prop54
  1
strokes_ogs.tif
102
RTVSPost2010PropOp54
 70
     1
102
RTVSPost2010Prop55
280
     0
102
RTVSPost2010PropOp55
 70
     1
102
RTVSPost2010Prop56
140
1.0
102
RTVSPost2010PropOp56
 70
     1
102
RTVSPost2010Prop57
140
1.0
102
RTVSPost2010PropOp57
 70
     1
102
RTVSPropertyOp0
 70
     1
102
RTVSPropertyOp1
 70
     1
102
RTVSPropertyOp2
 70
     1
102
RTVSPropertyOp3
 70
     1
102
RTVSPropertyOp4
 70
     1
102
RTVSPropertyOp5
 70
     1
102
RTVSPropertyOp6
 70
     1
102
RTVSPropertyOp7
 70
     1
102
RTVSPropertyOp8
 70
     1
102
RTVSPropertyOp9
 70
     1
102
RTVSPropertyOp10
 70
     1
102
RTVSPropertyOp11
 70
     1
102
RTVSPropertyOp12
 70
     1
102
RTVSPropertyOp13
 70
     1
102
RTVSPropertyOp14
 70
     1
102
RTVSPropertyOp15
 70
     1
102
RTVSPropertyOp16
 70
     1
102
RTVSPropertyOp17
 70
     1
102
RTVSPropertyOp18
 70
     1
102
RTVSPropertyOp19
 70
     1
102
RTVSPropertyOp20
 70
     1
102
RTVSPropertyOp21
 70
     1
102
RTVSPropertyOp22
 70
     1
102
RTVSPropertyOp23
 70
     1
102
RTVSPropertyOp24
 70
     1
102
RTVSPropertyOp25
 70
     1
102
RTVSPropertyOp26
 70
     1
102
RTVSPropertyOp27
 70
     1
102
RTVSPropertyOp28
 70
     1
102
RTVSPropertyOp29
 70
     1
102
RTVSPropertyOp30
 70
     1
102
RTVSPropertyOp31
 70
     1
102
RTVSPropertyOp32
 70
     1
102
RTVSPropertyOp33
 70
     1
102
RTVSPropertyOp34
 70
     1
102
RTVSPropertyOp35
 70
     1
102
RTVSPropertyOp36
 70
     1
102
RTVSPropertyOp37
 70
     1
102
RTVSPropertyOp38
 70
     1
102
RTVSPropertyOp39
 70
     1
102
RTVSPropertyOp40
 70
     1
102
RTVSPropertyOp41
 70
     1
102
RTVSPropertyOp42
 70
     1
102
RTVSPropertyOp43
 70
     1
102
RTVSPropertyOp44
 70
     1
102
RTVSPropertyOp45
 70
     1
102
RTVSPropertyOp46
 70
     1
102
RTVSPropertyOp47
 70
     1
102
RTVSPropertyOp48
 70
     1
102
RTVSPropertyOp49
 70
     1
102
RTVSPropertyOp50
 70
     1
102
RTVSPropertyOp51
 70
     0
102
RTVSPropertyOp52
 70
     0
102
RTVSPropertyOp53
 70
     1
102
RTVSPropertyOp54
 70
     1
102
RTVSPropertyOp55
 70
     1
102
RTVSPropertyOp56
 70
     1
102
RTVSPropertyOp57
 70
     1
102
RTVSPropertyOp58
 70
     1
102
RTVSPropertyOp59
 70
     1
102
RTVSPropertyOp60
 70
     1
102
RTVSPropertyOp61
 70
     1
102
RTVSPropertyOp62
 70
     1
  0
ENDSEC
  0
EOF
