  0
SECTION
  2
HEADER
  9
$ACADVER
  1
AC1015
  9
$ACADMAINTVER
 70
    18
  9
$DWGCODEPAGE
  3
ANSI_932
  9
$INSBASE
 10
0.0
 20
0.0
 30
0.0
  9
$EXTMIN
 10
-1314.110458077887
 20
-710.8135756595426
 30
0.0
  9
$EXTMAX
 10
2582.613794293981
 20
2117.133696542775
 30
0.0
  9
$LIMMIN
 10
-3.175048828125
 20
-3.174999952316284
  9
$LIMMAX
 10
1185.798950195312
 20
837.8190186023712
  9
$ORTHOMODE
 70
     0
  9
$REGENMODE
 70
     1
  9
$FILLMODE
 70
     1
  9
$QTEXTMODE
 70
     0
  9
$MIRRTEXT
 70
     0
  9
$LTSCALE
 40
1.0
  9
$ATTMODE
 70
     1
  9
$TEXTSIZE
 40
9.0
  9
$TRACEWID
 40
1.0
  9
$TEXTSTYLE
  7
STANDARD
  9
$CLAYER
  8
AM_VIEWS
  9
$CELTYPE
  6
ByLayer
  9
$CECOLOR
 62
   256
  9
$CELTSCALE
 40
1.0
  9
$DISPSILH
 70
     0
  9
$DIMSCALE
 40
1.0
  9
$DIMASZ
 40
1.8
  9
$DIMEXO
 40
1.0
  9
$DIMDLI
 40
10.0
  9
$DIMRND
 40
0.0
  9
$DIMDLE
 40
0.0
  9
$DIMEXE
 40
1.0
  9
$DIMTP
 40
0.1
  9
$DIMTM
 40
0.1
  9
$DIMTXT
 40
3.5
  9
$DIMCEN
 40
0.0
  9
$DIMTSZ
 40
0.0
  9
$DIMTOL
 70
     0
  9
$DIMLIM
 70
     0
  9
$DIMTIH
 70
     0
  9
$DIMTOH
 70
     0
  9
$DIMSE1
 70
     0
  9
$DIMSE2
 70
     0
  9
$DIMTAD
 70
     3
  9
$DIMZIN
 70
     8
  9
$DIMBLK
  1
Open30
  9
$DIMASO
 70
     1
  9
$DIMSHO
 70
     1
  9
$DIMPOST
  1

  9
$DIMAPOST
  1
"
  9
$DIMALT
 70
     0
  9
$DIMALTD
 70
     2
  9
$DIMALTF
 40
0.0393701
  9
$DIMLFAC
 40
1.0
  9
$DIMTOFL
 70
     1
  9
$DIMTVP
 40
0.0
  9
$DIMTIX
 70
     0
  9
$DIMSOXD
 70
     0
  9
$DIMSAH
 70
     0
  9
$DIMBLK1
  1

  9
$DIMBLK2
  1

  9
$DIMSTYLE
  2
JIS2
  9
$DIMCLRD
 70
   256
  9
$DIMCLRE
 70
   256
  9
$DIMCLRT
 70
     2
  9
$DIMTFAC
 40
0.71
  9
$DIMGAP
 40
0.5
  9
$DIMJUST
 70
     0
  9
$DIMSD1
 70
     0
  9
$DIMSD2
 70
     0
  9
$DIMTOLJ
 70
     0
  9
$DIMTZIN
 70
     8
  9
$DIMALTZ
 70
     0
  9
$DIMALTTZ
 70
     0
  9
$DIMUPT
 70
     0
  9
$DIMDEC
 70
     2
  9
$DIMTDEC
 70
     2
  9
$DIMALTU
 70
     2
  9
$DIMALTTD
 70
     2
  9
$DIMTXSTY
  7
STANDARD
  9
$DIMAUNIT
 70
     0
  9
$DIMADEC
 70
     0
  9
$DIMALTRND
 40
0.0
  9
$DIMAZIN
 70
     2
  9
$DIMDSEP
 70
    46
  9
$DIMATFIT
 70
     3
  9
$DIMFRAC
 70
     0
  9
$DIMLDRBLK
  1
Open30
  9
$DIMLUNIT
 70
     2
  9
$DIMLWD
 70
    -1
  9
$DIMLWE
 70
    -1
  9
$DIMTMOVE
 70
     0
  9
$LUNITS
 70
     2
  9
$LUPREC
 70
     2
  9
$SKETCHINC
 40
1.0
  9
$FILLETRAD
 40
2.5
  9
$AUNITS
 70
     0
  9
$AUPREC
 70
     0
  9
$MENU
  1
.
  9
$ELEVATION
 40
0.0
  9
$PELEVATION
 40
0.0
  9
$THICKNESS
 40
0.0
  9
$LIMCHECK
 70
     0
  9
$CHAMFERA
 40
2.5
  9
$CHAMFERB
 40
2.5
  9
$CHAMFERC
 40
20.0
  9
$CHAMFERD
 40
0.0
  9
$SKPOLY
 70
     0
  9
$TDCREATE
 40
2459320.645486112
  9
$TDUCREATE
 40
2459320.270486111
  9
$TDUPDATE
 40
2459320.645497685
  9
$TDUUPDATE
 40
2459320.270497685
  9
$TDINDWG
 40
0.0000462963
  9
$TDUSRTIMER
 40
0.0000462963
  9
$USRTIMER
 70
     1
  9
$ANGBASE
 50
0.0
  9
$ANGDIR
 70
     0
  9
$PDMODE
 70
     0
  9
$PDSIZE
 40
0.0
  9
$PLINEWID
 40
0.0
  9
$SPLFRAME
 70
     0
  9
$SPLINETYPE
 70
     6
  9
$SPLINESEGS
 70
     8
  9
$HANDSEED
  5
6F2
  9
$SURFTAB1
 70
     6
  9
$SURFTAB2
 70
     6
  9
$SURFTYPE
 70
     6
  9
$SURFU
 70
     6
  9
$SURFV
 70
     6
  9
$UCSBASE
  2

  9
$UCSNAME
  2

  9
$UCSORG
 10
0.0
 20
0.0
 30
0.0
  9
$UCSXDIR
 10
1.0
 20
0.0
 30
0.0
  9
$UCSYDIR
 10
0.0
 20
1.0
 30
0.0
  9
$UCSORTHOREF
  2

  9
$UCSORTHOVIEW
 70
     0
  9
$UCSORGTOP
 10
0.0
 20
0.0
 30
0.0
  9
$UCSORGBOTTOM
 10
0.0
 20
0.0
 30
0.0
  9
$UCSORGLEFT
 10
0.0
 20
0.0
 30
0.0
  9
$UCSORGRIGHT
 10
0.0
 20
0.0
 30
0.0
  9
$UCSORGFRONT
 10
0.0
 20
0.0
 30
0.0
  9
$UCSORGBACK
 10
0.0
 20
0.0
 30
0.0
  9
$PUCSBASE
  2

  9
$PUCSNAME
  2

  9
$PUCSORG
 10
0.0
 20
0.0
 30
0.0
  9
$PUCSXDIR
 10
1.0
 20
0.0
 30
0.0
  9
$PUCSYDIR
 10
0.0
 20
1.0
 30
0.0
  9
$PUCSORTHOREF
  2

  9
$PUCSORTHOVIEW
 70
     0
  9
$PUCSORGTOP
 10
0.0
 20
0.0
 30
0.0
  9
$PUCSORGBOTTOM
 10
0.0
 20
0.0
 30
0.0
  9
$PUCSORGLEFT
 10
0.0
 20
0.0
 30
0.0
  9
$PUCSORGRIGHT
 10
0.0
 20
0.0
 30
0.0
  9
$PUCSORGFRONT
 10
0.0
 20
0.0
 30
0.0
  9
$PUCSORGBACK
 10
0.0
 20
0.0
 30
0.0
  9
$USERI1
 70
     0
  9
$USERI2
 70
     0
  9
$USERI3
 70
     0
  9
$USERI4
 70
     0
  9
$USERI5
 70
     0
  9
$USERR1
 40
0.0
  9
$USERR2
 40
0.0
  9
$USERR3
 40
0.0
  9
$USERR4
 40
0.0
  9
$USERR5
 40
0.0
  9
$WORLDVIEW
 70
     1
  9
$SHADEDGE
 70
     3
  9
$SHADEDIF
 70
    70
  9
$TILEMODE
 70
     1
  9
$MAXACTVP
 70
    64
  9
$PINSBASE
 10
0.0
 20
0.0
 30
0.0
  9
$PLIMCHECK
 70
     0
  9
$PEXTMIN
 10
1.000000000000000E+20
 20
1.000000000000000E+20
 30
1.000000000000000E+20
  9
$PEXTMAX
 10
-1.000000000000000E+20
 20
-1.000000000000000E+20
 30
-1.000000000000000E+20
  9
$PLIMMIN
 10
0.0
 20
0.0
  9
$PLIMMAX
 10
12.0
 20
9.0
  9
$UNITMODE
 70
     0
  9
$VISRETAIN
 70
     1
  9
$PLINEGEN
 70
     0
  9
$PSLTSCALE
 70
     1
  9
$TREEDEPTH
 70
  3020
  9
$CMLSTYLE
  2
Standard
  9
$CMLJUST
 70
     0
  9
$CMLSCALE
 40
20.0
  9
$PROXYGRAPHICS
 70
     1
  9
$MEASUREMENT
 70
     1
  9
$CELWEIGHT
370
    -1
  9
$ENDCAPS
280
     0
  9
$JOINSTYLE
280
     0
  9
$LWDISPLAY
290
     0
  9
$INSUNITS
 70
     4
  9
$HYPERLINKBASE
  1

  9
$STYLESHEET
  1

  9
$XEDIT
290
     1
  9
$CEPSNTYPE
380
     0
  9
$PSTYLEMODE
290
     1
  9
$FINGERPRINTGUID
  2
{BFF56C8E-E549-894A-88F4-7EB4D4269676}
  9
$VERSIONGUID
  2
{868FC1EB-CC0B-A546-BB59-7621F4FAC43E}
  9
$EXTNAMES
290
     1
  9
$PSVPSCALE
 40
0.0
  9
$OLESTARTUP
290
     0
  0
ENDSEC
  0
SECTION
  2
CLASSES
  0
CLASS
  1
ACDBDICTIONARYWDFLT
  2
AcDbDictionaryWithDefault
  3
ObjectDBX Classes
 90
        0
280
     0
281
     0
  0
CLASS
  1
MATERIAL
  2
AcDbMaterial
  3
ObjectDBX Classes
 90
     1153
280
     0
281
     0
  0
CLASS
  1
VISUALSTYLE
  2
AcDbVisualStyle
  3
ObjectDBX Classes
 90
     4095
280
     0
281
     0
  0
CLASS
  1
SCALE
  2
AcDbScale
  3
ObjectDBX Classes
 90
     1153
280
     0
281
     0
  0
CLASS
  1
TABLESTYLE
  2
AcDbTableStyle
  3
ObjectDBX Classes
 90
     4095
280
     0
281
     0
  0
CLASS
  1
MLEADERSTYLE
  2
AcDbMLeaderStyle
  3
ACDB_MLEADERSTYLE_CLASS
 90
     4095
280
     0
281
     0
  0
CLASS
  1
ACDBSECTIONVIEWSTYLE
  2
AcDbSectionViewStyle
  3
ObjectDBX Classes
 90
     1025
280
     0
281
     0
  0
CLASS
  1
ACDBDETAILVIEWSTYLE
  2
AcDbDetailViewStyle
  3
ObjectDBX Classes
 90
     1025
280
     0
281
     0
  0
CLASS
  1
ACMESCOPE
  2
AcMeScope
  3
AcMeServices
 90
     1024
280
     0
281
     0
  0
CLASS
  1
ACMECOMMANDHISTORY
  2
AcMeCommandHistory
  3
AcMeServices
 90
     1024
280
     0
281
     0
  0
CLASS
  1
ACIMSYSVARMAN
  2
AcImSysVarManager
  3
AcMeServices
 90
     1024
280
     0
281
     0
  0
CLASS
  1
ACIMINTSYSVAR
  2
AcImIntSysVar
  3
AcMeServices
 90
     1024
280
     0
281
     0
  0
CLASS
  1
ACMESTATEMGR
  2
AcMeStateMgr
  3
AcMeServices
 90
     1024
280
     0
281
     0
  0
CLASS
  1
ACGREFMASTER
  2
AcGrefMaster
  3
AcAttribServices
 90
     1024
280
     0
281
     0
  0
CLASS
  1
SORTENTSTABLE
  2
AcDbSortentsTable
  3
ObjectDBX Classes
 90
        0
280
     0
281
     0
  0
CLASS
  1
DIMASSOC
  2
AcDbDimAssoc
  3
"AcDbDimAssoc|Product Desc:     AcDim ARX App For Dimension|Company:          Autodesk, Inc.|WEB Address:      www.autodesk.com"
 90
        0
280
     0
281
     0
  0
CLASS
  1
DICTIONARYVAR
  2
AcDbDictionaryVar
  3
ObjectDBX Classes
 90
        0
280
     0
281
     0
  0
CLASS
  1
ACME_DOCUMENT
  2
AcMeDbDoc
  3
AcMeServices
 90
     1024
280
     0
281
     0
  0
CLASS
  1
AMGSETTINGSOBJ
  2
AmgSettingsObj
  3
"AcadM|Product Description: AutoCAD Mechanical|Company: Autodesk, Inc."
 90
     1024
280
     0
281
     0
  0
CLASS
  1
ACDBENTITYCACHE
  2
AcMeEntityCache
  3
AcMeServices
 90
     1024
280
     0
281
     0
  0
CLASS
  1
ACME_DATABASE
  2
AcMeDbDatabase
  3
AcMeServices
 90
     1024
280
     0
281
     0
  0
CLASS
  1
ACRFINSADJUSTERMGR
  2
AcRfInsAdjusterMgr
  3
AcMeServices
 90
     1024
280
     0
281
     0
  0
CLASS
  1
ACGREFACADMASTER
  2
AcGrefacadMaster
  3
AcGrefServices
 90
     1024
280
     0
281
     0
  0
CLASS
  1
AMIMASTER
  2
AmiMaster
  3
AmiServices
 90
     1024
280
     0
281
     0
  0
CLASS
  1
AMDTMENUSTATEMGR
  2
AmdtMenuStateMgr
  3
McadcomServices
 90
     1024
280
     0
281
     0
  0
CLASS
  1
AMDTMCOMMENUSTATE
  2
AmdtMcomMenuState
  3
McadcomServices
 90
     1024
280
     0
281
     0
  0
CLASS
  1
MAPIAMMOUDLE
  2
MApiAmModule
  3
MApiAmServices
 90
     1024
280
     0
281
     0
  0
CLASS
  1
ACIMSTRSYSVAR
  2
AcImStrSysVar
  3
AcMeServices
 90
     1024
280
     0
281
     0
  0
CLASS
  1
AMDTAMMENUSTATE
  2
AmdtAmMenuState
  3
DesignerAssemblies_arx
 90
     1024
280
     0
281
     0
  0
CLASS
  1
ACAMPROJECT
  2
AcAmProject
  3
DesignerAssemblies
 90
     1024
280
     0
281
     0
  0
CLASS
  1
ACAMGRCOMPDEF
  2
AcAmGrCompDef
  3
DesignerAssemblies
 90
     1024
280
     0
281
     0
  0
CLASS
  1
ACAMCOMPDEF
  2
AcAmCompDef
  3
DesignerAssemblies
 90
     1024
280
     0
281
     0
  0
CLASS
  1
ACAMCOMPDEFMGR
  2
AcAmCompDefMgr
  3
DesignerAssemblies
 90
     1024
280
     0
281
     0
  0
CLASS
  1
AMCONTEXTMGR
  2
AcAmContextMgr
  3
DesignerAssemblies
 90
     1024
280
     0
281
     0
  0
CLASS
  1
ACAMCONTEXTMODELER
  2
AcAmContextModeler
  3
DesignerAssemblies
 90
     1024
280
     0
281
     0
  0
CLASS
  1
ACMDATADICTIONARY
  2
AcmDataDictionary
  3
"AcmSymBB|Product Description: AutoCAD Mechanical|Company: Autodesk, Inc."
 90
     1024
280
     0
281
     0
  0
CLASS
  1
ACAMGRCOMPDEFSET
  2
AcAmGrCompDefSet
  3
DesignerAssemblies
 90
     1024
280
     0
281
     0
  0
CLASS
  1
AMDTBROWSERDBTAB
  2
AmdtBrowserDbTab
  3
McadcomServices
 90
     1024
280
     0
281
     0
  0
CLASS
  1
CBROWSERAPPOBJECT
  2
CBrowserAppObject
  3
McadcomServices
 90
     1024
280
     0
281
     0
  0
CLASS
  1
DM_PLACEHOLDER
  2
AcDmSelsetPlaceholder
  3
McadcomServices
 90
     1024
280
     0
281
     0
  0
CLASS
  1
ACMSTANDARDISO
  2
AcmStandardISO
  3
"Amdt_StdImp|Product Description: AutoCAD Mechanical|Company: Autodesk, Inc."
 90
     1024
280
     0
281
     0
  0
CLASS
  1
AMDTEDGESTANDARDISO13715
  2
AmdtEdgeStdISO13715
  3
"Amdt_StdImp|Product Description: AutoCAD Mechanical|Company: Autodesk, Inc."
 90
     1024
280
     0
281
     0
  0
CLASS
  1
ACMSURFSTANDARDISO2002
  2
AcmSurfTextStdISO2002
  3
"Amdt_StdImp|Product Description: AutoCAD Mechanical|Company: Autodesk, Inc."
 90
     1024
280
     0
281
     0
  0
CLASS
  1
ACMFCFSTANDARDISO2012
  2
AcmFCFStdISO2012
  3
"Amdt_StdImp|Product Description: AutoCAD Mechanical|Company: Autodesk, Inc."
 90
     1024
280
     0
281
     0
  0
CLASS
  1
ACMWELDSTANDARDISO
  2
AcmWeldingStdISO
  3
"Amdt_StdImp|Product Description: AutoCAD Mechanical|Company: Autodesk, Inc."
 90
     1024
280
     0
281
     0
  0
CLASS
  1
ACMIDSTANDARDISO2012
  2
AcmIdStdISO2012
  3
"Amdt_StdImp|Product Description: AutoCAD Mechanical|Company: Autodesk, Inc."
 90
     1024
280
     0
281
     0
  0
CLASS
  1
ACMDATUMSTANDARDISO2012
  2
AcmDatumStdISO2012
  3
"Amdt_StdImp|Product Description: AutoCAD Mechanical|Company: Autodesk, Inc."
 90
     1024
280
     0
281
     0
  0
CLASS
  1
ACMBOMSTANDARDISO
  2
AcmBOMStdISO
  3
"Amdt_StdImp|Product Description: AutoCAD Mechanical|Company: Autodesk, Inc."
 90
     1024
280
     0
281
     0
  0
CLASS
  1
ACMDETAILSTANDARDISO
  2
AmdtDetailSymStdISO
  3
"Amdt_StdImp|Product Description: AutoCAD Mechanical|Company: Autodesk, Inc."
 90
     1024
280
     0
281
     0
  0
CLASS
  1
ACMSECTIONSTANDARDISO2001
  2
AmdtSectionSymStdISO2001
  3
"Amdt_StdImp|Product Description: AutoCAD Mechanical|Company: Autodesk, Inc."
 90
     1024
280
     0
281
     0
  0
CLASS
  1
ACMCENTERLINESTANDARDISO
  2
AmdtCenterLineStdISO
  3
"Amdt_StdImp|Product Description: AutoCAD Mechanical|Company: Autodesk, Inc."
 90
     1024
280
     0
281
     0
  0
CLASS
  1
ACMTHREADLINESTANDARDISO
  2
AmdtThreadLineStdISO
  3
"Amdt_StdImp|Product Description: AutoCAD Mechanical|Company: Autodesk, Inc."
 90
     1024
280
     0
281
     0
  0
CLASS
  1
ACMNOTESTANDARDISO
  2
AmdtNoteStdISO
  3
"Amdt_StdImp|Product Description: AutoCAD Mechanical|Company: Autodesk, Inc."
 90
     1024
280
     0
281
     0
  0
CLASS
  1
ACMTAPERSTANDARDISO
  2
AcmTaperStdISO
  3
"Amdt_StdImp|Product Description: AutoCAD Mechanical|Company: Autodesk, Inc."
 90
     1024
280
     0
281
     0
  0
CLASS
  1
ACMANOOTATIONVIEWSTANDARDISO
  2
AmdtAnViewStdISO
  3
"Amdt_StdImp|Product Description: AutoCAD Mechanical|Company: Autodesk, Inc."
 90
     1024
280
     0
281
     0
  0
CLASS
  1
ACAMGLAYSTD
  2
AcAmgLayStd
  3
"AmgLay|Product Description: AutoCAD Mechanical|Company: Autodesk, Inc."
 90
     1024
280
     0
281
     0
  0
CLASS
  1
ACAMGTITLESTD
  2
AcAmgTitleStd
  3
"AmgTitle|Product Description: AutoCAD Mechanical|Company: Autodesk, Inc."
 90
     1024
280
     0
281
     0
  0
CLASS
  1
ACAMGDIMSTD
  2
AcAmgDimStd
  3
"AmgDim|Product Description: AutoCAD Mechanical|Company: Autodesk, Inc."
 90
     1024
280
     0
281
     0
  0
CLASS
  1
AMGOBJPROPCFG
  2
AmgObjPropCfg
  3
"AmgLay|Product Description: AutoCAD Mechanical|Company: Autodesk, Inc."
 90
     1024
280
     0
281
     0
  0
CLASS
  1
ACAMGHOLECHARTSTDISO
  2
AcAmgHoleChartStdISO
  3
"AmgDim" "Product Description: AutoCAD Mechanical|Company: Autodesk, Inc."
 90
     1024
280
     0
281
     0
  0
CLASS
  1
ACMSECTIONSTANDARDCUSTOM
  2
AmdtSectionSymStdCustom
  3
"Amdt_StdImp|Product Description: AutoCAD Mechanical|Company: Autodesk, Inc."
 90
     1024
280
     0
281
     0
  0
CLASS
  1
ACMDETAILTANDARDCUSTOM
  2
AmdtDetailSymStdCustom
  3
"Amdt_StdImp|Product Description: AutoCAD Mechanical|Company: Autodesk, Inc."
 90
     1024
280
     0
281
     0
  0
CLASS
  1
FIELD
  2
AcDbField
  3
ObjectDBX Classes
 90
     1152
280
     0
281
     0
  0
CLASS
  1
FIELDLIST
  2
AcDbFieldList
  3
ObjectDBX Classes
 90
     1152
280
     0
281
     0
  0
CLASS
  1
AMDTNOTETEMPLATEDB
  2
AmdtNoteTemplateDB
  3
"AcmSymBB" "Product Description: AutoCAD Mechanical|Company: Autodesk, Inc."
 90
     1024
280
     0
281
     0
  0
CLASS
  1
CELLSTYLEMAP
  2
AcDbCellStyleMap
  3
ObjectDBX Classes
 90
     1152
280
     0
281
     0
  0
CLASS
  1
ACDBPLACEHOLDER
  2
AcDbPlaceHolder
  3
ObjectDBX Classes
 90
        0
280
     0
281
     0
  0
CLASS
  1
LAYOUT
  2
AcDbLayout
  3
ObjectDBX Classes
 90
        0
280
     0
281
     0
  0
ENDSEC
  0
SECTION
  2
TABLES
  0
TABLE
  2
VPORT
  5
8
330
0
100
AcDbSymbolTable
 70
     1
  0
VPORT
  5
57
330
8
100
AcDbSymbolTableRecord
100
AcDbViewportTableRecord
  2
*Active
 70
     0
 10
0.0
 20
0.0
 11
1.0
 21
1.0
 12
900.6451405068228
 22
755.3699703993829
 13
0.0
 23
0.0
 14
10.0
 24
10.0
 15
10.0
 25
10.0
 16
0.0
 26
0.0
 36
1.0
 17
0.0
 27
0.0
 37
0.0
 40
5137.978480061013
 41
2.180967238689547
 42
50.0
 43
0.0
 44
0.0
 50
0.0
 51
0.0
 71
     0
 72
  1000
 73
     1
 74
     1
 75
     0
 76
     0
 77
     0
 78
     0
281
     0
 65
     1
110
0.0
120
0.0
130
0.0
111
1.0
121
0.0
131
0.0
112
0.0
122
1.0
132
0.0
 79
     0
146
0.0
1001
ACAD_NAV_VCDISPLAY
1070
     3
  0
ENDTAB
  0
TABLE
  2
LTYPE
  5
5
330
0
100
AcDbSymbolTable
 70
    20
  0
LTYPE
  5
5B
330
5
100
AcDbSymbolTableRecord
100
AcDbLinetypeTableRecord
  2
ByBlock
 70
     0
  3

 72
    65
 73
     0
 40
0.0
  0
LTYPE
  5
5C
330
5
100
AcDbSymbolTableRecord
100
AcDbLinetypeTableRecord
  2
ByLayer
 70
     0
  3

 72
    65
 73
     0
 40
0.0
  0
LTYPE
  5
5D
330
5
100
AcDbSymbolTableRecord
100
AcDbLinetypeTableRecord
  2
Continuous
 70
     0
  3
Solid line
 72
    65
 73
     0
 40
0.0
  0
LTYPE
  5
81
330
5
100
AcDbSymbolTableRecord
100
AcDbLinetypeTableRecord
  2
HIDDEN
 70
     0
  3
Hidden __ __ __ __ __ __ __ __ __ __ __ __ __ _
 72
    65
 73
     2
 40
9.524999999999998
 49
6.349999999999999
 74
     0
 49
-3.174999999999999
 74
     0
  0
LTYPE
  5
82
330
5
100
AcDbSymbolTableRecord
100
AcDbLinetypeTableRecord
  2
PHANTOM2
 70
     0
  3
Phantom (.5x) ___ _ _ ___ _ _ ___ _ _ ___ _ _
 72
    65
 73
     6
 40
31.75
 49
15.875
 74
     0
 49
-3.174999999999999
 74
     0
 49
3.174999999999999
 74
     0
 49
-3.174999999999999
 74
     0
 49
3.174999999999999
 74
     0
 49
-3.174999999999999
 74
     0
  0
LTYPE
  5
83
330
5
100
AcDbSymbolTableRecord
100
AcDbLinetypeTableRecord
  2
CENTER
 70
     0
  3
Center ____ _ ____ _ ____ _ ____ _ ____ _ ____
 72
    65
 73
     4
 40
50.8
 49
31.75
 74
     0
 49
-6.349999999999999
 74
     0
 49
6.349999999999999
 74
     0
 49
-6.349999999999999
 74
     0
  0
LTYPE
  5
9C
330
5
100
AcDbSymbolTableRecord
100
AcDbLinetypeTableRecord
  2
AM_ISO02W050
 70
     0
  3
__ __ __ __ __ __ __ __ __ __ __ __ __ __ __
 72
    65
 73
     2
 40
7.5
 49
6.0
 74
     0
 49
-1.5
 74
     0
  0
LTYPE
  5
9D
330
5
100
AcDbSymbolTableRecord
100
AcDbLinetypeTableRecord
  2
AM_ISO08W050
 70
     0
  3
____ . ____ . ____ . ____ . ____ . ____ . ____
 72
    65
 73
     4
 40
18.0
 49
12.0
 74
     0
 49
-1.5
 74
     0
 49
3.0
 74
     0
 49
-1.5
 74
     0
  0
LTYPE
  5
9E
330
5
100
AcDbSymbolTableRecord
100
AcDbLinetypeTableRecord
  2
AM_ISO09W050
 70
     0
  3
_____ . . _____ . . _____ . . ____ .. ____
 72
    65
 73
     6
 40
22.5
 49
12.0
 74
     0
 49
-1.5
 74
     0
 49
3.0
 74
     0
 49
-1.5
 74
     0
 49
3.0
 74
     0
 49
-1.5
 74
     0
  0
LTYPE
  5
9F
330
5
100
AcDbSymbolTableRecord
100
AcDbLinetypeTableRecord
  2
Amconstr
 70
     0
  3
_______________________
 72
    65
 73
     2
 40
9999.0
 49
9999.0
 74
     0
 49
0.0
 74
     0
  0
LTYPE
  5
A0
330
5
100
AcDbSymbolTableRecord
100
AcDbLinetypeTableRecord
  2
AM_ISO08W050x2
 70
     0
  3
__ . __ . __ . __ . __ . __
 72
    65
 73
     4
 40
9.0
 49
6.0
 74
     0
 49
-0.75
 74
     0
 49
1.5
 74
     0
 49
-0.75
 74
     0
  0
LTYPE
  5
A1
330
5
100
AcDbSymbolTableRecord
100
AcDbLinetypeTableRecord
  2
AM_ISO02W050x2
 70
     0
  3
 _ _ _ _ _ _ _ _ _ _ _ _
 72
    65
 73
     2
 40
3.75
 49
3.0
 74
     0
 49
-0.75
 74
     0
  0
LTYPE
  5
A2
330
5
100
AcDbSymbolTableRecord
100
AcDbLinetypeTableRecord
  2
Amzigzag
 70
     0
  3
/\/-/\/-/\/-/\/-/\/-/\/
 72
    65
 73
     2
 40
11.0001
 49
0.0001
 74
     4
 75
   136
340
96
 46
0.04
 50
0.0
 44
0.0
 45
0.0
 49
-11.0
 74
     0
  0
LTYPE
  5
A3
330
5
100
AcDbSymbolTableRecord
100
AcDbLinetypeTableRecord
  2
ACJISWELD
 70
     0
  3
_ _ _ _ _
 72
    65
 73
     2
 40
2.0
 49
2.0
 74
     0
 49
-1.0
 74
     0
  0
LTYPE
  5
A4
330
5
100
AcDbSymbolTableRecord
100
AcDbLinetypeTableRecord
  2
ACJISTGL
 70
     0
  3
_ _ _ _ _
 72
    65
 73
     2
 40
3.0
 49
2.0
 74
     0
 49
-1.0
 74
     0
  0
LTYPE
  5
A5
330
5
100
AcDbSymbolTableRecord
100
AcDbLinetypeTableRecord
  2
ACJISTGB
 70
     0
  3
__ . . __ . .
 72
    65
 73
     6
 40
9.0
 49
4.0
 74
     0
 49
-1.0
 74
     0
 49
1.0
 74
     0
 49
-1.0
 74
     0
 49
1.0
 74
     0
 49
-1.0
 74
     0
  0
LTYPE
  5
A6
330
5
100
AcDbSymbolTableRecord
100
AcDbLinetypeTableRecord
  2
DASHDOT
 70
     0
  3
Dash dot __ . __ . __ . __ . __ . __ . __ . __
 72
    65
 73
     4
 40
25.4
 49
12.7
 74
     0
 49
-6.349999999999999
 74
     0
 49
0.0
 74
     0
 49
-6.349999999999999
 74
     0
  0
LTYPE
  5
A7
330
5
100
AcDbSymbolTableRecord
100
AcDbLinetypeTableRecord
  2
DASHED
 70
     0
  3
Dashed __ __ __ __ __ __ __ __ __ __ __ __ __ _
 72
    65
 73
     2
 40
19.05
 49
12.7
 74
     0
 49
-6.349999999999999
 74
     0
  0
LTYPE
  5
A8
330
5
100
AcDbSymbolTableRecord
100
AcDbLinetypeTableRecord
  2
PHANTOM
 70
     0
  3
Phantom ______  __  __  ______  __  __  ______
 72
    65
 73
     6
 40
63.5
 49
31.75
 74
     0
 49
-6.349999999999999
 74
     0
 49
6.349999999999999
 74
     0
 49
-6.349999999999999
 74
     0
 49
6.349999999999999
 74
     0
 49
-6.349999999999999
 74
     0
  0
LTYPE
  5
665
330
5
100
AcDbSymbolTableRecord
100
AcDbLinetypeTableRecord
  2
ACISOWELD
 70
     0
  3
_ _ _ _ _
 72
    65
 73
     2
 40
2.0
 49
2.0
 74
     0
 49
-1.0
 74
     0
  0
LTYPE
  5
666
330
5
100
AcDbSymbolTableRecord
100
AcDbLinetypeTableRecord
  2
ACISOTGL
 70
     0
  3
_ _ _ _ _
 72
    65
 73
     2
 40
3.0
 49
2.0
 74
     0
 49
-1.0
 74
     0
  0
LTYPE
  5
667
330
5
100
AcDbSymbolTableRecord
100
AcDbLinetypeTableRecord
  2
ACISOTGB
 70
     0
  3
__ . . __ . .
 72
    65
 73
     6
 40
9.0
 49
4.0
 74
     0
 49
-1.0
 74
     0
 49
1.0
 74
     0
 49
-1.0
 74
     0
 49
1.0
 74
     0
 49
-1.0
 74
     0
  0
ENDTAB
  0
TABLE
  2
LAYER
  5
2
330
0
100
AcDbSymbolTable
 70
    12
  0
LAYER
  5
54
330
2
100
AcDbSymbolTableRecord
100
AcDbLayerTableRecord
  2
0
 70
     0
 62
     7
  6
Continuous
370
    -3
390
F
1001
AcAecLayerStandard
1000

1000

  0
LAYER
  5
79
330
2
100
AcDbSymbolTableRecord
100
AcDbLayerTableRecord
  2
Defpoints
 70
     0
 62
     7
  6
Continuous
290
     0
370
    -3
390
F
1001
AcAecLayerStandard
1000

1000

  0
LAYER
  5
C3
102
{ACAD_XDICTIONARY
360
C4
102
}
330
2
100
AcDbSymbolTableRecord
100
AcDbLayerTableRecord
  2
AM_VIEWS
 70
     0
 62
    -1
  6
Continuous
290
     0
370
    13
390
F
1001
AcAecLayerStandard
1000

1000

  0
LAYER
  5
C7
102
{ACAD_XDICTIONARY
360
C8
102
}
330
2
100
AcDbSymbolTableRecord
100
AcDbLayerTableRecord
  2
DETAIL
 70
     0
 62
     5
  6
Continuous
370
    -3
390
F
  0
LAYER
  5
19A
102
{ACAD_XDICTIONARY
360
19B
102
}
330
2
100
AcDbSymbolTableRecord
100
AcDbLayerTableRecord
  2
SERVICESPACE
 70
     0
 62
     2
  6
DASHDOT
370
    -3
390
F
  0
LAYER
  5
1A3
102
{ACAD_XDICTIONARY
360
1A4
102
}
330
2
100
AcDbSymbolTableRecord
100
AcDbLayerTableRecord
  2
NOTE
 70
     0
 62
     4
  6
Continuous
370
    -3
390
F
  0
LAYER
  5
1AD
102
{ACAD_XDICTIONARY
360
1AE
102
}
330
2
100
AcDbSymbolTableRecord
100
AcDbLayerTableRecord
  2
BASIS
 70
     0
 62
     6
  6
DASHDOT
370
    -3
390
F
  0
LAYER
  5
1B7
102
{ACAD_XDICTIONARY
360
1B8
102
}
330
2
100
AcDbSymbolTableRecord
100
AcDbLayerTableRecord
  2
OUTLINE
 70
     0
 62
     3
  6
Continuous
370
    -3
390
F
  0
LAYER
  5
21C
102
{ACAD_XDICTIONARY
360
21D
102
}
330
2
100
AcDbSymbolTableRecord
100
AcDbLayerTableRecord
  2
ARRANGE
 70
     0
 62
     1
  6
Continuous
370
    -3
390
F
  0
LAYER
  5
223
102
{ACAD_XDICTIONARY
360
224
102
}
330
2
100
AcDbSymbolTableRecord
100
AcDbLayerTableRecord
  2
FIX
 70
     0
 62
    11
  6
Continuous
370
    -3
390
F
  0
LAYER
  5
245
102
{ACAD_XDICTIONARY
360
246
102
}
330
2
100
AcDbSymbolTableRecord
100
AcDbLayerTableRecord
  2
SIZE
 70
     0
 62
    30
  6
Continuous
370
    -3
390
F
  0
LAYER
  5
2E2
102
{ACAD_XDICTIONARY
360
2E3
102
}
330
2
100
AcDbSymbolTableRecord
100
AcDbLayerTableRecord
  2
ETC
 70
     0
 62
    61
  6
Continuous
370
    -3
390
F
  0
ENDTAB
  0
TABLE
  2
STYLE
  5
3
330
0
100
AcDbSymbolTable
 70
     9
  0
STYLE
  5
55
330
3
100
AcDbSymbolTableRecord
100
AcDbTextStyleTableRecord
  2
STANDARD
 70
     0
 40
0.0
 41
1.0
 50
0.0
 71
     0
 42
9.0
  3
exthalf2.shx
  4
extfont2.shx
  0
STYLE
  5
5A
330
3
100
AcDbSymbolTableRecord
100
AcDbTextStyleTableRecord
  2
Annotative
 70
     0
 40
0.0
 41
1.0
 50
0.0
 71
     0
 42
0.2
  3
txt
  4

1001
AcadAnnotative
1000
AnnotativeData
1002
{
1070
     1
1070
     1
1002
}
  0
STYLE
  5
96
330
3
100
AcDbSymbolTableRecord
100
AcDbTextStyleTableRecord
  2

 70
     1
 40
0.0
 41
1.0
 50
0.0
 71
     0
 42
2.5
  3
genltshp.shx
  4
extfont2.shx
  0
STYLE
  5
97
330
3
100
AcDbSymbolTableRecord
100
AcDbTextStyleTableRecord
  2
ACJISGDT
 70
     0
 40
0.0
 41
1.0
 50
0.0
 71
     0
 42
2.5
  3
amgdt.shx
  4
extfont2.shx
  0
STYLE
  5
98
330
3
100
AcDbSymbolTableRecord
100
AcDbTextStyleTableRecord
  2
STANDARD_MODELNAME
 70
     0
 40
80.0
 41
0.8
 50
0.0
 71
     0
 42
64.0
  3
MONOTXT.shx
  4
BIGFONT.shx
  0
STYLE
  5
99
330
3
100
AcDbSymbolTableRecord
100
AcDbTextStyleTableRecord
  2
KAIGAI_STANDARD_1
 70
     0
 40
53.0
 41
0.51
 50
0.0
 71
     0
 42
53.0
  3
MONOTXT.shx
  4
BIGFONT.shx
  0
STYLE
  5
9A
330
3
100
AcDbSymbolTableRecord
100
AcDbTextStyleTableRecord
  2
AUDIT_D_191004085756-470174
 70
     0
 40
0.0
 41
1.0
 50
0.0
 71
     0
 42
0.0
  3
exthalf2
  4
ExtFont2
  0
STYLE
  5
663
330
3
100
AcDbSymbolTableRecord
100
AcDbTextStyleTableRecord
  2
ACISOTS
 70
     0
 40
0.0
 41
1.0
 50
0.0
 71
     0
 42
0.2
  3
isocp.shx
  4

  0
STYLE
  5
664
330
3
100
AcDbSymbolTableRecord
100
AcDbTextStyleTableRecord
  2
ACISOGDT
 70
     0
 40
0.0
 41
1.0
 50
0.0
 71
     0
 42
0.2
  3
amgdt.shx
  4

  0
ENDTAB
  0
TABLE
  2
VIEW
  5
6
330
0
100
AcDbSymbolTable
 70
     0
  0
ENDTAB
  0
TABLE
  2
UCS
  5
7
330
0
100
AcDbSymbolTable
 70
     0
  0
ENDTAB
  0
TABLE
  2
APPID
  5
9
330
0
100
AcDbSymbolTable
 70
    31
  0
APPID
  5
56
330
9
100
AcDbSymbolTableRecord
100
AcDbRegAppTableRecord
  2
ACAD
 70
     0
  0
APPID
  5
5E
330
9
100
AcDbSymbolTableRecord
100
AcDbRegAppTableRecord
  2
AcadAnnotative
 70
     0
  0
APPID
  5
78
330
9
100
AcDbSymbolTableRecord
100
AcDbRegAppTableRecord
  2
ACAD_PSEXT
 70
     0
  0
APPID
  5
7A
330
9
100
AcDbSymbolTableRecord
100
AcDbRegAppTableRecord
  2
MCAD_NO_VIS
 70
     0
  0
APPID
  5
7B
330
9
100
AcDbSymbolTableRecord
100
AcDbRegAppTableRecord
  2
ACAD_TEMP_GRAPHIC
 70
     0
  0
APPID
  5
84
330
9
100
AcDbSymbolTableRecord
100
AcDbRegAppTableRecord
  2
ACAD_DSTYLE_DIMJAG
 70
     0
  0
APPID
  5
85
330
9
100
AcDbSymbolTableRecord
100
AcDbRegAppTableRecord
  2
ACAD_DSTYLE_DIMTALN
 70
     0
  0
APPID
  5
86
330
9
100
AcDbSymbolTableRecord
100
AcDbRegAppTableRecord
  2
ACAD_NAV_VCDISPLAY
 70
     0
  0
APPID
  5
87
330
9
100
AcDbSymbolTableRecord
100
AcDbRegAppTableRecord
  2
ACAD_DSTYLE_DIMBREAK
 70
     0
  0
APPID
  5
88
330
9
100
AcDbSymbolTableRecord
100
AcDbRegAppTableRecord
  2
AcAecLayerStandard
 70
     0
  0
APPID
  5
89
330
9
100
AcDbSymbolTableRecord
100
AcDbRegAppTableRecord
  2
GENIUS_GENODEF_13
 70
     0
  0
APPID
  5
8A
330
9
100
AcDbSymbolTableRecord
100
AcDbRegAppTableRecord
  2
GENIUS_GENSCREG_15
 70
     0
  0
APPID
  5
8B
330
9
100
AcDbSymbolTableRecord
100
AcDbRegAppTableRecord
  2
GENIUS_GENOBJ-N-SDF_13
 70
     0
  0
APPID
  5
8C
330
9
100
AcDbSymbolTableRecord
100
AcDbRegAppTableRecord
  2
ACAD_DSTYLE_DIMINSPECT
 70
     0
  0
APPID
  5
8D
330
9
100
AcDbSymbolTableRecord
100
AcDbRegAppTableRecord
  2
GENIUS_GENOBJ-N-CEN_13
 70
     0
  0
APPID
  5
8E
330
9
100
AcDbSymbolTableRecord
100
AcDbRegAppTableRecord
  2
GENIUS_GENCEN_19
 70
     0
  0
APPID
  5
8F
330
9
100
AcDbSymbolTableRecord
100
AcDbRegAppTableRecord
  2
ACAD_DIMASSOC_CALC_DIMLFAC
 70
     0
  0
APPID
  5
90
330
9
100
AcDbSymbolTableRecord
100
AcDbRegAppTableRecord
  2
ACAD_DIMASSOC_DIMLFAC
 70
     0
  0
APPID
  5
91
330
9
100
AcDbSymbolTableRecord
100
AcDbRegAppTableRecord
  2
ACAD_DIMASSOC_OVERRIDDEN_DIMLFAC
 70
     0
  0
APPID
  5
92
330
9
100
AcDbSymbolTableRecord
100
AcDbRegAppTableRecord
  2
GradientColor1ACI
 70
     0
  0
APPID
  5
93
330
9
100
AcDbSymbolTableRecord
100
AcDbRegAppTableRecord
  2
GradientColor2ACI
 70
     0
  0
APPID
  5
94
330
9
100
AcDbSymbolTableRecord
100
AcDbRegAppTableRecord
  2
ACAD_DSTYLE_DIMRADIAL_EXTENSION
 70
     0
  0
APPID
  5
95
330
9
100
AcDbSymbolTableRecord
100
AcDbRegAppTableRecord
  2
ACATTRIBSERVICES
 70
     0
  0
APPID
  5
601
330
9
100
AcDbSymbolTableRecord
100
AcDbRegAppTableRecord
  2
DCO15
 70
     0
  0
APPID
  5
63B
330
9
100
AcDbSymbolTableRecord
100
AcDbRegAppTableRecord
  2
DESIGNERASSEMBLIES
 70
     0
  0
APPID
  5
6CB
330
9
100
AcDbSymbolTableRecord
100
AcDbRegAppTableRecord
  2
ACAD_MLEADERVER
 70
     0
  0
APPID
  5
6D8
330
9
100
AcDbSymbolTableRecord
100
AcDbRegAppTableRecord
  2
ACAD_DSTYLE_DIMARC_LENGTH_SYMBOL
 70
     0
  0
APPID
  5
6D9
330
9
100
AcDbSymbolTableRecord
100
AcDbRegAppTableRecord
  2
ACAD_DSTYLE_DIM_LINETYPE
 70
     0
  0
APPID
  5
6DA
330
9
100
AcDbSymbolTableRecord
100
AcDbRegAppTableRecord
  2
ACAD_DSTYLE_DIM_EXT1_LINETYPE
 70
     0
  0
APPID
  5
6DB
330
9
100
AcDbSymbolTableRecord
100
AcDbRegAppTableRecord
  2
ACAD_DSTYLE_DIM_EXT2_LINETYPE
 70
     0
  0
APPID
  5
6DD
330
9
100
AcDbSymbolTableRecord
100
AcDbRegAppTableRecord
  2
ACAD_DSTYLE_DIMFLIPARROW_WHICH_SYMBOL
 70
     0
  0
ENDTAB
  0
TABLE
  2
DIMSTYLE
  5
A
330
0
100
AcDbSymbolTable
 70
    19
100
AcDbDimStyleTable
 71
     1
340
AC
  0
DIMSTYLE
105
58
330
A
100
AcDbSymbolTableRecord
100
AcDbDimStyleTableRecord
  2
Standard
 70
     0
340
55
  0
DIMSTYLE
105
59
330
A
100
AcDbSymbolTableRecord
100
AcDbDimStyleTableRecord
  2
Annotative
 70
     0
 40
0.0
 41
2.5
 42
0.625
 43
3.75
 44
1.25
 73
     0
 74
     0
 77
     1
 78
     8
140
2.5
141
2.5
143
0.03937007874016
147
0.625
171
     3
172
     1
271
     2
272
     2
274
     3
278
    44
283
     0
284
     8
340
55
1001
AcadAnnotative
1000
AnnotativeData
1002
{
1070
     1
1070
     1
1002
}
  0
DIMSTYLE
105
AA
330
A
100
AcDbSymbolTableRecord
100
AcDbDimStyleTableRecord
  2
ISO-25
 70
     0
 41
2.5
 42
0.625
 43
3.75
 44
1.25
 73
     0
 74
     0
 77
     1
 78
     8
140
2.5
141
2.5
143
0.03937007874016
147
0.625
171
     3
172
     1
271
     2
272
     2
274
     3
278
    44
283
     0
284
     8
340
55
  0
DIMSTYLE
105
AB
330
A
100
AcDbSymbolTableRecord
100
AcDbDimStyleTableRecord
  2
AM_JIS
 70
     0
  4
"
 41
6.0
 42
1.0
 43
10.0
 44
1.0
 47
0.1
 48
0.1
 73
     0
 74
     0
 77
     3
 78
     8
 79
     2
140
9.0
141
0.0
143
0.0393701
146
0.71
147
1.5
172
     1
176
   256
177
   256
178
     2
271
     2
272
     2
283
     0
284
     8
340
55
371
    -1
372
    -1
1001
ACAD_DSTYLE_DIMBREAK
1070
   391
1040
3.75
1001
ACAD_DSTYLE_DIMJAG
1070
   388
1040
1.5
1001
ACAD_DSTYLE_DIMTALN
1070
   392
1070
     0
1001
ACAD_DSTYLE_DIMARC_LENGTH_SYMBOL
1070
   379
1070
     1
1001
ACAD_DSTYLE_DIM_LINETYPE
1070
   380
1005
5B
1001
ACAD_DSTYLE_DIM_EXT1_LINETYPE
1070
   381
1005
5B
1001
ACAD_DSTYLE_DIM_EXT2_LINETYPE
1070
   382
1005
5B
  0
DIMSTYLE
105
AC
330
A
100
AcDbSymbolTableRecord
100
AcDbDimStyleTableRecord
  2
JIS2
 70
     0
  4
"
 41
1.8
 42
1.0
 43
10.0
 44
1.0
 47
0.1
 48
0.1
 73
     0
 74
     0
 77
     3
 78
     8
 79
     2
140
3.5
141
0.0
143
0.0393701
146
0.71
147
0.5
172
     1
176
   256
177
   256
178
     2
271
     2
272
     2
283
     0
284
     8
340
55
341
AD
342
AD
371
    -1
372
    -1
1001
ACAD_DSTYLE_DIMBREAK
1070
   391
1040
3.75
1001
ACAD_DSTYLE_DIMJAG
1070
   388
1040
1.5
1001
ACAD_DSTYLE_DIMTALN
1070
   392
1070
     0
1001
ACAD_DSTYLE_DIMARC_LENGTH_SYMBOL
1070
   379
1070
     1
1001
ACAD_DSTYLE_DIM_LINETYPE
1070
   380
1005
5B
1001
ACAD_DSTYLE_DIM_EXT1_LINETYPE
1070
   381
1005
5B
1001
ACAD_DSTYLE_DIM_EXT2_LINETYPE
1070
   382
1005
5B
  0
DIMSTYLE
105
B3
330
A
100
AcDbSymbolTableRecord
100
AcDbDimStyleTableRecord
  2
JIS2$3
 70
     0
  4
"
 41
1.8
 42
1.0
 43
10.0
 44
1.0
 47
0.1
 48
0.1
 73
     0
 74
     0
 77
     3
 78
     8
 79
     2
140
3.5
141
0.0
143
0.0393701
146
0.71
147
0.5
172
     1
176
   256
177
   256
178
     2
271
     2
272
     2
283
     0
284
     8
288
     1
289
     2
340
55
341
AD
342
AD
371
    -1
372
    -1
1001
ACAD_DSTYLE_DIMBREAK
1070
   391
1040
3.75
1001
ACAD_DSTYLE_DIMJAG
1070
   388
1040
1.5
1001
ACAD_DSTYLE_DIMTALN
1070
   392
1070
     0
1001
ACAD_DSTYLE_DIMARC_LENGTH_SYMBOL
1070
   379
1070
     1
1001
ACAD_DSTYLE_DIM_LINETYPE
1070
   380
1005
5B
1001
ACAD_DSTYLE_DIM_EXT1_LINETYPE
1070
   381
1005
5B
1001
ACAD_DSTYLE_DIM_EXT2_LINETYPE
1070
   382
1005
5B
  0
DIMSTYLE
105
B4
330
A
100
AcDbSymbolTableRecord
100
AcDbDimStyleTableRecord
  2
JIS2$4
 70
     0
  4
"
 41
1.8
 42
1.0
 43
10.0
 44
1.0
 47
0.1
 48
0.1
 73
     0
 74
     0
 77
     3
 78
     8
 79
     2
140
3.5
141
0.0
143
0.0393701
146
0.71
147
0.5
172
     1
176
   256
177
   256
178
     2
271
     2
272
     2
283
     0
284
     8
289
     2
340
55
341
AD
342
AD
371
    -1
372
    -1
1001
ACAD_DSTYLE_DIMBREAK
1070
   391
1040
3.75
1001
ACAD_DSTYLE_DIMJAG
1070
   388
1040
1.5
1001
ACAD_DSTYLE_DIMTALN
1070
   392
1070
     0
1001
ACAD_DSTYLE_DIMARC_LENGTH_SYMBOL
1070
   379
1070
     1
1001
ACAD_DSTYLE_DIM_LINETYPE
1070
   380
1005
5B
1001
ACAD_DSTYLE_DIM_EXT1_LINETYPE
1070
   381
1005
5B
1001
ACAD_DSTYLE_DIM_EXT2_LINETYPE
1070
   382
1005
5B
  0
DIMSTYLE
105
B5
330
A
100
AcDbSymbolTableRecord
100
AcDbDimStyleTableRecord
  2
JIS2$6
 70
     0
  4
"
 41
1.8
 42
1.0
 43
10.0
 44
1.0
 47
0.1
 48
0.1
 73
     0
 74
     0
 78
     8
 79
     2
140
3.5
141
0.0
143
0.0393701
146
0.71
147
0.5
172
     1
176
   256
177
   256
178
     2
271
     2
272
     2
283
     0
284
     8
340
55
341
AD
342
AD
371
    -1
372
    -1
1001
ACAD_DSTYLE_DIMBREAK
1070
   391
1040
3.75
1001
ACAD_DSTYLE_DIMJAG
1070
   388
1040
1.5
1001
ACAD_DSTYLE_DIMTALN
1070
   392
1070
     0
1001
ACAD_DSTYLE_DIMARC_LENGTH_SYMBOL
1070
   379
1070
     1
1001
ACAD_DSTYLE_DIM_LINETYPE
1070
   380
1005
5B
1001
ACAD_DSTYLE_DIM_EXT1_LINETYPE
1070
   381
1005
5B
1001
ACAD_DSTYLE_DIM_EXT2_LINETYPE
1070
   382
1005
5B
  0
DIMSTYLE
105
B6
330
A
100
AcDbSymbolTableRecord
100
AcDbDimStyleTableRecord
  2
JIS2$7
 70
     0
  4
"
 41
1.8
 42
1.0
 43
10.0
 44
1.0
 47
0.1
 48
0.1
 73
     0
 74
     0
 77
     3
 78
     8
 79
     2
140
3.5
141
0.0
143
0.0393701
146
0.71
147
0.5
172
     1
176
   256
177
   256
178
     2
271
     2
272
     2
283
     0
284
     8
340
55
341
AD
342
AD
371
    -1
372
    -1
1001
ACAD_DSTYLE_DIMBREAK
1070
   391
1040
3.75
1001
ACAD_DSTYLE_DIMJAG
1070
   388
1040
1.5
1001
ACAD_DSTYLE_DIMTALN
1070
   392
1070
     0
1001
ACAD_DSTYLE_DIMARC_LENGTH_SYMBOL
1070
   379
1070
     1
1001
ACAD_DSTYLE_DIM_LINETYPE
1070
   380
1005
5B
1001
ACAD_DSTYLE_DIM_EXT1_LINETYPE
1070
   381
1005
5B
1001
ACAD_DSTYLE_DIM_EXT2_LINETYPE
1070
   382
1005
5B
  0
DIMSTYLE
105
B7
330
A
100
AcDbSymbolTableRecord
100
AcDbDimStyleTableRecord
  2
JIS2$SF
 70
     0
  4
"
 41
1.8
 42
1.0
 43
10.0
 44
1.0
 47
0.1
 48
0.1
 73
     0
 74
     0
 75
     1
 76
     1
 77
     3
 78
     8
 79
     2
140
3.5
141
0.0
143
0.0393701
146
0.71
147
0.5
172
     1
176
   256
177
   256
178
     2
271
     2
272
     2
283
     0
284
     8
340
55
341
AD
342
AD
371
    -1
372
    -1
1001
ACAD_DSTYLE_DIMBREAK
1070
   391
1040
3.75
1001
ACAD_DSTYLE_DIMJAG
1070
   388
1040
1.5
1001
ACAD_DSTYLE_DIMTALN
1070
   392
1070
     0
1001
ACAD_DSTYLE_DIMARC_LENGTH_SYMBOL
1070
   379
1070
     1
1001
ACAD_DSTYLE_DIM_LINETYPE
1070
   380
1005
5B
1001
ACAD_DSTYLE_DIM_EXT1_LINETYPE
1070
   381
1005
5B
1001
ACAD_DSTYLE_DIM_EXT2_LINETYPE
1070
   382
1005
5B
  0
DIMSTYLE
105
B8
330
A
100
AcDbSymbolTableRecord
100
AcDbDimStyleTableRecord
  2
JIS2$SH
 70
     0
  4
"
 41
1.8
 42
1.0
 43
10.0
 44
1.0
 47
0.1
 48
0.1
 73
     0
 74
     0
 75
     1
 76
     1
 77
     3
 78
     8
 79
     2
140
3.5
141
0.0
143
0.0393701
144
2.0
146
0.71
147
0.5
172
     1
173
     1
176
   256
177
   256
178
     2
271
     2
272
     2
283
     0
284
     8
340
55
341
AD
342
AD
343
B9
371
    -1
372
    -1
1001
ACAD_DSTYLE_DIMBREAK
1070
   391
1040
3.75
1001
ACAD_DSTYLE_DIMJAG
1070
   388
1040
1.5
1001
ACAD_DSTYLE_DIMTALN
1070
   392
1070
     0
1001
ACAD_DSTYLE_DIMARC_LENGTH_SYMBOL
1070
   379
1070
     1
1001
ACAD_DSTYLE_DIM_LINETYPE
1070
   380
1005
5B
1001
ACAD_DSTYLE_DIM_EXT1_LINETYPE
1070
   381
1005
5B
1001
ACAD_DSTYLE_DIM_EXT2_LINETYPE
1070
   382
1005
5B
  0
DIMSTYLE
105
BD
102
{ACAD_REACTORS
330
32F
330
2B1
330
2BF
330
2CB
330
2E4
330
2F2
330
302
330
311
330
320
330
244
330
257
330
263
330
26F
330
27F
330
28B
102
}
330
A
100
AcDbSymbolTableRecord
100
AcDbDimStyleTableRecord
  2
JIS2$0
 70
     0
  4
"
 41
1.8
 42
1.0
 43
10.0
 44
1.0
 47
0.1
 48
0.1
 73
     0
 74
     0
 77
     3
 78
     8
 79
     2
140
3.5
141
0.0
143
0.0393701
146
0.71
147
1.5
172
     1
176
   256
177
   256
178
     2
271
     2
272
     2
283
     0
284
     8
340
55
341
AD
342
AD
371
    -1
372
    -1
1001
ACAD_DSTYLE_DIMBREAK
1070
   391
1040
3.75
1001
ACAD_DSTYLE_DIMJAG
1070
   388
1040
1.5
1001
ACAD_DSTYLE_DIMARC_LENGTH_SYMBOL
1070
   379
1070
     1
1001
ACAD_DSTYLE_DIM_LINETYPE
1070
   380
1005
5B
1001
ACAD_DSTYLE_DIM_EXT1_LINETYPE
1070
   381
1005
5B
1001
ACAD_DSTYLE_DIM_EXT2_LINETYPE
1070
   382
1005
5B
  0
DIMSTYLE
105
656
102
{ACAD_REACTORS
330
644
102
}
330
A
100
AcDbSymbolTableRecord
100
AcDbDimStyleTableRecord
  2
AM_ISO
 70
     0
  4
"
 41
3.5
 42
1.0
 43
10.0
 44
1.0
 47
0.1
 48
0.1
 73
     0
 74
     0
 77
     1
 78
     8
 79
     2
140
3.5
141
0.0
143
0.0393701
146
0.71
147
1.5
172
     1
176
   256
177
   256
178
     2
271
     2
272
     3
274
     4
283
     0
284
     8
340
55
371
    -1
372
    -1
1001
ACAD_DSTYLE_DIMJAG
1070
   388
1040
1.5
1001
ACAD_DSTYLE_DIMBREAK
1070
   391
1040
3.75
1001
ACAD_DSTYLE_DIMARC_LENGTH_SYMBOL
1070
   379
1070
     1
1001
ACAD_DSTYLE_DIM_LINETYPE
1070
   380
1005
5B
1001
ACAD_DSTYLE_DIM_EXT1_LINETYPE
1070
   381
1005
5B
1001
ACAD_DSTYLE_DIM_EXT2_LINETYPE
1070
   382
1005
5B
  0
DIMSTYLE
105
658
330
A
100
AcDbSymbolTableRecord
100
AcDbDimStyleTableRecord
  2
AM_ISO$3
 70
     0
  4
"
 41
3.5
 42
1.0
 43
10.0
 44
1.0
 47
0.1
 48
0.1
 73
     0
 77
     1
 78
     8
 79
     2
140
3.5
141
0.0
143
0.0393701
146
0.71
147
1.5
176
   256
177
   256
178
     2
271
     2
272
     3
274
     4
283
     0
284
     8
288
     1
289
     0
340
55
371
    -1
372
    -1
1001
ACAD_DSTYLE_DIMBREAK
1070
   391
1040
3.75
1001
ACAD_DSTYLE_DIMJAG
1070
   388
1040
1.5
1001
ACAD_DSTYLE_DIMARC_LENGTH_SYMBOL
1070
   379
1070
     1
1001
ACAD_DSTYLE_DIM_LINETYPE
1070
   380
1005
5B
1001
ACAD_DSTYLE_DIM_EXT1_LINETYPE
1070
   381
1005
5B
1001
ACAD_DSTYLE_DIM_EXT2_LINETYPE
1070
   382
1005
5B
  0
DIMSTYLE
105
659
330
A
100
AcDbSymbolTableRecord
100
AcDbDimStyleTableRecord
  2
AM_ISO$4
 70
     0
  4
"
 41
3.5
 42
1.0
 43
10.0
 44
1.0
 47
0.1
 48
0.1
 73
     0
 77
     1
 78
     8
 79
     2
140
3.5
141
0.0
143
0.0393701
146
0.71
147
1.5
176
   256
177
   256
178
     2
271
     2
272
     3
274
     4
283
     0
284
     8
288
     1
289
     0
340
55
371
    -1
372
    -1
1001
ACAD_DSTYLE_DIMBREAK
1070
   391
1040
3.75
1001
ACAD_DSTYLE_DIMJAG
1070
   388
1040
1.5
1001
ACAD_DSTYLE_DIMARC_LENGTH_SYMBOL
1070
   379
1070
     1
1001
ACAD_DSTYLE_DIM_LINETYPE
1070
   380
1005
5B
1001
ACAD_DSTYLE_DIM_EXT1_LINETYPE
1070
   381
1005
5B
1001
ACAD_DSTYLE_DIM_EXT2_LINETYPE
1070
   382
1005
5B
  0
DIMSTYLE
105
65A
330
A
100
AcDbSymbolTableRecord
100
AcDbDimStyleTableRecord
  2
AM_ISO$6
 70
     0
  4
"
 41
3.5
 42
1.0
 43
10.0
 44
1.0
 47
0.1
 48
0.1
 73
     0
 74
     0
 78
     8
 79
     2
140
3.5
141
0.0
143
0.0393701
146
0.71
147
1.5
172
     1
176
   256
177
   256
178
     2
271
     2
272
     3
274
     4
283
     0
284
     8
340
55
371
    -1
372
    -1
1001
ACAD_DSTYLE_DIMBREAK
1070
   391
1040
3.75
1001
ACAD_DSTYLE_DIMJAG
1070
   388
1040
1.5
1001
ACAD_DSTYLE_DIMARC_LENGTH_SYMBOL
1070
   379
1070
     1
1001
ACAD_DSTYLE_DIM_LINETYPE
1070
   380
1005
5B
1001
ACAD_DSTYLE_DIM_EXT1_LINETYPE
1070
   381
1005
5B
1001
ACAD_DSTYLE_DIM_EXT2_LINETYPE
1070
   382
1005
5B
  0
DIMSTYLE
105
65B
330
A
100
AcDbSymbolTableRecord
100
AcDbDimStyleTableRecord
  2
AM_ISO$7
 70
     0
  4
"
 41
3.5
 42
1.0
 43
10.0
 44
1.0
 47
0.1
 48
0.1
 73
     0
 74
     0
 77
     1
 78
     8
 79
     2
140
3.5
141
0.0
143
0.0393701
146
0.71
147
1.5
172
     1
176
   256
177
   256
178
     2
271
     2
272
     3
274
     4
283
     0
284
     8
340
55
371
    -1
372
    -1
1001
ACAD_DSTYLE_DIMBREAK
1070
   391
1040
3.75
1001
ACAD_DSTYLE_DIMJAG
1070
   388
1040
1.5
1001
ACAD_DSTYLE_DIMARC_LENGTH_SYMBOL
1070
   379
1070
     1
1001
ACAD_DSTYLE_DIM_LINETYPE
1070
   380
1005
5B
1001
ACAD_DSTYLE_DIM_EXT1_LINETYPE
1070
   381
1005
5B
1001
ACAD_DSTYLE_DIM_EXT2_LINETYPE
1070
   382
1005
5B
  0
DIMSTYLE
105
65C
330
A
100
AcDbSymbolTableRecord
100
AcDbDimStyleTableRecord
  2
AM_ISO$SF
 70
     0
  4
"
 41
3.5
 42
1.0
 43
10.0
 44
1.0
 47
0.1
 48
0.1
 73
     0
 74
     0
 75
     1
 76
     1
 77
     1
 78
     8
 79
     2
140
3.5
141
0.0
143
0.0393701
146
0.71
147
1.5
172
     1
176
   256
177
   256
178
     2
271
     2
272
     3
274
     4
283
     0
284
     8
340
55
371
    -1
372
    -1
1001
ACAD_DSTYLE_DIMBREAK
1070
   391
1040
3.75
1001
ACAD_DSTYLE_DIMJAG
1070
   388
1040
1.5
1001
ACAD_DSTYLE_DIMARC_LENGTH_SYMBOL
1070
   379
1070
     1
1001
ACAD_DSTYLE_DIM_LINETYPE
1070
   380
1005
5B
1001
ACAD_DSTYLE_DIM_EXT1_LINETYPE
1070
   381
1005
5B
1001
ACAD_DSTYLE_DIM_EXT2_LINETYPE
1070
   382
1005
5B
  0
DIMSTYLE
105
65D
330
A
100
AcDbSymbolTableRecord
100
AcDbDimStyleTableRecord
  2
AM_ISO$SH
 70
     0
  4
"
 41
3.5
 42
1.0
 43
10.0
 44
1.0
 47
0.1
 48
0.1
 73
     0
 74
     0
 75
     1
 76
     1
 77
     1
 78
     8
 79
     2
140
3.5
141
0.0
143
0.0393701
144
2.0
146
0.71
147
1.5
172
     1
173
     1
176
   256
177
   256
178
     2
271
     2
272
     3
274
     4
283
     0
284
     8
340
55
343
B9
371
    -1
372
    -1
1001
ACAD_DSTYLE_DIMBREAK
1070
   391
1040
3.75
1001
ACAD_DSTYLE_DIMJAG
1070
   388
1040
1.5
1001
ACAD_DSTYLE_DIMARC_LENGTH_SYMBOL
1070
   379
1070
     1
1001
ACAD_DSTYLE_DIM_LINETYPE
1070
   380
1005
5B
1001
ACAD_DSTYLE_DIM_EXT1_LINETYPE
1070
   381
1005
5B
1001
ACAD_DSTYLE_DIM_EXT2_LINETYPE
1070
   382
1005
5B
  0
ENDTAB
  0
TABLE
  2
BLOCK_RECORD
  5
1
330
0
100
AcDbSymbolTable
 70
    36
  0
BLOCK_RECORD
  5
70
102
{ACAD_XDICTIONARY
360
239
102
}
330
1
100
AcDbSymbolTableRecord
100
AcDbBlockTableRecord
  2
*Model_Space
340
73
  0
BLOCK_RECORD
  5
6C
330
1
100
AcDbSymbolTableRecord
100
AcDbBlockTableRecord
  2
*Paper_Space
340
6F
  0
BLOCK_RECORD
  5
74
330
1
100
AcDbSymbolTableRecord
100
AcDbBlockTableRecord
  2
*Paper_Space0
340
77
  0
BLOCK_RECORD
  5
AD
330
1
100
AcDbSymbolTableRecord
100
AcDbBlockTableRecord
  2
_Open30
340
0
102
{BLKREFS
331
5AF
331
5B0
102
}
  0
BLOCK_RECORD
  5
B9
330
1
100
AcDbSymbolTableRecord
100
AcDbBlockTableRecord
  2
GENAXEH
340
0
  0
BLOCK_RECORD
  5
24D
330
1
100
AcDbSymbolTableRecord
100
AcDbBlockTableRecord
  2
_DotBlank
340
0
102
{BLKREFS
331
6E1
331
6E4
331
583
331
584
331
58B
331
58C
331
593
331
594
331
5A7
331
5A8
331
5B9
331
5BA
331
5C1
331
5C2
331
5C9
331
5CA
331
5D1
331
5D2
331
5D9
331
5DA
331
5E1
331
5E2
331
5E9
331
5EA
331
5F1
331
5F2
331
5FA
331
5FB
102
}
  0
BLOCK_RECORD
  5
341
330
1
100
AcDbSymbolTableRecord
100
AcDbBlockTableRecord
  2
CustomObjectsInViewport1_0
340
0
102
{BLKREFS
331
33F
102
}
  0
BLOCK_RECORD
  5
357
330
1
100
AcDbSymbolTableRecord
100
AcDbBlockTableRecord
  2
*D20
340
0
  0
BLOCK_RECORD
  5
362
330
1
100
AcDbSymbolTableRecord
100
AcDbBlockTableRecord
  2
*D21
340
0
  0
BLOCK_RECORD
  5
36D
330
1
100
AcDbSymbolTableRecord
100
AcDbBlockTableRecord
  2
*D22
340
0
  0
BLOCK_RECORD
  5
378
330
1
100
AcDbSymbolTableRecord
100
AcDbBlockTableRecord
  2
*D23
340
0
  0
BLOCK_RECORD
  5
387
330
1
100
AcDbSymbolTableRecord
100
AcDbBlockTableRecord
  2
*D24
340
0
  0
BLOCK_RECORD
  5
392
330
1
100
AcDbSymbolTableRecord
100
AcDbBlockTableRecord
  2
*D25
340
0
  0
BLOCK_RECORD
  5
39D
330
1
100
AcDbSymbolTableRecord
100
AcDbBlockTableRecord
  2
*D26
340
0
  0
BLOCK_RECORD
  5
3AA
330
1
100
AcDbSymbolTableRecord
100
AcDbBlockTableRecord
  2
*D27
340
0
  0
BLOCK_RECORD
  5
3B5
330
1
100
AcDbSymbolTableRecord
100
AcDbBlockTableRecord
  2
*D28
340
0
  0
BLOCK_RECORD
  5
3C0
330
1
100
AcDbSymbolTableRecord
100
AcDbBlockTableRecord
  2
*D29
340
0
  0
BLOCK_RECORD
  5
3CB
330
1
100
AcDbSymbolTableRecord
100
AcDbBlockTableRecord
  2
*D30
340
0
  0
BLOCK_RECORD
  5
3D6
330
1
100
AcDbSymbolTableRecord
100
AcDbBlockTableRecord
  2
*D31
340
0
  0
BLOCK_RECORD
  5
3E1
330
1
100
AcDbSymbolTableRecord
100
AcDbBlockTableRecord
  2
*D32
340
0
  0
BLOCK_RECORD
  5
3EC
330
1
100
AcDbSymbolTableRecord
100
AcDbBlockTableRecord
  2
*D33
340
0
  0
BLOCK_RECORD
  5
3F7
330
1
100
AcDbSymbolTableRecord
100
AcDbBlockTableRecord
  2
*D34
340
0
  0
ENDTAB
  0
ENDSEC
  0
SECTION
  2
BLOCKS
  0
BLOCK
  5
71
330
70
100
AcDbEntity
  8
0
100
AcDbBlockBegin
  2
*Model_Space
 70
     0
 10
0.0
 20
0.0
 30
0.0
  3
*Model_Space
  1

  0
ENDBLK
  5
72
330
70
100
AcDbEntity
  8
0
100
AcDbBlockEnd
  0
BLOCK
  5
6D
330
6C
100
AcDbEntity
 67
     1
  8
0
100
AcDbBlockBegin
  2
*Paper_Space
 70
     0
 10
0.0
 20
0.0
 30
0.0
  3
*Paper_Space
  1

  0
ENDBLK
  5
6E
330
6C
100
AcDbEntity
 67
     1
  8
0
100
AcDbBlockEnd
  0
BLOCK
  5
75
330
74
100
AcDbEntity
 67
     1
  8
0
100
AcDbBlockBegin
  2
*Paper_Space0
 70
     0
 10
0.0
 20
0.0
 30
0.0
  3
*Paper_Space0
  1

  0
ENDBLK
  5
76
330
74
100
AcDbEntity
 67
     1
  8
0
100
AcDbBlockEnd
  0
BLOCK
  5
AE
330
AD
100
AcDbEntity
  8
0
100
AcDbBlockBegin
  2
_Open30
 70
     0
 10
0.0
 20
0.0
 30
0.0
  3
_Open30
  1

  0
LINE
  5
AF
330
AD
100
AcDbEntity
  8
0
  6
ByBlock
 62
     0
370
    -2
100
AcDbLine
 10
-1.0
 20
0.26794919
 30
0.0
 11
0.0
 21
0.0
 31
0.0
  0
LINE
  5
B0
330
AD
100
AcDbEntity
  8
0
  6
ByBlock
 62
     0
370
    -2
100
AcDbLine
 10
0.0
 20
0.0
 30
0.0
 11
-1.0
 21
-0.26794919
 31
0.0
  0
LINE
  5
B1
330
AD
100
AcDbEntity
  8
0
  6
ByBlock
 62
     0
370
    -2
100
AcDbLine
 10
0.0
 20
0.0
 30
0.0
 11
-1.0
 21
0.0
 31
0.0
  0
ENDBLK
  5
B2
330
AD
100
AcDbEntity
  8
0
100
AcDbBlockEnd
  0
BLOCK
  5
BA
330
B9
100
AcDbEntity
  8
0
100
AcDbBlockBegin
  2
GENAXEH
 70
     0
 10
0.0
 20
0.0
 30
0.0
  3
GENAXEH
  1

  0
LINE
  5
BB
330
B9
100
AcDbEntity
  8
0
100
AcDbLine
 10
-1.0
 20
0.0
 30
0.0
 11
1.0
 21
0.0
 31
0.0
  0
ENDBLK
  5
BC
330
B9
100
AcDbEntity
  8
0
100
AcDbBlockEnd
  0
BLOCK
  5
24E
330
24D
100
AcDbEntity
  8
0
100
AcDbBlockBegin
  2
_DotBlank
 70
     0
 10
0.0
 20
0.0
 30
0.0
  3
_DotBlank
  1

  0
CIRCLE
  5
24F
330
24D
100
AcDbEntity
  8
0
  6
ByBlock
 62
     0
370
    -2
100
AcDbCircle
 10
0.0
 20
0.0
 30
0.0
 40
0.5
  0
LINE
  5
250
330
24D
100
AcDbEntity
  8
0
  6
ByBlock
 62
     0
370
    -2
100
AcDbLine
 10
-0.5
 20
0.0
 30
0.0
 11
-1.0
 21
0.0
 31
0.0
  0
ENDBLK
  5
251
330
24D
100
AcDbEntity
  8
0
100
AcDbBlockEnd
  0
BLOCK
  5
342
330
341
100
AcDbEntity
  8
0
100
AcDbBlockBegin
  2
CustomObjectsInViewport1_0
 70
     0
 10
0.0
 20
0.0
 30
0.0
  3
CustomObjectsInViewport1_0
  1

  0
LINE
  5
343
330
341
100
AcDbEntity
  8
NOTE
100
AcDbLine
 10
-1140.995205060126
 20
-558.6004375629186
 30
0.0
 11
-618.3285383934599
 21
-558.6004375629186
 31
0.0
  0
LINE
  5
344
330
341
100
AcDbEntity
  8
NOTE
100
AcDbLine
 10
-618.3285383934599
 20
-558.6004375629186
 30
0.0
 11
-223.0132031558239
 21
-104.0302483157064
 31
0.0
  0
LWPOLYLINE
  5
345
330
341
100
AcDbEntity
  8
NOTE
  6
Continuous
100
AcDbPolyline
 90
        2
 70
   129
 43
18.0
 10
-208.389513454942
 20
-76.86554171106127
 42
1.0
 10
-190.389513454942
 20
-76.86554171106127
 42
1.0
  0
LINE
  5
346
330
341
100
AcDbEntity
  8
NOTE
  6
Continuous
100
AcDbLine
 10
-211.201358305383
 20
-90.44789501338382
 30
0.0
 11
-223.0132031558239
 21
-104.0302483157063
 31
0.0
  0
TEXT
  5
347
330
341
100
AcDbEntity
  8
NOTE
 62
     2
100
AcDbText
 10
-1140.995205060126
 20
-523.6004375629185
 30
0.0
 40
70.0
  1
Control box
100
AcDbText
  0
LINE
  5
348
330
341
100
AcDbEntity
  8
NOTE
100
AcDbLine
 10
-933.7096110061029
 20
1506.389908889618
 30
0.0
 11
126.5570556605635
 21
1506.389908889618
 31
0.0
  0
LINE
  5
349
330
341
100
AcDbEntity
  8
NOTE
100
AcDbLine
 10
126.5570556605635
 20
1506.389908889618
 30
0.0
 11
435.9682675352184
 21
1049.091412835732
 31
0.0
  0
LWPOLYLINE
  5
34A
330
341
100
AcDbEntity
  8
NOTE
  6
Continuous
100
AcDbPolyline
 90
        2
 70
   129
 43
18.0
 10
447.1421882842369
 20
1019.275093116284
 42
1.0
 10
465.1421882842369
 20
1019.275093116284
 42
1.0
  0
LINE
  5
34B
330
341
100
AcDbEntity
  8
NOTE
  6
Continuous
100
AcDbLine
 10
446.0552279097276
 20
1034.183252976008
 30
0.0
 11
435.9682675352184
 21
1049.091412835732
 31
0.0
  0
LINE
  5
34C
330
341
100
AcDbEntity
  8
NOTE
100
AcDbLine
 10
126.5570556605635
 20
1506.389908889618
 30
0.0
 11
445.9987716134097
 21
-17.89095021961498
 31
0.0
  0
LWPOLYLINE
  5
34D
330
341
100
AcDbEntity
  8
NOTE
  6
Continuous
100
AcDbPolyline
 90
        2
 70
   129
 43
18.0
 10
444.3828401050959
 20
-53.12552886772846
 42
1.0
 10
462.382840105096
 20
-53.12552886772846
 42
1.0
  0
LINE
  5
34E
330
341
100
AcDbEntity
  8
NOTE
  6
Continuous
100
AcDbLine
 10
449.6908058592528
 20
-35.50823954367177
 30
0.0
 11
445.9987716134097
 21
-17.89095021961508
 31
0.0
  0
TEXT
  5
34F
330
341
100
AcDbEntity
  8
NOTE
 62
     2
100
AcDbText
 10
-933.7096110061029
 20
1541.389908889618
 30
0.0
 40
70.0
  1
Alternative duct position
100
AcDbText
  0
LINE
  5
350
330
341
100
AcDbEntity
  8
NOTE
100
AcDbLine
 10
2505.473794293977
 20
1190.254842607151
 30
0.0
 11
812.4304609606442
 21
1190.254842607151
 31
0.0
  0
LINE
  5
351
330
341
100
AcDbEntity
  8
NOTE
100
AcDbLine
 10
812.4304609606442
 20
1190.254842607151
 30
0.0
 11
689.4273256345086
 21
1001.916349974259
 31
0.0
  0
LINE
  5
352
330
341
100
AcDbEntity
  8
NOTE
  6
Continuous
100
AcDbLine
 10
689.4273256345086
 20
1001.916349974259
 30
0.0
 11
669.7421882636663
 21
971.7750930878738
 31
0.0
  0
LINE
  5
353
330
341
100
AcDbEntity
  8
NOTE
  6
Continuous
100
AcDbLine
 10
681.3510002662198
 20
1007.190966587815
 30
0.0
 11
669.7421882636663
 21
971.7750930878738
 31
0.0
  0
LINE
  5
354
330
341
100
AcDbEntity
  8
NOTE
  6
Continuous
100
AcDbLine
 10
669.7421882636663
 20
971.7750930878738
 30
0.0
 11
697.5036510027974
 21
996.6417333607031
 31
0.0
  0
TEXT
  5
355
330
341
100
AcDbEntity
  8
NOTE
 62
     2
100
AcDbText
 10
882.4304609606443
 20
1225.254842607151
 30
0.0
 40
70.0
  1
Ceiling suspension fixture(4-13 × 20 oval)
 41
0.95
100
AcDbText
  0
ENDBLK
  5
356
330
341
100
AcDbEntity
  8
0
100
AcDbBlockEnd
  0
BLOCK
  5
358
330
357
100
AcDbEntity
  8
0
100
AcDbBlockBegin
  2
*D20
 70
     1
 10
0.0
 20
0.0
 30
0.0
  3
*D20
  1

  0
LINE
  5
580
330
357
100
AcDbEntity
  8
SIZE
  6
ByBlock
100
AcDbLine
 10
-299.0578117358273
 20
998.7058323276169
 30
0.0
 11
-299.0578117358273
 21
1109.613753966412
 31
0.0
  0
LINE
  5
581
330
357
100
AcDbEntity
  8
SIZE
  6
ByBlock
100
AcDbLine
 10
669.7421882899179
 20
998.7058323276169
 30
0.0
 11
669.7421882899179
 21
1109.613753966412
 31
0.0
  0
LINE
  5
582
330
357
100
AcDbEntity
  8
SIZE
  6
ByBlock
100
AcDbLine
 10
-269.0578117358273
 20
1108.613753966412
 30
0.0
 11
639.742188289918
 21
1108.613753966412
 31
0.0
  0
INSERT
  5
583
330
357
100
AcDbEntity
  8
SIZE
100
AcDbBlockReference
  2
_DotBlank
 10
-299.0578117358273
 20
1108.613753966412
 30
0.0
 41
30.0
 42
30.0
 43
30.0
 50
180.0
  0
INSERT
  5
584
330
357
100
AcDbEntity
  8
SIZE
100
AcDbBlockReference
  2
_DotBlank
 10
669.7421882899179
 20
1108.613753966412
 30
0.0
 41
30.0
 42
30.0
 43
30.0
  0
POINT
  5
585
330
357
100
AcDbEntity
  8
Defpoints
 62
     0
100
AcDbPoint
 10
-299.0578117358273
 20
997.7058323276169
 30
0.0
  0
POINT
  5
586
330
357
100
AcDbEntity
  8
Defpoints
 62
     0
100
AcDbPoint
 10
669.7421882899179
 20
997.7058323276169
 30
0.0
  0
POINT
  5
587
330
357
100
AcDbEntity
  8
Defpoints
 62
     0
100
AcDbPoint
 10
669.7421882899179
 20
1108.613753966412
 30
0.0
  0
ENDBLK
  5
359
330
357
100
AcDbEntity
  8
0
100
AcDbBlockEnd
  0
BLOCK
  5
363
330
362
100
AcDbEntity
  8
0
100
AcDbBlockBegin
  2
*D21
 70
     1
 10
0.0
 20
0.0
 30
0.0
  3
*D21
  1

  0
LINE
  5
588
330
362
100
AcDbEntity
  8
SIZE
  6
ByBlock
100
AcDbLine
 10
672.3421882899892
 20
944.1750931142614
 30
0.0
 11
672.3421882899892
 21
1197.634210442444
 31
0.0
  0
LINE
  5
589
330
362
100
AcDbEntity
  8
SIZE
  6
ByBlock
100
AcDbLine
 10
552.142188286798
 20
1062.446704690865
 30
0.0
 11
552.142188286798
 21
1197.634210442444
 31
0.0
  0
LINE
  5
58A
330
362
100
AcDbEntity
  8
SIZE
  6
ByBlock
100
AcDbLine
 10
642.3421882899893
 20
1196.634210442444
 30
0.0
 11
582.142188286798
 21
1196.634210442444
 31
0.0
  0
INSERT
  5
58B
330
362
100
AcDbEntity
  8
SIZE
100
AcDbBlockReference
  2
_DotBlank
 10
672.3421882899892
 20
1196.634210442444
 30
0.0
 41
30.0
 42
30.0
 43
30.0
  0
INSERT
  5
58C
330
362
100
AcDbEntity
  8
SIZE
100
AcDbBlockReference
  2
_DotBlank
 10
552.142188286798
 20
1196.634210442444
 30
0.0
 41
30.0
 42
30.0
 43
30.0
 50
180.0
  0
POINT
  5
58D
330
362
100
AcDbEntity
  8
Defpoints
 62
     0
100
AcDbPoint
 10
672.3421882899892
 20
943.1750931142614
 30
0.0
  0
POINT
  5
58E
330
362
100
AcDbEntity
  8
Defpoints
 62
     0
100
AcDbPoint
 10
552.142188286798
 20
1061.446704690865
 30
0.0
  0
POINT
  5
58F
330
362
100
AcDbEntity
  8
Defpoints
 62
     0
100
AcDbPoint
 10
552.142188286798
 20
1196.634210442444
 30
0.0
  0
ENDBLK
  5
364
330
362
100
AcDbEntity
  8
0
100
AcDbBlockEnd
  0
BLOCK
  5
36E
330
36D
100
AcDbEntity
  8
0
100
AcDbBlockBegin
  2
*D22
 70
     1
 10
0.0
 20
0.0
 30
0.0
  3
*D22
  1

  0
LINE
  5
590
330
36D
100
AcDbEntity
  8
SIZE
  6
ByBlock
100
AcDbLine
 10
672.1421882899488
 20
-2.024906910865866
 30
0.0
 11
1030.492895845698
 21
-2.024906910865809
 31
0.0
  0
LINE
  5
591
330
36D
100
AcDbEntity
  8
SIZE
  6
ByBlock
100
AcDbLine
 10
673.3421882899895
 20
-695.8135756595427
 30
0.0
 11
1030.492895845699
 21
-695.8135756595425
 31
0.0
  0
LINE
  5
592
330
36D
100
AcDbEntity
  8
SIZE
  6
ByBlock
100
AcDbLine
 10
1029.492895845699
 20
-32.02490691086582
 30
0.0
 11
1029.492895845699
 21
-665.8135756595426
 31
0.0
  0
INSERT
  5
593
330
36D
100
AcDbEntity
  8
SIZE
100
AcDbBlockReference
  2
_DotBlank
 10
1029.492895845699
 20
-2.024906910865809
 30
0.0
 41
30.0
 42
30.0
 43
30.0
 50
90.0
  0
INSERT
  5
594
330
36D
100
AcDbEntity
  8
SIZE
100
AcDbBlockReference
  2
_DotBlank
 10
1029.492895845699
 20
-695.8135756595425
 30
0.0
 41
30.0
 42
30.0
 43
30.0
 50
270.0
  0
POINT
  5
595
330
36D
100
AcDbEntity
  8
Defpoints
 62
     0
100
AcDbPoint
 10
671.1421882899487
 20
-2.024906910865866
 30
0.0
  0
POINT
  5
596
330
36D
100
AcDbEntity
  8
Defpoints
 62
     0
100
AcDbPoint
 10
672.3421882899895
 20
-695.8135756595427
 30
0.0
  0
POINT
  5
597
330
36D
100
AcDbEntity
  8
Defpoints
 62
     0
100
AcDbPoint
 10
1029.492895845699
 20
-695.8135756595425
 30
0.0
  0
ENDBLK
  5
36F
330
36D
100
AcDbEntity
  8
0
100
AcDbBlockEnd
  0
BLOCK
  5
379
330
378
100
AcDbEntity
  8
0
100
AcDbBlockBegin
  2
*D23
 70
     1
 10
0.0
 20
0.0
 30
0.0
  3
*D23
  1

  0
LINE
  5
6DE
330
378
100
AcDbEntity
  8
SIZE
  6
ByBlock
100
AcDbLine
 10
672.1421882899488
 20
-2.024906910865866
 30
0.0
 11
889.1087939616159
 21
-2.024906910865831
 31
0.0
  0
LINE
  5
6DF
330
378
100
AcDbEntity
  8
SIZE
  6
ByBlock
100
AcDbLine
 10
411.3391032808179
 20
-155.8249069149561
 30
0.0
 11
889.1087939616159
 21
-155.824906914956
 31
0.0
  0
LINE
  5
6E0
330
378
100
AcDbEntity
  8
SIZE
  6
ByBlock
100
AcDbLine
 10
888.1087939616159
 20
-32.02490691086584
 30
0.0
 11
888.1087939616159
 21
-125.824906914956
 31
0.0
  0
INSERT
  5
6E1
330
378
100
AcDbEntity
  8
SIZE
100
AcDbBlockReference
  2
_DotBlank
 10
888.1087939616159
 20
-2.024906910865832
 30
0.0
 41
30.0
 42
30.0
 43
30.0
 50
270.0
  0
LINE
  5
6E2
330
378
100
AcDbEntity
  8
SIZE
100
AcDbLine
 10
888.1087939616159
 20
27.97509308913418
 30
0.0
 11
888.1087939616159
 21
57.97509308913419
 31
0.0
  0
LINE
  5
6E3
330
378
100
AcDbEntity
  8
SIZE
  6
ByBlock
100
AcDbLine
 10
888.1087939616159
 20
-2.024906910865832
 30
0.0
 11
888.1087939616159
 21
-32.02490691086584
 31
0.0
  0
INSERT
  5
6E4
330
378
100
AcDbEntity
  8
SIZE
100
AcDbBlockReference
  2
_DotBlank
 10
888.1087939616159
 20
-155.824906914956
 30
0.0
 41
30.0
 42
30.0
 43
30.0
 50
90.0
  0
LINE
  5
6E5
330
378
100
AcDbEntity
  8
SIZE
100
AcDbLine
 10
888.1087939616159
 20
-185.824906914956
 30
0.0
 11
888.1087939616159
 21
-215.824906914956
 31
0.0
  0
LINE
  5
6E6
330
378
100
AcDbEntity
  8
SIZE
  6
ByBlock
100
AcDbLine
 10
888.1087939616159
 20
-155.824906914956
 30
0.0
 11
888.1087939616159
 21
-125.824906914956
 31
0.0
  0
POINT
  5
6E7
330
378
100
AcDbEntity
  8
Defpoints
 62
     0
100
AcDbPoint
 10
671.1421882899487
 20
-2.024906910865866
 30
0.0
  0
POINT
  5
6E8
330
378
100
AcDbEntity
  8
Defpoints
 62
     0
100
AcDbPoint
 10
410.3391032808178
 20
-155.8249069149561
 30
0.0
  0
POINT
  5
6E9
330
378
100
AcDbEntity
  8
Defpoints
 62
     0
100
AcDbPoint
 10
888.1087939616159
 20
-155.824906914956
 30
0.0
  0
ENDBLK
  5
37A
330
378
100
AcDbEntity
  8
0
100
AcDbBlockEnd
  0
BLOCK
  5
388
330
387
100
AcDbEntity
  8
0
100
AcDbBlockBegin
  2
*D24
 70
     1
 10
0.0
 20
0.0
 30
0.0
  3
*D24
  1

  0
LINE
  5
5A4
330
387
100
AcDbEntity
  8
SIZE
  6
ByBlock
100
AcDbLine
 10
672.1421882899488
 20
-2.024906910865866
 30
0.0
 11
1031.032041129813
 21
-2.024906910865809
 31
0.0
  0
LINE
  5
5A5
330
387
100
AcDbEntity
  8
SIZE
  6
ByBlock
100
AcDbLine
 10
672.1421882899488
 20
944.3750931142927
 30
0.0
 11
1031.032041129812
 21
944.3750931142927
 31
0.0
  0
LINE
  5
5A6
330
387
100
AcDbEntity
  8
SIZE
  6
ByBlock
100
AcDbLine
 10
1030.032041129813
 20
27.9750930891342
 30
0.0
 11
1030.032041129812
 21
914.3750931142928
 31
0.0
  0
INSERT
  5
5A7
330
387
100
AcDbEntity
  8
SIZE
100
AcDbBlockReference
  2
_DotBlank
 10
1030.032041129813
 20
-2.024906910865809
 30
0.0
 41
30.0
 42
30.0
 43
30.0
 50
270.0
  0
INSERT
  5
5A8
330
387
100
AcDbEntity
  8
SIZE
100
AcDbBlockReference
  2
_DotBlank
 10
1030.032041129812
 20
944.3750931142927
 30
0.0
 41
30.0
 42
30.0
 43
30.0
 50
90.0
  0
POINT
  5
5A9
330
387
100
AcDbEntity
  8
Defpoints
 62
     0
100
AcDbPoint
 10
671.1421882899487
 20
-2.024906910865866
 30
0.0
  0
POINT
  5
5AA
330
387
100
AcDbEntity
  8
Defpoints
 62
     0
100
AcDbPoint
 10
671.1421882899487
 20
944.3750931142927
 30
0.0
  0
POINT
  5
5AB
330
387
100
AcDbEntity
  8
Defpoints
 62
     0
100
AcDbPoint
 10
1030.032041129812
 20
944.3750931142927
 30
0.0
  0
ENDBLK
  5
389
330
387
100
AcDbEntity
  8
0
100
AcDbBlockEnd
  0
BLOCK
  5
393
330
392
100
AcDbEntity
  8
0
100
AcDbBlockBegin
  2
*D25
 70
     1
 10
0.0
 20
0.0
 30
0.0
  3
*D25
  1

  0
LINE
  5
5AC
330
392
100
AcDbEntity
  8
SIZE
  6
ByBlock
100
AcDbLine
 10
776.7528715590201
 20
125.1750930925155
 30
0.0
 11
960.7684808925826
 21
125.1750930925155
 31
0.0
  0
LINE
  5
5AD
330
392
100
AcDbEntity
  8
SIZE
  6
ByBlock
100
AcDbLine
 10
782.9991469791535
 20
817.1750931109123
 30
0.0
 11
960.7684808925823
 21
817.1750931109123
 31
0.0
  0
LINE
  5
5AE
330
392
100
AcDbEntity
  8
SIZE
  6
ByBlock
100
AcDbLine
 10
959.7684808925826
 20
126.9750930925155
 30
0.0
 11
959.7684808925823
 21
815.3750931109122
 31
0.0
  0
INSERT
  5
5AF
330
392
100
AcDbEntity
  8
SIZE
100
AcDbBlockReference
  2
_Open30
 10
959.7684808925826
 20
125.1750930925155
 30
0.0
 41
1.8
 42
1.8
 43
1.8
 50
270.0
  0
INSERT
  5
5B0
330
392
100
AcDbEntity
  8
SIZE
100
AcDbBlockReference
  2
_Open30
 10
959.7684808925823
 20
817.1750931109123
 30
0.0
 41
1.8
 42
1.8
 43
1.8
 50
90.0
  0
POINT
  5
5B1
330
392
100
AcDbEntity
  8
Defpoints
 62
     0
100
AcDbPoint
 10
775.7528715590201
 20
125.1750930925155
 30
0.0
  0
POINT
  5
5B2
330
392
100
AcDbEntity
  8
Defpoints
 62
     0
100
AcDbPoint
 10
781.9991469791534
 20
817.1750931109123
 30
0.0
  0
POINT
  5
5B3
330
392
100
AcDbEntity
  8
Defpoints
 62
     0
100
AcDbPoint
 10
959.7684808925823
 20
817.1750931109123
 30
0.0
  0
ENDBLK
  5
394
330
392
100
AcDbEntity
  8
0
100
AcDbBlockEnd
  0
BLOCK
  5
39E
330
39D
100
AcDbEntity
  8
0
100
AcDbBlockBegin
  2
*D26
 70
     1
 10
0.0
 20
0.0
 30
0.0
  3
*D26
  1

  0
LINE
  5
5B4
330
39D
100
AcDbEntity
  8
SIZE
  6
ByBlock
100
AcDbLine
 10
-315.8558504533904
 20
-29.42490691159402
 30
0.0
 11
-576.2929337595161
 21
-29.42490691159406
 31
0.0
  0
LINE
  5
5B5
330
39D
100
AcDbEntity
  8
SIZE
  6
ByBlock
100
AcDbLine
 10
-318.5578117363221
 20
-49.42490691212609
 30
0.0
 11
-576.2929337595161
 21
-49.42490691212613
 31
0.0
  0
LINE
  5
5B6
330
39D
100
AcDbEntity
  8
SIZE
  6
ByBlock
100
AcDbLine
 10
-575.2929337595161
 20
0.5750930884059431
 30
0.0
 11
-575.2929337595161
 21
30.57509308840595
 31
0.0
  0
LINE
  5
5B7
330
39D
100
AcDbEntity
  8
SIZE
  6
ByBlock
100
AcDbLine
 10
-575.2929337595161
 20
-79.42490691212613
 30
0.0
 11
-575.2929337595161
 21
-190.2582402454729
 31
0.0
  0
LINE
  5
5B8
330
39D
100
AcDbEntity
  8
SIZE
  6
ByBlock
100
AcDbLine
 10
-575.2929337595161
 20
-29.42490691159406
 30
0.0
 11
-575.2929337595161
 21
-49.42490691212613
 31
0.0
  0
INSERT
  5
5B9
330
39D
100
AcDbEntity
  8
SIZE
100
AcDbBlockReference
  2
_DotBlank
 10
-575.2929337595161
 20
-29.42490691159406
 30
0.0
 41
30.0
 42
30.0
 43
30.0
 50
270.0
  0
INSERT
  5
5BA
330
39D
100
AcDbEntity
  8
SIZE
100
AcDbBlockReference
  2
_DotBlank
 10
-575.2929337595161
 20
-49.42490691212613
 30
0.0
 41
30.0
 42
30.0
 43
30.0
 50
90.0
  0
POINT
  5
5BB
330
39D
100
AcDbEntity
  8
Defpoints
 62
     0
100
AcDbPoint
 10
-314.8558504533904
 20
-29.42490691159402
 30
0.0
  0
POINT
  5
5BC
330
39D
100
AcDbEntity
  8
Defpoints
 62
     0
100
AcDbPoint
 10
-317.5578117363222
 20
-49.42490691212609
 30
0.0
  0
POINT
  5
5BD
330
39D
100
AcDbEntity
  8
Defpoints
 62
     0
100
AcDbPoint
 10
-575.2929337595161
 20
-49.42490691212613
 30
0.0
  0
ENDBLK
  5
39F
330
39D
100
AcDbEntity
  8
0
100
AcDbBlockEnd
  0
BLOCK
  5
3AB
330
3AA
100
AcDbEntity
  8
0
100
AcDbBlockBegin
  2
*D27
 70
     1
 10
0.0
 20
0.0
 30
0.0
  3
*D27
  1

  0
LINE
  5
5BE
330
3AA
100
AcDbEntity
  8
SIZE
  6
ByBlock
100
AcDbLine
 10
-315.8558504533904
 20
-29.42490691159402
 30
0.0
 11
-576.2929337595161
 21
-29.42490691159406
 31
0.0
  0
LINE
  5
5BF
330
3AA
100
AcDbEntity
  8
SIZE
  6
ByBlock
100
AcDbLine
 10
-315.8558504533904
 20
971.7750931150217
 30
0.0
 11
-576.2929337595164
 21
971.7750931150217
 31
0.0
  0
LINE
  5
5C0
330
3AA
100
AcDbEntity
  8
SIZE
  6
ByBlock
100
AcDbLine
 10
-575.2929337595161
 20
0.5750930884059431
 30
0.0
 11
-575.2929337595163
 21
941.7750931150218
 31
0.0
  0
INSERT
  5
5C1
330
3AA
100
AcDbEntity
  8
SIZE
100
AcDbBlockReference
  2
_DotBlank
 10
-575.2929337595161
 20
-29.42490691159406
 30
0.0
 41
30.0
 42
30.0
 43
30.0
 50
270.0
  0
INSERT
  5
5C2
330
3AA
100
AcDbEntity
  8
SIZE
100
AcDbBlockReference
  2
_DotBlank
 10
-575.2929337595163
 20
971.7750931150217
 30
0.0
 41
30.0
 42
30.0
 43
30.0
 50
90.0
  0
POINT
  5
5C3
330
3AA
100
AcDbEntity
  8
Defpoints
 62
     0
100
AcDbPoint
 10
-314.8558504533904
 20
-29.42490691159402
 30
0.0
  0
POINT
  5
5C4
330
3AA
100
AcDbEntity
  8
Defpoints
 62
     0
100
AcDbPoint
 10
-314.8558504533904
 20
971.7750931150217
 30
0.0
  0
POINT
  5
5C5
330
3AA
100
AcDbEntity
  8
Defpoints
 62
     0
100
AcDbPoint
 10
-575.2929337595163
 20
971.7750931150217
 30
0.0
  0
ENDBLK
  5
3AC
330
3AA
100
AcDbEntity
  8
0
100
AcDbBlockEnd
  0
BLOCK
  5
3B6
330
3B5
100
AcDbEntity
  8
0
100
AcDbBlockBegin
  2
*D28
 70
     1
 10
0.0
 20
0.0
 30
0.0
  3
*D28
  1

  0
LINE
  5
5C6
330
3B5
100
AcDbEntity
  8
SIZE
  6
ByBlock
100
AcDbLine
 10
672.3421882899892
 20
-317.3800190703232
 30
0.0
 11
672.3421882899892
 21
-322.7061553200397
 31
0.0
  0
LINE
  5
5C7
330
3B5
100
AcDbEntity
  8
SIZE
  6
ByBlock
100
AcDbLine
 10
552.142188286798
 20
-124.699733992752
 30
0.0
 11
552.142188286798
 21
-322.7061553200397
 31
0.0
  0
LINE
  5
5C8
330
3B5
100
AcDbEntity
  8
SIZE
  6
ByBlock
100
AcDbLine
 10
642.3421882899893
 20
-321.7061553200397
 30
0.0
 11
582.142188286798
 21
-321.7061553200397
 31
0.0
  0
INSERT
  5
5C9
330
3B5
100
AcDbEntity
  8
SIZE
100
AcDbBlockReference
  2
_DotBlank
 10
672.3421882899892
 20
-321.7061553200397
 30
0.0
 41
30.0
 42
30.0
 43
30.0
  0
INSERT
  5
5CA
330
3B5
100
AcDbEntity
  8
SIZE
100
AcDbBlockReference
  2
_DotBlank
 10
552.142188286798
 20
-321.7061553200397
 30
0.0
 41
30.0
 42
30.0
 43
30.0
 50
180.0
  0
POINT
  5
5CB
330
3B5
100
AcDbEntity
  8
Defpoints
 62
     0
100
AcDbPoint
 10
672.3421882899892
 20
-316.3800190703232
 30
0.0
  0
POINT
  5
5CC
330
3B5
100
AcDbEntity
  8
Defpoints
 62
     0
100
AcDbPoint
 10
552.142188286798
 20
-123.699733992752
 30
0.0
  0
POINT
  5
5CD
330
3B5
100
AcDbEntity
  8
Defpoints
 62
     0
100
AcDbPoint
 10
552.142188286798
 20
-321.7061553200397
 30
0.0
  0
ENDBLK
  5
3B7
330
3B5
100
AcDbEntity
  8
0
100
AcDbBlockEnd
  0
BLOCK
  5
3C1
330
3C0
100
AcDbEntity
  8
0
100
AcDbBlockBegin
  2
*D29
 70
     1
 10
0.0
 20
0.0
 30
0.0
  3
*D29
  1

  0
LINE
  5
5CE
330
3C0
100
AcDbEntity
  8
SIZE
  6
ByBlock
100
AcDbLine
 10
755.2421882636811
 20
913.1750930878748
 30
0.0
 11
841.0722644179095
 21
913.1750930878748
 31
0.0
  0
LINE
  5
5CF
330
3C0
100
AcDbEntity
  8
SIZE
  6
ByBlock
100
AcDbLine
 10
755.2421882636811
 20
721.1750930878736
 30
0.0
 11
841.0722644179097
 21
721.1750930878737
 31
0.0
  0
LINE
  5
5D0
330
3C0
100
AcDbEntity
  8
SIZE
  6
ByBlock
100
AcDbLine
 10
840.0722644179095
 20
883.1750930878749
 30
0.0
 11
840.0722644179095
 21
751.1750930878737
 31
0.0
  0
INSERT
  5
5D1
330
3C0
100
AcDbEntity
  8
SIZE
100
AcDbBlockReference
  2
_DotBlank
 10
840.0722644179095
 20
913.1750930878748
 30
0.0
 41
30.0
 42
30.0
 43
30.0
 50
90.0
  0
INSERT
  5
5D2
330
3C0
100
AcDbEntity
  8
SIZE
100
AcDbBlockReference
  2
_DotBlank
 10
840.0722644179095
 20
721.1750930878737
 30
0.0
 41
30.0
 42
30.0
 43
30.0
 50
270.0
  0
POINT
  5
5D3
330
3C0
100
AcDbEntity
  8
Defpoints
 62
     0
100
AcDbPoint
 10
754.242188263681
 20
913.1750930878748
 30
0.0
  0
POINT
  5
5D4
330
3C0
100
AcDbEntity
  8
Defpoints
 62
     0
100
AcDbPoint
 10
754.242188263681
 20
721.1750930878736
 30
0.0
  0
POINT
  5
5D5
330
3C0
100
AcDbEntity
  8
Defpoints
 62
     0
100
AcDbPoint
 10
840.0722644179095
 20
721.1750930878737
 30
0.0
  0
ENDBLK
  5
3C2
330
3C0
100
AcDbEntity
  8
0
100
AcDbBlockEnd
  0
BLOCK
  5
3CC
330
3CB
100
AcDbEntity
  8
0
100
AcDbBlockBegin
  2
*D30
 70
     1
 10
0.0
 20
0.0
 30
0.0
  3
*D30
  1

  0
LINE
  5
5D6
330
3CB
100
AcDbEntity
  8
SIZE
  6
ByBlock
100
AcDbLine
 10
678.7421882636704
 20
921.1750930878737
 30
0.0
 11
901.8726611183613
 21
921.1750930878739
 31
0.0
  0
LINE
  5
5D7
330
3CB
100
AcDbEntity
  8
SIZE
  6
ByBlock
100
AcDbLine
 10
678.7421882636667
 20
713.1750930878745
 30
0.0
 11
901.8726611183614
 21
713.1750930878746
 31
0.0
  0
LINE
  5
5D8
330
3CB
100
AcDbEntity
  8
SIZE
  6
ByBlock
100
AcDbLine
 10
900.8726611183613
 20
891.1750930878739
 30
0.0
 11
900.8726611183615
 21
743.1750930878746
 31
0.0
  0
INSERT
  5
5D9
330
3CB
100
AcDbEntity
  8
SIZE
100
AcDbBlockReference
  2
_DotBlank
 10
900.8726611183613
 20
921.1750930878739
 30
0.0
 41
30.0
 42
30.0
 43
30.0
 50
90.0
  0
INSERT
  5
5DA
330
3CB
100
AcDbEntity
  8
SIZE
100
AcDbBlockReference
  2
_DotBlank
 10
900.8726611183615
 20
713.1750930878746
 30
0.0
 41
30.0
 42
30.0
 43
30.0
 50
270.0
  0
POINT
  5
5DB
330
3CB
100
AcDbEntity
  8
Defpoints
 62
     0
100
AcDbPoint
 10
677.7421882636704
 20
921.1750930878737
 30
0.0
  0
POINT
  5
5DC
330
3CB
100
AcDbEntity
  8
Defpoints
 62
     0
100
AcDbPoint
 10
677.7421882636668
 20
713.1750930878745
 30
0.0
  0
POINT
  5
5DD
330
3CB
100
AcDbEntity
  8
Defpoints
 62
     0
100
AcDbPoint
 10
900.8726611183615
 20
713.1750930878746
 30
0.0
  0
ENDBLK
  5
3CD
330
3CB
100
AcDbEntity
  8
0
100
AcDbBlockEnd
  0
BLOCK
  5
3D7
330
3D6
100
AcDbEntity
  8
0
100
AcDbBlockBegin
  2
*D31
 70
     1
 10
0.0
 20
0.0
 30
0.0
  3
*D31
  1

  0
LINE
  5
5DE
330
3D6
100
AcDbEntity
  8
SIZE
  6
ByBlock
100
AcDbLine
 10
672.3421882899892
 20
944.1750931142614
 30
0.0
 11
672.3421882899892
 21
1302.360254192707
 31
0.0
  0
LINE
  5
5DF
330
3D6
100
AcDbEntity
  8
SIZE
  6
ByBlock
100
AcDbLine
 10
755.3421882636576
 20
913.075093087874
 30
0.0
 11
755.3421882636576
 21
1302.360254192707
 31
0.0
  0
LINE
  5
5E0
330
3D6
100
AcDbEntity
  8
SIZE
  6
ByBlock
100
AcDbLine
 10
702.3421882899892
 20
1301.360254192706
 30
0.0
 11
725.3421882636575
 21
1301.360254192706
 31
0.0
  0
INSERT
  5
5E1
330
3D6
100
AcDbEntity
  8
SIZE
100
AcDbBlockReference
  2
_DotBlank
 10
672.3421882899892
 20
1301.360254192706
 30
0.0
 41
30.0
 42
30.0
 43
30.0
 50
180.0
  0
INSERT
  5
5E2
330
3D6
100
AcDbEntity
  8
SIZE
100
AcDbBlockReference
  2
_DotBlank
 10
755.3421882636576
 20
1301.360254192706
 30
0.0
 41
30.0
 42
30.0
 43
30.0
  0
POINT
  5
5E3
330
3D6
100
AcDbEntity
  8
Defpoints
 62
     0
100
AcDbPoint
 10
672.3421882899892
 20
943.1750931142614
 30
0.0
  0
POINT
  5
5E4
330
3D6
100
AcDbEntity
  8
Defpoints
 62
     0
100
AcDbPoint
 10
755.3421882636576
 20
912.075093087874
 30
0.0
  0
POINT
  5
5E5
330
3D6
100
AcDbEntity
  8
Defpoints
 62
     0
100
AcDbPoint
 10
755.3421882636576
 20
1301.360254192706
 30
0.0
  0
ENDBLK
  5
3D8
330
3D6
100
AcDbEntity
  8
0
100
AcDbBlockEnd
  0
BLOCK
  5
3E2
330
3E1
100
AcDbEntity
  8
0
100
AcDbBlockBegin
  2
*D32
 70
     1
 10
0.0
 20
0.0
 30
0.0
  3
*D32
  1

  0
LINE
  5
5E6
330
3E1
100
AcDbEntity
  8
SIZE
  6
ByBlock
100
AcDbLine
 10
672.3421882899892
 20
944.1750931142614
 30
0.0
 11
672.3421882899892
 21
1302.360254192707
 31
0.0
  0
LINE
  5
5E7
330
3E1
100
AcDbEntity
  8
SIZE
  6
ByBlock
100
AcDbLine
 10
-301.6578117363279
 20
944.1750930878743
 30
0.0
 11
-301.6578117363279
 21
1302.360254192707
 31
0.0
  0
LINE
  5
5E8
330
3E1
100
AcDbEntity
  8
SIZE
  6
ByBlock
100
AcDbLine
 10
642.3421882899893
 20
1301.360254192706
 30
0.0
 11
-271.6578117363279
 21
1301.360254192706
 31
0.0
  0
INSERT
  5
5E9
330
3E1
100
AcDbEntity
  8
SIZE
100
AcDbBlockReference
  2
_DotBlank
 10
672.3421882899892
 20
1301.360254192706
 30
0.0
 41
30.0
 42
30.0
 43
30.0
  0
INSERT
  5
5EA
330
3E1
100
AcDbEntity
  8
SIZE
100
AcDbBlockReference
  2
_DotBlank
 10
-301.6578117363279
 20
1301.360254192706
 30
0.0
 41
30.0
 42
30.0
 43
30.0
 50
180.0
  0
POINT
  5
5EB
330
3E1
100
AcDbEntity
  8
Defpoints
 62
     0
100
AcDbPoint
 10
672.3421882899892
 20
943.1750931142614
 30
0.0
  0
POINT
  5
5EC
330
3E1
100
AcDbEntity
  8
Defpoints
 62
     0
100
AcDbPoint
 10
-301.6578117363279
 20
943.1750930878743
 30
0.0
  0
POINT
  5
5ED
330
3E1
100
AcDbEntity
  8
Defpoints
 62
     0
100
AcDbPoint
 10
-301.6578117363279
 20
1301.360254192706
 30
0.0
  0
ENDBLK
  5
3E3
330
3E1
100
AcDbEntity
  8
0
100
AcDbBlockEnd
  0
BLOCK
  5
3ED
330
3EC
100
AcDbEntity
  8
0
100
AcDbBlockBegin
  2
*D33
 70
     1
 10
0.0
 20
0.0
 30
0.0
  3
*D33
  1

  0
LINE
  5
5EE
330
3EC
100
AcDbEntity
  8
SIZE
  6
ByBlock
100
AcDbLine
 10
-301.6578117363279
 20
944.1750930878743
 30
0.0
 11
-301.6578117363279
 21
1302.360254192707
 31
0.0
  0
LINE
  5
5EF
330
3EC
100
AcDbEntity
  8
SIZE
  6
ByBlock
100
AcDbLine
 10
-384.657811736337
 20
913.075093087874
 30
0.0
 11
-384.657811736337
 21
1302.360254192707
 31
0.0
  0
LINE
  5
5F0
330
3EC
100
AcDbEntity
  8
SIZE
  6
ByBlock
100
AcDbLine
 10
-331.6578117363278
 20
1301.360254192706
 30
0.0
 11
-354.6578117363369
 21
1301.360254192706
 31
0.0
  0
INSERT
  5
5F1
330
3EC
100
AcDbEntity
  8
SIZE
100
AcDbBlockReference
  2
_DotBlank
 10
-301.6578117363279
 20
1301.360254192706
 30
0.0
 41
30.0
 42
30.0
 43
30.0
  0
INSERT
  5
5F2
330
3EC
100
AcDbEntity
  8
SIZE
100
AcDbBlockReference
  2
_DotBlank
 10
-384.657811736337
 20
1301.360254192706
 30
0.0
 41
30.0
 42
30.0
 43
30.0
 50
180.0
  0
POINT
  5
5F3
330
3EC
100
AcDbEntity
  8
Defpoints
 62
     0
100
AcDbPoint
 10
-301.6578117363279
 20
943.1750930878743
 30
0.0
  0
POINT
  5
5F4
330
3EC
100
AcDbEntity
  8
Defpoints
 62
     0
100
AcDbPoint
 10
-384.657811736337
 20
912.075093087874
 30
0.0
  0
POINT
  5
5F5
330
3EC
100
AcDbEntity
  8
Defpoints
 62
     0
100
AcDbPoint
 10
-384.657811736337
 20
1301.360254192706
 30
0.0
  0
ENDBLK
  5
3EE
330
3EC
100
AcDbEntity
  8
0
100
AcDbBlockEnd
  0
BLOCK
  5
3F8
330
3F7
100
AcDbEntity
  8
0
100
AcDbBlockBegin
  2
*D34
 70
     1
 10
0.0
 20
0.0
 30
0.0
  3
*D34
  1

  0
LINE
  5
5F6
330
3F7
100
AcDbEntity
  8
SIZE
  6
ByBlock
100
AcDbLine
 10
-253.7578117363338
 20
-2.024906912125517
 30
0.0
 11
-485.2126652939788
 21
-2.024906912125554
 31
0.0
  0
LINE
  5
5F7
330
3F7
100
AcDbEntity
  8
SIZE
  6
ByBlock
100
AcDbLine
 10
-253.7578117363338
 20
-115.2249069121263
 30
0.0
 11
-485.2126652939788
 21
-115.2249069121263
 31
0.0
  0
LINE
  5
5F8
330
3F7
100
AcDbEntity
  8
SIZE
  6
ByBlock
100
AcDbLine
 10
-484.2126652939788
 20
-32.02490691212556
 30
0.0
 11
-484.2126652939788
 21
-85.22490691212633
 31
0.0
  0
LINE
  5
5F9
330
3F7
100
AcDbEntity
  8
SIZE
  6
ByBlock
100
AcDbLine
 10
-484.2126652939788
 20
-115.2249069121263
 30
0.0
 11
-484.2126652939787
 21
-222.8878240917968
 31
0.0
  0
INSERT
  5
5FA
330
3F7
100
AcDbEntity
  8
SIZE
100
AcDbBlockReference
  2
_DotBlank
 10
-484.2126652939788
 20
-2.024906912125554
 30
0.0
 41
30.0
 42
30.0
 43
30.0
 50
90.0
  0
INSERT
  5
5FB
330
3F7
100
AcDbEntity
  8
SIZE
100
AcDbBlockReference
  2
_DotBlank
 10
-484.2126652939788
 20
-115.2249069121263
 30
0.0
 41
30.0
 42
30.0
 43
30.0
 50
270.0
  0
POINT
  5
5FC
330
3F7
100
AcDbEntity
  8
Defpoints
 62
     0
100
AcDbPoint
 10
-252.7578117363338
 20
-2.024906912125516
 30
0.0
  0
POINT
  5
5FD
330
3F7
100
AcDbEntity
  8
Defpoints
 62
     0
100
AcDbPoint
 10
-252.7578117363338
 20
-115.2249069121263
 30
0.0
  0
POINT
  5
5FE
330
3F7
100
AcDbEntity
  8
Defpoints
 62
     0
100
AcDbPoint
 10
-484.2126652939788
 20
-115.2249069121263
 30
0.0
  0
ENDBLK
  5
3F9
330
3F7
100
AcDbEntity
  8
0
100
AcDbBlockEnd
  0
ENDSEC
  0
SECTION
  2
ENTITIES
  0
LINE
  5
C6
330
70
100
AcDbEntity
  8
DETAIL
 62
     5
100
AcDbLine
 10
-252.7578117363337
 20
-115.2249069121262
 30
0.0
 11
-78.35781173632494
 21
-115.2249069121262
 31
0.0
  0
LINE
  5
C9
330
70
100
AcDbEntity
  8
DETAIL
  6
PHANTOM
 62
     5
100
AcDbLine
 10
457.2421882636663
 20
-85.52490691212552
 30
0.0
 11
647.0421882636692
 21
-85.52490691212552
 31
0.0
  0
LINE
  5
CA
330
70
100
AcDbEntity
  8
DETAIL
  6
PHANTOM
 62
     5
100
AcDbLine
 10
456.1421882636604
 20
-76.92490691212606
 30
0.0
 11
648.142188263675
 21
-76.92490691212606
 31
0.0
  0
LINE
  5
CB
330
70
100
AcDbEntity
  8
DETAIL
 62
     5
100
AcDbLine
 10
746.7421882636808
 20
29.17509308787385
 30
0.0
 11
677.7421882636663
 21
21.17509308787385
 31
0.0
  0
LINE
  5
CC
330
70
100
AcDbEntity
  8
DETAIL
 62
     5
100
AcDbLine
 10
-305.5578117363366
 20
-49.42490691212606
 30
0.0
 11
-317.557811736322
 21
-49.42490691212606
 31
0.0
  0
LINE
  5
CD
330
70
100
AcDbEntity
  8
DETAIL
 62
     5
100
AcDbLine
 10
-292.557811736322
 20
-49.42490691212606
 30
0.0
 11
-274.057811736322
 21
-49.42490691212606
 31
0.0
  0
LINE
  5
CE
330
70
100
AcDbEntity
  8
DETAIL
 62
     5
100
AcDbLine
 10
644.7421882636663
 20
-49.42490691212606
 30
0.0
 11
663.2421882636808
 21
-49.42490691212606
 31
0.0
  0
LINE
  5
CF
330
70
100
AcDbEntity
  8
DETAIL
 62
     5
100
AcDbLine
 10
676.2421882636663
 20
-49.42490691212606
 30
0.0
 11
688.2421882636808
 21
-49.42490691212606
 31
0.0
  0
LINE
  5
D0
330
70
100
AcDbEntity
  8
DETAIL
 62
     5
100
AcDbLine
 10
-274.057811736322
 20
-46.22490691212624
 30
0.0
 11
-292.557811736322
 21
-46.22490691212624
 31
0.0
  0
LINE
  5
D1
330
70
100
AcDbEntity
  8
DETAIL
 62
     5
100
AcDbLine
 10
644.7421882636663
 20
-46.22490691212624
 30
0.0
 11
663.2421882636808
 21
-46.22490691212624
 31
0.0
  0
LINE
  5
D2
330
70
100
AcDbEntity
  8
DETAIL
 62
     5
100
AcDbLine
 10
-49.05781173632203
 20
-17.72490691212624
 30
0.0
 11
419.7421882636663
 21
-17.72490691212624
 31
0.0
  0
LINE
  5
D3
330
70
100
AcDbEntity
  8
DETAIL
 62
     5
100
AcDbLine
 10
-49.85781173632495
 20
-16.92490691212606
 30
0.0
 11
-50.6578117363133
 21
-16.92490691212606
 31
0.0
  0
LINE
  5
D4
330
70
100
AcDbEntity
  8
DETAIL
 62
     5
100
AcDbLine
 10
420.5421882636692
 20
-16.92490691212606
 30
0.0
 11
421.3421882636721
 21
-16.92490691212606
 31
0.0
  0
LINE
  5
D5
330
70
100
AcDbEntity
  8
DETAIL
 62
     5
100
AcDbLine
 10
-50.6578117363133
 20
-13.22490691212624
 30
0.0
 11
-51.45781173633077
 21
-13.22490691212624
 31
0.0
  0
LINE
  5
D6
330
70
100
AcDbEntity
  8
DETAIL
 62
     5
100
AcDbLine
 10
421.3421882636721
 20
-13.22490691212624
 30
0.0
 11
422.142188263675
 21
-13.22490691212624
 31
0.0
  0
LINE
  5
D7
330
70
100
AcDbEntity
  8
DETAIL
 62
     5
100
AcDbLine
 10
-49.85781173632495
 20
-11.92490691212606
 30
0.0
 11
-50.6578117363133
 21
-11.92490691212606
 31
0.0
  0
LINE
  5
D8
330
70
100
AcDbEntity
  8
DETAIL
 62
     5
100
AcDbLine
 10
420.5421882636692
 20
-11.92490691212606
 30
0.0
 11
421.3421882636721
 21
-11.92490691212606
 31
0.0
  0
LINE
  5
D9
330
70
100
AcDbEntity
  8
DETAIL
 62
     5
100
AcDbLine
 10
-50.6578117363133
 20
-10.22490691212624
 30
0.0
 11
-51.45781173633077
 21
-10.22490691212624
 31
0.0
  0
LINE
  5
DA
330
70
100
AcDbEntity
  8
DETAIL
 62
     5
100
AcDbLine
 10
421.3421882636721
 20
-10.22490691212624
 30
0.0
 11
422.142188263675
 21
-10.22490691212624
 31
0.0
  0
LINE
  5
DB
330
70
100
AcDbEntity
  8
DETAIL
  6
PHANTOM
 62
     5
100
AcDbLine
 10
448.142188263675
 20
-7.924906912126061
 30
0.0
 11
644.7421882636663
 21
-7.924906912126061
 31
0.0
  0
LINE
  5
DC
330
70
100
AcDbEntity
  8
DETAIL
 62
     5
100
AcDbLine
 10
-49.05781173632203
 20
-7.724906912126243
 30
0.0
 11
419.7421882636663
 21
-7.724906912126243
 31
0.0
  0
LINE
  5
DD
330
70
100
AcDbEntity
  8
DETAIL
 62
     5
100
AcDbLine
 10
-50.6578117363133
 20
-6.924906912126061
 30
0.0
 11
-49.05781173632203
 21
-6.924906912126061
 31
0.0
  0
LINE
  5
DE
330
70
100
AcDbEntity
  8
DETAIL
 62
     5
100
AcDbLine
 10
419.7421882636663
 20
-6.924906912126061
 30
0.0
 11
421.3421882636721
 21
-6.924906912126061
 31
0.0
  0
LINE
  5
DF
330
70
100
AcDbEntity
  8
DETAIL
 62
     5
100
AcDbLine
 10
644.7421882636663
 20
-2.224906912126243
 30
0.0
 11
634.4425788436747
 21
-2.224906912126243
 31
0.0
  0
LINE
  5
E0
330
70
100
AcDbEntity
  8
DETAIL
 62
     5
100
AcDbLine
 10
628.2337166686593
 20
-2.224906912126243
 30
0.0
 11
476.0506598576721
 21
-2.224906912126243
 31
0.0
  0
LINE
  5
E1
330
70
100
AcDbEntity
  8
DETAIL
 62
     5
100
AcDbLine
 10
469.8417976826568
 20
-2.224906912126243
 30
0.0
 11
421.3421882636721
 21
-2.224906912126243
 31
0.0
  0
LINE
  5
E2
330
70
100
AcDbEntity
  8
DETAIL
 62
     5
100
AcDbLine
 10
-50.6578117363133
 20
-2.224906912126243
 30
0.0
 11
-65.35763230231896
 21
-2.224906912126243
 31
0.0
  0
LINE
  5
E3
330
70
100
AcDbEntity
  8
DETAIL
 62
     5
100
AcDbLine
 10
-72.55799117133211
 20
-2.224906912126243
 30
0.0
 11
-78.35781173632494
 21
-2.224906912126243
 31
0.0
  0
LINE
  5
E4
330
70
100
AcDbEntity
  8
DETAIL
 62
     5
100
AcDbLine
 10
-78.95781173633077
 20
-2.224906912126243
 30
0.0
 11
-251.9578117363308
 21
-2.224906912126243
 31
0.0
  0
LINE
  5
E5
330
70
100
AcDbEntity
  8
DETAIL
 62
     5
100
AcDbLine
 10
-252.7578117363337
 20
-2.224906912126243
 30
0.0
 11
-260.2635663333385
 21
-2.224906912126243
 31
0.0
  0
LINE
  5
E6
330
70
100
AcDbEntity
  8
DETAIL
 62
     5
100
AcDbLine
 10
-265.2520571403183
 20
-2.224906912126243
 30
0.0
 11
-274.057811736322
 21
-2.224906912126243
 31
0.0
  0
LINE
  5
E7
330
70
100
AcDbEntity
  8
DETAIL
 62
     5
100
AcDbLine
 10
-300.4578117363308
 20
-2.02490691212597
 30
0.0
 11
-50.6578117363133
 21
-2.02490691212597
 31
0.0
  0
LINE
  5
E8
330
70
100
AcDbEntity
  8
DETAIL
 62
     5
100
AcDbLine
 10
421.3421882636721
 20
-2.02490691212597
 30
0.0
 11
671.1421882636605
 21
-2.02490691212597
 31
0.0
  0
LINE
  5
E9
330
70
100
AcDbEntity
  8
DETAIL
 62
     5
100
AcDbLine
 10
672.3421882636721
 20
-0.8249069121261527
 30
0.0
 11
671.1421882636605
 21
-0.8249069121261527
 31
0.0
  0
LINE
  5
EA
330
70
100
AcDbEntity
  8
DETAIL
 62
     5
100
AcDbLine
 10
-301.6578117363279
 20
-0.8249069121261527
 30
0.0
 11
-300.4578117363308
 21
-0.8249069121261527
 31
0.0
  0
LINE
  5
EB
330
70
100
AcDbEntity
  8
DETAIL
 62
     5
100
AcDbLine
 10
688.2421882636808
 20
0.5750930878739382
 30
0.0
 11
672.3421882636721
 21
0.5750930878739382
 31
0.0
  0
LINE
  5
EC
330
70
100
AcDbEntity
  8
DETAIL
 62
     5
100
AcDbLine
 10
-317.557811736322
 20
0.5750930878739382
 30
0.0
 11
-301.6578117363279
 21
0.5750930878739382
 31
0.0
  0
LINE
  5
ED
330
70
100
AcDbEntity
  8
DETAIL
 62
     5
100
AcDbLine
 10
-50.6578117363133
 20
1.075093087873938
 30
0.0
 11
-49.05781173632203
 21
1.075093087873938
 31
0.0
  0
LINE
  5
EE
330
70
100
AcDbEntity
  8
DETAIL
 62
     5
100
AcDbLine
 10
419.7421882636663
 20
1.075093087873938
 30
0.0
 11
421.3421882636721
 21
1.075093087873938
 31
0.0
  0
LINE
  5
EF
330
70
100
AcDbEntity
  8
DETAIL
 62
     5
100
AcDbLine
 10
-376.0578117363366
 20
29.17509308787385
 30
0.0
 11
-307.0578117363366
 21
21.17509308787385
 31
0.0
  0
LINE
  5
F0
330
70
100
AcDbEntity
  8
DETAIL
 62
     5
100
AcDbLine
 10
-384.6578117363424
 20
912.075093087874
 30
0.0
 11
-384.6578117363424
 21
722.2750930878742
 31
0.0
  0
LINE
  5
F1
330
70
100
AcDbEntity
  8
DETAIL
 62
     5
100
AcDbLine
 10
-384.6578117363424
 20
220.075093087874
 30
0.0
 11
-384.6578117363424
 21
30.27509308787376
 31
0.0
  0
LINE
  5
F2
330
70
100
AcDbEntity
  8
DETAIL
 62
     5
100
AcDbLine
 10
-376.0578117363366
 20
913.1750930878743
 30
0.0
 11
-376.0578117363366
 21
721.1750930878738
 31
0.0
  0
LINE
  5
F3
330
70
100
AcDbEntity
  8
DETAIL
 62
     5
100
AcDbLine
 10
-376.0578117363366
 20
221.1750930878738
 30
0.0
 11
-376.0578117363366
 21
29.17509308787385
 31
0.0
  0
LINE
  5
F4
330
70
100
AcDbEntity
  8
DETAIL
 62
     5
100
AcDbLine
 10
414.7421882636662
 20
14.07509308787348
 30
0.0
 11
-44.05781173632203
 21
14.07509308787348
 31
0.0
  0
LINE
  5
F5
330
70
100
AcDbEntity
  8
DETAIL
 62
     5
100
AcDbLine
 10
-301.6578117363279
 20
20.57509308787394
 30
0.0
 11
-302.2578117363337
 21
20.57509308787394
 31
0.0
  0
LINE
  5
F6
330
70
100
AcDbEntity
  8
DETAIL
 62
     5
100
AcDbLine
 10
672.3421882636721
 20
20.57509308787394
 30
0.0
 11
672.9421882636634
 21
20.57509308787394
 31
0.0
  0
LINE
  5
F7
330
70
100
AcDbEntity
  8
DETAIL
 62
     5
100
AcDbLine
 10
677.7421882636663
 20
21.17509308787385
 30
0.0
 11
672.3421882636721
 21
21.17509308787385
 31
0.0
  0
LINE
  5
F8
330
70
100
AcDbEntity
  8
DETAIL
 62
     5
100
AcDbLine
 10
-307.0578117363366
 20
21.17509308787385
 30
0.0
 11
-301.6578117363279
 21
21.17509308787385
 31
0.0
  0
LINE
  5
F9
330
70
100
AcDbEntity
  8
DETAIL
 62
     5
100
AcDbLine
 10
754.2421882636809
 20
29.17509308787385
 30
0.0
 11
746.7421882636808
 21
29.17509308787385
 31
0.0
  0
LINE
  5
FA
330
70
100
AcDbEntity
  8
DETAIL
 62
     5
100
AcDbLine
 10
-383.5578117363366
 20
29.17509308787385
 30
0.0
 11
-376.0578117363366
 21
29.17509308787385
 31
0.0
  0
LINE
  5
FB
330
70
100
AcDbEntity
  8
DETAIL
 62
     5
100
AcDbLine
 10
-317.557811736322
 20
-49.42490691212606
 30
0.0
 11
-317.557811736322
 21
0.5750930878739382
 31
0.0
  0
LINE
  5
FC
330
70
100
AcDbEntity
  8
DETAIL
 62
     5
100
AcDbLine
 10
-317.557811736322
 20
941.7750930878737
 30
0.0
 11
-317.557811736322
 21
991.7750930878737
 31
0.0
  0
LINE
  5
FD
330
70
100
AcDbEntity
  8
DETAIL
 62
     5
100
AcDbLine
 10
-307.0578117363366
 20
921.1750930878737
 30
0.0
 11
-307.0578117363366
 21
713.1750930878743
 31
0.0
  0
LINE
  5
FE
330
70
100
AcDbEntity
  8
DETAIL
 62
     5
100
AcDbLine
 10
-307.0578117363366
 20
229.1750930878738
 30
0.0
 11
-307.0578117363366
 21
21.17509308787385
 31
0.0
  0
LINE
  5
FF
330
70
100
AcDbEntity
  8
DETAIL
 62
     5
100
AcDbLine
 10
-305.5578117363366
 20
-49.42490691212606
 30
0.0
 11
-305.5578117363366
 21
-29.42490691212606
 31
0.0
  0
LINE
  5
100
330
70
100
AcDbEntity
  8
DETAIL
 62
     5
100
AcDbLine
 10
-305.5578117363366
 20
971.7750930878738
 30
0.0
 11
-305.5578117363366
 21
991.7750930878737
 31
0.0
  0
LINE
  5
101
330
70
100
AcDbEntity
  8
DETAIL
 62
     5
100
AcDbLine
 10
-302.2578117363337
 20
20.57509308787394
 30
0.0
 11
-302.2578117363337
 21
3.775093087873756
 31
0.0
  0
LINE
  5
102
330
70
100
AcDbEntity
  8
DETAIL
 62
     5
100
AcDbLine
 10
-302.2578117363337
 20
921.7750930878738
 30
0.0
 11
-302.2578117363337
 21
938.5750930878739
 31
0.0
  0
LINE
  5
103
330
70
100
AcDbEntity
  8
DETAIL
 62
     5
100
AcDbLine
 10
-301.8578117363249
 20
20.57509308787394
 30
0.0
 11
-301.8578117363249
 21
21.17509308787385
 31
0.0
  0
LINE
  5
104
330
70
100
AcDbEntity
  8
DETAIL
 62
     5
100
AcDbLine
 10
-301.8578117363249
 20
229.1750930878738
 30
0.0
 11
-301.8578117363249
 21
713.1750930878743
 31
0.0
  0
LINE
  5
105
330
70
100
AcDbEntity
  8
DETAIL
 62
     5
100
AcDbLine
 10
-301.8578117363249
 20
921.1750930878737
 30
0.0
 11
-301.8578117363249
 21
921.7750930878738
 31
0.0
  0
LINE
  5
106
330
70
100
AcDbEntity
  8
DETAIL
 62
     5
100
AcDbLine
 10
-301.6578117363279
 20
943.1750930878743
 30
0.0
 11
-301.6578117363279
 21
-0.8249069121261527
 31
0.0
  0
LINE
  5
107
330
70
100
AcDbEntity
  8
DETAIL
 62
     5
100
AcDbLine
 10
-300.4578117363308
 20
944.3750930878737
 30
0.0
 11
-300.4578117363308
 21
943.1750930878743
 31
0.0
  0
LINE
  5
108
330
70
100
AcDbEntity
  8
DETAIL
 62
     5
100
AcDbLine
 10
-300.4578117363308
 20
-2.02490691212597
 30
0.0
 11
-300.4578117363308
 21
-0.8249069121261527
 31
0.0
  0
LINE
  5
109
330
70
100
AcDbEntity
  8
DETAIL
 62
     5
100
AcDbLine
 10
-292.557811736322
 20
-46.22490691212624
 30
0.0
 11
-292.557811736322
 21
-49.42490691212606
 31
0.0
  0
LINE
  5
10A
330
70
100
AcDbEntity
  8
DETAIL
 62
     5
100
AcDbLine
 10
-292.557811736322
 20
-46.20788460812582
 30
0.0
 11
-292.557811736322
 21
-29.42490691212606
 31
0.0
  0
LINE
  5
10B
330
70
100
AcDbEntity
  8
DETAIL
 62
     5
100
AcDbLine
 10
-292.557811736322
 20
971.7750930878738
 30
0.0
 11
-292.557811736322
 21
988.5580707838736
 31
0.0
  0
LINE
  5
10C
330
70
100
AcDbEntity
  8
DETAIL
 62
     5
100
AcDbLine
 10
-292.557811736322
 20
988.5750930878739
 30
0.0
 11
-292.557811736322
 21
991.7750930878737
 31
0.0
  0
LINE
  5
10D
330
70
100
AcDbEntity
  8
DETAIL
 62
     5
100
AcDbLine
 10
-274.057811736322
 20
-46.22490691212624
 30
0.0
 11
-274.057811736322
 21
-49.42490691212606
 31
0.0
  0
LINE
  5
10E
330
70
100
AcDbEntity
  8
DETAIL
 62
     5
100
AcDbLine
 10
-274.057811736322
 20
-46.22490691212624
 30
0.0
 11
-274.057811736322
 21
-2.02490691212597
 31
0.0
  0
LINE
  5
10F
330
70
100
AcDbEntity
  8
DETAIL
 62
     5
100
AcDbLine
 10
-274.057811736322
 20
944.3750930878737
 30
0.0
 11
-274.057811736322
 21
988.5750930878739
 31
0.0
  0
LINE
  5
110
330
70
100
AcDbEntity
  8
DETAIL
 62
     5
100
AcDbLine
 10
-274.057811736322
 20
988.5750930878739
 30
0.0
 11
-274.057811736322
 21
991.7750930878737
 31
0.0
  0
LINE
  5
111
330
70
100
AcDbEntity
  8
DETAIL
 62
     5
100
AcDbLine
 10
-252.7578117363337
 20
-2.02490691212597
 30
0.0
 11
-252.7578117363337
 21
-115.2249069121262
 31
0.0
  0
LINE
  5
112
330
70
100
AcDbEntity
  8
DETAIL
 62
     5
100
AcDbLine
 10
754.2421882636809
 20
221.1750930878738
 30
0.0
 11
746.7421882636808
 21
221.1750930878738
 31
0.0
  0
LINE
  5
113
330
70
100
AcDbEntity
  8
DETAIL
 62
     5
100
AcDbLine
 10
-383.5578117363366
 20
221.1750930878738
 30
0.0
 11
-376.0578117363366
 21
221.1750930878738
 31
0.0
  0
LINE
  5
114
330
70
100
AcDbEntity
  8
DETAIL
 62
     5
100
AcDbLine
 10
677.7421882636663
 20
229.1750930878738
 30
0.0
 11
672.3421882636721
 21
229.1750930878738
 31
0.0
  0
LINE
  5
115
330
70
100
AcDbEntity
  8
DETAIL
 62
     5
100
AcDbLine
 10
-307.0578117363366
 20
229.1750930878738
 30
0.0
 11
-301.6578117363279
 21
229.1750930878738
 31
0.0
  0
LINE
  5
116
330
70
100
AcDbEntity
  8
DETAIL
 62
     5
100
AcDbLine
 10
-376.0578117363366
 20
221.1750930878738
 30
0.0
 11
-307.0578117363366
 21
229.1750930878738
 31
0.0
  0
LINE
  5
117
330
70
100
AcDbEntity
  8
DETAIL
 62
     5
100
AcDbLine
 10
746.7421882636808
 20
221.1750930878738
 30
0.0
 11
677.7421882636663
 21
229.1750930878738
 31
0.0
  0
LINE
  5
118
330
70
100
AcDbEntity
  8
DETAIL
 62
     5
100
AcDbLine
 10
-78.95781173633077
 20
-2.02490691212597
 30
0.0
 11
-78.95781173633077
 21
-4.724906912126243
 31
0.0
  0
LINE
  5
119
330
70
100
AcDbEntity
  8
DETAIL
 62
     5
100
AcDbLine
 10
-78.35781173632494
 20
-2.02490691212597
 30
0.0
 11
-78.35781173632494
 21
-115.2249069121262
 31
0.0
  0
LINE
  5
11A
330
70
100
AcDbEntity
  8
DETAIL
 62
     5
100
AcDbLine
 10
-51.45781173633077
 20
-16.92490691212606
 30
0.0
 11
-51.45781173633077
 21
-10.22490691212624
 31
0.0
  0
LINE
  5
11B
330
70
100
AcDbEntity
  8
DETAIL
 62
     5
100
AcDbLine
 10
-50.6578117363133
 20
-16.92490691212606
 30
0.0
 11
-50.6578117363133
 21
-6.924906912126061
 31
0.0
  0
LINE
  5
11C
330
70
100
AcDbEntity
  8
DETAIL
 62
     5
100
AcDbLine
 10
-50.6578117363133
 20
-6.924906912126061
 30
0.0
 11
-50.6578117363133
 21
1.075093087873938
 31
0.0
  0
LINE
  5
11D
330
70
100
AcDbEntity
  8
DETAIL
 62
     5
100
AcDbLine
 10
-49.85781173632495
 20
-6.924906912126061
 30
0.0
 11
-49.85781173632495
 21
-7.139266266126469
 31
0.0
  0
LINE
  5
11E
330
70
100
AcDbEntity
  8
DETAIL
 62
     5
100
AcDbLine
 10
-49.85781173632495
 20
-8.524906912126425
 30
0.0
 11
-49.85781173632495
 21
-16.92490691212606
 31
0.0
  0
LINE
  5
11F
330
70
100
AcDbEntity
  8
DETAIL
 62
     5
100
AcDbLine
 10
-49.05781173632203
 20
8.275093087874211
 30
0.0
 11
-49.05781173632203
 21
-17.72490691212624
 31
0.0
  0
LINE
  5
120
330
70
100
AcDbEntity
  8
DETAIL
 62
     5
100
AcDbLine
 10
-44.05781173632203
 20
13.27509308787421
 30
0.0
 11
-44.05781173632203
 21
14.07509308787348
 31
0.0
  0
LINE
  5
121
330
70
100
AcDbEntity
  8
DETAIL
 62
     5
100
AcDbLine
 10
419.7421882636663
 20
8.275093087874211
 30
0.0
 11
414.7421882636662
 21
13.27509308787421
 31
0.0
  0
LINE
  5
122
330
70
100
AcDbEntity
  8
DETAIL
 62
     5
100
AcDbLine
 10
746.7421882636808
 20
721.1750930878738
 30
0.0
 11
677.7421882636663
 21
713.1750930878743
 31
0.0
  0
LINE
  5
123
330
70
100
AcDbEntity
  8
DETAIL
 62
     5
100
AcDbLine
 10
-376.0578117363366
 20
721.1750930878738
 30
0.0
 11
-307.0578117363366
 21
713.1750930878743
 31
0.0
  0
LINE
  5
124
330
70
100
AcDbEntity
  8
DETAIL
 62
     5
100
AcDbLine
 10
677.7421882636663
 20
713.1750930878743
 30
0.0
 11
672.3421882636721
 21
713.1750930878743
 31
0.0
  0
LINE
  5
125
330
70
100
AcDbEntity
  8
DETAIL
 62
     5
100
AcDbLine
 10
-307.0578117363366
 20
713.1750930878743
 30
0.0
 11
-301.6578117363279
 21
713.1750930878743
 31
0.0
  0
LINE
  5
126
330
70
100
AcDbEntity
  8
DETAIL
 62
     5
100
AcDbLine
 10
754.2421882636809
 20
721.1750930878738
 30
0.0
 11
746.7421882636808
 21
721.1750930878738
 31
0.0
  0
LINE
  5
127
330
70
100
AcDbEntity
  8
DETAIL
 62
     5
100
AcDbLine
 10
-383.5578117363366
 20
721.1750930878738
 30
0.0
 11
-376.0578117363366
 21
721.1750930878738
 31
0.0
  0
LINE
  5
128
330
70
100
AcDbEntity
  8
DETAIL
  6
PHANTOM
 62
     5
100
AcDbLine
 10
456.1421882636604
 20
1019.275093087874
 30
0.0
 11
448.142188263675
 21
950.2750930878738
 31
0.0
  0
LINE
  5
129
330
70
100
AcDbEntity
  8
DETAIL
 62
     5
100
AcDbLine
 10
-44.05781173632203
 20
13.27509308787421
 30
0.0
 11
-49.05781173632203
 21
8.275093087874211
 31
0.0
  0
LINE
  5
12A
330
70
100
AcDbEntity
  8
DETAIL
  6
PHANTOM
 62
     5
100
AcDbLine
 10
456.1421882636604
 20
-76.92490691212606
 30
0.0
 11
448.142188263675
 21
-7.924906912126061
 31
0.0
  0
LINE
  5
12B
330
70
100
AcDbEntity
  8
DETAIL
 62
     5
100
AcDbLine
 10
414.7421882636662
 20
13.27509308787421
 30
0.0
 11
414.7421882636662
 21
14.07509308787348
 31
0.0
  0
LINE
  5
12C
330
70
100
AcDbEntity
  8
DETAIL
 62
     5
100
AcDbLine
 10
419.7421882636663
 20
-17.72490691212624
 30
0.0
 11
419.7421882636663
 21
8.275093087874211
 31
0.0
  0
LINE
  5
12D
330
70
100
AcDbEntity
  8
DETAIL
 62
     5
100
AcDbLine
 10
420.5421882636692
 20
-6.924906912126061
 30
0.0
 11
420.5421882636692
 21
-7.139266266126469
 31
0.0
  0
LINE
  5
12E
330
70
100
AcDbEntity
  8
DETAIL
 62
     5
100
AcDbLine
 10
420.5421882636692
 20
-16.92490691212606
 30
0.0
 11
420.5421882636692
 21
-8.524906912126425
 31
0.0
  0
LINE
  5
12F
330
70
100
AcDbEntity
  8
DETAIL
 62
     5
100
AcDbLine
 10
421.3421882636721
 20
-6.924906912126061
 30
0.0
 11
421.3421882636721
 21
-16.92490691212606
 31
0.0
  0
LINE
  5
130
330
70
100
AcDbEntity
  8
DETAIL
 62
     5
100
AcDbLine
 10
421.3421882636721
 20
-6.924906912126061
 30
0.0
 11
421.3421882636721
 21
1.075093087873938
 31
0.0
  0
LINE
  5
131
330
70
100
AcDbEntity
  8
DETAIL
 62
     5
100
AcDbLine
 10
422.142188263675
 20
-16.92490691212606
 30
0.0
 11
422.142188263675
 21
-10.22490691212624
 31
0.0
  0
LINE
  5
132
330
70
100
AcDbEntity
  8
DETAIL
  6
PHANTOM
 62
     5
100
AcDbLine
 10
448.142188263675
 20
950.2750930878738
 30
0.0
 11
448.142188263675
 21
944.3750930878737
 31
0.0
  0
LINE
  5
133
330
70
100
AcDbEntity
  8
DETAIL
  6
PHANTOM
 62
     5
100
AcDbLine
 10
448.142188263675
 20
-7.924906912126061
 30
0.0
 11
448.142188263675
 21
-2.02490691212597
 31
0.0
  0
LINE
  5
134
330
70
100
AcDbEntity
  8
DETAIL
  6
PHANTOM
 62
     5
100
AcDbLine
 10
456.1421882636604
 20
1026.775093087874
 30
0.0
 11
456.1421882636604
 21
1019.275093087874
 31
0.0
  0
LINE
  5
135
330
70
100
AcDbEntity
  8
DETAIL
  6
PHANTOM
 62
     5
100
AcDbLine
 10
456.1421882636604
 20
-84.42490691212606
 30
0.0
 11
456.1421882636604
 21
-76.92490691212606
 31
0.0
  0
LINE
  5
136
330
70
100
AcDbEntity
  8
DETAIL
 62
     5
100
AcDbLine
 10
754.2421882636809
 20
913.1750930878743
 30
0.0
 11
746.7421882636808
 21
913.1750930878743
 31
0.0
  0
LINE
  5
137
330
70
100
AcDbEntity
  8
DETAIL
 62
     5
100
AcDbLine
 10
-383.5578117363366
 20
913.1750930878743
 30
0.0
 11
-376.0578117363366
 21
913.1750930878743
 31
0.0
  0
LINE
  5
138
330
70
100
AcDbEntity
  8
DETAIL
 62
     5
100
AcDbLine
 10
677.7421882636663
 20
921.1750930878737
 30
0.0
 11
672.3421882636721
 21
921.1750930878737
 31
0.0
  0
LINE
  5
139
330
70
100
AcDbEntity
  8
DETAIL
 62
     5
100
AcDbLine
 10
-307.0578117363366
 20
921.1750930878737
 30
0.0
 11
-301.6578117363279
 21
921.1750930878737
 31
0.0
  0
LINE
  5
13A
330
70
100
AcDbEntity
  8
DETAIL
 62
     5
100
AcDbLine
 10
-301.6578117363279
 20
921.7750930878738
 30
0.0
 11
-302.2578117363337
 21
921.7750930878738
 31
0.0
  0
LINE
  5
13B
330
70
100
AcDbEntity
  8
DETAIL
 62
     5
100
AcDbLine
 10
672.3421882636721
 20
921.7750930878738
 30
0.0
 11
672.9421882636634
 21
921.7750930878738
 31
0.0
  0
LINE
  5
13C
330
70
100
AcDbEntity
  8
DETAIL
 62
     5
100
AcDbLine
 10
-376.0578117363366
 20
913.1750930878743
 30
0.0
 11
-307.0578117363366
 21
921.1750930878737
 31
0.0
  0
LINE
  5
13D
330
70
100
AcDbEntity
  8
DETAIL
 62
     5
100
AcDbLine
 10
688.2421882636808
 20
941.7750930878737
 30
0.0
 11
672.3421882636721
 21
941.7750930878737
 31
0.0
  0
LINE
  5
13E
330
70
100
AcDbEntity
  8
DETAIL
 62
     5
100
AcDbLine
 10
-317.557811736322
 20
941.7750930878737
 30
0.0
 11
-301.6578117363279
 21
941.7750930878737
 31
0.0
  0
LINE
  5
13F
330
70
100
AcDbEntity
  8
DETAIL
 62
     5
100
AcDbLine
 10
672.3421882636721
 20
943.1750930878743
 30
0.0
 11
671.1421882636605
 21
943.1750930878743
 31
0.0
  0
LINE
  5
140
330
70
100
AcDbEntity
  8
DETAIL
 62
     5
100
AcDbLine
 10
-301.6578117363279
 20
943.1750930878743
 30
0.0
 11
-300.4578117363308
 21
943.1750930878743
 31
0.0
  0
LINE
  5
141
330
70
100
AcDbEntity
  8
DETAIL
 62
     5
100
AcDbLine
 10
671.1421882636605
 20
944.3750930878737
 30
0.0
 11
-300.4578117363308
 21
944.3750930878737
 31
0.0
  0
LINE
  5
142
330
70
100
AcDbEntity
  8
DETAIL
 62
     5
100
AcDbLine
 10
-274.057811736322
 20
944.5750930878739
 30
0.0
 11
644.7421882636663
 21
944.5750930878739
 31
0.0
  0
LINE
  5
143
330
70
100
AcDbEntity
  8
DETAIL
  6
PHANTOM
 62
     5
100
AcDbLine
 10
644.7421882636663
 20
950.2750930878738
 30
0.0
 11
448.142188263675
 21
950.2750930878738
 31
0.0
  0
LINE
  5
144
330
70
100
AcDbEntity
  8
DETAIL
 62
     5
100
AcDbLine
 10
-274.057811736322
 20
988.5750930878739
 30
0.0
 11
-292.557811736322
 21
988.5750930878739
 31
0.0
  0
LINE
  5
145
330
70
100
AcDbEntity
  8
DETAIL
 62
     5
100
AcDbLine
 10
644.7421882636663
 20
988.5750930878739
 30
0.0
 11
663.2421882636808
 21
988.5750930878739
 31
0.0
  0
LINE
  5
146
330
70
100
AcDbEntity
  8
DETAIL
 62
     5
100
AcDbLine
 10
746.7421882636808
 20
913.1750930878743
 30
0.0
 11
677.7421882636663
 21
921.1750930878737
 31
0.0
  0
LINE
  5
147
330
70
100
AcDbEntity
  8
DETAIL
 62
     5
100
AcDbLine
 10
644.7421882636663
 20
-46.22490691212624
 30
0.0
 11
644.7421882636663
 21
-49.42490691212606
 31
0.0
  0
LINE
  5
148
330
70
100
AcDbEntity
  8
DETAIL
 62
     5
100
AcDbLine
 10
644.7421882636663
 20
-46.22490691212624
 30
0.0
 11
644.7421882636663
 21
-2.02490691212597
 31
0.0
  0
LINE
  5
149
330
70
100
AcDbEntity
  8
DETAIL
 62
     5
100
AcDbLine
 10
644.7421882636663
 20
944.3750930878737
 30
0.0
 11
644.7421882636663
 21
988.5750930878739
 31
0.0
  0
LINE
  5
14A
330
70
100
AcDbEntity
  8
DETAIL
 62
     5
100
AcDbLine
 10
644.7421882636663
 20
988.5750930878739
 30
0.0
 11
644.7421882636663
 21
991.7750930878737
 31
0.0
  0
LINE
  5
14B
330
70
100
AcDbEntity
  8
DETAIL
 62
     5
100
AcDbLine
 10
-305.5578117363366
 20
991.7750930878737
 30
0.0
 11
-317.557811736322
 21
991.7750930878737
 31
0.0
  0
LINE
  5
14C
330
70
100
AcDbEntity
  8
DETAIL
 62
     5
100
AcDbLine
 10
-292.557811736322
 20
991.7750930878737
 30
0.0
 11
-274.057811736322
 21
991.7750930878737
 31
0.0
  0
LINE
  5
14D
330
70
100
AcDbEntity
  8
DETAIL
 62
     5
100
AcDbLine
 10
644.7421882636663
 20
991.7750930878737
 30
0.0
 11
663.2421882636808
 21
991.7750930878737
 31
0.0
  0
LINE
  5
14E
330
70
100
AcDbEntity
  8
DETAIL
 62
     5
100
AcDbLine
 10
676.2421882636663
 20
991.7750930878737
 30
0.0
 11
688.2421882636808
 21
991.7750930878737
 31
0.0
  0
LINE
  5
14F
330
70
100
AcDbEntity
  8
DETAIL
  6
PHANTOM
 62
     5
100
AcDbLine
 10
648.142188263675
 20
1019.275093087874
 30
0.0
 11
456.1421882636604
 21
1019.275093087874
 31
0.0
  0
LINE
  5
150
330
70
100
AcDbEntity
  8
DETAIL
  6
PHANTOM
 62
     5
100
AcDbLine
 10
647.0421882636692
 20
1027.875093087874
 30
0.0
 11
457.2421882636663
 21
1027.875093087874
 31
0.0
  0
LINE
  5
151
330
70
100
AcDbEntity
  8
DETAIL
  6
PHANTOM
 62
     5
100
AcDbLine
 10
648.142188263675
 20
1026.775093087874
 30
0.0
 11
648.142188263675
 21
1019.275093087874
 31
0.0
  0
LINE
  5
152
330
70
100
AcDbEntity
  8
DETAIL
  6
PHANTOM
 62
     5
100
AcDbLine
 10
648.142188263675
 20
-84.42490691212606
 30
0.0
 11
648.142188263675
 21
-76.92490691212606
 31
0.0
  0
LINE
  5
153
330
70
100
AcDbEntity
  8
DETAIL
 62
     5
100
AcDbLine
 10
663.2421882636808
 20
-46.22490691212624
 30
0.0
 11
663.2421882636808
 21
-49.42490691212606
 31
0.0
  0
LINE
  5
154
330
70
100
AcDbEntity
  8
DETAIL
 62
     5
100
AcDbLine
 10
663.2421882636808
 20
-46.20788460812582
 30
0.0
 11
663.2421882636808
 21
-29.42490691212606
 31
0.0
  0
LINE
  5
155
330
70
100
AcDbEntity
  8
DETAIL
 62
     5
100
AcDbLine
 10
663.2421882636808
 20
971.7750930878738
 30
0.0
 11
663.2421882636808
 21
988.5580707838736
 31
0.0
  0
LINE
  5
156
330
70
100
AcDbEntity
  8
DETAIL
 62
     5
100
AcDbLine
 10
663.2421882636808
 20
988.5750930878739
 30
0.0
 11
663.2421882636808
 21
991.7750930878737
 31
0.0
  0
LINE
  5
157
330
70
100
AcDbEntity
  8
DETAIL
 62
     5
100
AcDbLine
 10
671.1421882636605
 20
944.3750930878737
 30
0.0
 11
671.1421882636605
 21
943.1750930878743
 31
0.0
  0
LINE
  5
158
330
70
100
AcDbEntity
  8
DETAIL
 62
     5
100
AcDbLine
 10
671.1421882636605
 20
-2.02490691212597
 30
0.0
 11
671.1421882636605
 21
-0.8249069121261527
 31
0.0
  0
LINE
  5
159
330
70
100
AcDbEntity
  8
DETAIL
 62
     5
100
AcDbLine
 10
672.3421882636721
 20
-0.8249069121261527
 30
0.0
 11
672.3421882636721
 21
943.1750930878743
 31
0.0
  0
LINE
  5
15A
330
70
100
AcDbEntity
  8
DETAIL
 62
     5
100
AcDbLine
 10
672.5421882636692
 20
921.7750930878738
 30
0.0
 11
672.5421882636692
 21
921.1750930878737
 31
0.0
  0
LINE
  5
15B
330
70
100
AcDbEntity
  8
DETAIL
 62
     5
100
AcDbLine
 10
672.5421882636692
 20
713.1750930878743
 30
0.0
 11
672.5421882636692
 21
229.1750930878738
 31
0.0
  0
LINE
  5
15C
330
70
100
AcDbEntity
  8
DETAIL
 62
     5
100
AcDbLine
 10
672.5421882636692
 20
21.17509308787385
 30
0.0
 11
672.5421882636692
 21
20.57509308787394
 31
0.0
  0
LINE
  5
15D
330
70
100
AcDbEntity
  8
DETAIL
 62
     5
100
AcDbLine
 10
672.9421882636634
 20
20.57509308787394
 30
0.0
 11
672.9421882636634
 21
3.775093087873756
 31
0.0
  0
LINE
  5
15E
330
70
100
AcDbEntity
  8
DETAIL
 62
     5
100
AcDbLine
 10
672.9421882636634
 20
921.7750930878738
 30
0.0
 11
672.9421882636634
 21
938.5750930878739
 31
0.0
  0
LINE
  5
15F
330
70
100
AcDbEntity
  8
DETAIL
 62
     5
100
AcDbLine
 10
676.2421882636663
 20
-49.42490691212606
 30
0.0
 11
676.2421882636663
 21
-29.42490691212606
 31
0.0
  0
LINE
  5
160
330
70
100
AcDbEntity
  8
DETAIL
 62
     5
100
AcDbLine
 10
676.2421882636663
 20
971.7750930878738
 30
0.0
 11
676.2421882636663
 21
991.7750930878737
 31
0.0
  0
LINE
  5
161
330
70
100
AcDbEntity
  8
DETAIL
 62
     5
100
AcDbLine
 10
677.7421882636663
 20
21.17509308787385
 30
0.0
 11
677.7421882636663
 21
229.1750930878738
 31
0.0
  0
LINE
  5
162
330
70
100
AcDbEntity
  8
DETAIL
 62
     5
100
AcDbLine
 10
677.7421882636663
 20
713.1750930878743
 30
0.0
 11
677.7421882636663
 21
921.1750930878737
 31
0.0
  0
LINE
  5
163
330
70
100
AcDbEntity
  8
DETAIL
 62
     5
100
AcDbLine
 10
688.2421882636808
 20
-49.42490691212606
 30
0.0
 11
688.2421882636808
 21
0.5750930878739382
 31
0.0
  0
LINE
  5
164
330
70
100
AcDbEntity
  8
DETAIL
 62
     5
100
AcDbLine
 10
688.2421882636808
 20
941.7750930878737
 30
0.0
 11
688.2421882636808
 21
991.7750930878737
 31
0.0
  0
LINE
  5
165
330
70
100
AcDbEntity
  8
DETAIL
  6
PHANTOM
 62
     5
100
AcDbLine
 10
648.142188263675
 20
1019.275093087874
 30
0.0
 11
651.3305940606624
 21
991.7750930878737
 31
0.0
  0
LINE
  5
166
330
70
100
AcDbEntity
  8
DETAIL
 62
     5
100
AcDbLine
 10
746.7421882636808
 20
29.17509308787385
 30
0.0
 11
746.7421882636808
 21
221.1750930878738
 31
0.0
  0
LINE
  5
167
330
70
100
AcDbEntity
  8
DETAIL
 62
     5
100
AcDbLine
 10
746.7421882636808
 20
721.1750930878738
 30
0.0
 11
746.7421882636808
 21
913.1750930878743
 31
0.0
  0
LINE
  5
168
330
70
100
AcDbEntity
  8
DETAIL
 62
     5
100
AcDbLine
 10
755.3421882636576
 20
30.27509308787376
 30
0.0
 11
755.3421882636576
 21
220.075093087874
 31
0.0
  0
LINE
  5
169
330
70
100
AcDbEntity
  8
DETAIL
 62
     5
100
AcDbLine
 10
755.3421882636576
 20
722.2750930878742
 30
0.0
 11
755.3421882636576
 21
912.075093087874
 31
0.0
  0
LINE
  5
16A
330
70
100
AcDbEntity
  8
DETAIL
  6
PHANTOM
 62
     5
100
AcDbLine
 10
648.142188263675
 20
-76.92490691212606
 30
0.0
 11
651.3305940606624
 21
-49.42490691212606
 31
0.0
  0
ARC
  5
16B
330
70
100
AcDbEntity
  8
DETAIL
 62
     5
100
AcDbCircle
 10
-383.5578117363366
 20
30.27509308787376
 30
0.0
 40
1.1
100
AcDbArc
 50
180.0
 51
270.0
  0
ARC
  5
16C
330
70
100
AcDbEntity
  8
DETAIL
 62
     5
100
AcDbCircle
 10
-262.7578117363337
 20
3.797593087873792
 30
0.0
 40
6.522499999999999
100
AcDbArc
 50
243.4658164428978
 51
296.5341835571022
  0
ARC
  5
16D
330
70
100
AcDbEntity
  8
DETAIL
 62
     5
100
AcDbCircle
 10
-299.0578117363221
 20
-29.42490691212606
 30
0.0
 40
6.5
100
AcDbArc
 50
0.0
 51
180.0
  0
ARC
  5
16E
330
70
100
AcDbEntity
  8
DETAIL
 62
     5
100
AcDbCircle
 10
-305.4578117373349
 20
3.775093087873756
 30
0.0
 40
3.2
100
AcDbArc
 50
270.4462110648941
 51
0.0
  0
ARC
  5
16F
330
70
100
AcDbEntity
  8
DETAIL
 62
     5
100
AcDbCircle
 10
-383.5578117363366
 20
220.075093087874
 30
0.0
 40
1.1
100
AcDbArc
 50
90.0
 51
180.0
  0
ARC
  5
170
330
70
100
AcDbEntity
  8
DETAIL
 62
     5
100
AcDbCircle
 10
-49.05781173632203
 20
-8.524906912126425
 30
0.0
 40
1.6
100
AcDbArc
 50
90.0
 51
180.0
  0
ARC
  5
171
330
70
100
AcDbEntity
  8
DETAIL
 62
     5
100
AcDbCircle
 10
-49.05781173632203
 20
-8.524906912126425
 30
0.0
 40
0.8
100
AcDbArc
 50
90.0
 51
180.0
  0
ARC
  5
172
330
70
100
AcDbEntity
  8
DETAIL
 62
     5
100
AcDbCircle
 10
-50.6578117363133
 20
-16.92490691212606
 30
0.0
 40
0.8
100
AcDbArc
 50
180.0
 51
0.0
  0
ARC
  5
173
330
70
100
AcDbEntity
  8
DETAIL
 62
     5
100
AcDbCircle
 10
-383.5578117363366
 20
722.2750930878742
 30
0.0
 40
1.1
100
AcDbArc
 50
180.0
 51
270.0
  0
ARC
  5
174
330
70
100
AcDbEntity
  8
DETAIL
 62
     5
100
AcDbCircle
 10
-299.0578117363221
 20
971.7750930878738
 30
0.0
 40
6.5
100
AcDbArc
 50
180.0
 51
0.0
  0
ARC
  5
175
330
70
100
AcDbEntity
  8
DETAIL
 62
     5
100
AcDbCircle
 10
-305.4578117363308
 20
938.5750930878739
 30
0.0
 40
3.2
100
AcDbArc
 50
0.0
 51
89.55378893573124
  0
ARC
  5
176
330
70
100
AcDbEntity
  8
DETAIL
 62
     5
100
AcDbCircle
 10
-383.5578117363366
 20
912.075093087874
 30
0.0
 40
1.1
100
AcDbArc
 50
90.0
 51
180.0
  0
ARC
  5
177
330
70
100
AcDbEntity
  8
DETAIL
  6
PHANTOM
 62
     5
100
AcDbCircle
 10
457.2421882636663
 20
-84.42490691212606
 30
0.0
 40
1.1
100
AcDbArc
 50
180.0
 51
270.0
  0
ARC
  5
178
330
70
100
AcDbEntity
  8
DETAIL
 62
     5
100
AcDbCircle
 10
421.3421882636721
 20
-16.92490691212606
 30
0.0
 40
0.8
100
AcDbArc
 50
180.0
 51
0.0
  0
ARC
  5
179
330
70
100
AcDbEntity
  8
DETAIL
 62
     5
100
AcDbCircle
 10
419.7421882636663
 20
-8.524906912126425
 30
0.0
 40
1.6
100
AcDbArc
 50
0.0
 51
90.0
  0
ARC
  5
17A
330
70
100
AcDbEntity
  8
DETAIL
 62
     5
100
AcDbCircle
 10
419.7421882636663
 20
-8.524906912126425
 30
0.0
 40
0.8
100
AcDbArc
 50
0.0
 51
90.0
  0
ARC
  5
17B
330
70
100
AcDbEntity
  8
DETAIL
 62
     5
100
AcDbCircle
 10
669.7421882636663
 20
-29.42490691212606
 30
0.0
 40
6.5
100
AcDbArc
 50
0.0
 51
180.0
  0
ARC
  5
17C
330
70
100
AcDbEntity
  8
DETAIL
  6
PHANTOM
 62
     5
100
AcDbCircle
 10
647.0421882636692
 20
-84.42490691212606
 30
0.0
 40
1.1
100
AcDbArc
 50
270.0
 51
0.0
  0
ARC
  5
17D
330
70
100
AcDbEntity
  8
DETAIL
 62
     5
100
AcDbCircle
 10
631.3381477556795
 20
3.497593087874065
 30
0.0
 40
6.522499999999999
100
AcDbArc
 50
237.9661168110678
 51
302.0338831889322
  0
ARC
  5
17E
330
70
100
AcDbEntity
  8
DETAIL
 62
     5
100
AcDbCircle
 10
666.3196882636657
 20
45.97913359487392
 30
0.0
 40
6.522499999999999
100
AcDbArc
 50
337.5042102383021
 51
22.49578976169791
  0
ARC
  5
17F
330
70
100
AcDbEntity
  8
DETAIL
 62
     5
100
AcDbCircle
 10
676.1421882636605
 20
3.775093087873756
 30
0.0
 40
3.2
100
AcDbArc
 50
180.000000000495
 51
269.553788935106
  0
ARC
  5
180
330
70
100
AcDbEntity
  8
DETAIL
 62
     5
100
AcDbCircle
 10
754.2421882636809
 20
30.27509308787376
 30
0.0
 40
1.1
100
AcDbArc
 50
270.0
 51
0.0
  0
ARC
  5
181
330
70
100
AcDbEntity
  8
DETAIL
 62
     5
100
AcDbCircle
 10
754.2421882636809
 20
220.075093087874
 30
0.0
 40
1.1
100
AcDbArc
 50
0.0
 51
90.0
  0
ARC
  5
182
330
70
100
AcDbEntity
  8
DETAIL
  6
PHANTOM
 62
     5
100
AcDbCircle
 10
457.2421882636663
 20
1026.775093087874
 30
0.0
 40
1.1
100
AcDbArc
 50
90.0
 51
180.0
  0
ARC
  5
183
330
70
100
AcDbEntity
  8
DETAIL
 62
     5
100
AcDbCircle
 10
666.3196882636657
 20
737.9791335948739
 30
0.0
 40
6.522499999999999
100
AcDbArc
 50
337.5042102383021
 51
22.49578976169791
  0
ARC
  5
184
330
70
100
AcDbEntity
  8
DETAIL
 62
     5
100
AcDbCircle
 10
754.2421882636809
 20
722.2750930878742
 30
0.0
 40
1.1
100
AcDbArc
 50
270.0
 51
0.0
  0
ARC
  5
185
330
70
100
AcDbEntity
  8
DETAIL
 62
     5
100
AcDbCircle
 10
676.1421882636605
 20
938.5750930878739
 30
0.0
 40
3.2
100
AcDbArc
 50
90.44621106458142
 51
180.0
  0
ARC
  5
186
330
70
100
AcDbEntity
  8
DETAIL
 62
     5
100
AcDbCircle
 10
669.7421882636663
 20
971.7750930878738
 30
0.0
 40
6.5
100
AcDbArc
 50
180.0
 51
0.0
  0
ARC
  5
187
330
70
100
AcDbEntity
  8
DETAIL
  6
PHANTOM
 62
     5
100
AcDbCircle
 10
647.0421882636692
 20
1026.775093087874
 30
0.0
 40
1.1
100
AcDbArc
 50
0.0
 51
90.0
  0
ARC
  5
188
330
70
100
AcDbEntity
  8
DETAIL
 62
     5
100
AcDbCircle
 10
754.2421882636809
 20
912.075093087874
 30
0.0
 40
1.1
100
AcDbArc
 50
0.0
 51
90.0
  0
SPLINE
  5
189
330
70
100
AcDbEntity
  8
DETAIL
 62
     5
100
AcDbSpline
210
0.0
220
0.0
230
1.0
 70
     8
 71
     3
 72
    19
 73
    15
 74
     0
 42
0.0000001
 43
0.0000000001
 40
0.0
 40
0.0
 40
0.0
 40
0.0
 40
0.125
 40
0.1875
 40
0.25
 40
0.3125
 40
0.375
 40
0.5
 40
0.625
 40
0.6875
 40
0.75
 40
0.8125
 40
0.875
 40
1.0
 40
1.0
 40
1.0
 40
1.0
 10
631.3381477556795
 20
-3.024906912125516
 30
0.0
 10
631.3542465126629
 20
-3.024747965126152
 30
0.0
 10
631.377763399676
 20
-3.024578091126386
 30
0.0
 10
631.4116442436752
 20
-3.024077408125776
 30
0.0
 10
631.4428021106833
 20
-3.022927192126189
 30
0.0
 10
631.4738279936682
 20
-3.022092556126153
 30
0.0
 10
631.5082367736722
 20
-3.020329549126472
 30
0.0
 10
631.5432999526637
 20
-3.018788061126542
 30
0.0
 10
631.5986962376737
 20
-3.014268534126131
 30
0.0
 10
631.636636074687
 20
-3.011284925125437
 30
0.0
 10
631.6599192696704
 20
-3.008790589125965
 30
0.0
 10
631.6828710036752
 20
-3.00671193012613
 30
0.0
 10
631.7221366846606
 20
-3.002065611126454
 30
0.0
 10
631.7536965426661
 20
-2.99818145712561
 30
0.0
 10
631.7742674266737
 20
-2.995680779125905
 30
0.0
  0
SPLINE
  5
18A
330
70
100
AcDbEntity
  8
DETAIL
 62
     5
100
AcDbSpline
210
0.0
220
0.0
230
1.0
 70
     8
 71
     3
 72
    21
 73
    17
 74
     0
 42
0.0000001
 43
0.0000000001
 40
0.0
 40
0.0
 40
0.0
 40
0.0
 40
0.125
 40
0.1875
 40
0.25
 40
0.3125
 40
0.375
 40
0.4375
 40
0.5
 40
0.5625
 40
0.625
 40
0.6875
 40
0.75
 40
0.8125
 40
0.875
 40
1.0
 40
1.0
 40
1.0
 40
1.0
 10
631.774267431665
 20
-2.995680779125905
 30
0.0
 10
631.8182508786667
 20
-2.988565180125988
 30
0.0
 10
631.8836295096807
 20
-2.978371044126106
 30
0.0
 10
631.9731871736694
 20
-2.962861814125972
 30
0.0
 10
632.0456070476612
 20
-2.945931389126599
 30
0.0
 10
632.1182613646779
 20
-2.930971250126276
 30
0.0
 10
632.184726282674
 20
-2.913428468126312
 30
0.0
 10
632.2500091556831
 20
-2.89463454812585
 30
0.0
 10
632.3133570066675
 20
-2.878622108125455
 30
0.0
 10
632.3856269896751
 20
-2.852734889126168
 30
0.0
 10
632.4559693306619
 20
-2.829572800125788
 30
0.0
 10
632.5251001076794
 20
-2.805384968125508
 30
0.0
 10
632.5879210536623
 20
-2.779242468126085
 30
0.0
 10
632.6510254296699
 20
-2.755279364126181
 30
0.0
 10
632.7420660806783
 20
-2.71431133512624
 30
0.0
 10
632.8121191776845
 20
-2.681694240126034
 30
0.0
 10
632.8584273286651
 20
-2.660369748125958
 30
0.0
  0
SPLINE
  5
18B
330
70
100
AcDbEntity
  8
DETAIL
 62
     5
100
AcDbSpline
210
0.0
220
0.0
230
1.0
 70
     8
 71
     3
 72
    21
 73
    17
 74
     0
 42
0.0000001
 43
0.0000000001
 40
0.0
 40
0.0
 40
0.0
 40
0.0
 40
0.125
 40
0.1875
 40
0.25
 40
0.3125
 40
0.375
 40
0.4375
 40
0.5
 40
0.5625
 40
0.625
 40
0.6875
 40
0.75
 40
0.8125
 40
0.875
 40
1.0
 40
1.0
 40
1.0
 40
1.0
 10
630.9020280806544
 20
-2.995680779125905
 30
0.0
 10
630.8580446336673
 20
-2.988565180125988
 30
0.0
 10
630.7926660016782
 20
-2.978371044126106
 30
0.0
 10
630.7031083386646
 20
-2.962861814125972
 30
0.0
 10
630.6306884646728
 20
-2.945931389126599
 30
0.0
 10
630.5580341466812
 20
-2.930971250126276
 30
0.0
 10
630.4915692296745
 20
-2.913428468126312
 30
0.0
 10
630.42628635668
 20
-2.89463454812585
 30
0.0
 10
630.3629385056665
 20
-2.878622108125455
 30
0.0
 10
630.2906685226735
 20
-2.852734889126168
 30
0.0
 10
630.2203261816721
 20
-2.829572800125788
 30
0.0
 10
630.1511954046691
 20
-2.805384968125508
 30
0.0
 10
630.0883744586717
 20
-2.779242468126085
 30
0.0
 10
630.025270082664
 20
-2.755279364126181
 30
0.0
 10
629.9342294316702
 20
-2.71431133512624
 30
0.0
 10
629.8641763346786
 20
-2.681694240126034
 30
0.0
 10
629.8178681826794
 20
-2.660369748125958
 30
0.0
  0
SPLINE
  5
18C
330
70
100
AcDbEntity
  8
DETAIL
 62
     5
100
AcDbSpline
210
0.0
220
0.0
230
1.0
 70
     8
 71
     3
 72
    19
 73
    15
 74
     0
 42
0.0000001
 43
0.0000000001
 40
0.0
 40
0.0
 40
0.0
 40
0.0
 40
0.125
 40
0.1875
 40
0.25
 40
0.3125
 40
0.375
 40
0.5
 40
0.625
 40
0.6875
 40
0.75
 40
0.8125
 40
0.875
 40
1.0
 40
1.0
 40
1.0
 40
1.0
 10
631.3381477556795
 20
-3.024906912125516
 30
0.0
 10
631.3220489996711
 20
-3.024747965126152
 30
0.0
 10
631.2985321126725
 20
-3.024578091126386
 30
0.0
 10
631.2646512686733
 20
-3.024077408125776
 30
0.0
 10
631.2334934016798
 20
-3.022927192126189
 30
0.0
 10
631.2024675186803
 20
-3.022092556126153
 30
0.0
 10
631.1680587376722
 20
-3.020329549126472
 30
0.0
 10
631.1329955586661
 20
-3.018788061126542
 30
0.0
 10
631.0775992746748
 20
-3.014268534126131
 30
0.0
 10
631.0396594376761
 20
-3.011284925125437
 30
0.0
 10
631.0163762426636
 20
-3.008790589125965
 30
0.0
 10
630.9934245086733
 20
-3.00671193012613
 30
0.0
 10
630.9541588276734
 20
-3.002065611126454
 30
0.0
 10
630.9225989696678
 20
-2.99818145712561
 30
0.0
 10
630.9020280856603
 20
-2.995680779125905
 30
0.0
  0
SPLINE
  5
18D
330
70
100
AcDbEntity
  8
DETAIL
 62
     5
100
AcDbSpline
210
0.0
220
0.0
230
1.0
 70
     8
 71
     3
 72
    19
 73
    15
 74
     0
 42
0.0000001
 43
0.0000000001
 40
0.0
 40
0.0
 40
0.0
 40
0.0
 40
0.125
 40
0.1875
 40
0.25
 40
0.3125
 40
0.375
 40
0.5
 40
0.625
 40
0.6875
 40
0.75
 40
0.8125
 40
0.875
 40
1.0
 40
1.0
 40
1.0
 40
1.0
 10
-262.7578117363337
 20
-2.724906912126243
 30
0.0
 10
-262.7417129803252
 20
-2.72474796512597
 30
0.0
 10
-262.7181960933267
 20
-2.724578091126204
 30
0.0
 10
-262.6843152493275
 20
-2.724077408126049
 30
0.0
 10
-262.653157382334
 20
-2.722927192126007
 30
0.0
 10
-262.6221314993345
 20
-2.722092556125971
 30
0.0
 10
-262.5877227183409
 20
-2.720329549125835
 30
0.0
 10
-262.5526595403389
 20
-2.718788061125906
 30
0.0
 10
-262.497263255329
 20
-2.714268534126404
 30
0.0
 10
-262.4593234183303
 20
-2.711284925126165
 30
0.0
 10
-262.4360402233179
 20
-2.708790589126692
 30
0.0
 10
-262.4130884893275
 20
-2.706711930125948
 30
0.0
 10
-262.3738228083275
 20
-2.702065611126272
 30
0.0
 10
-262.342262950322
 20
-2.698181457126338
 30
0.0
 10
-262.321692066329
 20
-2.695680779125723
 30
0.0
  0
SPLINE
  5
18E
330
70
100
AcDbEntity
  8
DETAIL
 62
     5
100
AcDbSpline
210
0.0
220
0.0
230
1.0
 70
     8
 71
     3
 72
    21
 73
    17
 74
     0
 42
0.0000001
 43
0.0000000001
 40
0.0
 40
0.0
 40
0.0
 40
0.0
 40
0.125
 40
0.1875
 40
0.25
 40
0.3125
 40
0.375
 40
0.4375
 40
0.5
 40
0.5625
 40
0.625
 40
0.6875
 40
0.75
 40
0.8125
 40
0.875
 40
1.0
 40
1.0
 40
1.0
 40
1.0
 10
-262.3216920613377
 20
-2.695680779125723
 30
0.0
 10
-262.2777086143214
 20
-2.688565180125806
 30
0.0
 10
-262.2123299823325
 20
-2.678371044125924
 30
0.0
 10
-262.1227723193333
 20
-2.66286181412579
 30
0.0
 10
-262.050352445327
 20
-2.645931389125962
 30
0.0
 10
-261.9776981273353
 20
-2.630971250126094
 30
0.0
 10
-261.9112332103286
 20
-2.61342846812613
 30
0.0
 10
-261.8459503373342
 20
-2.594634548125668
 30
0.0
 10
-261.7826024863207
 20
-2.578622108126182
 30
0.0
 10
-261.7103325033276
 20
-2.552734889125986
 30
0.0
 10
-261.6399901623263
 20
-2.529572800126516
 30
0.0
 10
-261.5708593853378
 20
-2.505384968126236
 30
0.0
 10
-261.5080384393259
 20
-2.479242468126358
 30
0.0
 10
-261.4449340633182
 20
-2.455279364125999
 30
0.0
 10
-261.3538934123389
 20
-2.414311335125603
 30
0.0
 10
-261.2838403153328
 20
-2.381694240126307
 30
0.0
 10
-261.2375321633335
 20
-2.360369748126231
 30
0.0
  0
SPLINE
  5
18F
330
70
100
AcDbEntity
  8
DETAIL
 62
     5
100
AcDbSpline
210
0.0
220
0.0
230
1.0
 70
     8
 71
     3
 72
    21
 73
    17
 74
     0
 42
0.0000001
 43
0.0000000001
 40
0.0
 40
0.0
 40
0.0
 40
0.0
 40
0.125
 40
0.1875
 40
0.25
 40
0.3125
 40
0.375
 40
0.4375
 40
0.5
 40
0.5625
 40
0.625
 40
0.6875
 40
0.75
 40
0.8125
 40
0.875
 40
1.0
 40
1.0
 40
1.0
 40
1.0
 10
-263.1939314123338
 20
-2.695680779125723
 30
0.0
 10
-263.2379148593209
 20
-2.688565180125806
 30
0.0
 10
-263.3032934913245
 20
-2.678371044125924
 30
0.0
 10
-263.3928511543236
 20
-2.66286181412579
 30
0.0
 10
-263.4652710283444
 20
-2.645931389125962
 30
0.0
 10
-263.5379253463216
 20
-2.630971250126094
 30
0.0
 10
-263.6043902633282
 20
-2.61342846812613
 30
0.0
 10
-263.6696731363227
 20
-2.594634548125668
 30
0.0
 10
-263.7330209873216
 20
-2.578622108126182
 30
0.0
 10
-263.8052909703292
 20
-2.552734889125986
 30
0.0
 10
-263.8756333113452
 20
-2.529572800126516
 30
0.0
 10
-263.9447640883336
 20
-2.505384968126236
 30
0.0
 10
-264.007585034331
 20
-2.479242468126358
 30
0.0
 10
-264.0706894103241
 20
-2.455279364125999
 30
0.0
 10
-264.1617300613179
 20
-2.414311335125603
 30
0.0
 10
-264.2317831583241
 20
-2.381694240126307
 30
0.0
 10
-264.2780913103234
 20
-2.360369748126231
 30
0.0
  0
SPLINE
  5
190
330
70
100
AcDbEntity
  8
DETAIL
 62
     5
100
AcDbSpline
210
0.0
220
0.0
230
1.0
 70
     8
 71
     3
 72
    19
 73
    15
 74
     0
 42
0.0000001
 43
0.0000000001
 40
0.0
 40
0.0
 40
0.0
 40
0.0
 40
0.125
 40
0.1875
 40
0.25
 40
0.3125
 40
0.375
 40
0.5
 40
0.625
 40
0.6875
 40
0.75
 40
0.8125
 40
0.875
 40
1.0
 40
1.0
 40
1.0
 40
1.0
 10
-262.7578117363337
 20
-2.724906912126243
 30
0.0
 10
-262.7739104933316
 20
-2.72474796512597
 30
0.0
 10
-262.7974273803302
 20
-2.724578091126204
 30
0.0
 10
-262.8313082243294
 20
-2.724077408126049
 30
0.0
 10
-262.8624660913228
 20
-2.722927192126007
 30
0.0
 10
-262.893491974337
 20
-2.722092556125971
 30
0.0
 10
-262.9279007553159
 20
-2.720329549125835
 30
0.0
 10
-262.9629639333325
 20
-2.718788061125906
 30
0.0
 10
-263.0183602183279
 20
-2.714268534126404
 30
0.0
 10
-263.0563000553266
 20
-2.711284925126165
 30
0.0
 10
-263.0795832503245
 20
-2.708790589126692
 30
0.0
 10
-263.1025349843294
 20
-2.706711930125948
 30
0.0
 10
-263.1418006653293
 20
-2.702065611126272
 30
0.0
 10
-263.1733605233348
 20
-2.698181457126338
 30
0.0
 10
-263.1939314073279
 20
-2.695680779125723
 30
0.0
  0
SPLINE
  5
191
330
70
100
AcDbEntity
  8
DETAIL
 62
     5
100
AcDbSpline
210
0.0
220
0.0
230
1.0
 70
     8
 71
     3
 72
    21
 73
    17
 74
     0
 42
0.0000001
 43
0.0000000001
 40
0.0
 40
0.0
 40
0.0
 40
0.0
 40
0.125
 40
0.1875
 40
0.25
 40
0.3125
 40
0.375
 40
0.4375
 40
0.5
 40
0.5625
 40
0.625
 40
0.6875
 40
0.75
 40
0.8125
 40
0.875
 40
1.0
 40
1.0
 40
1.0
 40
1.0
 10
672.8129621296793
 20
46.41525326987357
 30
0.0
 10
672.8058465306785
 20
46.45923671687341
 30
0.0
 10
672.7956523956781
 20
46.52461534887424
 30
0.0
 10
672.7801431656662
 20
46.61417301287383
 30
0.0
 10
672.7632127396755
 20
46.68659288687377
 30
0.0
 10
672.7482526006752
 20
46.75924720387365
 30
0.0
 10
672.7307098186684
 20
46.82571212187349
 30
0.0
 10
672.7119158996757
 20
46.89099499387339
 30
0.0
 10
672.6959034596766
 20
46.95434284487373
 30
0.0
 10
672.6700162406741
 20
47.02661282787448
 30
0.0
 10
672.6468541516769
 20
47.09695516887404
 30
0.0
 10
672.6226663196684
 20
47.16608594587341
 30
0.0
 10
672.5965238186727
 20
47.22890689287396
 30
0.0
 10
672.5725607146705
 20
47.29201126887346
 30
0.0
 10
672.5315926856674
 20
47.38305191887412
 30
0.0
 10
672.4989755906681
 20
47.45310501687436
 30
0.0
 10
672.4776510986812
 20
47.49941316787408
 30
0.0
  0
SPLINE
  5
192
330
70
100
AcDbEntity
  8
DETAIL
 62
     5
100
AcDbSpline
210
0.0
220
0.0
230
1.0
 70
     8
 71
     3
 72
    19
 73
    15
 74
     0
 42
0.0000001
 43
0.0000000001
 40
0.0
 40
0.0
 40
0.0
 40
0.0
 40
0.125
 40
0.1875
 40
0.25
 40
0.3125
 40
0.375
 40
0.5
 40
0.625
 40
0.6875
 40
0.75
 40
0.8125
 40
0.875
 40
1.0
 40
1.0
 40
1.0
 40
1.0
 10
672.8421882636576
 20
45.97913359487392
 30
0.0
 10
672.8420293166818
 20
45.99523235187371
 30
0.0
 10
672.841859442673
 20
46.01874923787363
 30
0.0
 10
672.8413587596697
 20
46.05263008287375
 30
0.0
 10
672.8402085426605
 20
46.08378794987402
 30
0.0
 10
672.8393739076673
 20
46.11481383287355
 30
0.0
 10
672.8376109006603
 20
46.14922261287392
 30
0.0
 10
672.8360694126713
 20
46.18428579187366
 30
0.0
 10
672.8315498856791
 20
46.23968207687403
 30
0.0
 10
672.8285662756643
 20
46.27762191287411
 30
0.0
 10
672.8260719396748
 20
46.30090510887384
 30
0.0
 10
672.8239932816759
 20
46.32385684287419
 30
0.0
 10
672.8193469616635
 20
46.36312252287416
 30
0.0
 10
672.8154628076699
 20
46.39468238187373
 30
0.0
 10
672.8129621306688
 20
46.41525326587407
 30
0.0
  0
SPLINE
  5
193
330
70
100
AcDbEntity
  8
DETAIL
 62
     5
100
AcDbSpline
210
0.0
220
0.0
230
1.0
 70
     8
 71
     3
 72
    21
 73
    17
 74
     0
 42
0.0000001
 43
0.0000000001
 40
0.0
 40
0.0
 40
0.0
 40
0.0
 40
0.125
 40
0.1875
 40
0.25
 40
0.3125
 40
0.375
 40
0.4375
 40
0.5
 40
0.5625
 40
0.625
 40
0.6875
 40
0.75
 40
0.8125
 40
0.875
 40
1.0
 40
1.0
 40
1.0
 40
1.0
 10
672.4776510956835
 20
44.45885401587384
 30
0.0
 10
672.4971498096675
 20
44.50092252587455
 30
0.0
 10
672.5264812376662
 20
44.56334174887433
 30
0.0
 10
672.5652563816656
 20
44.64930154887406
 30
0.0
 10
672.5926231246667
 20
44.72010754087387
 30
0.0
 10
672.6219186866619
 20
44.79054501487417
 30
0.0
 10
672.6452135856634
 20
44.8561204198736
 30
0.0
 10
672.6666737676823
 20
44.92099097887421
 30
0.0
 10
672.6895192076735
 20
44.98328216887421
 30
0.0
 10
672.7086583296731
 20
45.05659568387409
 30
0.0
 10
672.7291358626644
 20
45.12735316687394
 30
0.0
 10
672.7479660686622
 20
45.19731245187358
 30
0.0
 10
672.7612951666633
 20
45.26211487587397
 30
0.0
 10
672.7767720216616
 20
45.32653157287405
 30
0.0
 10
672.7932879306863
 20
45.42135352287369
 30
0.0
 10
672.8050028476827
 20
45.49463895287408
 30
0.0
 10
672.8129621286752
 20
45.5430139128739
 30
0.0
  0
SPLINE
  5
194
330
70
100
AcDbEntity
  8
DETAIL
 62
     5
100
AcDbSpline
210
0.0
220
0.0
230
1.0
 70
     8
 71
     3
 72
    19
 73
    15
 74
     0
 42
0.0000001
 43
0.0000000001
 40
0.0
 40
0.0
 40
0.0
 40
0.0
 40
0.125
 40
0.1875
 40
0.25
 40
0.3125
 40
0.375
 40
0.5
 40
0.625
 40
0.6875
 40
0.75
 40
0.8125
 40
0.875
 40
1.0
 40
1.0
 40
1.0
 40
1.0
 10
672.8129621296793
 20
45.54301391987337
 30
0.0
 10
672.8149567456675
 20
45.55905116887425
 30
0.0
 10
672.8179324936754
 20
45.58247403887389
 30
0.0
 10
672.8219648636841
 20
45.61623654687401
 30
0.0
 10
672.8249864736681
 20
45.64733170887393
 30
0.0
 10
672.8283045996759
 20
45.678274377874
 30
0.0
 10
672.8311509016602
 20
45.71264685987398
 30
0.0
 10
672.8343052416712
 20
45.74765599687362
 30
0.0
 10
672.837213986666
 20
45.80310625487391
 30
0.0
 10
672.8393173556797
 20
45.84107558587357
 30
0.0
 10
672.8399478066676
 20
45.86442123387405
 30
0.0
 10
672.8409477456698
 20
45.88740911287368
 30
0.0
 10
672.8415731576642
 20
45.92680952187402
 30
0.0
 10
672.8419268366669
 20
45.95848767587404
 30
0.0
 10
672.8421882636576
 20
45.97913359087397
 30
0.0
  0
SPLINE
  5
195
330
70
100
AcDbEntity
  8
DETAIL
 62
     5
100
AcDbSpline
210
0.0
220
0.0
230
1.0
 70
     8
 71
     3
 72
    21
 73
    17
 74
     0
 42
0.0000001
 43
0.0000000001
 40
0.0
 40
0.0
 40
0.0
 40
0.0
 40
0.125
 40
0.1875
 40
0.25
 40
0.3125
 40
0.375
 40
0.4375
 40
0.5
 40
0.5625
 40
0.625
 40
0.6875
 40
0.75
 40
0.8125
 40
0.875
 40
1.0
 40
1.0
 40
1.0
 40
1.0
 10
672.8129621296793
 20
738.415253269874
 30
0.0
 10
672.8058465306785
 20
738.4592367168743
 30
0.0
 10
672.7956523956781
 20
738.5246153488737
 30
0.0
 10
672.7801431656662
 20
738.6141730128738
 30
0.0
 10
672.7632127396755
 20
738.6865928868742
 30
0.0
 10
672.7482526006752
 20
738.7592472038741
 30
0.0
 10
672.7307098186684
 20
738.8257121218739
 30
0.0
 10
672.7119158996757
 20
738.8909949938742
 30
0.0
 10
672.6959034596766
 20
738.9543428448737
 30
0.0
 10
672.6700162406741
 20
739.026612827874
 30
0.0
 10
672.6468541516769
 20
739.0969551688741
 30
0.0
 10
672.6226663196684
 20
739.1660859458743
 30
0.0
 10
672.5965238186727
 20
739.2289068928739
 30
0.0
 10
672.5725607146705
 20
739.2920112688743
 30
0.0
 10
672.5315926856674
 20
739.3830519188741
 30
0.0
 10
672.4989755906681
 20
739.4531050168739
 30
0.0
 10
672.4776510986812
 20
739.4994131678735
 30
0.0
  0
SPLINE
  5
196
330
70
100
AcDbEntity
  8
DETAIL
 62
     5
100
AcDbSpline
210
0.0
220
0.0
230
1.0
 70
     8
 71
     3
 72
    19
 73
    15
 74
     0
 42
0.0000001
 43
0.0000000001
 40
0.0
 40
0.0
 40
0.0
 40
0.0
 40
0.125
 40
0.1875
 40
0.25
 40
0.3125
 40
0.375
 40
0.5
 40
0.625
 40
0.6875
 40
0.75
 40
0.8125
 40
0.875
 40
1.0
 40
1.0
 40
1.0
 40
1.0
 10
672.8421882636576
 20
737.9791335948739
 30
0.0
 10
672.8420293166818
 20
737.9952323518741
 30
0.0
 10
672.841859442673
 20
738.0187492378736
 30
0.0
 10
672.8413587596697
 20
738.0526300828742
 30
0.0
 10
672.8402085426605
 20
738.083787949874
 30
0.0
 10
672.8393739076673
 20
738.114813832874
 30
0.0
 10
672.8376109006603
 20
738.1492226128739
 30
0.0
 10
672.8360694126713
 20
738.1842857918741
 30
0.0
 10
672.8315498856791
 20
738.239682076874
 30
0.0
 10
672.8285662756643
 20
738.2776219128741
 30
0.0
 10
672.8260719396748
 20
738.3009051088738
 30
0.0
 10
672.8239932816759
 20
738.3238568428737
 30
0.0
 10
672.8193469616635
 20
738.3631225228741
 30
0.0
 10
672.8154628076699
 20
738.3946823818737
 30
0.0
 10
672.8129621306688
 20
738.4152532658736
 30
0.0
  0
SPLINE
  5
197
330
70
100
AcDbEntity
  8
DETAIL
 62
     5
100
AcDbSpline
210
0.0
220
0.0
230
1.0
 70
     8
 71
     3
 72
    21
 73
    17
 74
     0
 42
0.0000001
 43
0.0000000001
 40
0.0
 40
0.0
 40
0.0
 40
0.0
 40
0.125
 40
0.1875
 40
0.25
 40
0.3125
 40
0.375
 40
0.4375
 40
0.5
 40
0.5625
 40
0.625
 40
0.6875
 40
0.75
 40
0.8125
 40
0.875
 40
1.0
 40
1.0
 40
1.0
 40
1.0
 10
672.4776510956835
 20
736.4588540158738
 30
0.0
 10
672.4971498096675
 20
736.5009225258741
 30
0.0
 10
672.5264812376662
 20
736.5633417488738
 30
0.0
 10
672.5652563816656
 20
736.6493015488741
 30
0.0
 10
672.5926231246667
 20
736.7201075408738
 30
0.0
 10
672.6219186866619
 20
736.7905450148741
 30
0.0
 10
672.6452135856634
 20
736.8561204198741
 30
0.0
 10
672.6666737676823
 20
736.9209909788737
 30
0.0
 10
672.6895192076735
 20
736.9832821688742
 30
0.0
 10
672.7086583296731
 20
737.0565956838736
 30
0.0
 10
672.7291358626644
 20
737.1273531668739
 30
0.0
 10
672.7479660686622
 20
737.1973124518736
 30
0.0
 10
672.7612951666633
 20
737.262114875874
 30
0.0
 10
672.7767720216616
 20
737.326531572874
 30
0.0
 10
672.7932879306863
 20
737.4213535228741
 30
0.0
 10
672.8050028476827
 20
737.4946389528741
 30
0.0
 10
672.8129621286752
 20
737.5430139128739
 30
0.0
  0
SPLINE
  5
198
330
70
100
AcDbEntity
  8
DETAIL
 62
     5
100
AcDbSpline
210
0.0
220
0.0
230
1.0
 70
     8
 71
     3
 72
    19
 73
    15
 74
     0
 42
0.0000001
 43
0.0000000001
 40
0.0
 40
0.0
 40
0.0
 40
0.0
 40
0.125
 40
0.1875
 40
0.25
 40
0.3125
 40
0.375
 40
0.5
 40
0.625
 40
0.6875
 40
0.75
 40
0.8125
 40
0.875
 40
1.0
 40
1.0
 40
1.0
 40
1.0
 10
672.8129621296793
 20
737.5430139198738
 30
0.0
 10
672.8149567456675
 20
737.5590511688742
 30
0.0
 10
672.8179324936754
 20
737.5824740388743
 30
0.0
 10
672.8219648636841
 20
737.616236546874
 30
0.0
 10
672.8249864736681
 20
737.6473317088739
 30
0.0
 10
672.8283045996759
 20
737.678274377874
 30
0.0
 10
672.8311509016602
 20
737.7126468598739
 30
0.0
 10
672.8343052416712
 20
737.7476559968741
 30
0.0
 10
672.837213986666
 20
737.8031062548739
 30
0.0
 10
672.8393173556797
 20
737.841075585874
 30
0.0
 10
672.8399478066676
 20
737.864421233874
 30
0.0
 10
672.8409477456698
 20
737.8874091128741
 30
0.0
 10
672.8415731576642
 20
737.926809521874
 30
0.0
 10
672.8419268366669
 20
737.958487675874
 30
0.0
 10
672.8421882636576
 20
737.9791335908739
 30
0.0
  0
LINE
  5
199
330
70
100
AcDbEntity
  8
SERVICESPACE
100
AcDbLine
 10
-301.6578117363279
 20
-695.8135756423589
 30
0.0
 11
672.3421882636721
 21
-695.8135756423589
 31
0.0
  0
LINE
  5
19C
330
70
100
AcDbEntity
  8
SERVICESPACE
100
AcDbLine
 10
-39.66089673854003
 20
-605.8249069121274
 30
0.0
 11
410.33910326146
 21
-605.8249069121274
 31
0.0
  0
LINE
  5
19D
330
70
100
AcDbEntity
  8
SERVICESPACE
100
AcDbLine
 10
-39.66089673854003
 20
-155.8249069121275
 30
0.0
 11
410.33910326146
 21
-155.8249069121275
 31
0.0
  0
LINE
  5
19E
330
70
100
AcDbEntity
  8
SERVICESPACE
100
AcDbLine
 10
410.33910326146
 20
-155.8249069121275
 30
0.0
 11
410.33910326146
 21
-605.8249069121274
 31
0.0
1001
GENIUS_GENODEF_13
1002
{
1000
HIER
1070
     0
1002
}
1002
{
1000
MANEDIT
1070
     0
1002
}
1002
{
1000
NOSEL
1070
     0
1002
}
1002
{
1000
BEHIND
1070
     0
1002
}
1002
{
1000
OTHER
1070
     0
1002
}
1002
{
1000
REACTOR
1002
}
1001
GENIUS_GENOBJ-N-CEN_13
1002
{
1000
OWNER
1000
GEN
1002
}
1001
GENIUS_GENCEN_19
1002
{
1040
5.0
1002
}
  0
LINE
  5
19F
330
70
100
AcDbEntity
  8
SERVICESPACE
100
AcDbLine
 10
-39.66089673854003
 20
-155.8249069121275
 30
0.0
 11
-39.66089673854003
 21
-605.8249069121274
 31
0.0
1001
GENIUS_GENODEF_13
1002
{
1000
HIER
1070
     0
1002
}
1002
{
1000
MANEDIT
1070
     0
1002
}
1002
{
1000
NOSEL
1070
     0
1002
}
1002
{
1000
BEHIND
1070
     0
1002
}
1002
{
1000
OTHER
1070
     0
1002
}
1002
{
1000
REACTOR
1002
}
1001
GENIUS_GENOBJ-N-CEN_13
1002
{
1000
OWNER
1000
GEN
1002
}
1001
GENIUS_GENCEN_19
1002
{
1040
5.0
1002
}
  0
LINE
  5
1A0
330
70
100
AcDbEntity
  8
SERVICESPACE
100
AcDbLine
 10
672.3421882636721
 20
4.175093087873847
 30
0.0
 11
672.3421882636721
 21
-695.8135756423589
 31
0.0
1001
GENIUS_GENODEF_13
1002
{
1000
HIER
1070
     0
1002
}
1002
{
1000
MANEDIT
1070
     0
1002
}
1002
{
1000
NOSEL
1070
     0
1002
}
1002
{
1000
BEHIND
1070
     0
1002
}
1002
{
1000
OTHER
1070
     0
1002
}
1002
{
1000
REACTOR
1002
}
1001
GENIUS_GENOBJ-N-CEN_13
1002
{
1000
OWNER
1000
GEN
1002
}
1001
GENIUS_GENCEN_19
1002
{
1040
5.0
1002
}
  0
LINE
  5
1A1
330
70
100
AcDbEntity
  8
SERVICESPACE
100
AcDbLine
 10
-301.6578117363279
 20
4.175093087873847
 30
0.0
 11
-301.6578117363279
 21
-695.8135756423589
 31
0.0
1001
GENIUS_GENODEF_13
1002
{
1000
HIER
1070
     0
1002
}
1002
{
1000
MANEDIT
1070
     0
1002
}
1002
{
1000
NOSEL
1070
     0
1002
}
1002
{
1000
BEHIND
1070
     0
1002
}
1002
{
1000
OTHER
1070
     0
1002
}
1002
{
1000
REACTOR
1002
}
1001
GENIUS_GENOBJ-N-CEN_13
1002
{
1000
OWNER
1000
GEN
1002
}
1001
GENIUS_GENCEN_19
1002
{
1040
5.0
1002
}
  0
LINE
  5
1A2
330
70
100
AcDbEntity
  8
NOTE
  6
CENTER
100
AcDbLine
 10
650.1437978623362
 20
-29.42490691212606
 30
0.0
 11
687.0352955370909
 21
-29.42490691212606
 31
0.0
1001
GENIUS_GENODEF_13
1002
{
1000
HIER
1070
     0
1002
}
1002
{
1000
MANEDIT
1070
     0
1002
}
1002
{
1000
NOSEL
1070
     0
1002
}
1002
{
1000
BEHIND
1070
     0
1002
}
1002
{
1000
OTHER
1070
     0
1002
}
1002
{
1000
REACTOR
1002
}
1001
GENIUS_GENOBJ-N-CEN_13
1002
{
1000
OWNER
1000
GEN
1002
}
1001
GENIUS_GENCEN_19
1002
{
1040
5.0
1002
}
  0
LINE
  5
1A5
330
70
100
AcDbEntity
  8
NOTE
  6
CENTER
100
AcDbLine
 10
669.7421882636663
 20
-55.97228899052971
 30
0.0
 11
669.7421882636663
 21
-10.05658918761219
 31
0.0
1001
GENIUS_GENOBJ-N-CEN_13
1002
{
1000
OWNER
1000
GEN
1002
}
1001
GENIUS_GENODEF_13
1002
{
1000
HIER
1070
     0
1002
}
1002
{
1000
MANEDIT
1070
     0
1002
}
1002
{
1000
NOSEL
1070
     0
1002
}
1002
{
1000
BEHIND
1070
     0
1002
}
1002
{
1000
OTHER
1070
     0
1002
}
1002
{
1000
REACTOR
1002
}
1001
GENIUS_GENCEN_19
1002
{
1040
5.0
1002
}
  0
LINE
  5
1A6
330
70
100
AcDbEntity
  8
NOTE
  6
CENTER
100
AcDbLine
 10
-314.8558504534667
 20
-29.42490691212606
 30
0.0
 11
-282.3863208745533
 21
-29.42490691212606
 31
0.0
1001
GENIUS_GENODEF_13
1002
{
1000
HIER
1070
     0
1002
}
1002
{
1000
MANEDIT
1070
     0
1002
}
1002
{
1000
NOSEL
1070
     0
1002
}
1002
{
1000
BEHIND
1070
     0
1002
}
1002
{
1000
OTHER
1070
     0
1002
}
1002
{
1000
REACTOR
1002
}
1001
GENIUS_GENOBJ-N-CEN_13
1002
{
1000
OWNER
1000
GEN
1002
}
1001
GENIUS_GENCEN_19
1002
{
1040
5.0
1002
}
  0
LINE
  5
1A7
330
70
100
AcDbEntity
  8
NOTE
  6
CENTER
100
AcDbLine
 10
-299.0578117363221
 20
-54.6382343373898
 30
0.0
 11
-299.0578117363221
 21
-12.90238256276097
 31
0.0
1001
GENIUS_GENODEF_13
1002
{
1000
HIER
1070
     0
1002
}
1002
{
1000
MANEDIT
1070
     0
1002
}
1002
{
1000
NOSEL
1070
     0
1002
}
1002
{
1000
BEHIND
1070
     0
1002
}
1002
{
1000
OTHER
1070
     0
1002
}
1002
{
1000
REACTOR
1002
}
1001
GENIUS_GENOBJ-N-CEN_13
1002
{
1000
OWNER
1000
GEN
1002
}
1001
GENIUS_GENCEN_19
1002
{
1040
5.0
1002
}
  0
LINE
  5
1A8
330
70
100
AcDbEntity
  8
NOTE
  6
CENTER
100
AcDbLine
 10
-314.8558504534667
 20
971.7750930878738
 30
0.0
 11
-282.3863208745533
 21
971.7750930878738
 31
0.0
1001
GENIUS_GENODEF_13
1002
{
1000
HIER
1070
     0
1002
}
1002
{
1000
MANEDIT
1070
     0
1002
}
1002
{
1000
NOSEL
1070
     0
1002
}
1002
{
1000
BEHIND
1070
     0
1002
}
1002
{
1000
OTHER
1070
     0
1002
}
1002
{
1000
REACTOR
1002
}
1001
GENIUS_GENOBJ-N-CEN_13
1002
{
1000
OWNER
1000
GEN
1002
}
1001
GENIUS_GENCEN_19
1002
{
1040
5.0
1002
}
  0
LINE
  5
1A9
330
70
100
AcDbEntity
  8
NOTE
  6
CENTER
100
AcDbLine
 10
-299.0578117363221
 20
955.969980525152
 30
0.0
 11
-299.0578117363221
 21
997.7058322997809
 31
0.0
1001
GENIUS_GENODEF_13
1002
{
1000
HIER
1070
     0
1002
}
1002
{
1000
MANEDIT
1070
     0
1002
}
1002
{
1000
NOSEL
1070
     0
1002
}
1002
{
1000
BEHIND
1070
     0
1002
}
1002
{
1000
OTHER
1070
     0
1002
}
1002
{
1000
REACTOR
1002
}
1001
GENIUS_GENOBJ-N-CEN_13
1002
{
1000
OWNER
1000
GEN
1002
}
1001
GENIUS_GENCEN_19
1002
{
1040
5.0
1002
}
  0
LINE
  5
1AA
330
70
100
AcDbEntity
  8
NOTE
  6
CENTER
100
AcDbLine
 10
653.9441495465216
 20
971.7750930878738
 30
0.0
 11
686.413679125435
 21
971.7750930878738
 31
0.0
1001
GENIUS_GENODEF_13
1002
{
1000
HIER
1070
     0
1002
}
1002
{
1000
MANEDIT
1070
     0
1002
}
1002
{
1000
NOSEL
1070
     0
1002
}
1002
{
1000
BEHIND
1070
     0
1002
}
1002
{
1000
OTHER
1070
     0
1002
}
1002
{
1000
REACTOR
1002
}
1001
GENIUS_GENOBJ-N-CEN_13
1002
{
1000
OWNER
1000
GEN
1002
}
1001
GENIUS_GENCEN_19
1002
{
1040
5.0
1002
}
  0
LINE
  5
1AB
330
70
100
AcDbEntity
  8
NOTE
  6
CENTER
100
AcDbLine
 10
669.7421882636663
 20
955.969980525152
 30
0.0
 11
669.7421882636663
 21
997.7058322997809
 31
0.0
1001
GENIUS_GENODEF_13
1002
{
1000
HIER
1070
     0
1002
}
1002
{
1000
MANEDIT
1070
     0
1002
}
1002
{
1000
NOSEL
1070
     0
1002
}
1002
{
1000
BEHIND
1070
     0
1002
}
1002
{
1000
OTHER
1070
     0
1002
}
1002
{
1000
REACTOR
1002
}
1001
GENIUS_GENOBJ-N-CEN_13
1002
{
1000
OWNER
1000
GEN
1002
}
1001
GENIUS_GENCEN_19
1002
{
1040
5.0
1002
}
  0
LINE
  5
1AC
330
70
100
AcDbEntity
  8
BASIS
  6
CENTER
100
AcDbLine
 10
763.9763371048757
 20
471.1750930878738
 30
0.0
 11
-414.8585043220373
 21
471.1750930878738
 31
0.0
1001
GENIUS_GENODEF_13
1002
{
1000
HIER
1070
     0
1002
}
1002
{
1000
MANEDIT
1070
     0
1002
}
1002
{
1000
NOSEL
1070
     0
1002
}
1002
{
1000
BEHIND
1070
     0
1002
}
1002
{
1000
OTHER
1070
     0
1002
}
1002
{
1000
REACTOR
1002
}
1001
GENIUS_GENOBJ-N-CEN_13
1002
{
1000
OWNER
1000
GEN
1002
}
1001
GENIUS_GENCEN_19
1002
{
1040
5.0
1002
}
  0
LINE
  5
1AF
330
70
100
AcDbEntity
  8
NOTE
  6
CENTER
100
AcDbLine
 10
775.7528715299486
 20
125.1750930878738
 30
0.0
 11
636.412420237495
 21
125.1750930878738
 31
0.0
1001
GENIUS_GENODEF_13
1002
{
1000
HIER
1070
     0
1002
}
1002
{
1000
MANEDIT
1070
     0
1002
}
1002
{
1000
NOSEL
1070
     0
1002
}
1002
{
1000
BEHIND
1070
     0
1002
}
1002
{
1000
OTHER
1070
     0
1002
}
1002
{
1000
REACTOR
1002
}
1001
GENIUS_GENOBJ-N-CEN_13
1002
{
1000
OWNER
1000
GEN
1002
}
1001
GENIUS_GENCEN_19
1002
{
1040
5.0
1002
}
  0
LINE
  5
1B0
330
70
100
AcDbEntity
  8
NOTE
  6
CENTER
100
AcDbLine
 10
-424.5469915778885
 20
817.1750930878738
 30
0.0
 11
-268.1580034082144
 21
817.1750930878738
 31
0.0
1001
GENIUS_GENODEF_13
1002
{
1000
HIER
1070
     0
1002
}
1002
{
1000
MANEDIT
1070
     0
1002
}
1002
{
1000
NOSEL
1070
     0
1002
}
1002
{
1000
BEHIND
1070
     0
1002
}
1002
{
1000
OTHER
1070
     0
1002
}
1002
{
1000
REACTOR
1002
}
1001
GENIUS_GENOBJ-N-CEN_13
1002
{
1000
OWNER
1000
GEN
1002
}
1001
GENIUS_GENCEN_19
1002
{
1040
5.0
1002
}
  0
LINE
  5
1B1
330
70
100
AcDbEntity
  8
NOTE
  6
CENTER
100
AcDbLine
 10
-408.7329336897819
 20
125.1750930878738
 30
0.0
 11
-262.5754826594275
 21
125.1750930878738
 31
0.0
1001
GENIUS_GENODEF_13
1002
{
1000
HIER
1070
     0
1002
}
1002
{
1000
MANEDIT
1070
     0
1002
}
1002
{
1000
NOSEL
1070
     0
1002
}
1002
{
1000
BEHIND
1070
     0
1002
}
1002
{
1000
OTHER
1070
     0
1002
}
1002
{
1000
REACTOR
1002
}
1001
GENIUS_GENOBJ-N-CEN_13
1002
{
1000
OWNER
1000
GEN
1002
}
1001
GENIUS_GENCEN_19
1002
{
1040
5.0
1002
}
  0
LINE
  5
1B2
330
70
100
AcDbEntity
  8
NOTE
  6
CENTER
100
AcDbLine
 10
552.1421882636677
 20
-123.6997339907775
 30
0.0
 11
552.1421882636677
 21
30.10010957081613
 31
0.0
1001
GENIUS_GENODEF_13
1002
{
1000
HIER
1070
     0
1002
}
1002
{
1000
MANEDIT
1070
     0
1002
}
1002
{
1000
NOSEL
1070
     0
1002
}
1002
{
1000
BEHIND
1070
     0
1002
}
1002
{
1000
OTHER
1070
     0
1002
}
1002
{
1000
REACTOR
1002
}
1001
GENIUS_GENOBJ-N-CEN_13
1002
{
1000
OWNER
1000
GEN
1002
}
1001
GENIUS_GENCEN_19
1002
{
1040
5.0
1002
}
  0
LINE
  5
1B3
330
70
100
AcDbEntity
  8
NOTE
  6
CENTER
100
AcDbLine
 10
552.1421882636677
 20
928.2401881955866
 30
0.0
 11
552.1421882636677
 21
1061.446704661333
 31
0.0
1001
GENIUS_GENOBJ-N-CEN_13
1002
{
1000
OWNER
1000
GEN
1002
}
1001
GENIUS_GENODEF_13
1002
{
1000
HIER
1070
     0
1002
}
1002
{
1000
MANEDIT
1070
     0
1002
}
1002
{
1000
NOSEL
1070
     0
1002
}
1002
{
1000
BEHIND
1070
     0
1002
}
1002
{
1000
OTHER
1070
     0
1002
}
1002
{
1000
REACTOR
1002
}
1001
GENIUS_GENCEN_19
1002
{
1040
5.0
1002
}
  0
LINE
  5
1B4
330
70
100
AcDbEntity
  8
NOTE
  6
CENTER
100
AcDbLine
 10
781.99914694992
 20
817.1750930878738
 30
0.0
 11
649.0546723564184
 21
817.1750930878738
 31
0.0
1001
GENIUS_GENODEF_13
1002
{
1000
HIER
1070
     0
1002
}
1002
{
1000
MANEDIT
1070
     0
1002
}
1002
{
1000
NOSEL
1070
     0
1002
}
1002
{
1000
BEHIND
1070
     0
1002
}
1002
{
1000
OTHER
1070
     0
1002
}
1002
{
1000
REACTOR
1002
}
1001
GENIUS_GENOBJ-N-CEN_13
1002
{
1000
OWNER
1000
GEN
1002
}
1001
GENIUS_GENCEN_19
1002
{
1040
5.0
1002
}
  0
LINE
  5
1B5
330
70
100
AcDbEntity
  8
BASIS
100
AcDbLine
 10
185.3421882636721
 20
-86.41730963460394
 30
0.0
 11
185.3421882636721
 21
1054.154691325633
 31
0.0
1001
GENIUS_GENOBJ-N-CEN_13
1002
{
1000
OWNER
1000
GEN
1002
}
1001
GENIUS_GENODEF_13
1002
{
1000
HIER
1070
     0
1002
}
1002
{
1000
MANEDIT
1070
     0
1002
}
1002
{
1000
NOSEL
1070
     0
1002
}
1002
{
1000
BEHIND
1070
     0
1002
}
1002
{
1000
OTHER
1070
     0
1002
}
1002
{
1000
REACTOR
1002
}
1001
GENIUS_GENCEN_19
1002
{
1040
5.0
1002
}
  0
LINE
  5
1B6
330
70
100
AcDbEntity
  8
OUTLINE
100
AcDbLine
 10
-252.7578117363337
 20
-115.2249069121262
 30
0.0
 11
-78.35781173632494
 21
-115.2249069121262
 31
0.0
  0
LINE
  5
1B9
330
70
100
AcDbEntity
  8
OUTLINE
100
AcDbLine
 10
746.7421882636808
 20
29.17509308787339
 30
0.0
 11
677.7421882636663
 21
21.17509308787339
 31
0.0
  0
LINE
  5
1BA
330
70
100
AcDbEntity
  8
OUTLINE
100
AcDbLine
 10
-305.5578117363366
 20
-49.42490691212606
 30
0.0
 11
-317.557811736322
 21
-49.42490691212606
 31
0.0
  0
LINE
  5
1BB
330
70
100
AcDbEntity
  8
OUTLINE
100
AcDbLine
 10
-292.557811736322
 20
-49.42490691212606
 30
0.0
 11
-274.057811736322
 21
-49.42490691212606
 31
0.0
  0
LINE
  5
1BC
330
70
100
AcDbEntity
  8
OUTLINE
100
AcDbLine
 10
644.7421882636663
 20
-49.42490691212606
 30
0.0
 11
663.2421882636808
 21
-49.42490691212606
 31
0.0
  0
LINE
  5
1BD
330
70
100
AcDbEntity
  8
OUTLINE
100
AcDbLine
 10
676.2421882636663
 20
-49.42490691212606
 30
0.0
 11
688.2421882636808
 21
-49.42490691212606
 31
0.0
  0
LINE
  5
1BE
330
70
100
AcDbEntity
  8
OUTLINE
100
AcDbLine
 10
-49.05781173632203
 20
-17.72490691212624
 30
0.0
 11
419.7421882636663
 21
-17.72490691212624
 31
0.0
  0
LINE
  5
1BF
330
70
100
AcDbEntity
  8
OUTLINE
100
AcDbLine
 10
-50.6578117363133
 20
-10.22490691212624
 30
0.0
 11
-51.45781173633077
 21
-10.22490691212624
 31
0.0
  0
LINE
  5
1C0
330
70
100
AcDbEntity
  8
OUTLINE
100
AcDbLine
 10
421.3421882636721
 20
-10.22490691212624
 30
0.0
 11
422.142188263675
 21
-10.22490691212624
 31
0.0
  0
LINE
  5
1C1
330
70
100
AcDbEntity
  8
OUTLINE
100
AcDbLine
 10
469.8417976826568
 20
-2.224906912126243
 30
0.0
 11
421.3421882636721
 21
-2.224906912126243
 31
0.0
  0
LINE
  5
1C2
330
70
100
AcDbEntity
  8
OUTLINE
100
AcDbLine
 10
-50.6578117363133
 20
-2.224906912126243
 30
0.0
 11
-65.35763230231896
 21
-2.224906912126243
 31
0.0
  0
LINE
  5
1C3
330
70
100
AcDbEntity
  8
OUTLINE
100
AcDbLine
 10
-72.55799117133211
 20
-2.224906912126243
 30
0.0
 11
-78.35781173632494
 21
-2.224906912126243
 31
0.0
  0
LINE
  5
1C4
330
70
100
AcDbEntity
  8
OUTLINE
100
AcDbLine
 10
-252.7578117363337
 20
-2.224906912126243
 30
0.0
 11
-260.2635663333385
 21
-2.224906912126243
 31
0.0
  0
LINE
  5
1C5
330
70
100
AcDbEntity
  8
OUTLINE
100
AcDbLine
 10
-265.2520571403183
 20
-2.224906912126243
 30
0.0
 11
-274.057811736322
 21
-2.224906912126243
 31
0.0
  0
LINE
  5
1C6
330
70
100
AcDbEntity
  8
OUTLINE
100
AcDbLine
 10
688.2421882636808
 20
0.5750930878739382
 30
0.0
 11
672.3421882636721
 21
0.5750930878739382
 31
0.0
  0
LINE
  5
1C7
330
70
100
AcDbEntity
  8
OUTLINE
100
AcDbLine
 10
-317.557811736322
 20
0.5750930878739382
 30
0.0
 11
-301.6578117363279
 21
0.5750930878739382
 31
0.0
  0
LINE
  5
1C8
330
70
100
AcDbEntity
  8
OUTLINE
100
AcDbLine
 10
-376.0578117363366
 20
29.17509308787339
 30
0.0
 11
-307.0578117363366
 21
21.17509308787339
 31
0.0
  0
LINE
  5
1C9
330
70
100
AcDbEntity
  8
OUTLINE
100
AcDbLine
 10
-384.6578117363424
 20
912.075093087874
 30
0.0
 11
-384.6578117363424
 21
722.2750930878738
 31
0.0
  0
LINE
  5
1CA
330
70
100
AcDbEntity
  8
OUTLINE
100
AcDbLine
 10
-384.6578117363424
 20
220.075093087874
 30
0.0
 11
-384.6578117363424
 21
30.27509308787376
 31
0.0
  0
LINE
  5
1CB
330
70
100
AcDbEntity
  8
OUTLINE
100
AcDbLine
 10
-301.6578117363279
 20
20.57509308787394
 30
0.0
 11
-302.2578117363337
 21
20.57509308787394
 31
0.0
  0
LINE
  5
1CC
330
70
100
AcDbEntity
  8
OUTLINE
100
AcDbLine
 10
677.7421882636663
 20
21.17509308787339
 30
0.0
 11
672.3421882636721
 21
21.17509308787339
 31
0.0
  0
LINE
  5
1CD
330
70
100
AcDbEntity
  8
OUTLINE
100
AcDbLine
 10
-307.0578117363366
 20
21.17509308787339
 30
0.0
 11
-301.6578117363279
 21
21.17509308787339
 31
0.0
  0
LINE
  5
1CE
330
70
100
AcDbEntity
  8
OUTLINE
100
AcDbLine
 10
754.2421882636809
 20
29.17509308787339
 30
0.0
 11
746.7421882636808
 21
29.17509308787339
 31
0.0
  0
LINE
  5
1CF
330
70
100
AcDbEntity
  8
OUTLINE
100
AcDbLine
 10
-383.5578117363366
 20
29.17509308787339
 30
0.0
 11
-376.0578117363366
 21
29.17509308787339
 31
0.0
  0
LINE
  5
1D0
330
70
100
AcDbEntity
  8
OUTLINE
100
AcDbLine
 10
-317.557811736322
 20
-49.42490691212606
 30
0.0
 11
-317.557811736322
 21
0.5750930878739382
 31
0.0
  0
LINE
  5
1D1
330
70
100
AcDbEntity
  8
OUTLINE
100
AcDbLine
 10
-317.557811736322
 20
941.7750930878737
 30
0.0
 11
-317.557811736322
 21
991.7750930878737
 31
0.0
  0
LINE
  5
1D2
330
70
100
AcDbEntity
  8
OUTLINE
100
AcDbLine
 10
-305.5578117363366
 20
-49.42490691212606
 30
0.0
 11
-305.5578117363366
 21
-29.42490691212606
 31
0.0
  0
LINE
  5
1D3
330
70
100
AcDbEntity
  8
OUTLINE
100
AcDbLine
 10
-305.5578117363366
 20
971.7750930878738
 30
0.0
 11
-305.5578117363366
 21
991.7750930878737
 31
0.0
  0
LINE
  5
1D4
330
70
100
AcDbEntity
  8
OUTLINE
100
AcDbLine
 10
-302.2578117363337
 20
20.57509308787394
 30
0.0
 11
-302.2578117363337
 21
3.775093087873756
 31
0.0
  0
LINE
  5
1D5
330
70
100
AcDbEntity
  8
OUTLINE
100
AcDbLine
 10
-301.8578117363249
 20
20.57509308787394
 30
0.0
 11
-301.8578117363249
 21
21.17509308787339
 31
0.0
  0
LINE
  5
1D6
330
70
100
AcDbEntity
  8
OUTLINE
100
AcDbLine
 10
-301.8578117363249
 20
229.1750930878734
 30
0.0
 11
-301.8578117363249
 21
713.1750930878743
 31
0.0
  0
LINE
  5
1D7
330
70
100
AcDbEntity
  8
OUTLINE
100
AcDbLine
 10
-292.557811736322
 20
-46.20788460812582
 30
0.0
 11
-292.557811736322
 21
-29.42490691212606
 31
0.0
  0
LINE
  5
1D8
330
70
100
AcDbEntity
  8
OUTLINE
100
AcDbLine
 10
-292.557811736322
 20
971.7750930878738
 30
0.0
 11
-292.557811736322
 21
988.5580707838736
 31
0.0
  0
LINE
  5
1D9
330
70
100
AcDbEntity
  8
OUTLINE
100
AcDbLine
 10
-274.057811736322
 20
-46.22490691212624
 30
0.0
 11
-274.057811736322
 21
-2.024906912125516
 31
0.0
  0
LINE
  5
1DA
330
70
100
AcDbEntity
  8
OUTLINE
100
AcDbLine
 10
-274.057811736322
 20
944.375093087874
 30
0.0
 11
-274.057811736322
 21
988.5750930878739
 31
0.0
  0
LINE
  5
1DB
330
70
100
AcDbEntity
  8
OUTLINE
100
AcDbLine
 10
-274.057811736322
 20
988.5750930878739
 30
0.0
 11
-274.057811736322
 21
991.7750930878737
 31
0.0
  0
LINE
  5
1DC
330
70
100
AcDbEntity
  8
OUTLINE
100
AcDbLine
 10
-252.7578117363337
 20
-2.024906912125516
 30
0.0
 11
-252.7578117363337
 21
-115.2249069121262
 31
0.0
  0
LINE
  5
1DD
330
70
100
AcDbEntity
  8
OUTLINE
100
AcDbLine
 10
754.2421882636809
 20
221.1750930878734
 30
0.0
 11
746.7421882636808
 21
221.1750930878734
 31
0.0
  0
LINE
  5
1DE
330
70
100
AcDbEntity
  8
OUTLINE
100
AcDbLine
 10
-383.5578117363366
 20
221.1750930878734
 30
0.0
 11
-376.0578117363366
 21
221.1750930878734
 31
0.0
  0
LINE
  5
1DF
330
70
100
AcDbEntity
  8
OUTLINE
100
AcDbLine
 10
677.7421882636663
 20
229.1750930878734
 30
0.0
 11
672.3421882636721
 21
229.1750930878734
 31
0.0
  0
LINE
  5
1E0
330
70
100
AcDbEntity
  8
OUTLINE
100
AcDbLine
 10
746.7421882636808
 20
221.1750930878734
 30
0.0
 11
677.7421882636663
 21
229.1750930878734
 31
0.0
  0
LINE
  5
1E1
330
70
100
AcDbEntity
  8
OUTLINE
100
AcDbLine
 10
-78.35781173632494
 20
-2.024906912125516
 30
0.0
 11
-78.35781173632494
 21
-115.2249069121262
 31
0.0
  0
LINE
  5
1E2
330
70
100
AcDbEntity
  8
OUTLINE
100
AcDbLine
 10
-51.45781173633077
 20
-16.92490691212606
 30
0.0
 11
-51.45781173633077
 21
-10.22490691212624
 31
0.0
  0
LINE
  5
1E3
330
70
100
AcDbEntity
  8
OUTLINE
100
AcDbLine
 10
-50.6578117363133
 20
-16.92490691212606
 30
0.0
 11
-50.6578117363133
 21
-6.924906912126061
 31
0.0
  0
LINE
  5
1E4
330
70
100
AcDbEntity
  8
OUTLINE
100
AcDbLine
 10
-50.6578117363133
 20
-6.924906912126061
 30
0.0
 11
-50.6578117363133
 21
1.075093087873938
 31
0.0
  0
LINE
  5
1E5
330
70
100
AcDbEntity
  8
OUTLINE
100
AcDbLine
 10
-49.85781173632495
 20
-8.524906912126425
 30
0.0
 11
-49.85781173632495
 21
-16.92490691212606
 31
0.0
  0
LINE
  5
1E6
330
70
100
AcDbEntity
  8
OUTLINE
100
AcDbLine
 10
-49.05781173632203
 20
8.275093087873756
 30
0.0
 11
-49.05781173632203
 21
-17.72490691212624
 31
0.0
  0
LINE
  5
1E7
330
70
100
AcDbEntity
  8
OUTLINE
100
AcDbLine
 10
746.7421882636808
 20
721.1750930878734
 30
0.0
 11
677.7421882636663
 21
713.1750930878743
 31
0.0
  0
LINE
  5
1E8
330
70
100
AcDbEntity
  8
OUTLINE
100
AcDbLine
 10
-376.0578117363366
 20
721.1750930878734
 30
0.0
 11
-307.0578117363366
 21
713.1750930878743
 31
0.0
  0
LINE
  5
1E9
330
70
100
AcDbEntity
  8
OUTLINE
100
AcDbLine
 10
677.7421882636663
 20
713.1750930878743
 30
0.0
 11
672.3421882636721
 21
713.1750930878743
 31
0.0
  0
LINE
  5
1EA
330
70
100
AcDbEntity
  8
OUTLINE
100
AcDbLine
 10
-307.0578117363366
 20
713.1750930878743
 30
0.0
 11
-301.6578117363279
 21
713.1750930878743
 31
0.0
  0
LINE
  5
1EB
330
70
100
AcDbEntity
  8
OUTLINE
100
AcDbLine
 10
754.2421882636809
 20
721.1750930878734
 30
0.0
 11
746.7421882636808
 21
721.1750930878734
 31
0.0
  0
LINE
  5
1EC
330
70
100
AcDbEntity
  8
OUTLINE
100
AcDbLine
 10
-383.5578117363366
 20
721.1750930878734
 30
0.0
 11
-376.0578117363366
 21
721.1750930878734
 31
0.0
  0
LINE
  5
1ED
330
70
100
AcDbEntity
  8
OUTLINE
100
AcDbLine
 10
419.7421882636663
 20
-17.72490691212624
 30
0.0
 11
419.7421882636663
 21
8.275093087873756
 31
0.0
  0
LINE
  5
1EE
330
70
100
AcDbEntity
  8
OUTLINE
100
AcDbLine
 10
420.5421882636692
 20
-16.92490691212606
 30
0.0
 11
420.5421882636692
 21
-8.524906912126425
 31
0.0
  0
LINE
  5
1EF
330
70
100
AcDbEntity
  8
OUTLINE
100
AcDbLine
 10
421.3421882636721
 20
-6.924906912126061
 30
0.0
 11
421.3421882636721
 21
-16.92490691212606
 31
0.0
  0
LINE
  5
1F0
330
70
100
AcDbEntity
  8
OUTLINE
100
AcDbLine
 10
421.3421882636721
 20
-6.924906912126061
 30
0.0
 11
421.3421882636721
 21
1.075093087873938
 31
0.0
  0
LINE
  5
1F1
330
70
100
AcDbEntity
  8
OUTLINE
100
AcDbLine
 10
422.142188263675
 20
-16.92490691212606
 30
0.0
 11
422.142188263675
 21
-10.22490691212624
 31
0.0
  0
LINE
  5
1F2
330
70
100
AcDbEntity
  8
OUTLINE
100
AcDbLine
 10
754.2421882636809
 20
913.1750930878743
 30
0.0
 11
746.7421882636808
 21
913.1750930878743
 31
0.0
  0
LINE
  5
1F3
330
70
100
AcDbEntity
  8
OUTLINE
100
AcDbLine
 10
677.7421882636663
 20
921.1750930878734
 30
0.0
 11
672.3421882636721
 21
921.1750930878734
 31
0.0
  0
LINE
  5
1F4
330
70
100
AcDbEntity
  8
OUTLINE
100
AcDbLine
 10
688.2421882636808
 20
941.7750930878737
 30
0.0
 11
672.3421882636721
 21
941.7750930878737
 31
0.0
  0
LINE
  5
1F5
330
70
100
AcDbEntity
  8
OUTLINE
100
AcDbLine
 10
-274.057811736322
 20
944.5750930878739
 30
0.0
 11
644.7421882636663
 21
944.5750930878739
 31
0.0
  0
LINE
  5
1F6
330
70
100
AcDbEntity
  8
OUTLINE
100
AcDbLine
 10
746.7421882636808
 20
913.1750930878743
 30
0.0
 11
677.7421882636663
 21
921.1750930878734
 31
0.0
  0
LINE
  5
1F7
330
70
100
AcDbEntity
  8
OUTLINE
100
AcDbLine
 10
644.7421882636663
 20
944.375093087874
 30
0.0
 11
644.7421882636663
 21
988.5750930878739
 31
0.0
  0
LINE
  5
1F8
330
70
100
AcDbEntity
  8
OUTLINE
100
AcDbLine
 10
-305.5578117363366
 20
991.7750930878737
 30
0.0
 11
-317.557811736322
 21
991.7750930878737
 31
0.0
  0
LINE
  5
1F9
330
70
100
AcDbEntity
  8
OUTLINE
100
AcDbLine
 10
-292.557811736322
 20
991.7750930878737
 30
0.0
 11
-274.057811736322
 21
991.7750930878737
 31
0.0
  0
LINE
  5
1FA
330
70
100
AcDbEntity
  8
OUTLINE
100
AcDbLine
 10
644.7421882636663
 20
991.7750930878737
 30
0.0
 11
663.2421882636808
 21
991.7750930878737
 31
0.0
  0
LINE
  5
1FB
330
70
100
AcDbEntity
  8
OUTLINE
100
AcDbLine
 10
676.2421882636663
 20
991.7750930878737
 30
0.0
 11
688.2421882636808
 21
991.7750930878737
 31
0.0
  0
LINE
  5
1FC
330
70
100
AcDbEntity
  8
OUTLINE
100
AcDbLine
 10
663.2421882636808
 20
-46.22490691212624
 30
0.0
 11
663.2421882636808
 21
-49.42490691212606
 31
0.0
  0
LINE
  5
1FD
330
70
100
AcDbEntity
  8
OUTLINE
100
AcDbLine
 10
663.2421882636808
 20
-46.20788460812582
 30
0.0
 11
663.2421882636808
 21
-29.42490691212606
 31
0.0
  0
LINE
  5
1FE
330
70
100
AcDbEntity
  8
OUTLINE
100
AcDbLine
 10
663.2421882636808
 20
971.7750930878738
 30
0.0
 11
663.2421882636808
 21
988.5580707838736
 31
0.0
  0
LINE
  5
1FF
330
70
100
AcDbEntity
  8
OUTLINE
100
AcDbLine
 10
663.2421882636808
 20
988.5750930878739
 30
0.0
 11
663.2421882636808
 21
991.7750930878737
 31
0.0
  0
LINE
  5
200
330
70
100
AcDbEntity
  8
OUTLINE
100
AcDbLine
 10
672.5421882636692
 20
713.1750930878743
 30
0.0
 11
672.5421882636692
 21
229.1750930878734
 31
0.0
  0
LINE
  5
201
330
70
100
AcDbEntity
  8
OUTLINE
100
AcDbLine
 10
672.9421882636634
 20
20.57509308787394
 30
0.0
 11
672.9421882636634
 21
3.775093087873756
 31
0.0
  0
LINE
  5
202
330
70
100
AcDbEntity
  8
OUTLINE
100
AcDbLine
 10
672.9421882636634
 20
921.7750930878738
 30
0.0
 11
672.9421882636634
 21
938.5750930878739
 31
0.0
  0
LINE
  5
203
330
70
100
AcDbEntity
  8
OUTLINE
100
AcDbLine
 10
676.2421882636663
 20
-49.42490691212606
 30
0.0
 11
676.2421882636663
 21
-29.42490691212606
 31
0.0
  0
LINE
  5
204
330
70
100
AcDbEntity
  8
OUTLINE
100
AcDbLine
 10
676.2421882636663
 20
971.7750930878738
 30
0.0
 11
676.2421882636663
 21
991.7750930878737
 31
0.0
  0
LINE
  5
205
330
70
100
AcDbEntity
  8
OUTLINE
100
AcDbLine
 10
688.2421882636808
 20
-49.42490691212606
 30
0.0
 11
688.2421882636808
 21
0.5750930878739382
 31
0.0
  0
LINE
  5
206
330
70
100
AcDbEntity
  8
OUTLINE
100
AcDbLine
 10
688.2421882636808
 20
941.7750930878737
 30
0.0
 11
688.2421882636808
 21
991.7750930878737
 31
0.0
  0
LINE
  5
207
330
70
100
AcDbEntity
  8
OUTLINE
100
AcDbLine
 10
755.3421882636576
 20
30.27509308787376
 30
0.0
 11
755.3421882636576
 21
220.075093087874
 31
0.0
  0
LINE
  5
208
330
70
100
AcDbEntity
  8
OUTLINE
100
AcDbLine
 10
755.3421882636576
 20
722.2750930878738
 30
0.0
 11
755.3421882636576
 21
912.075093087874
 31
0.0
  0
ARC
  5
209
330
70
100
AcDbEntity
  8
OUTLINE
100
AcDbCircle
 10
-383.5578117363366
 20
30.27509308787376
 30
0.0
 40
1.1
100
AcDbArc
 50
180.0
 51
270.0
  0
ARC
  5
20A
330
70
100
AcDbEntity
  8
OUTLINE
100
AcDbCircle
 10
-299.0578117363221
 20
-29.42490691212606
 30
0.0
 40
6.5
100
AcDbArc
 50
0.0
 51
180.0
  0
ARC
  5
20B
330
70
100
AcDbEntity
  8
OUTLINE
100
AcDbCircle
 10
-305.4578117373349
 20
3.775093087873756
 30
0.0
 40
3.2
100
AcDbArc
 50
270.4462110648941
 51
0.0
  0
ARC
  5
20C
330
70
100
AcDbEntity
  8
OUTLINE
100
AcDbCircle
 10
-383.5578117363366
 20
220.075093087874
 30
0.0
 40
1.1
100
AcDbArc
 50
90.0
 51
180.0
  0
ARC
  5
20D
330
70
100
AcDbEntity
  8
OUTLINE
100
AcDbCircle
 10
-49.05781173632203
 20
-8.524906912126425
 30
0.0
 40
0.8
100
AcDbArc
 50
90.0
 51
180.0
  0
ARC
  5
20E
330
70
100
AcDbEntity
  8
OUTLINE
100
AcDbCircle
 10
-50.6578117363133
 20
-16.92490691212606
 30
0.0
 40
0.8
100
AcDbArc
 50
180.0
 51
0.0
  0
ARC
  5
20F
330
70
100
AcDbEntity
  8
OUTLINE
100
AcDbCircle
 10
-383.5578117363366
 20
722.2750930878738
 30
0.0
 40
1.1
100
AcDbArc
 50
180.0
 51
270.0
  0
ARC
  5
210
330
70
100
AcDbEntity
  8
OUTLINE
100
AcDbCircle
 10
-299.0578117363221
 20
971.7750930878738
 30
0.0
 40
6.5
100
AcDbArc
 50
180.0
 51
0.0
  0
ARC
  5
211
330
70
100
AcDbEntity
  8
OUTLINE
100
AcDbCircle
 10
421.3421882636721
 20
-16.92490691212606
 30
0.0
 40
0.8
100
AcDbArc
 50
180.0
 51
0.0
  0
ARC
  5
212
330
70
100
AcDbEntity
  8
OUTLINE
100
AcDbCircle
 10
419.7421882636663
 20
-8.524906912126425
 30
0.0
 40
0.8
100
AcDbArc
 50
0.0
 51
90.0
  0
ARC
  5
213
330
70
100
AcDbEntity
  8
OUTLINE
100
AcDbCircle
 10
669.7421882636663
 20
-29.42490691212606
 30
0.0
 40
6.5
100
AcDbArc
 50
0.0
 51
180.0
  0
ARC
  5
214
330
70
100
AcDbEntity
  8
OUTLINE
100
AcDbCircle
 10
676.1421882636605
 20
3.775093087873756
 30
0.0
 40
3.2
100
AcDbArc
 50
180.000000000469
 51
269.553788935106
  0
ARC
  5
215
330
70
100
AcDbEntity
  8
OUTLINE
100
AcDbCircle
 10
754.2421882636809
 20
30.27509308787376
 30
0.0
 40
1.1
100
AcDbArc
 50
270.0
 51
0.0
  0
ARC
  5
216
330
70
100
AcDbEntity
  8
OUTLINE
100
AcDbCircle
 10
754.2421882636809
 20
220.075093087874
 30
0.0
 40
1.1
100
AcDbArc
 50
0.0
 51
90.0
  0
ARC
  5
217
330
70
100
AcDbEntity
  8
OUTLINE
100
AcDbCircle
 10
754.2421882636809
 20
722.2750930878738
 30
0.0
 40
1.1
100
AcDbArc
 50
270.0
 51
0.0
  0
ARC
  5
218
330
70
100
AcDbEntity
  8
OUTLINE
100
AcDbCircle
 10
676.1421882636605
 20
938.5750930878739
 30
0.0
 40
3.2
100
AcDbArc
 50
90.44621106458142
 51
180.0
  0
ARC
  5
219
330
70
100
AcDbEntity
  8
OUTLINE
100
AcDbCircle
 10
669.7421882636663
 20
971.7750930878738
 30
0.0
 40
6.5
100
AcDbArc
 50
180.0
 51
0.0
  0
ARC
  5
21A
330
70
100
AcDbEntity
  8
OUTLINE
100
AcDbCircle
 10
754.2421882636809
 20
912.075093087874
 30
0.0
 40
1.1
100
AcDbArc
 50
0.0
 51
90.0
  0
CIRCLE
  5
21B
330
70
100
AcDbEntity
  8
ARRANGE
  6
Continuous
 62
     1
100
AcDbCircle
 10
185.3421882636721
 20
471.1750930878738
 30
0.0
 40
50.0
  0
LINE
  5
21E
330
70
100
AcDbEntity
  8
ARRANGE
  6
Continuous
 62
     1
100
AcDbLine
 10
235.3795382950011
 20
421.6527399375486
 30
0.0
 11
135.3048382323432
 21
520.6974462381991
 31
0.0
  0
LINE
  5
21F
330
70
100
AcDbEntity
  8
ARRANGE
  6
Continuous
 62
     1
100
AcDbLine
 10
235.3059515741734
 20
520.7716878858596
 30
0.0
 11
135.3784249531709
 21
421.5784982898917
 31
0.0
  0
LINE
  5
220
330
70
100
AcDbEntity
  8
SERVICESPACE
100
AcDbLine
 10
-39.66089673854003
 20
-155.8249069121275
 30
0.0
 11
410.33910326146
 21
-605.8249069121274
 31
0.0
  0
LINE
  5
221
330
70
100
AcDbEntity
  8
SERVICESPACE
100
AcDbLine
 10
410.33910326146
 20
-155.8249069121275
 30
0.0
 11
-39.66089673854003
 21
-605.8249069121274
 31
0.0
  0
CIRCLE
  5
222
330
70
100
AcDbEntity
  8
FIX
  6
Continuous
 62
    11
100
AcDbCircle
 10
669.7421882636663
 20
-29.42490691212606
 30
0.0
 40
15.47544973867843
  0
CIRCLE
  5
225
330
70
100
AcDbEntity
  8
FIX
  6
Continuous
 62
    11
100
AcDbCircle
 10
669.7421882636663
 20
971.7750930878738
 30
0.0
 40
15.47544973867843
  0
CIRCLE
  5
226
330
70
100
AcDbEntity
  8
FIX
  6
Continuous
 62
    11
100
AcDbCircle
 10
-299.0578117363221
 20
971.7750930878738
 30
0.0
 40
15.47544973867843
  0
CIRCLE
  5
227
330
70
100
AcDbEntity
  8
FIX
  6
Continuous
 62
    11
100
AcDbCircle
 10
-299.0578117363221
 20
-29.42490691212606
 30
0.0
 40
15.47544973867843
  0
LINE
  5
228
330
70
100
AcDbEntity
  8
OUTLINE
100
AcDbLine
 10
644.7421882636663
 20
-49.42490691212606
 30
0.0
 11
644.7421882636663
 21
-5.224906912125788
 31
0.0
  0
HATCH
  5
23B
330
70
100
AcDbEntity
  8
NOTE
100
AcDbHatch
 10
0.0
 20
0.0
 30
0.0
210
0.0
220
0.0
230
1.0
  2
SOLID
 70
     1
 71
     0
 91
        1
 92
        7
 72
     0
 73
     1
 93
        7
 10
-812.5582418393205
 20
824.9116179663106
 10
-812.5582418393205
 20
778.3188751092138
 10
-754.3173132678893
 20
778.3188751092138
 10
-754.3173132678893
 20
760.8345093197567
 10
-716.4607096965156
 20
801.6152465377599
 10
-754.3173132678893
 20
842.3959837557841
 10
-754.3173132678893
 20
824.9116179663106
 97
        0
 75
     1
 76
     1
 47
0.027963770637363
 98
        1
 10
-773.0546225313847
 20
810.0080460280823
1001
GradientColor1ACI
1070
     5
1001
GradientColor2ACI
1070
     2
1001
ACAD
1010
0.0
1020
0.0
1030
0.0
  0
LINE
  5
23C
330
70
100
AcDbEntity
  8
NOTE
  6
Continuous
370
    25
100
AcDbLine
 10
-754.3173132678893
 20
842.3959837557841
 30
0.0
 11
-754.3173132678893
 21
824.9116179663106
 31
0.0
  0
LINE
  5
23D
330
70
100
AcDbEntity
  8
NOTE
  6
Continuous
370
    25
100
AcDbLine
 10
-812.5582418393205
 20
824.9116179663106
 30
0.0
 11
-812.5582418393205
 21
778.3188751092138
 31
0.0
  0
LINE
  5
23E
330
70
100
AcDbEntity
  8
NOTE
  6
Continuous
370
    25
100
AcDbLine
 10
-812.5582418393205
 20
824.9116179663106
 30
0.0
 11
-754.3173132678893
 21
824.9116179663106
 31
0.0
  0
LINE
  5
23F
330
70
100
AcDbEntity
  8
NOTE
  6
Continuous
370
    25
100
AcDbLine
 10
-754.3173132678893
 20
842.3959837557841
 30
0.0
 11
-716.4607096965156
 21
801.6152465377599
 31
0.0
  0
LINE
  5
240
330
70
100
AcDbEntity
  8
NOTE
  6
Continuous
370
    25
100
AcDbLine
 10
-754.3173132678893
 20
778.3188751092138
 30
0.0
 11
-754.3173132678893
 21
760.8345093197567
 31
0.0
  0
LINE
  5
241
330
70
100
AcDbEntity
  8
NOTE
  6
Continuous
370
    25
100
AcDbLine
 10
-754.3173132678893
 20
760.8345093197567
 30
0.0
 11
-716.4607096965156
 21
801.6152465377599
 31
0.0
  0
LINE
  5
242
330
70
100
AcDbEntity
  8
NOTE
  6
Continuous
370
    25
100
AcDbLine
 10
-812.5582418393205
 20
778.3188751092138
 30
0.0
 11
-754.3173132678893
 21
778.3188751092138
 31
0.0
  0
MTEXT
  5
243
102
{ACAD_XDICTIONARY
360
680
102
}
330
70
100
AcDbEntity
  8
NOTE
100
AcDbMText
 10
-118.9229032941693
 20
-206.1988166110227
 30
0.0
 40
70.0
 41
612.3266378872707
 71
     1
 72
     5
  1
{\W2.400713; }Inspection\P{\W3.900713; }opening\P{\W2.85071;\T0.9; \W1;450 × 450\P\W3.90071;\T1; }or more
 73
     1
 44
1.0
1001
ACAD
1000
ACAD_MTEXT_COLUMN_INFO_BEGIN
1070
    75
1070
     2
1070
    79
1070
     0
1070
    76
1070
     1
1070
    78
1070
     0
1070
    48
1040
612.3266378872707
1070
    49
1040
356.2349223990885
1070
    50
1070
     1
1040
605.9453945318962
1000
ACAD_MTEXT_COLUMN_INFO_END
1000
MTEXTBEGIN
1070
    73
1070
     1
1070
    44
1040
1.0
1070
    74
1070
     0
1000
MTEXTEND
  0
DIMENSION
  5
244
330
70
100
AcDbEntity
  8
SIZE
100
AcDbDimension
  2
*D20
 10
669.7421882899179
 20
1108.613753966412
 30
0.0
 11
74.20195643583065
 21
1108.613753966412
 31
0.0
 70
   160
  1
 
 71
     5
 42
968.8000000257453
  3
JIS2$0
100
AcDbAlignedDimension
 13
-299.0578117358273
 23
997.7058323276169
 33
0.0
 14
669.7421882899179
 24
997.7058323276169
 34
0.0
100
AcDbRotatedDimension
1001
ACAD_DIMASSOC_OVERRIDDEN_DIMLFAC
1040
15.0
1001
ACAD_DIMASSOC_CALC_DIMLFAC
1040
-19.9999999889444
1001
ACAD_DIMASSOC_DIMLFAC
1040
-19.9999999889444
1001
ACAD_DSTYLE_DIMINSPECT
1070
   396
1000
100%
1070
   395
1000

1070
   394
1070
    33
1070
   393
1070
     0
1001
ACAD
1000
DSTYLE
1002
{
1070
    41
1040
30.0
1070
   343
1005
24D
1070
   342
1005
0
1070
   173
1070
     1
1070
   344
1005
24D
1070
     3
1000

1070
   144
1040
19.9999999889444
1070
   271
1070
     0
1002
}
  0
DIMENSION
  5
257
330
70
100
AcDbEntity
  8
SIZE
100
AcDbDimension
  2
*D21
 10
552.142188286798
 20
1196.634210442444
 30
0.0
 11
612.2421882883936
 21
1196.634210442444
 31
0.0
 70
   160
  1
 
 71
     5
 42
120.2000000031912
  3
JIS2$0
100
AcDbAlignedDimension
 13
672.3421882899892
 23
943.1750931142614
 33
0.0
 14
552.142188286798
 24
1061.446704690865
 34
0.0
100
AcDbRotatedDimension
1001
ACAD_DIMASSOC_OVERRIDDEN_DIMLFAC
1040
15.0
1001
ACAD_DIMASSOC_CALC_DIMLFAC
1040
-19.9999999889444
1001
ACAD_DIMASSOC_DIMLFAC
1040
-19.9999999889444
1001
ACAD_DSTYLE_DIMINSPECT
1070
   396
1000
100%
1070
   395
1000

1070
   394
1070
    33
1070
   393
1070
     0
1001
ACAD
1000
DSTYLE
1002
{
1070
    41
1040
30.0
1070
   144
1040
19.9999999889444
1070
   173
1070
     1
1070
   271
1070
     0
1070
   279
1070
     1
1070
   342
1005
0
1070
   343
1005
24D
1070
   344
1005
24D
1002
}
  0
DIMENSION
  5
263
330
70
100
AcDbEntity
  8
SIZE
100
AcDbDimension
  2
*D22
 10
1029.492895845699
 20
-695.8135756595425
 30
0.0
 11
1029.492895845698
 21
-396.0066904134851
 31
0.0
 70
   160
  1
 
 71
     5
 42
693.7886687486767
  3
JIS2$0
100
AcDbAlignedDimension
 13
671.1421882899485
 23
-2.024906910865865
 33
0.0
 14
672.3421882899892
 24
-695.8135756595424
 34
0.0
 50
90.0
100
AcDbRotatedDimension
1001
ACAD_DIMASSOC_OVERRIDDEN_DIMLFAC
1040
15.0
1001
ACAD_DIMASSOC_CALC_DIMLFAC
1040
-19.9999999889444
1001
ACAD_DIMASSOC_DIMLFAC
1040
-19.9999999889444
1001
ACAD_DSTYLE_DIMINSPECT
1070
   396
1000
100%
1070
   395
1000

1070
   394
1070
    33
1070
   393
1070
     0
1001
ACAD
1000
DSTYLE
1002
{
1070
    41
1040
30.0
1070
   343
1005
24D
1070
   342
1005
0
1070
   173
1070
     1
1070
   344
1005
24D
1070
   144
1040
19.9999999889444
1070
   271
1070
     0
1002
}
  0
DIMENSION
  5
26F
330
70
100
AcDbEntity
  8
SIZE
100
AcDbDimension
  2
*D23
 10
888.1087939616159
 20
-155.824906914956
 30
0.0
 11
888.1087939616156
 21
-78.9249069129109
 31
0.0
 70
   160
  1
 
 71
     5
 42
153.8000000040901
  3
JIS2$0
100
AcDbAlignedDimension
 13
671.1421882899485
 23
-2.024906910865865
 33
0.0
 14
410.3391032808176
 24
-155.824906914956
 34
0.0
 50
90.0
100
AcDbRotatedDimension
1001
ACAD_DIMASSOC_OVERRIDDEN_DIMLFAC
1040
15.0
1001
ACAD_DIMASSOC_CALC_DIMLFAC
1040
-19.9999999889444
1001
ACAD_DIMASSOC_DIMLFAC
1040
-19.9999999889444
1001
ACAD_DSTYLE_DIMINSPECT
1070
   396
1000
100%
1070
   395
1000

1070
   394
1070
    33
1070
   393
1070
     0
1001
ACAD
1000
DSTYLE
1002
{
1070
    41
1040
30.0
1070
   343
1005
24D
1070
   342
1005
0
1070
   173
1070
     1
1070
   344
1005
24D
1070
   144
1040
19.9999999889444
1070
   271
1070
     0
1002
}
1001
ACAD_DSTYLE_DIMFLIPARROW_WHICH_SYMBOL
1070
   386
1070
     3
  0
DIMENSION
  5
27F
330
70
100
AcDbEntity
  8
SIZE
100
AcDbDimension
  2
*D24
 10
1030.032041129812
 20
944.3750931142927
 30
0.0
 11
1030.032041129812
 21
447.3876444178413
 31
0.0
 70
   160
  1
 
 71
     5
 42
946.4000000251584
  3
JIS2$0
100
AcDbAlignedDimension
 13
671.1421882899485
 23
-2.024906910865865
 33
0.0
 14
671.1421882899485
 24
944.3750931142922
 34
0.0
 50
90.0
100
AcDbRotatedDimension
1001
ACAD_DIMASSOC_OVERRIDDEN_DIMLFAC
1040
15.0
1001
ACAD_DIMASSOC_CALC_DIMLFAC
1040
-19.9999999889444
1001
ACAD_DIMASSOC_DIMLFAC
1040
-19.9999999889444
1001
ACAD_DSTYLE_DIMINSPECT
1070
   396
1000
100%
1070
   395
1000

1070
   394
1070
    33
1070
   393
1070
     0
1001
ACAD
1000
DSTYLE
1002
{
1070
    41
1040
30.0
1070
   343
1005
24D
1070
   342
1005
0
1070
   173
1070
     1
1070
   344
1005
24D
1070
     3
1000

1070
   144
1040
19.9999999889444
1070
   271
1070
     0
1002
}
  0
DIMENSION
  5
28B
330
70
100
AcDbEntity
  8
SIZE
100
AcDbDimension
  2
*D25
 10
959.7684808925823
 20
817.1750931109123
 30
0.0
 11
959.7684808925823
 21
443.887644416407
 31
0.0
 70
   160
  1
 
 71
     5
 42
692.0000000183964
  3
JIS2$0
100
AcDbAlignedDimension
 13
775.7528715590197
 23
125.1750930925154
 33
0.0
 14
781.999146979153
 24
817.1750931109118
 34
0.0
 50
90.0
100
AcDbRotatedDimension
1001
ACAD_DIMASSOC_OVERRIDDEN_DIMLFAC
1040
15.0
1001
ACAD_DIMASSOC_CALC_DIMLFAC
1040
-19.9999999889444
1001
ACAD_DIMASSOC_DIMLFAC
1040
-19.9999999889444
1001
ACAD_DSTYLE_DIMINSPECT
1070
   396
1000
100%
1070
   395
1000

1070
   394
1070
    33
1070
   393
1070
     0
1001
ACAD
1000
DSTYLE
1002
{
1070
   144
1040
19.9999999889444
1070
   271
1070
     0
1002
}
  0
MTEXT
  5
297
102
{ACAD_XDICTIONARY
360
682
102
}
330
70
100
AcDbEntity
  8
NOTE
  6
Continuous
370
    25
100
AcDbMText
 10
-860.0304559797406
 20
676.0951988732522
 30
0.0
 40
80.0
 41
0.0
 71
     7
 72
     1
  1
RA\P{\W0.9;\T0.9;(return air)}
  7
AUDIT_D_191004085756-470174
 11
0.9999999999999991
 21
0.0000000437113901
 31
0.0
 73
     1
 44
0.7319999860680622
1001
ACAD
1000
MTEXTBEGIN
1070
    73
1070
     1
1070
    44
1040
0.7319999860680622
1070
    74
1070
     0
1000
MTEXTEND
  0
MTEXT
  5
298
102
{ACAD_XDICTIONARY
360
684
102
}
330
70
100
AcDbEntity
  8
NOTE
  6
Continuous
370
    25
100
AcDbMText
 10
-824.4473650787368
 20
-34.22566216183623
 30
0.0
 40
80.0
 41
0.0
 71
     7
 72
     1
  1
SA\P{\W0.9;\T0.9;(supply air)}
  7
AUDIT_D_191004085756-470174
 11
0.9999999999999991
 21
0.0000000437113901
 31
0.0
 73
     1
 44
0.7319999860680622
1001
ACAD
1000
MTEXTBEGIN
1070
    73
1070
     1
1070
    44
1040
0.7319999860680622
1070
    74
1070
     0
1000
MTEXTEND
  0
LINE
  5
299
330
70
100
AcDbEntity
  8
NOTE
  6
Continuous
370
    25
100
AcDbLine
 10
-747.4963925955635
 20
63.20519002762011
 30
0.0
 11
-747.4963925955635
 21
80.68955581709269
 31
0.0
  0
LINE
  5
29A
330
70
100
AcDbEntity
  8
NOTE
  6
Continuous
370
    25
100
AcDbLine
 10
-689.2554640241396
 20
80.68955581709269
 30
0.0
 11
-689.2554640241396
 21
127.2822986741903
 31
0.0
  0
LINE
  5
29B
330
70
100
AcDbEntity
  8
NOTE
  6
Continuous
370
    25
100
AcDbLine
 10
-689.2554640241396
 20
80.68955581709269
 30
0.0
 11
-747.4963925955635
 21
80.68955581709269
 31
0.0
  0
LINE
  5
29C
330
70
100
AcDbEntity
  8
NOTE
  6
Continuous
370
    25
100
AcDbLine
 10
-747.4963925955635
 20
63.20519002762011
 30
0.0
 11
-785.3529961669446
 21
103.9859272456433
 31
0.0
  0
LINE
  5
29D
330
70
100
AcDbEntity
  8
NOTE
  6
Continuous
370
    25
100
AcDbLine
 10
-747.4963925955635
 20
127.2822986741903
 30
0.0
 11
-747.4963925955635
 21
144.7666644636474
 31
0.0
  0
LINE
  5
29E
330
70
100
AcDbEntity
  8
NOTE
  6
Continuous
370
    25
100
AcDbLine
 10
-747.4963925955635
 20
144.7666644636474
 30
0.0
 11
-785.3529961669446
 21
103.9859272456433
 31
0.0
  0
LINE
  5
29F
330
70
100
AcDbEntity
  8
NOTE
  6
Continuous
370
    25
100
AcDbLine
 10
-689.2554640241396
 20
127.2822986741903
 30
0.0
 11
-747.4963925955635
 21
127.2822986741903
 31
0.0
  0
MTEXT
  5
2A0
102
{ACAD_XDICTIONARY
360
686
102
}
330
70
100
AcDbEntity
  8
NOTE
  6
Continuous
370
    25
100
AcDbMText
 10
1221.632452019632
 20
668.0173131697801
 30
0.0
 40
80.0
 41
0.0
 71
     7
 72
     1
  1
{\W0.9;\T0.9;EA\P(exhaust air outlet)}
  7
AUDIT_D_191004085756-470174
 11
0.9999999999999991
 21
0.0000000437113901
 31
0.0
 73
     1
 44
0.7319999860680622
1001
ACAD
1000
MTEXTBEGIN
1070
    73
1070
     1
1070
    44
1040
0.7319999860680622
1070
    74
1070
     0
1000
MTEXTEND
  0
HATCH
  5
2A1
330
70
100
AcDbEntity
  8
NOTE
100
AcDbHatch
 10
0.0
 20
0.0
 30
0.0
210
0.0
220
0.0
230
1.0
  2
SOLID
 70
     1
 71
     0
 91
        1
 92
        7
 72
     0
 73
     1
 93
        7
 10
1076.854913881161
 20
827.3375548168887
 10
1076.854913881161
 20
780.744811959792
 10
1135.095842452585
 20
780.744811959792
 10
1135.095842452585
 20
763.2604461703349
 10
1172.952446023973
 20
804.041183388338
 10
1135.095842452585
 20
844.8219206063622
 10
1135.095842452585
 20
827.3375548168887
 97
        0
 75
     1
 76
     1
 47
0.027963770637363
 98
        1
 10
1116.35853318909
 20
812.4339828786606
1001
GradientColor1ACI
1070
     5
1001
GradientColor2ACI
1070
     2
1001
ACAD
1010
0.0
1020
0.0
1030
0.0
  0
LINE
  5
2A2
330
70
100
AcDbEntity
  8
NOTE
  6
Continuous
370
    25
100
AcDbLine
 10
1135.095842452585
 20
844.8219206063622
 30
0.0
 11
1135.095842452585
 21
827.3375548168887
 31
0.0
  0
LINE
  5
2A3
330
70
100
AcDbEntity
  8
NOTE
  6
Continuous
370
    25
100
AcDbLine
 10
1076.854913881161
 20
827.3375548168887
 30
0.0
 11
1076.854913881161
 21
780.744811959792
 31
0.0
  0
LINE
  5
2A4
330
70
100
AcDbEntity
  8
NOTE
  6
Continuous
370
    25
100
AcDbLine
 10
1076.854913881161
 20
827.3375548168887
 30
0.0
 11
1135.095842452585
 21
827.3375548168887
 31
0.0
  0
LINE
  5
2A5
330
70
100
AcDbEntity
  8
NOTE
  6
Continuous
370
    25
100
AcDbLine
 10
1135.095842452585
 20
844.8219206063622
 30
0.0
 11
1172.952446023973
 21
804.041183388338
 31
0.0
  0
LINE
  5
2A6
330
70
100
AcDbEntity
  8
NOTE
  6
Continuous
370
    25
100
AcDbLine
 10
1135.095842452585
 20
780.744811959792
 30
0.0
 11
1135.095842452585
 21
763.2604461703349
 31
0.0
  0
LINE
  5
2A7
330
70
100
AcDbEntity
  8
NOTE
  6
Continuous
370
    25
100
AcDbLine
 10
1135.095842452585
 20
763.2604461703349
 30
0.0
 11
1172.952446023973
 21
804.041183388338
 31
0.0
  0
LINE
  5
2A8
330
70
100
AcDbEntity
  8
NOTE
  6
Continuous
370
    25
100
AcDbLine
 10
1076.854913881161
 20
780.744811959792
 30
0.0
 11
1135.095842452585
 21
780.744811959792
 31
0.0
  0
LINE
  5
2A9
330
70
100
AcDbEntity
  8
NOTE
  6
Continuous
370
    25
100
AcDbLine
 10
1117.132473103786
 20
89.57502534667401
 30
0.0
 11
1117.132473103786
 21
107.0593911361475
 31
0.0
  0
LINE
  5
2AA
330
70
100
AcDbEntity
  8
NOTE
  6
Continuous
370
    25
100
AcDbLine
 10
1175.373401675224
 20
107.0593911361475
 30
0.0
 11
1175.373401675224
 21
153.6521339932442
 31
0.0
  0
LINE
  5
2AB
330
70
100
AcDbEntity
  8
NOTE
  6
Continuous
370
    25
100
AcDbLine
 10
1175.373401675224
 20
107.0593911361475
 30
0.0
 11
1117.132473103786
 21
107.0593911361475
 31
0.0
  0
LINE
  5
2AC
330
70
100
AcDbEntity
  8
NOTE
  6
Continuous
370
    25
100
AcDbLine
 10
1117.132473103786
 20
89.57502534667401
 30
0.0
 11
1079.275869532419
 21
130.3557625646981
 31
0.0
  0
LINE
  5
2AD
330
70
100
AcDbEntity
  8
NOTE
  6
Continuous
370
    25
100
AcDbLine
 10
1117.132473103786
 20
153.6521339932442
 30
0.0
 11
1117.132473103786
 21
171.1364997827022
 31
0.0
  0
LINE
  5
2AE
330
70
100
AcDbEntity
  8
NOTE
  6
Continuous
370
    25
100
AcDbLine
 10
1117.132473103786
 20
171.1364997827022
 30
0.0
 11
1079.275869532419
 21
130.3557625646981
 31
0.0
  0
LINE
  5
2AF
330
70
100
AcDbEntity
  8
NOTE
  6
Continuous
370
    25
100
AcDbLine
 10
1175.373401675224
 20
153.6521339932442
 30
0.0
 11
1117.132473103786
 21
153.6521339932442
 31
0.0
  0
MTEXT
  5
2B0
102
{ACAD_XDICTIONARY
360
688
102
}
330
70
100
AcDbEntity
  8
NOTE
  6
Continuous
370
    25
100
AcDbMText
 10
1202.735866445942
 20
14.72226095513997
 30
0.0
 40
80.0
 41
0.0
 71
     7
 72
     1
  1
OA\P{\W0.9;\T0.9;(outside air intake)}
  7
AUDIT_D_191004085756-470174
 11
0.9999999999999991
 21
0.0000000437113901
 31
0.0
 73
     1
 44
0.7319999860680622
1001
ACAD
1000
MTEXTBEGIN
1070
    73
1070
     1
1070
    44
1040
0.7319999860680622
1070
    74
1070
     0
1000
MTEXTEND
  0
DIMENSION
  5
2B1
330
70
100
AcDbEntity
  8
SIZE
100
AcDbDimension
  2
*D26
 10
-575.2929337595161
 20
-49.42490691212613
 30
0.0
 11
-575.292933759516
 21
-188.7582402454727
 31
0.0
 70
   160
  1
 
 71
     5
 42
20.00000000053206
  3
JIS2$0
100
AcDbAlignedDimension
 13
-314.8558504533903
 23
-29.42490691159401
 33
0.0
 14
-317.557811736322
 24
-49.42490691212606
 34
0.0
 50
90.0
100
AcDbRotatedDimension
1001
ACAD_DIMASSOC_OVERRIDDEN_DIMLFAC
1040
15.0
1001
ACAD_DIMASSOC_CALC_DIMLFAC
1040
-19.9999999889444
1001
ACAD_DIMASSOC_DIMLFAC
1040
-19.9999999889444
1001
ACAD_DSTYLE_DIMINSPECT
1070
   396
1000
100%
1070
   395
1000

1070
   394
1070
    33
1070
   393
1070
     0
1001
ACAD
1000
DSTYLE
1002
{
1070
    41
1040
30.0
1070
   343
1005
24D
1070
   342
1005
0
1070
   173
1070
     1
1070
   344
1005
24D
1070
     3
1000

1070
   144
1040
19.9999999889444
1070
   271
1070
     0
1002
}
  0
DIMENSION
  5
2BF
330
70
100
AcDbEntity
  8
SIZE
100
AcDbDimension
  2
*D27
 10
-575.2929337595163
 20
971.7750931150217
 30
0.0
 11
-575.292933759516
 21
446.5876444164004
 31
0.0
 70
   160
  1
 
 71
     5
 42
1001.200000026615
  3
JIS2$0
100
AcDbAlignedDimension
 13
-314.8558504533903
 23
-29.42490691159401
 33
0.0
 14
-314.8558504533903
 24
971.7750931150213
 34
0.0
 50
90.0
100
AcDbRotatedDimension
1001
ACAD_DIMASSOC_OVERRIDDEN_DIMLFAC
1040
15.0
1001
ACAD_DIMASSOC_CALC_DIMLFAC
1040
-19.9999999889444
1001
ACAD_DIMASSOC_DIMLFAC
1040
-19.9999999889444
1001
ACAD_DSTYLE_DIMINSPECT
1070
   396
1000
100%
1070
   395
1000

1070
   394
1070
    33
1070
   393
1070
     0
1001
ACAD
1000
DSTYLE
1002
{
1070
    41
1040
30.0
1070
   343
1005
24D
1070
   342
1005
0
1070
   173
1070
     1
1070
   344
1005
24D
1070
     3
1000

1070
   144
1040
19.9999999889444
1070
   271
1070
     0
1002
}
  0
DIMENSION
  5
2CB
330
70
100
AcDbEntity
  8
SIZE
100
AcDbDimension
  2
*D28
 10
552.142188286798
 20
-321.7061553200397
 30
0.0
 11
612.2421882883936
 21
-321.7061553200397
 31
0.0
 70
   160
  1
 
 71
     5
 42
120.2000000031912
  3
JIS2$0
100
AcDbAlignedDimension
 13
672.3421882899892
 23
-316.3800190703232
 33
0.0
 14
552.142188286798
 24
-123.699733992752
 34
0.0
100
AcDbRotatedDimension
1001
ACAD_DIMASSOC_OVERRIDDEN_DIMLFAC
1040
15.0
1001
ACAD_DIMASSOC_CALC_DIMLFAC
1040
-19.9999999889444
1001
ACAD_DIMASSOC_DIMLFAC
1040
-19.9999999889444
1001
ACAD_DSTYLE_DIMINSPECT
1070
   396
1000
100%
1070
   395
1000

1070
   394
1070
    33
1070
   393
1070
     0
1001
ACAD
1000
DSTYLE
1002
{
1070
    41
1040
30.0
1070
   343
1005
24D
1070
   342
1005
0
1070
   173
1070
     1
1070
   344
1005
24D
1070
    46
1040
1.0
1070
   144
1040
19.9999999889444
1070
   271
1070
     0
1070
   279
1070
     1
1002
}
  0
MTEXT
  5
2D7
102
{ACAD_XDICTIONARY
360
68A
102
}
330
70
100
AcDbEntity
  8
NOTE
100
AcDbMText
 10
1100.983041013565
 20
-196.2464938533212
 30
0.0
 40
70.0
 41
1072.599489999675
 71
     1
 72
     5
  1
{\W0.9;Heat exchanger\T0.9;,\PAir filter,\PHigh-Efficiency filter,\PFan,drain pan\Pmaintenance space}
 73
     1
 44
1.0
1001
ACAD
1000
ACAD_MTEXT_COLUMN_INFO_BEGIN
1070
    75
1070
     2
1070
    79
1070
     0
1070
    76
1070
     1
1070
    78
1070
     0
1070
    48
1040
1072.599489999675
1070
    49
1040
356.2349223990885
1070
    50
1070
     1
1040
587.1453325294877
1000
ACAD_MTEXT_COLUMN_INFO_END
1000
MTEXTBEGIN
1070
    73
1070
     1
1070
    44
1040
1.0
1070
    74
1070
     0
1000
MTEXTEND
  0
MTEXT
  5
2D8
330
70
100
AcDbEntity
  8
SIZE
100
AcDbMText
 10
588.1331762929694
 20
-279.6707735710661
 30
0.0
 40
40.0
 41
246.5604456291583
 71
     1
 72
     5
  1
120
 73
     1
 44
1.0
1001
ACAD
1000
ACAD_MTEXT_COLUMN_INFO_BEGIN
1070
    75
1070
     2
1070
    79
1070
     0
1070
    76
1070
     1
1070
    78
1070
     0
1070
    48
1040
246.5604456291583
1070
    49
1040
17.81174611995442
1070
    50
1070
     1
1040
0.0
1000
ACAD_MTEXT_COLUMN_INFO_END
1000
MTEXTBEGIN
1070
    73
1070
     1
1070
    44
1040
1.0
1070
    74
1070
     0
1000
MTEXTEND
  0
MTEXT
  5
2D9
102
{ACAD_XDICTIONARY
360
68C
102
}
330
70
100
AcDbEntity
  8
SIZE
100
AcDbMText
 10
704.7464422117045
 20
-207.7566024628723
 30
0.0
 40
40.0
 41
246.5604456291583
 71
     1
 72
     5
  1
{\W3.747787; }150\P{\W4.247787; }to\P{\W3.747787; }250
 11
0.0000000000000001
 21
1.0
 31
0.0
 73
     1
 44
1.0
1001
ACAD
1000
ACAD_MTEXT_COLUMN_INFO_BEGIN
1070
    75
1070
     2
1070
    79
1070
     0
1070
    76
1070
     1
1070
    78
1070
     0
1070
    48
1040
246.5604456291583
1070
    49
1040
17.81174611995442
1070
    50
1070
     1
1040
0.0
1000
ACAD_MTEXT_COLUMN_INFO_END
1000
MTEXTBEGIN
1070
    73
1070
     1
1070
    44
1040
1.0
1070
    74
1070
     0
1000
MTEXTEND
  0
MTEXT
  5
2DA
102
{ACAD_XDICTIONARY
360
68E
102
}
330
70
100
AcDbEntity
  8
SIZE
100
AcDbMText
 10
903.2334371863708
 20
348.7937693269196
 30
0.0
 40
40.0
 41
246.5604456291583
 71
     1
 72
     5
  1
{\W3.747787; }692
 11
0.0000000000000001
 21
1.0
 31
0.0
 73
     1
 44
1.0
1001
ACAD
1000
ACAD_MTEXT_COLUMN_INFO_BEGIN
1070
    75
1070
     2
1070
    79
1070
     0
1070
    76
1070
     1
1070
    78
1070
     0
1070
    48
1040
246.5604456291583
1070
    49
1040
17.81174611995442
1070
    50
1070
     1
1040
0.0
1000
ACAD_MTEXT_COLUMN_INFO_END
1000
MTEXTBEGIN
1070
    73
1070
     1
1070
    44
1040
1.0
1070
    74
1070
     0
1000
MTEXTEND
  0
MTEXT
  5
2DB
330
70
100
AcDbEntity
  8
SIZE
100
AcDbMText
 10
974.4891195709206
 20
443.550367170621
 30
0.0
 40
40.0
 41
246.5604456291583
 71
     1
 72
     5
  1
946
 11
0.0000000000000001
 21
1.0
 31
0.0
 73
     1
 44
1.0
1001
ACAD
1000
ACAD_MTEXT_COLUMN_INFO_BEGIN
1070
    75
1070
     2
1070
    79
1070
     0
1070
    76
1070
     1
1070
    78
1070
     0
1070
    48
1040
246.5604456291583
1070
    49
1040
17.81174611995442
1070
    50
1070
     1
1040
0.0
1000
ACAD_MTEXT_COLUMN_INFO_END
1000
MTEXTBEGIN
1070
    73
1070
     1
1070
    44
1040
1.0
1070
    74
1070
     0
1000
MTEXTEND
  0
MTEXT
  5
2DC
330
70
100
AcDbEntity
  8
SIZE
100
AcDbMText
 10
956.4581315029135
 20
-453.3806014369984
 30
0.0
 40
40.0
 41
531.620602841314
 71
     1
 72
     5
  1
More than 600
 11
0.0000000000000001
 21
1.0
 31
0.0
 73
     1
 44
1.0
1001
ACAD
1000
ACAD_MTEXT_COLUMN_INFO_BEGIN
1070
    75
1070
     2
1070
    79
1070
     0
1070
    76
1070
     1
1070
    78
1070
     0
1070
    48
1040
531.620602841314
1070
    49
1040
17.81174611995442
1070
    50
1070
     1
1040
48.40663149597213
1000
ACAD_MTEXT_COLUMN_INFO_END
1000
MTEXTBEGIN
1070
    73
1070
     1
1070
    44
1040
1.0
1070
    74
1070
     0
1000
MTEXTEND
  0
MTEXT
  5
2DD
330
70
100
AcDbEntity
  8
SIZE
100
AcDbMText
 10
-631.9260883428433
 20
-148.4056794320604
 30
0.0
 40
40.0
 41
246.5604456291583
 71
     1
 72
     5
  1
20
 11
0.0000000000000001
 21
1.0
 31
0.0
 73
     1
 44
1.0
1001
ACAD
1000
ACAD_MTEXT_COLUMN_INFO_BEGIN
1070
    75
1070
     2
1070
    79
1070
     0
1070
    76
1070
     1
1070
    78
1070
     0
1070
    48
1040
246.5604456291583
1070
    49
1040
17.81174611995442
1070
    50
1070
     1
1040
0.0
1000
ACAD_MTEXT_COLUMN_INFO_END
1000
MTEXTBEGIN
1070
    73
1070
     1
1070
    44
1040
1.0
1070
    74
1070
     0
1000
MTEXTEND
  0
MTEXT
  5
2DE
330
70
100
AcDbEntity
  8
SIZE
100
AcDbMText
 10
-636.702984813237
 20
373.4745893753752
 30
0.0
 40
40.0
 41
246.5604456291583
 71
     1
 72
     5
  1
1001
 11
0.0000000000000001
 21
1.0
 31
0.0
 73
     1
 44
1.0
1001
ACAD
1000
ACAD_MTEXT_COLUMN_INFO_BEGIN
1070
    75
1070
     2
1070
    79
1070
     0
1070
    76
1070
     1
1070
    78
1070
     0
1070
    48
1040
246.5604456291583
1070
    49
1040
17.81174611995442
1070
    50
1070
     1
1040
0.0
1000
ACAD_MTEXT_COLUMN_INFO_END
1000
MTEXTBEGIN
1070
    73
1070
     1
1070
    44
1040
1.0
1070
    74
1070
     0
1000
MTEXTEND
  0
MTEXT
  5
2DF
330
70
100
AcDbEntity
  8
SIZE
100
AcDbMText
 10
106.8715835394032
 20
1165.706884881801
 30
0.0
 40
40.0
 41
246.5604456291583
 71
     1
 72
     5
  1
969
 73
     1
 44
1.0
1001
ACAD
1000
ACAD_MTEXT_COLUMN_INFO_BEGIN
1070
    75
1070
     2
1070
    79
1070
     0
1070
    76
1070
     1
1070
    78
1070
     0
1070
    48
1040
246.5604456291583
1070
    49
1040
17.81174611995442
1070
    50
1070
     1
1040
0.0
1000
ACAD_MTEXT_COLUMN_INFO_END
1000
MTEXTBEGIN
1070
    73
1070
     1
1070
    44
1040
1.0
1070
    74
1070
     0
1000
MTEXTEND
  0
MTEXT
  5
2E0
330
70
100
AcDbEntity
  8
SIZE
100
AcDbMText
 10
573.7257418235095
 20
1263.013555273559
 30
0.0
 40
40.0
 41
246.5604456291583
 71
     1
 72
     5
  1
120
 73
     1
 44
1.0
1001
ACAD
1000
ACAD_MTEXT_COLUMN_INFO_BEGIN
1070
    75
1070
     2
1070
    79
1070
     0
1070
    76
1070
     1
1070
    78
1070
     0
1070
    48
1040
246.5604456291583
1070
    49
1040
17.81174611995442
1070
    50
1070
     1
1040
0.0
1000
ACAD_MTEXT_COLUMN_INFO_END
1000
MTEXTBEGIN
1070
    73
1070
     1
1070
    44
1040
1.0
1070
    74
1070
     0
1000
MTEXTEND
  0
TEXT
  5
2E1
330
70
100
AcDbEntity
  8
ETC
  6
Continuous
 62
    61
100
AcDbText
 10
-695.1026453419363
 20
2037.133655215026
 30
0.0
 40
80.0
  1
LGH-50RVS-E_1
 50
0.0000029998804485
 41
0.8
  7
STANDARD_MODELNAME
100
AcDbText
  0
DIMENSION
  5
2E4
102
{ACAD_XDICTIONARY
360
2E5
102
}
102
{ACAD_REACTORS
330
2E6
102
}
330
70
100
AcDbEntity
  8
SIZE
100
AcDbDimension
  2
*D29
 10
840.0722644179095
 20
721.1750930878737
 30
0.0
 11
840.0722644179095
 21
817.1750930878737
 31
0.0
 70
   160
  1
 
 71
     5
 42
192.000000000001
  3
JIS2$0
100
AcDbAlignedDimension
 13
754.2421882636809
 23
913.1750930878743
 33
0.0
 14
754.2421882636809
 24
721.1750930878734
 34
0.0
 50
90.00000000000005
100
AcDbRotatedDimension
1001
ACAD_DIMASSOC_CALC_DIMLFAC
1040
-1.0
1001
ACAD_DIMASSOC_DIMLFAC
1040
-1.0
1001
ACAD_DIMASSOC_OVERRIDDEN_DIMLFAC
1040
-1.0
1001
ACAD_DSTYLE_DIMINSPECT
1070
   396
1000
100%
1070
   395
1000

1070
   394
1070
    33
1070
   393
1070
     0
1001
ACAD
1000
DSTYLE
1002
{
1070
   343
1005
24D
1070
   342
1005
0
1070
   173
1070
     1
1070
   344
1005
24D
1070
    41
1040
30.0
1070
   144
1040
1.0
1002
}
  0
DIMENSION
  5
2F2
102
{ACAD_XDICTIONARY
360
2F3
102
}
102
{ACAD_REACTORS
330
2F4
102
}
330
70
100
AcDbEntity
  8
SIZE
100
AcDbDimension
  2
*D30
 10
900.8726611183615
 20
713.1750930878746
 30
0.0
 11
900.8726611183613
 21
817.1750930878737
 31
0.0
 70
   160
  1
 
 71
     5
 42
207.9999999999992
  3
JIS2$0
100
AcDbAlignedDimension
 13
677.7421882636701
 23
921.1750930878734
 33
0.0
 14
677.7421882636665
 24
713.1750930878743
 34
0.0
 50
90.00000000000005
100
AcDbRotatedDimension
1001
ACAD_DIMASSOC_CALC_DIMLFAC
1040
-1.0
1001
ACAD_DIMASSOC_DIMLFAC
1040
-1.0
1001
ACAD_DIMASSOC_OVERRIDDEN_DIMLFAC
1040
-1.0
1001
ACAD_DSTYLE_DIMINSPECT
1070
   396
1000
100%
1070
   395
1000

1070
   394
1070
    33
1070
   393
1070
     0
1001
ACAD
1000
DSTYLE
1002
{
1070
   343
1005
24D
1070
   342
1005
0
1070
   173
1070
     1
1070
   344
1005
24D
1070
    41
1040
30.0
1070
   144
1040
1.0
1002
}
  0
MTEXT
  5
300
330
70
100
AcDbEntity
  8
SIZE
100
AcDbMText
 10
789.9200375934179
 20
758.4280868909436
 30
0.0
 40
40.0
 41
246.5604456291583
 71
     1
 72
     5
  1
φ192
 11
0.0000000000000001
 21
1.0
 31
0.0
 73
     1
 44
1.0
1001
ACAD
1000
ACAD_MTEXT_COLUMN_INFO_BEGIN
1070
    75
1070
     2
1070
    79
1070
     0
1070
    76
1070
     1
1070
    78
1070
     0
1070
    48
1040
246.5604456291583
1070
    49
1040
17.81174611995442
1070
    50
1070
     1
1040
0.0
1000
ACAD_MTEXT_COLUMN_INFO_END
1000
MTEXTBEGIN
1070
    73
1070
     1
1070
    44
1040
1.0
1070
    74
1070
     0
1000
MTEXTEND
  0
MTEXT
  5
301
330
70
100
AcDbEntity
  8
SIZE
100
AcDbMText
 10
852.320445519088
 20
756.2961113368137
 30
0.0
 40
40.0
 41
246.5604456291583
 71
     1
 72
     5
  1
φ208
 11
0.0000000000000001
 21
1.0
 31
0.0
 73
     1
 44
1.0
1001
ACAD
1000
ACAD_MTEXT_COLUMN_INFO_BEGIN
1070
    75
1070
     2
1070
    79
1070
     0
1070
    76
1070
     1
1070
    78
1070
     0
1070
    48
1040
246.5604456291583
1070
    49
1040
17.81174611995442
1070
    50
1070
     1
1040
0.0
1000
ACAD_MTEXT_COLUMN_INFO_END
1000
MTEXTBEGIN
1070
    73
1070
     1
1070
    44
1040
1.0
1070
    74
1070
     0
1000
MTEXTEND
  0
DIMENSION
  5
302
102
{ACAD_XDICTIONARY
360
303
102
}
102
{ACAD_REACTORS
330
304
102
}
330
70
100
AcDbEntity
  8
SIZE
100
AcDbDimension
  2
*D31
 10
755.3421882636576
 20
1301.360254192706
 30
0.0
 11
719.9024925903086
 21
1301.360254192706
 31
0.0
 70
   160
  1
 
 71
     5
 42
82.9999999736683
  3
JIS2$0
100
AcDbAlignedDimension
 13
672.3421882899892
 23
943.1750931142614
 33
0.0
 14
755.3421882636576
 24
912.075093087874
 34
0.0
100
AcDbRotatedDimension
1001
ACAD_DIMASSOC_CALC_DIMLFAC
1040
-1.0
1001
ACAD_DIMASSOC_DIMLFAC
1040
-1.0
1001
ACAD_DIMASSOC_OVERRIDDEN_DIMLFAC
1040
-1.0
1001
ACAD_DSTYLE_DIMINSPECT
1070
   396
1000
100%
1070
   395
1000

1070
   394
1070
    33
1070
   393
1070
     0
1001
ACAD
1000
DSTYLE
1002
{
1070
    41
1040
30.0
1070
   144
1040
1.0
1070
   173
1070
     1
1070
   342
1005
0
1070
   343
1005
24D
1070
   344
1005
24D
1002
}
  0
MTEXT
  5
310
330
70
100
AcDbEntity
  8
SIZE
100
AcDbMText
 10
690.1978703651638
 20
1374.769793005167
 30
0.0
 40
40.0
 41
246.5604456291583
 71
     1
 72
     5
  1
83
 73
     1
 44
1.0
1001
ACAD
1000
ACAD_MTEXT_COLUMN_INFO_BEGIN
1070
    75
1070
     2
1070
    79
1070
     0
1070
    76
1070
     1
1070
    78
1070
     0
1070
    48
1040
246.5604456291583
1070
    49
1040
17.81174611995442
1070
    50
1070
     1
1040
0.0
1000
ACAD_MTEXT_COLUMN_INFO_END
1000
MTEXTBEGIN
1070
    73
1070
     1
1070
    44
1040
1.0
1070
    74
1070
     0
1000
MTEXTEND
  0
DIMENSION
  5
311
102
{ACAD_XDICTIONARY
360
312
102
}
102
{ACAD_REACTORS
330
313
102
}
330
70
100
AcDbEntity
  8
SIZE
100
AcDbDimension
  2
*D32
 10
-301.6578117363279
 20
1301.360254192706
 30
0.0
 11
185.3421882768307
 21
1301.360254192706
 31
0.0
 70
    32
  1
 
 71
     5
 42
974.0000000263171
  3
JIS2$0
100
AcDbAlignedDimension
 13
672.3421882899892
 23
943.1750931142614
 33
0.0
 14
-301.6578117363279
 24
943.1750930878743
 34
0.0
100
AcDbRotatedDimension
1001
ACAD_DIMASSOC_CALC_DIMLFAC
1040
-1.0
1001
ACAD_DIMASSOC_DIMLFAC
1040
-1.0
1001
ACAD_DIMASSOC_OVERRIDDEN_DIMLFAC
1040
-1.0
1001
ACAD_DSTYLE_DIMINSPECT
1070
   396
1000
100%
1070
   395
1000

1070
   394
1070
    33
1070
   393
1070
     0
1001
ACAD
1000
DSTYLE
1002
{
1070
    41
1040
30.0
1070
   343
1005
24D
1070
   342
1005
0
1070
   173
1070
     1
1070
   344
1005
24D
1070
     3
1000

1070
   144
1040
1.0
1002
}
  0
MTEXT
  5
31F
330
70
100
AcDbEntity
  8
SIZE
100
AcDbMText
 10
40.75353054829792
 20
1348.474644587901
 30
0.0
 40
40.0
 41
246.5604456291583
 71
     1
 72
     5
  1
974
 73
     1
 44
1.0
1001
ACAD
1000
ACAD_MTEXT_COLUMN_INFO_BEGIN
1070
    75
1070
     2
1070
    79
1070
     0
1070
    76
1070
     1
1070
    78
1070
     0
1070
    48
1040
246.5604456291583
1070
    49
1040
17.81174611995442
1070
    50
1070
     1
1040
0.0
1000
ACAD_MTEXT_COLUMN_INFO_END
1000
MTEXTBEGIN
1070
    73
1070
     1
1070
    44
1040
1.0
1070
    74
1070
     0
1000
MTEXTEND
  0
DIMENSION
  5
320
102
{ACAD_XDICTIONARY
360
321
102
}
102
{ACAD_REACTORS
330
322
102
}
330
70
100
AcDbEntity
  8
SIZE
100
AcDbDimension
  2
*D33
 10
-384.657811736337
 20
1301.360254192706
 30
0.0
 11
-343.1578117363324
 21
1301.360254192706
 31
0.0
 70
    32
  1
 
 71
     5
 42
83.0000000000091
  3
JIS2$0
100
AcDbAlignedDimension
 13
-301.6578117363279
 23
943.1750930878743
 33
0.0
 14
-384.657811736337
 24
912.075093087874
 34
0.0
 50
0.0000000000000241
100
AcDbRotatedDimension
1001
ACAD_DIMASSOC_CALC_DIMLFAC
1040
-1.0
1001
ACAD_DIMASSOC_DIMLFAC
1040
-1.0
1001
ACAD_DIMASSOC_OVERRIDDEN_DIMLFAC
1040
-1.0
1001
ACAD_DSTYLE_DIMINSPECT
1070
   396
1000
100%
1070
   395
1000

1070
   394
1070
    33
1070
   393
1070
     0
1001
ACAD
1000
DSTYLE
1002
{
1070
    41
1040
30.0
1070
   144
1040
1.0
1070
   173
1070
     1
1070
   342
1005
0
1070
   343
1005
24D
1070
   344
1005
24D
1002
}
  0
MTEXT
  5
32E
330
70
100
AcDbEntity
  8
SIZE
100
AcDbMText
 10
-371.249009145482
 20
1365.682928646074
 30
0.0
 40
40.0
 41
246.5604456291583
 71
     1
 72
     5
  1
83
 73
     1
 44
1.0
1001
ACAD
1000
ACAD_MTEXT_COLUMN_INFO_BEGIN
1070
    75
1070
     2
1070
    79
1070
     0
1070
    76
1070
     1
1070
    78
1070
     0
1070
    48
1040
246.5604456291583
1070
    49
1040
17.81174611995442
1070
    50
1070
     1
1040
0.0
1000
ACAD_MTEXT_COLUMN_INFO_END
1000
MTEXTBEGIN
1070
    73
1070
     1
1070
    44
1040
1.0
1070
    74
1070
     0
1000
MTEXTEND
  0
DIMENSION
  5
32F
102
{ACAD_XDICTIONARY
360
330
102
}
102
{ACAD_REACTORS
330
331
102
}
330
70
100
AcDbEntity
  8
SIZE
100
AcDbDimension
  2
*D34
 10
-484.2126652939788
 20
-115.2249069121263
 30
0.0
 11
-484.2126652939787
 21
-221.3878240917966
 31
0.0
 70
   160
  1
 
 71
     5
 42
113.2000000000007
  3
JIS2$0
100
AcDbAlignedDimension
 13
-252.7578117363337
 23
-2.024906912125516
 33
0.0
 14
-252.7578117363337
 24
-115.2249069121262
 34
0.0
 50
90.00000000000003
100
AcDbRotatedDimension
1001
ACAD_DIMASSOC_CALC_DIMLFAC
1040
-1.0
1001
ACAD_DIMASSOC_DIMLFAC
1040
-1.0
1001
ACAD_DIMASSOC_OVERRIDDEN_DIMLFAC
1040
-1.0
1001
ACAD_DSTYLE_DIMINSPECT
1070
   396
1000
100%
1070
   395
1000

1070
   394
1070
    33
1070
   393
1070
     0
1001
ACAD
1000
DSTYLE
1002
{
1070
    41
1040
30.0
1070
   144
1040
1.0
1070
   173
1070
     1
1070
   342
1005
0
1070
   343
1005
24D
1070
   344
1005
24D
1002
}
  0
MTEXT
  5
33E
330
70
100
AcDbEntity
  8
SIZE
100
AcDbMText
 10
-533.2635216502349
 20
-203.8607621764504
 30
0.0
 40
40.0
 41
246.5604456291583
 71
     1
 72
     5
  1
115
 11
0.0000000000000001
 21
1.0
 31
0.0
 73
     1
 44
1.0
1001
ACAD
1000
ACAD_MTEXT_COLUMN_INFO_BEGIN
1070
    75
1070
     2
1070
    79
1070
     0
1070
    76
1070
     1
1070
    78
1070
     0
1070
    48
1040
246.5604456291583
1070
    49
1040
17.81174611995442
1070
    50
1070
     1
1040
0.0
1000
ACAD_MTEXT_COLUMN_INFO_END
1000
MTEXTBEGIN
1070
    73
1070
     1
1070
    44
1040
1.0
1070
    74
1070
     0
1000
MTEXTEND
  0
INSERT
  5
33F
330
70
100
AcDbEntity
  8
0
100
AcDbBlockReference
  2
CustomObjectsInViewport1_0
 10
0.0
 20
0.0
 30
0.0
  0
ENDSEC
  0
SECTION
  2
OBJECTS
  0
DICTIONARY
  5
C
330
0
100
AcDbDictionary
281
     1
  3
ACAD_2007HEADERVARS_RT
350
692
  3
ACAD_CIP_PREVIOUS_PRODUCT_INFO
350
61B
  3
ACAD_COLOR
350
63
  3
ACAD_DETAILVIEWSTYLE
350
6A
  3
ACAD_FIELDLIST
350
66E
  3
ACAD_GROUP
350
D
  3
ACAD_LAYOUT
350
62
  3
ACAD_MATERIAL
350
10
  3
ACAD_MLEADERSTYLE
350
66
  3
ACAD_MLINESTYLE
350
5F
  3
ACAD_PLOTSETTINGS
350
61
  3
ACAD_PLOTSTYLENAME
350
E
  3
ACAD_SCALELIST
350
42
  3
ACAD_SECTIONVIEWSTYLE
350
68
  3
ACAD_TABLESTYLE
350
64
  3
ACAD_VISUALSTYLE
350
29
  3
ACDB_RECOMPOSE_DATA
350
690
  3
AcDbVariableDictionary
350
603
  3
AcmDictionary
350
63C
  3
AMG
350
61C
  3
ASE_INDEX_DICTIONARY
350
600
  3
DWGPROPS
350
691
  0
DICTIONARY
  5
C4
330
C3
100
AcDbDictionary
280
     1
281
     1
  3
ADSK_XREC_LAYER_RECONCILED
360
C5
  0
DICTIONARY
  5
C8
330
C7
100
AcDbDictionary
280
     1
281
     1
  0
DICTIONARY
  5
19B
330
19A
100
AcDbDictionary
280
     1
281
     1
  0
DICTIONARY
  5
1A4
330
1A3
100
AcDbDictionary
280
     1
281
     1
  0
DICTIONARY
  5
1AE
330
1AD
100
AcDbDictionary
280
     1
281
     1
  0
DICTIONARY
  5
1B8
330
1B7
100
AcDbDictionary
280
     1
281
     1
  0
DICTIONARY
  5
21D
330
21C
100
AcDbDictionary
280
     1
281
     1
  0
DICTIONARY
  5
224
330
223
100
AcDbDictionary
280
     1
281
     1
  0
DICTIONARY
  5
246
330
245
100
AcDbDictionary
280
     1
281
     1
  0
DICTIONARY
  5
2E3
330
2E2
100
AcDbDictionary
280
     1
281
     1
  0
DICTIONARY
  5
239
330
70
100
AcDbDictionary
280
     1
281
     1
  3
ACAD_SORTENTS
360
23A
  0
DICTIONARY
  5
680
330
243
100
AcDbDictionary
280
     1
281
     1
  3
ACAD_MTEXT_2008_RT
360
681
  3
ACAD_MTEXT_RT
360
6DC
  0
DICTIONARY
  5
682
330
297
100
AcDbDictionary
280
     1
281
     1
  3
ACAD_MTEXT_2008_RT
360
683
  3
ACAD_MTEXT_RT
360
6EA
  0
DICTIONARY
  5
684
330
298
100
AcDbDictionary
280
     1
281
     1
  3
ACAD_MTEXT_2008_RT
360
685
  3
ACAD_MTEXT_RT
360
6EB
  0
DICTIONARY
  5
686
330
2A0
100
AcDbDictionary
280
     1
281
     1
  3
ACAD_MTEXT_2008_RT
360
687
  0
DICTIONARY
  5
688
330
2B0
100
AcDbDictionary
280
     1
281
     1
  3
ACAD_MTEXT_2008_RT
360
689
  0
DICTIONARY
  5
68A
330
2D7
100
AcDbDictionary
280
     1
281
     1
  3
ACAD_MTEXT_2008_RT
360
68B
  0
DICTIONARY
  5
68C
330
2D9
100
AcDbDictionary
280
     1
281
     1
  3
ACAD_MTEXT_2008_RT
360
68D
  3
ACAD_MTEXT_RT
360
6EC
  0
DICTIONARY
  5
68E
330
2DA
100
AcDbDictionary
280
     1
281
     1
  3
ACAD_MTEXT_2008_RT
360
68F
  3
ACAD_MTEXT_RT
360
6ED
  0
DICTIONARY
  5
2E5
330
2E4
100
AcDbDictionary
280
     1
281
     1
  3
ACAD_DIMASSOC
360
2E6
  0
DICTIONARY
  5
2F3
330
2F2
100
AcDbDictionary
280
     1
281
     1
  3
ACAD_DIMASSOC
360
2F4
  0
DICTIONARY
  5
303
330
302
100
AcDbDictionary
280
     1
281
     1
  3
ACAD_DIMASSOC
360
304
  0
DICTIONARY
  5
312
330
311
100
AcDbDictionary
280
     1
281
     1
  3
ACAD_DIMASSOC
360
313
  0
DICTIONARY
  5
321
330
320
100
AcDbDictionary
280
     1
281
     1
  3
ACAD_DIMASSOC
360
322
  0
DICTIONARY
  5
330
330
32F
100
AcDbDictionary
280
     1
281
     1
  3
ACAD_DIMASSOC
360
331
  0
DICTIONARY
  5
692
102
{ACAD_REACTORS
330
C
102
}
330
C
100
AcDbDictionary
281
     1
  3
DIMARCSYM
350
693
  3
DIMLTEX1
350
695
  3
DIMLTEX2
350
696
  3
DIMLTYPE
350
694
  0
XRECORD
  5
61B
102
{ACAD_REACTORS
330
C
102
}
330
C
100
AcDbXrecord
280
     1
300
AMECH_PP
300
2019
300
87089AMECH_PP_2019_0F
  0
DICTIONARY
  5
63
102
{ACAD_REACTORS
330
C
102
}
330
C
100
AcDbDictionary
281
     1
  0
DICTIONARY
  5
6A
102
{ACAD_REACTORS
330
C
102
}
330
C
100
AcDbDictionary
281
     1
  3
Imperial24
350
6B
  3
Metric50
350
610
  0
FIELDLIST
  5
66E
102
{ACAD_REACTORS
330
C
102
}
330
C
100
AcDbIdSet
 90
        3
330
66C
330
66D
330
66F
100
AcDbFieldList
  0
DICTIONARY
  5
D
102
{ACAD_REACTORS
330
C
102
}
330
C
100
AcDbDictionary
281
     1
  0
DICTIONARY
  5
62
102
{ACAD_REACTORS
330
C
102
}
330
C
100
AcDbDictionary
281
     1
  3
Model
350
73
  3
レイアウト1
350
6F
  3
レイアウト2
350
77
  0
DICTIONARY
  5
10
102
{ACAD_REACTORS
330
C
102
}
330
C
100
AcDbDictionary
281
     1
  3
ByBlock
350
19
  3
ByLayer
350
11
  3
Global
350
21
  0
DICTIONARY
  5
66
102
{ACAD_REACTORS
330
C
102
}
330
C
100
AcDbDictionary
281
     1
  3
Standard
350
67
  0
DICTIONARY
  5
5F
102
{ACAD_REACTORS
330
C
102
}
330
C
100
AcDbDictionary
281
     1
  3
Standard
350
60
  0
DICTIONARY
  5
61
102
{ACAD_REACTORS
330
C
102
}
330
C
100
AcDbDictionary
281
     1
  0
ACDBDICTIONARYWDFLT
  5
E
102
{ACAD_REACTORS
330
C
102
}
330
C
100
AcDbDictionary
281
     1
  3
Normal
350
F
100
AcDbDictionaryWithDefault
340
F
  0
DICTIONARY
  5
42
102
{ACAD_REACTORS
330
C
102
}
330
C
100
AcDbDictionary
281
     1
  3
*A1
350
BE
  3
*A2
350
BF
  3
*A3
350
C0
  3
*A4
350
C1
  3
A0
350
43
  3
A1
350
44
  3
A2
350
45
  3
A3
350
46
  3
A4
350
47
  3
A5
350
48
  3
A6
350
49
  3
A7
350
4A
  3
A8
350
4B
  3
A9
350
4C
  3
B0
350
4D
  3
B1
350
4E
  3
B2
350
4F
  3
B3
350
50
  3
B4
350
51
  3
B5
350
52
  3
B6
350
53
  0
DICTIONARY
  5
68
102
{ACAD_REACTORS
330
C
102
}
330
C
100
AcDbDictionary
281
     1
  3
Imperial24
350
69
  3
Metric50
350
60F
  0
DICTIONARY
  5
64
102
{ACAD_REACTORS
330
C
102
}
330
C
100
AcDbDictionary
281
     1
  3
Standard
350
65
  0
DICTIONARY
  5
29
102
{ACAD_REACTORS
330
C
102
}
330
C
100
AcDbDictionary
281
     1
  3
2dWireframe
350
2F
  3
Basic
350
2E
  3
Brighten
350
35
  3
ColorChange
350
39
  3
Conceptual
350
32
  3
Dim
350
34
  3
EdgeColorOff
350
41
  3
Facepattern
350
38
  3
Flat
350
2A
  3
FlatWithEdges
350
2B
  3
Gouraud
350
2C
  3
GouraudWithEdges
350
2D
  3
Hidden
350
31
  3
JitterOff
350
3F
  3
Linepattern
350
37
  3
OverhangOff
350
40
  3
Realistic
350
33
  3
Shaded
350
3E
  3
Shaded with edges
350
3D
  3
Shades of Gray
350
3A
  3
Sketchy
350
3B
  3
Thicken
350
36
  3
Wireframe
350
30
  3
X-Ray
350
3C
  0
XRECORD
  5
690
102
{ACAD_REACTORS
330
C
102
}
330
C
100
AcDbXrecord
280
     1
 90
        1
330
65
330
243
330
297
330
298
330
2A0
330
2B0
330
2D7
330
2D8
330
2D9
330
2DA
330
2DB
330
2DC
330
2DD
330
2DE
330
2DF
330
2E0
330
300
330
301
330
310
330
31F
330
32E
330
33E
  0
DICTIONARY
  5
603
102
{ACAD_REACTORS
330
C
102
}
330
C
100
AcDbDictionary
281
     1
  3
ANNOALLVISIBLE
350
609
  3
CANNOSCALE
350
60A
  3
CMLEADERSTYLE
350
605
  3
CTABLESTYLE
350
604
  3
CVIEWDETAILSTYLE
350
606
  3
CVIEWSECTIONSTYLE
350
607
  3
DIMASSOC
350
67B
  3
HIDETEXT
350
679
  3
INDEXCTL
350
678
  3
LAYEREVAL
350
60C
  3
LAYERNOTIFY
350
60D
  3
LIGHTINGUNITS
350
60B
  3
MSLTSCALE
350
608
  3
SORTENTS
350
677
  3
XCLIPFRAME
350
67A
  0
DICTIONARY
  5
63C
102
{ACAD_REACTORS
330
C
102
}
330
C
100
AcDbDictionary
281
     1
  3
AcmStdDictionary
350
643
  0
DICTIONARY
  5
61C
102
{ACAD_REACTORS
330
C
102
}
330
C
100
AcDbDictionary
281
     1
  3
AcMgSettings
350
61D
  0
DICTIONARY
  5
600
102
{ACAD_REACTORS
330
C
102
}
330
C
100
AcDbDictionary
281
     1
  3
ASEBlockHierarchyIndexRecord
350
602
1001
DCO15
1040
2031906267.0
  0
XRECORD
  5
691
102
{ACAD_REACTORS
330
C
102
}
330
C
100
AcDbXrecord
280
     1
  1
DWGPROPS COOKIE
  2

  3

  4

  6

  7

  8
GM29624
  9

300
=
301
=
302
=
303
=
304
=
305
=
306
=
307
=
308
=
309
=
 40
0.0000462962962963
 41
2459320.645486112
 42
2459320.645497685
  1

 90
        0
  0
XRECORD
  5
C5
102
{ACAD_REACTORS
330
C4
102
}
330
C4
100
AcDbXrecord
280
     1
290
     1
  0
SORTENTSTABLE
  5
23A
102
{ACAD_REACTORS
330
239
102
}
330
239
100
AcDbSortentsTable
330
70
  0
XRECORD
  5
681
102
{ACAD_REACTORS
330
680
102
}
330
680
100
AcDbXrecord
280
     1
 40
376854.0
  1
\pxse0.85714,qc;Inspection\Popening\P{\T0.9;450 × 450\P}or more
  0
XRECORD
  5
6DC
102
{ACAD_REACTORS
330
680
102
}
330
680
100
AcDbXrecord
280
     1
 40
397231.0
  1
\pi100.82999;Inspection\P\pi163.82999;opening\P\pi119.72999;{\T0.9;450 × 450\P\pi163.82999;}or more
  0
XRECORD
  5
683
102
{ACAD_REACTORS
330
682
102
}
330
682
100
AcDbXrecord
280
     1
 40
115716.0
  1
\pxqr;RA\P{\W0.9;\T0.9;(return air)}
  0
XRECORD
  5
6EA
102
{ACAD_REACTORS
330
682
102
}
330
682
100
AcDbXrecord
280
     1
 40
39540.0
  1
\pi-85.33333;RA\P\pi-461.28;{\W0.9;\T0.9;(return air)}
  0
XRECORD
  5
685
102
{ACAD_REACTORS
330
684
102
}
330
684
100
AcDbXrecord
280
     1
 40
116313.0
  1
\pxqr;SA\P{\W0.9;\T0.9;(supply air)}
  0
XRECORD
  5
6EB
102
{ACAD_REACTORS
330
684
102
}
330
684
100
AcDbXrecord
280
     1
 40
39812.0
  1
\pi-85.33333;SA\P\pi-461.28;{\W0.9;\T0.9;(supply air)}
  0
XRECORD
  5
687
102
{ACAD_REACTORS
330
686
102
}
330
686
100
AcDbXrecord
280
     1
 40
67475.0
  1
\pxql;{\W0.9;\T0.9;EA\P(exhaust air outlet)}
  0
XRECORD
  5
689
102
{ACAD_REACTORS
330
688
102
}
330
688
100
AcDbXrecord
280
     1
 40
65752.0
  1
\pxql;OA\P{\W0.9;\T0.9;(outside air intake)}
  0
XRECORD
  5
68B
102
{ACAD_REACTORS
330
68A
102
}
330
68A
100
AcDbXrecord
280
     1
 40
486114.0
  1
\pxse0.8;{\W0.9;Heat exchanger\T0.9;,\PAir filter,\PHigh-Efficiency filter,\PFan,drain pan\Pmaintenance space}
  0
XRECORD
  5
68D
102
{ACAD_REACTORS
330
68C
102
}
330
68C
100
AcDbXrecord
280
     1
 40
81033.0
  1
\pxqc;150\Pto\P250
  0
XRECORD
  5
6EC
102
{ACAD_REACTORS
330
68C
102
}
330
68C
100
AcDbXrecord
280
     1
 40
100393.0
  1
\pi89.94689;150\P\pi101.94689;to\P\pi89.94689;250
  0
XRECORD
  5
68F
102
{ACAD_REACTORS
330
68E
102
}
330
68E
100
AcDbXrecord
280
     1
 40
6862.0
  1
\pxqc;692
  0
XRECORD
  5
6ED
102
{ACAD_REACTORS
330
68E
102
}
330
68E
100
AcDbXrecord
280
     1
 40
9242.0
  1
\pi89.94689;692
  0
DIMASSOC
  5
2E6
102
{ACAD_REACTORS
330
2E5
102
}
330
2E5
100
AcDbDimAssoc
330
2E4
 90
        3
 70
     1
 71
     0
  1
AcDbOsnapPointRef
 72
    13
331
0
331
0
 73
     0
 91
        0
 40
0.0
 10
0.0
 20
0.0
 30
2.000000000000000E+50
 75
     0
  1
AcDbOsnapPointRef
 72
    13
331
0
331
0
 73
     0
 91
        0
 40
0.0
 10
0.0
 20
0.0
 30
2.000000000000000E+50
 75
     0
  0
DIMASSOC
  5
2F4
102
{ACAD_REACTORS
330
2F3
102
}
330
2F3
100
AcDbDimAssoc
330
2F2
 90
        3
 70
     1
 71
     0
  1
AcDbOsnapPointRef
 72
     6
331
0
331
0
 73
     0
 91
        0
 40
0.9999999999999474
 10
0.0
 20
0.0
 30
0.0
332
0
332
0
 74
     0
 92
        0
 75
     0
  1
AcDbOsnapPointRef
 72
    13
331
0
331
0
 73
     0
 91
        0
 40
0.0
 10
0.0
 20
0.0
 30
2.000000000000000E+50
 75
     0
  0
DIMASSOC
  5
304
102
{ACAD_REACTORS
330
303
102
}
330
303
100
AcDbDimAssoc
330
302
 90
        2
 70
     1
 71
     0
  1
AcDbOsnapPointRef
 72
     1
331
0
331
0
 73
     0
 91
        0
 40
0.0
 10
0.0
 20
0.0
 30
2.000000000000000E+50
 75
     0
  0
DIMASSOC
  5
313
102
{ACAD_REACTORS
330
312
102
}
330
312
100
AcDbDimAssoc
330
311
 90
        2
 70
     1
 71
     0
  1
AcDbOsnapPointRef
 72
    13
331
0
331
0
 73
     0
 91
        0
 40
0.0
 10
0.0
 20
0.0
 30
2.000000000000000E+50
 75
     0
  0
DIMASSOC
  5
322
102
{ACAD_REACTORS
330
321
102
}
330
321
100
AcDbDimAssoc
330
320
 90
        3
 70
     1
 71
     0
  1
AcDbOsnapPointRef
 72
    13
331
0
331
0
 73
     0
 91
        0
 40
0.0
 10
0.0
 20
0.0
 30
2.000000000000000E+50
 75
     0
  1
AcDbOsnapPointRef
 72
     1
331
0
331
0
 73
     0
 91
        0
 40
0.0
 10
0.0
 20
0.0
 30
2.000000000000000E+50
 75
     0
  0
DIMASSOC
  5
331
102
{ACAD_REACTORS
330
330
102
}
330
330
100
AcDbDimAssoc
330
32F
 90
        3
 70
     1
 71
     0
  1
AcDbOsnapPointRef
 72
    13
331
0
331
0
 73
     0
 91
        0
 40
0.0
 10
0.0
 20
0.0
 30
2.000000000000000E+50
 75
     0
  1
AcDbOsnapPointRef
 72
     1
331
0
331
0
 73
     0
 91
        0
 40
0.0
 10
0.0
 20
0.0
 30
2.000000000000000E+50
 75
     0
  0
XRECORD
  5
693
102
{ACAD_REACTORS
330
692
102
}
330
692
100
AcDbXrecord
280
     1
 70
     1
  0
XRECORD
  5
695
102
{ACAD_REACTORS
330
692
102
}
330
692
100
AcDbXrecord
280
     1
340
5B
  0
XRECORD
  5
696
102
{ACAD_REACTORS
330
692
102
}
330
692
100
AcDbXrecord
280
     1
340
5B
  0
XRECORD
  5
694
102
{ACAD_REACTORS
330
692
102
}
330
692
100
AcDbXrecord
280
     1
340
5B
  0
ACDBDETAILVIEWSTYLE
  5
6B
102
{ACAD_XDICTIONARY
360
6D0
102
}
102
{ACAD_REACTORS
330
6A
330
661
102
}
330
6A
100
AcDbModelDocViewStyle
 70
     0
  3
Imperial24
290
     0
100
AcDbDetailViewStyle
 70
     0
 71
     0
 90
        3
 71
     1
340
55
 40
0.24
340
0
 40
0.24
300

 40
0.36
280
     3
 71
     2
340
5D
 90
       25
 71
     3
340
55
 40
0.24
 90
        1
 40
0.75
 90
        1
300
%<\AcVar ViewType \f "%tc1">% %<\AcVar ViewDetailId>%\PSCALE %<\AcVar ViewScale \f "%sn">%
 71
     4
340
5D
 90
       25
340
5D
 90
       25
280
     0
  0
ACDBDETAILVIEWSTYLE
  5
610
102
{ACAD_XDICTIONARY
360
6F0
102
}
102
{ACAD_REACTORS
330
6A
330
662
102
}
330
6A
100
AcDbModelDocViewStyle
 70
     0
  3
Metric50
290
     0
100
AcDbDetailViewStyle
 70
     0
 71
     0
 90
        3
 71
     1
340
55
 40
5.0
340
0
 40
5.0
300

 40
0.0
280
     1
 71
     2
340
5D
 90
       25
 71
     3
340
55
 40
5.0
 90
        0
 40
15.0
 90
        1
300
%<\AcVar ViewDetailId>% (%<\AcVar ViewScale \f "%sn">%)
 71
     4
340
5D
 90
       25
340
5D
 90
       25
280
     0
  0
LAYOUT
  5
73
102
{ACAD_XDICTIONARY
360
6D4
102
}
102
{ACAD_REACTORS
330
62
102
}
330
62
100
AcDbPlotSettings
  1

  2
AutoCAD PDF (General Documentation).pc3
  4
ISO_A4_(210.00_x_297.00_MM)
  6

 40
5.0
 41
17.0
 42
5.0
 43
17.0
 44
210.0
 45
297.0
 46
0.0
 47
0.0
 48
0.0
 49
0.0
140
0.0
141
0.0
142
1.0
143
42.60746288252846
 70
 11952
 72
     1
 73
     1
 74
     0
  7
monochrome.ctb
 75
     0
147
0.0234700667992616
148
4702.23622854567
149
1813.619269631123
100
AcDbLayout
  1
Model
 70
     1
 71
     0
 10
0.0
 20
0.0
 11
12.0
 21
9.0
 12
0.0
 22
0.0
 32
0.0
 14
0.0
 24
0.0
 34
0.0
 15
0.0
 25
0.0
 35
0.0
146
0.0
 13
0.0
 23
0.0
 33
0.0
 16
1.0
 26
0.0
 36
0.0
 17
0.0
 27
1.0
 37
0.0
 76
     0
330
70
1001
ACAD_PSEXT
1000
AutoCAD PDF (General Documentation).pc3
1000
DWG To PDF
1000
ファイル
1000

1070
     0
  0
LAYOUT
  5
6F
102
{ACAD_XDICTIONARY
360
6D2
102
}
102
{ACAD_REACTORS
330
62
102
}
330
62
100
AcDbPlotSettings
  1

  2
AutoCAD PDF (General Documentation).pc3
  4

  6

 40
0.0
 41
0.0
 42
0.0
 43
0.0
 44
0.0
 45
0.0
 46
0.0
 47
0.0
 48
0.0
 49
0.0
140
0.0
141
0.0
142
1.0
143
1.0
 70
   688
 72
     0
 73
     0
 74
     5
  7
monochrome.ctb
 75
    16
147
1.0
148
0.0
149
0.0
100
AcDbLayout
  1
レイアウト1
 70
     1
 71
     1
 10
0.0
 20
0.0
 11
12.0
 21
9.0
 12
0.0
 22
0.0
 32
0.0
 14
1.000000000000000E+20
 24
1.000000000000000E+20
 34
1.000000000000000E+20
 15
-1.000000000000000E+20
 25
-1.000000000000000E+20
 35
-1.000000000000000E+20
146
0.0
 13
0.0
 23
0.0
 33
0.0
 16
1.0
 26
0.0
 36
0.0
 17
0.0
 27
1.0
 37
0.0
 76
     0
330
6C
  0
LAYOUT
  5
77
102
{ACAD_XDICTIONARY
360
6D6
102
}
102
{ACAD_REACTORS
330
62
102
}
330
62
100
AcDbPlotSettings
  1

  2
AutoCAD PDF (General Documentation).pc3
  4

  6

 40
0.0
 41
0.0
 42
0.0
 43
0.0
 44
0.0
 45
0.0
 46
0.0
 47
0.0
 48
0.0
 49
0.0
140
0.0
141
0.0
142
1.0
143
1.0
 70
   688
 72
     0
 73
     0
 74
     5
  7
monochrome.ctb
 75
    16
147
1.0
148
0.0
149
0.0
100
AcDbLayout
  1
レイアウト2
 70
     1
 71
     2
 10
0.0
 20
0.0
 11
12.0
 21
9.0
 12
0.0
 22
0.0
 32
0.0
 14
0.0
 24
0.0
 34
0.0
 15
0.0
 25
0.0
 35
0.0
146
0.0
 13
0.0
 23
0.0
 33
0.0
 16
1.0
 26
0.0
 36
0.0
 17
0.0
 27
1.0
 37
0.0
 76
     0
330
74
  0
MATERIAL
  5
19
102
{ACAD_XDICTIONARY
360
1A
102
}
102
{ACAD_REACTORS
330
10
102
}
330
10
100
AcDbMaterial
  1
ByBlock
 72
     0
 43
0.0208333333333333
 43
0.0
 43
0.0
 43
0.0
 43
0.0
 43
0.0208333333333333
 43
0.0
 43
0.0
 43
0.0
 43
0.0
 43
1.0
 43
0.0
 43
0.0
 43
0.0
 43
0.0
 43
1.0
 77
     0
 47
0.0208333333333333
 47
0.0
 47
0.0
 47
0.0
 47
0.0
 47
0.0208333333333333
 47
0.0
 47
0.0
 47
0.0
 47
0.0
 47
1.0
 47
0.0
 47
0.0
 47
0.0
 47
0.0
 47
1.0
171
     0
 49
0.0208333333333333
 49
0.0
 49
0.0
 49
0.0
 49
0.0
 49
0.0208333333333333
 49
0.0
 49
0.0
 49
0.0
 49
0.0
 49
1.0
 49
0.0
 49
0.0
 49
0.0
 49
0.0
 49
1.0
175
     0
142
0.0208333333333333
142
0.0
142
0.0
142
0.0
142
0.0
142
0.0208333333333333
142
0.0
142
0.0
142
0.0
142
0.0
142
1.0
142
0.0
142
0.0
142
0.0
142
0.0
142
1.0
179
     0
144
0.0208333333333333
144
0.0
144
0.0
144
0.0
144
0.0
144
0.0208333333333333
144
0.0
144
0.0
144
0.0
144
0.0
144
1.0
144
0.0
144
0.0
144
0.0
144
0.0
144
1.0
147
0.0208333333333333
147
0.0
147
0.0
147
0.0
147
0.0
147
0.0208333333333333
147
0.0
147
0.0
147
0.0
147
0.0
147
1.0
147
0.0
147
0.0
147
0.0
147
0.0
147
1.0
  0
MATERIAL
  5
11
102
{ACAD_XDICTIONARY
360
12
102
}
102
{ACAD_REACTORS
330
10
102
}
330
10
100
AcDbMaterial
  1
ByLayer
 72
     0
 43
0.0208333333333333
 43
0.0
 43
0.0
 43
0.0
 43
0.0
 43
0.0208333333333333
 43
0.0
 43
0.0
 43
0.0
 43
0.0
 43
1.0
 43
0.0
 43
0.0
 43
0.0
 43
0.0
 43
1.0
 77
     0
 47
0.0208333333333333
 47
0.0
 47
0.0
 47
0.0
 47
0.0
 47
0.0208333333333333
 47
0.0
 47
0.0
 47
0.0
 47
0.0
 47
1.0
 47
0.0
 47
0.0
 47
0.0
 47
0.0
 47
1.0
171
     0
 49
0.0208333333333333
 49
0.0
 49
0.0
 49
0.0
 49
0.0
 49
0.0208333333333333
 49
0.0
 49
0.0
 49
0.0
 49
0.0
 49
1.0
 49
0.0
 49
0.0
 49
0.0
 49
0.0
 49
1.0
175
     0
142
0.0208333333333333
142
0.0
142
0.0
142
0.0
142
0.0
142
0.0208333333333333
142
0.0
142
0.0
142
0.0
142
0.0
142
1.0
142
0.0
142
0.0
142
0.0
142
0.0
142
1.0
179
     0
144
0.0208333333333333
144
0.0
144
0.0
144
0.0
144
0.0
144
0.0208333333333333
144
0.0
144
0.0
144
0.0
144
0.0
144
1.0
144
0.0
144
0.0
144
0.0
144
0.0
144
1.0
147
0.0208333333333333
147
0.0
147
0.0
147
0.0
147
0.0
147
0.0208333333333333
147
0.0
147
0.0
147
0.0
147
0.0
147
1.0
147
0.0
147
0.0
147
0.0
147
0.0
147
1.0
  0
MATERIAL
  5
21
102
{ACAD_XDICTIONARY
360
22
102
}
102
{ACAD_REACTORS
330
10
102
}
330
10
100
AcDbMaterial
  1
Global
 72
     0
 43
0.0208333333333333
 43
0.0
 43
0.0
 43
0.0
 43
0.0
 43
0.0208333333333333
 43
0.0
 43
0.0
 43
0.0
 43
0.0
 43
1.0
 43
0.0
 43
0.0
 43
0.0
 43
0.0
 43
1.0
 77
     0
 47
0.0208333333333333
 47
0.0
 47
0.0
 47
0.0
 47
0.0
 47
0.0208333333333333
 47
0.0
 47
0.0
 47
0.0
 47
0.0
 47
1.0
 47
0.0
 47
0.0
 47
0.0
 47
0.0
 47
1.0
171
     0
 49
0.0208333333333333
 49
0.0
 49
0.0
 49
0.0
 49
0.0
 49
0.0208333333333333
 49
0.0
 49
0.0
 49
0.0
 49
0.0
 49
1.0
 49
0.0
 49
0.0
 49
0.0
 49
0.0
 49
1.0
175
     0
142
0.0208333333333333
142
0.0
142
0.0
142
0.0
142
0.0
142
0.0208333333333333
142
0.0
142
0.0
142
0.0
142
0.0
142
1.0
142
0.0
142
0.0
142
0.0
142
0.0
142
1.0
179
     0
144
0.0208333333333333
144
0.0
144
0.0
144
0.0
144
0.0
144
0.0208333333333333
144
0.0
144
0.0
144
0.0
144
0.0
144
1.0
144
0.0
144
0.0
144
0.0
144
0.0
144
1.0
147
0.0208333333333333
147
0.0
147
0.0
147
0.0
147
0.0
147
0.0208333333333333
147
0.0
147
0.0
147
0.0
147
0.0
147
1.0
147
0.0
147
0.0
147
0.0
147
0.0
147
1.0
  0
MLEADERSTYLE
  5
67
102
{ACAD_XDICTIONARY
360
6CC
102
}
102
{ACAD_REACTORS
330
66
102
}
330
66
100
AcDbMLeaderStyle
170
     2
171
     1
172
     0
 90
        2
 40
0.0
 41
0.0
173
     1
 91
-1056964608
340
5B
 92
       -2
290
     1
 42
0.09
291
     1
 43
0.36
  3
Standard
 44
0.18
300

342
55
174
     1
178
     6
175
     1
176
     0
 93
-1056964608
 45
0.18
292
     0
297
     0
 46
0.18
 94
-1056964608
 47
1.0
 49
1.0
140
1.0
293
     1
141
0.0
294
     1
177
     0
142
1.0
295
     0
296
     0
143
0.125
1001
ACAD_MLEADERVER
1070
     2
  0
MLINESTYLE
  5
60
102
{ACAD_REACTORS
330
5F
102
}
330
5F
100
AcDbMlineStyle
  2
STANDARD
 70
     0
  3

 62
   256
 51
90.0
 52
90.0
 71
     2
 49
0.5
 62
   256
  6
BYLAYER
 49
-0.5
 62
   256
  6
BYLAYER
  0
ACDBPLACEHOLDER
  5
F
102
{ACAD_REACTORS
330
E
102
}
330
E
  0
SCALE
  5
BE
102
{ACAD_REACTORS
330
42
102
}
330
42
100
AcDbScale
 70
     0
300
1:38
140
1.0
141
38.0
290
     0
  0
SCALE
  5
BF
102
{ACAD_REACTORS
330
42
102
}
330
42
100
AcDbScale
 70
     0
300
1:35
140
1.0
141
35.0
290
     0
  0
SCALE
  5
C0
102
{ACAD_REACTORS
330
42
102
}
330
42
100
AcDbScale
 70
     0
300
1:33
140
1.0
141
33.0
290
     0
  0
SCALE
  5
C1
102
{ACAD_REACTORS
330
42
102
}
330
42
100
AcDbScale
 70
     0
300
IMAGE
140
1.0
141
3.0
290
     0
  0
SCALE
  5
43
102
{ACAD_REACTORS
330
42
102
}
330
42
100
AcDbScale
 70
     0
300
1:1
140
1.0
141
1.0
290
     1
  0
SCALE
  5
44
102
{ACAD_REACTORS
330
42
102
}
330
42
100
AcDbScale
 70
     0
300
1:2
140
1.0
141
2.0
290
     0
  0
SCALE
  5
45
102
{ACAD_REACTORS
330
42
102
}
330
42
100
AcDbScale
 70
     0
300
1:4
140
1.0
141
4.0
290
     0
  0
SCALE
  5
46
102
{ACAD_REACTORS
330
42
102
}
330
42
100
AcDbScale
 70
     0
300
1:5
140
1.0
141
5.0
290
     0
  0
SCALE
  5
47
102
{ACAD_REACTORS
330
42
102
}
330
42
100
AcDbScale
 70
     0
300
1:8
140
1.0
141
8.0
290
     0
  0
SCALE
  5
48
102
{ACAD_REACTORS
330
42
102
}
330
42
100
AcDbScale
 70
     0
300
1:10
140
1.0
141
10.0
290
     0
  0
SCALE
  5
49
102
{ACAD_REACTORS
330
42
102
}
330
42
100
AcDbScale
 70
     0
300
1:16
140
1.0
141
16.0
290
     0
  0
SCALE
  5
4A
102
{ACAD_REACTORS
330
42
102
}
330
42
100
AcDbScale
 70
     0
300
1:20
140
1.0
141
20.0
290
     0
  0
SCALE
  5
4B
102
{ACAD_REACTORS
330
42
102
}
330
42
100
AcDbScale
 70
     0
300
1:30
140
1.0
141
30.0
290
     0
  0
SCALE
  5
4C
102
{ACAD_REACTORS
330
42
102
}
330
42
100
AcDbScale
 70
     0
300
1:40
140
1.0
141
40.0
290
     0
  0
SCALE
  5
4D
102
{ACAD_REACTORS
330
42
102
}
330
42
100
AcDbScale
 70
     0
300
1:50
140
1.0
141
50.0
290
     0
  0
SCALE
  5
4E
102
{ACAD_REACTORS
330
42
102
}
330
42
100
AcDbScale
 70
     0
300
1:100
140
1.0
141
100.0
290
     0
  0
SCALE
  5
4F
102
{ACAD_REACTORS
330
42
102
}
330
42
100
AcDbScale
 70
     0
300
2:1
140
2.0
141
1.0
290
     0
  0
SCALE
  5
50
102
{ACAD_REACTORS
330
42
102
}
330
42
100
AcDbScale
 70
     0
300
4:1
140
4.0
141
1.0
290
     0
  0
SCALE
  5
51
102
{ACAD_REACTORS
330
42
102
}
330
42
100
AcDbScale
 70
     0
300
8:1
140
8.0
141
1.0
290
     0
  0
SCALE
  5
52
102
{ACAD_REACTORS
330
42
102
}
330
42
100
AcDbScale
 70
     0
300
10:1
140
10.0
141
1.0
290
     0
  0
SCALE
  5
53
102
{ACAD_REACTORS
330
42
102
}
330
42
100
AcDbScale
 70
     0
300
100:1
140
100.0
141
1.0
290
     0
  0
ACDBSECTIONVIEWSTYLE
  5
69
102
{ACAD_XDICTIONARY
360
6CE
102
}
102
{ACAD_REACTORS
330
68
330
65F
102
}
330
68
100
AcDbModelDocViewStyle
 70
     0
  3
Imperial24
290
     0
100
AcDbSectionViewStyle
 70
     0
 71
     0
 90
       78
 71
     1
340
55
 40
0.24
340
0
340
0
 40
0.24
300
I, O, Q, S, X, Z
 40
0.48
 90
        3
 40
0.18
 90
        1
 71
     2
340
5D
 90
       25
340
5D
 90
       50
 40
0.24
 40
0.0
 40
0.24
 71
     3
340
55
 40
0.24
 90
        1
 40
0.75
 90
        1
300
%<\AcVar ViewType \f "%tc1">% %<\AcVar ViewSectionStartId>%-%<\AcVar ViewSectionEndId>%\PSCALE %<\AcVar ViewScale \f "%sn">%
 71
     4
300
ANSI31
 40
1.0
 90
        0
290
     0
290
     0
 90
        6
 40
0.0
 40
1.570796326794896
 40
0.2617993877991494
 40
1.308996938995747
 40
-0.2617993877991494
 40
1.832595714594046
  0
ACDBSECTIONVIEWSTYLE
  5
60F
102
{ACAD_XDICTIONARY
360
6EE
102
}
102
{ACAD_REACTORS
330
68
330
660
102
}
330
68
100
AcDbModelDocViewStyle
 70
     0
  3
Metric50
290
     0
100
AcDbSectionViewStyle
 70
     0
 71
     0
 90
      102
 71
     1
340
55
 40
5.0
340
0
340
0
 40
5.0
300
I, O, Q, S, X, Z
 40
10.0
 90
        0
 40
2.5
 90
        0
 71
     2
340
5D
 90
       25
340
5D
 90
       50
 40
5.0
 40
2.5
 40
5.0
 71
     3
340
55
 40
5.0
 90
        0
 40
15.0
 90
        1
300
%<\AcVar ViewSectionStartId>%-%<\AcVar ViewSectionEndId>% (%<\AcVar ViewScale \f "%sn">%)
 71
     4
300
ANSI31
 40
1.0
 90
        0
290
     0
290
     0
 90
        6
 40
0.0
 40
1.570796326794896
 40
0.2617993877991494
 40
1.308996938995747
 40
-0.2617993877991494
 40
1.832595714594046
  0
TABLESTYLE
  5
65
102
{ACAD_XDICTIONARY
360
67E
102
}
102
{ACAD_REACTORS
330
64
102
}
330
64
100
AcDbTableStyle
  3
Standard
 70
     0
 71
     3
 40
1.5
 41
1.5
280
     0
281
     0
  7
STANDARD
140
3.5
170
     2
 62
     0
 63
     7
283
     0
274
    -2
284
     1
 64
     0
275
    -2
285
     1
 65
     0
276
    -2
286
     1
 66
     0
277
    -2
287
     1
 67
     0
278
    -2
288
     1
 68
     0
279
    -2
289
     1
 69
     0
  7
STANDARD
140
3.5
170
     5
 62
     0
 63
     7
283
     0
274
    -2
284
     1
 64
     0
275
    -2
285
     1
 65
     0
276
    -2
286
     1
 66
     0
277
    -2
287
     1
 67
     0
278
    -2
288
     1
 68
     0
279
    -2
289
     1
 69
     0
  7
STANDARD
140
3.5
170
     5
 62
     0
 63
     7
283
     0
274
    -2
284
     1
 64
     0
275
    -2
285
     1
 65
     0
276
    -2
286
     1
 66
     0
277
    -2
287
     1
 67
     0
278
    -2
288
     1
 68
     0
279
    -2
289
     1
 69
     0
  0
VISUALSTYLE
  5
2F
102
{ACAD_XDICTIONARY
360
6A4
102
}
102
{ACAD_REACTORS
330
29
102
}
330
29
100
AcDbVisualStyle
  2
2dWireframe
 70
     4
 71
     0
 72
     2
 73
     0
 90
        0
 40
-0.6
 41
-30.0
 62
     5
 63
     7
 74
     1
 91
        4
 64
     7
 65
   257
 75
     1
175
     1
 42
1.0
 92
        0
 66
   257
 43
1.0
 76
     1
 77
     6
 78
     2
 67
     7
 79
     5
170
     0
171
     0
290
     0
174
     0
 93
        1
 44
0.0
173
     0
291
     0
 45
0.0
1001
ACAD
1000
AcDbSavedByObjectVersion
1070
     0
  0
VISUALSTYLE
  5
2E
102
{ACAD_XDICTIONARY
360
6A2
102
}
102
{ACAD_REACTORS
330
29
102
}
330
29
100
AcDbVisualStyle
  2
Basic
 70
     7
 71
     1
 72
     0
 73
     1
 90
        0
 40
-0.6
 41
-30.0
 62
     5
 63
     7
 74
     0
 91
        4
 64
     7
 65
   257
 75
     1
175
     1
 42
1.0
 92
        8
 66
     7
 43
1.0
 76
     1
 77
     6
 78
     2
 67
     7
 79
     5
170
     0
171
     0
290
     0
174
     0
 93
        1
 44
0.0
173
     0
291
     1
 45
0.0
1001
ACAD
1000
AcDbSavedByObjectVersion
1070
     0
  0
VISUALSTYLE
  5
35
102
{ACAD_XDICTIONARY
360
6B0
102
}
102
{ACAD_REACTORS
330
29
102
}
330
29
100
AcDbVisualStyle
  2
Brighten
 70
    12
 71
     2
 72
     2
 73
     0
 90
        0
 40
-0.6
 41
-30.0
 62
     5
 63
     7
 74
     1
 91
        4
 64
     7
 65
   257
 75
     1
175
     1
 42
1.0
 92
        8
 66
     7
 43
1.0
 76
     1
 77
     6
 78
     2
 67
     7
 79
     5
170
     0
171
     0
290
     0
174
     0
 93
        1
 44
50.0
173
     0
291
     1
 45
0.0
1001
ACAD
1000
AcDbSavedByObjectVersion
1070
     0
  0
VISUALSTYLE
  5
39
102
{ACAD_XDICTIONARY
360
6B8
102
}
102
{ACAD_REACTORS
330
29
102
}
330
29
100
AcDbVisualStyle
  2
ColorChange
 70
    16
 71
     2
 72
     2
 73
     3
 90
        0
 40
-0.6
 41
-30.0
 62
     5
 63
     8
 74
     1
 91
        4
 64
     7
 65
   257
 75
     1
175
     1
 42
1.0
 92
        8
 66
     8
 43
1.0
 76
     1
 77
     6
 78
     2
 67
     7
 79
     5
170
     0
171
     0
290
     0
174
     0
 93
        1
 44
0.0
173
     0
291
     1
 45
0.0
1001
ACAD
1000
AcDbSavedByObjectVersion
1070
     0
  0
VISUALSTYLE
  5
32
102
{ACAD_XDICTIONARY
360
6AA
102
}
102
{ACAD_REACTORS
330
29
102
}
330
29
100
AcDbVisualStyle
  2
Conceptual
 70
     9
 71
     3
 72
     2
 73
     0
 90
        0
 40
-0.6
 41
-30.0
 62
     5
 63
     7
 74
     2
 91
        2
 64
     7
 65
   257
 75
     1
175
     1
 42
179.0
 92
        8
 66
     7
 43
1.0
 76
     1
 77
     6
 78
     2
 67
     7
 79
     3
170
     0
171
     0
290
     0
174
     0
 93
        1
 44
0.0
173
     0
291
     0
 45
0.0
1001
ACAD
1000
AcDbSavedByObjectVersion
1070
     0
  0
VISUALSTYLE
  5
34
102
{ACAD_XDICTIONARY
360
6AE
102
}
102
{ACAD_REACTORS
330
29
102
}
330
29
100
AcDbVisualStyle
  2
Dim
 70
    11
 71
     2
 72
     2
 73
     0
 90
        0
 40
-0.6
 41
-30.0
 62
     5
 63
     7
 74
     1
 91
        4
 64
     7
 65
   257
 75
     1
175
     1
 42
1.0
 92
        8
 66
     7
 43
1.0
 76
     1
 77
     6
 78
     2
 67
     7
 79
     5
170
     0
171
     0
290
     0
174
     0
 93
        1
 44
-50.0
173
     0
291
     1
 45
0.0
1001
ACAD
1000
AcDbSavedByObjectVersion
1070
     0
  0
VISUALSTYLE
  5
41
102
{ACAD_XDICTIONARY
360
6C8
102
}
102
{ACAD_REACTORS
330
29
102
}
330
29
100
AcDbVisualStyle
  2
EdgeColorOff
 70
    22
 71
     2
 72
     2
 73
     0
 90
        0
 40
-0.6
 41
-30.0
 62
     5
 63
     7
 74
     1
 91
        4
 64
     7
 65
   257
 75
     1
175
     1
 42
1.0
 92
        8
 66
     7
 43
1.0
 76
     1
 77
     6
 78
     2
 67
     7
 79
     5
170
     0
171
     0
290
     0
174
     0
 93
        1
 44
0.0
173
     0
291
     1
 45
0.0
1001
ACAD
1000
AcDbSavedByObjectVersion
1070
     0
  0
VISUALSTYLE
  5
38
102
{ACAD_XDICTIONARY
360
6B6
102
}
102
{ACAD_REACTORS
330
29
102
}
330
29
100
AcDbVisualStyle
  2
Facepattern
 70
    15
 71
     2
 72
     2
 73
     0
 90
        0
 40
-0.6
 41
-30.0
 62
     5
 63
     7
 74
     1
 91
        4
 64
     7
 65
   257
 75
     1
175
     1
 42
1.0
 92
        8
 66
     7
 43
1.0
 76
     1
 77
     6
 78
     2
 67
     7
 79
     5
170
     0
171
     0
290
     0
174
     0
 93
        1
 44
0.0
173
     0
291
     1
 45
0.0
1001
ACAD
1000
AcDbSavedByObjectVersion
1070
     0
  0
VISUALSTYLE
  5
2A
102
{ACAD_XDICTIONARY
360
69A
102
}
102
{ACAD_REACTORS
330
29
102
}
330
29
100
AcDbVisualStyle
  2
Flat
 70
     0
 71
     2
 72
     1
 73
     1
 90
        2
 40
-0.6
 41
30.0
 62
     5
 63
     7
 74
     0
 91
        0
 64
     7
 65
   257
 75
     1
175
     1
 42
1.0
 92
        8
 66
     7
 43
1.0
 76
     1
 77
     6
 78
     2
 67
     7
 79
     5
170
     0
171
     0
290
     0
174
     0
 93
       13
 44
0.0
173
     0
291
     1
 45
0.0
1001
ACAD
1000
AcDbSavedByObjectVersion
1070
     0
  0
VISUALSTYLE
  5
2B
102
{ACAD_XDICTIONARY
360
69C
102
}
102
{ACAD_REACTORS
330
29
102
}
330
29
100
AcDbVisualStyle
  2
FlatWithEdges
 70
     1
 71
     2
 72
     1
 73
     1
 90
        2
 40
-0.6
 41
30.0
 62
     5
 63
     7
 74
     1
 91
        0
 64
     7
 65
   257
 75
     1
175
     1
 42
1.0
 92
        0
 66
   257
 43
1.0
 76
     1
 77
     6
 78
     2
 67
     7
 79
     5
170
     0
171
     0
290
     0
174
     0
 93
       13
 44
0.0
173
     0
291
     1
 45
0.0
1001
ACAD
1000
AcDbSavedByObjectVersion
1070
     0
  0
VISUALSTYLE
  5
2C
102
{ACAD_XDICTIONARY
360
69E
102
}
102
{ACAD_REACTORS
330
29
102
}
330
29
100
AcDbVisualStyle
  2
Gouraud
 70
     2
 71
     2
 72
     2
 73
     1
 90
        2
 40
-0.6
 41
30.0
 62
     5
 63
     7
 74
     0
 91
        0
 64
     7
 65
   257
 75
     1
175
     1
 42
1.0
 92
        0
 66
     7
 43
1.0
 76
     1
 77
     6
 78
     2
 67
     7
 79
     5
170
     0
171
     0
290
     0
174
     0
 93
       13
 44
0.0
173
     0
291
     1
 45
0.0
1001
ACAD
1000
AcDbSavedByObjectVersion
1070
     0
  0
VISUALSTYLE
  5
2D
102
{ACAD_XDICTIONARY
360
6A0
102
}
102
{ACAD_REACTORS
330
29
102
}
330
29
100
AcDbVisualStyle
  2
GouraudWithEdges
 70
     3
 71
     2
 72
     2
 73
     1
 90
        2
 40
-0.6
 41
30.0
 62
     5
 63
     7
 74
     1
 91
        0
 64
     7
 65
   257
 75
     1
175
     1
 42
1.0
 92
        0
 66
   257
 43
1.0
 76
     1
 77
     6
 78
     2
 67
     7
 79
     5
170
     0
171
     0
290
     0
174
     0
 93
       13
 44
0.0
173
     0
291
     1
 45
0.0
1001
ACAD
1000
AcDbSavedByObjectVersion
1070
     0
  0
VISUALSTYLE
  5
31
102
{ACAD_XDICTIONARY
360
6A8
102
}
102
{ACAD_REACTORS
330
29
102
}
330
29
100
AcDbVisualStyle
  2
Hidden
 70
     6
 71
     1
 72
     2
 73
     2
 90
        0
 40
-0.6
 41
-30.0
 62
     5
 63
     7
 74
     2
 91
        2
 64
     7
 65
   257
 75
     2
175
     1
 42
40.0
 92
        0
 66
   257
 43
1.0
 76
     1
 77
     6
 78
     2
 67
     7
 79
     3
170
     0
171
     0
290
     0
174
     0
 93
        1
 44
0.0
173
     0
291
     0
 45
0.0
1001
ACAD
1000
AcDbSavedByObjectVersion
1070
     0
  0
VISUALSTYLE
  5
3F
102
{ACAD_XDICTIONARY
360
6C4
102
}
102
{ACAD_REACTORS
330
29
102
}
330
29
100
AcDbVisualStyle
  2
JitterOff
 70
    20
 71
     2
 72
     2
 73
     0
 90
        0
 40
-0.6
 41
-30.0
 62
     5
 63
     7
 74
     1
 91
        4
 64
     7
 65
   257
 75
     1
175
     1
 42
1.0
 92
       10
 66
     7
 43
1.0
 76
     1
 77
     6
 78
     2
 67
     7
 79
     5
170
     0
171
     0
290
     0
174
     0
 93
        1
 44
0.0
173
     0
291
     1
 45
0.0
1001
ACAD
1000
AcDbSavedByObjectVersion
1070
     0
  0
VISUALSTYLE
  5
37
102
{ACAD_XDICTIONARY
360
6B4
102
}
102
{ACAD_REACTORS
330
29
102
}
330
29
100
AcDbVisualStyle
  2
Linepattern
 70
    14
 71
     2
 72
     2
 73
     0
 90
        0
 40
-0.6
 41
-30.0
 62
     5
 63
     7
 74
     1
 91
        4
 64
     7
 65
   257
 75
     7
175
     7
 42
1.0
 92
        8
 66
     7
 43
1.0
 76
     1
 77
     6
 78
     2
 67
     7
 79
     5
170
     0
171
     0
290
     0
174
     0
 93
        1
 44
0.0
173
     0
291
     1
 45
0.0
1001
ACAD
1000
AcDbSavedByObjectVersion
1070
     0
  0
VISUALSTYLE
  5
40
102
{ACAD_XDICTIONARY
360
6C6
102
}
102
{ACAD_REACTORS
330
29
102
}
330
29
100
AcDbVisualStyle
  2
OverhangOff
 70
    21
 71
     2
 72
     2
 73
     0
 90
        0
 40
-0.6
 41
-30.0
 62
     5
 63
     7
 74
     1
 91
        4
 64
     7
 65
   257
 75
     1
175
     1
 42
1.0
 92
        9
 66
     7
 43
1.0
 76
     1
 77
     6
 78
     2
 67
     7
 79
     5
170
     0
171
     0
290
     0
174
     0
 93
        1
 44
0.0
173
     0
291
     1
 45
0.0
1001
ACAD
1000
AcDbSavedByObjectVersion
1070
     0
  0
VISUALSTYLE
  5
33
102
{ACAD_XDICTIONARY
360
6AC
102
}
102
{ACAD_REACTORS
330
29
102
}
330
29
100
AcDbVisualStyle
  2
Realistic
 70
     8
 71
     2
 72
     3
 73
     0
 90
        2
 40
-0.6
 41
30.0
 62
     5
 63
     7
 74
     0
 91
        0
 64
     7
 65
   257
 75
     1
175
     1
 42
1.0
 92
        8
 66
   257
 43
1.0
 76
     1
 77
     6
 78
     2
 67
     7
 79
     3
170
     0
171
     0
290
     0
174
     0
 93
       13
 44
0.0
173
     0
291
     0
 45
0.0
1001
ACAD
1000
AcDbSavedByObjectVersion
1070
     0
  0
VISUALSTYLE
  5
3E
102
{ACAD_XDICTIONARY
360
6C2
102
}
102
{ACAD_REACTORS
330
29
102
}
330
29
100
AcDbVisualStyle
  2
Shaded
 70
    27
 71
     2
 72
     2
 73
     1
 90
        2
 40
-0.6
 41
30.0
 62
     5
 63
     7
 74
     0
 91
        4
 64
     7
 65
   257
 75
     1
175
     1
 42
1.0
 92
        8
 66
   257
 43
1.0
 76
     1
 77
     6
 78
     2
 67
     8
 79
     3
170
     0
171
     0
290
     0
174
     0
 93
        5
 44
0.0
173
     0
291
     0
 45
0.0
1001
ACAD
1000
AcDbSavedByObjectVersion
1070
     0
  0
VISUALSTYLE
  5
3D
102
{ACAD_XDICTIONARY
360
6C0
102
}
102
{ACAD_REACTORS
330
29
102
}
330
29
100
AcDbVisualStyle
  2
Shaded with edges
 70
    26
 71
     2
 72
     2
 73
     1
 90
        2
 40
-0.6
 41
30.0
 62
     5
 63
     7
 74
     1
 91
        2
 64
     7
 65
   257
 75
     2
175
     1
 42
1.0
 92
        8
 66
   257
 43
1.0
 76
     1
 77
     6
 78
     2
 67
     7
 79
     3
170
     0
171
     0
290
     0
174
     0
 93
        5
 44
0.0
173
     0
291
     0
 45
0.0
1001
ACAD
1000
AcDbSavedByObjectVersion
1070
     0
  0
VISUALSTYLE
  5
3A
102
{ACAD_XDICTIONARY
360
6BA
102
}
102
{ACAD_REACTORS
330
29
102
}
330
29
100
AcDbVisualStyle
  2
Shades of Gray
 70
    23
 71
     2
 72
     2
 73
     3
 90
        0
 40
-0.6
 41
-30.0
 62
     5
 63
     7
 74
     2
 91
        2
 64
     7
 65
     7
 75
     1
175
     1
 42
40.0
 92
        8
 66
     7
 43
1.0
 76
     1
 77
     6
 78
     2
 67
     7
 79
     3
170
     0
171
     0
290
     0
174
     0
 93
        1
 44
0.0
173
     0
291
     0
 45
0.0
1001
ACAD
1000
AcDbSavedByObjectVersion
1070
     0
  0
VISUALSTYLE
  5
3B
102
{ACAD_XDICTIONARY
360
6BC
102
}
102
{ACAD_REACTORS
330
29
102
}
330
29
100
AcDbVisualStyle
  2
Sketchy
 70
    24
 71
     1
 72
     2
 73
     2
 90
        0
 40
-0.6
 41
-30.0
 62
     5
 63
     7
 74
     2
 91
        2
 64
     7
 65
     7
 75
     1
175
     1
 42
40.0
 92
       11
 66
     7
 43
1.0
 76
     1
 77
     6
 78
     2
 67
     7
 79
     6
170
     0
171
     0
290
     0
174
     0
 93
        1
 44
0.0
173
     0
291
     0
 45
0.0
1001
ACAD
1000
AcDbSavedByObjectVersion
1070
     0
  0
VISUALSTYLE
  5
36
102
{ACAD_XDICTIONARY
360
6B2
102
}
102
{ACAD_REACTORS
330
29
102
}
330
29
100
AcDbVisualStyle
  2
Thicken
 70
    13
 71
     2
 72
     2
 73
     0
 90
        0
 40
-0.6
 41
-30.0
 62
     5
 63
     7
 74
     1
 91
        4
 64
     7
 65
   257
 75
     1
175
     1
 42
1.0
 92
       12
 66
     7
 43
1.0
 76
     1
 77
     6
 78
     2
 67
     7
 79
     5
170
     0
171
     0
290
     0
174
     0
 93
        1
 44
0.0
173
     0
291
     1
 45
0.0
1001
ACAD
1000
AcDbSavedByObjectVersion
1070
     0
  0
VISUALSTYLE
  5
30
102
{ACAD_XDICTIONARY
360
6A6
102
}
102
{ACAD_REACTORS
330
29
102
}
330
29
100
AcDbVisualStyle
  2
Wireframe
 70
     5
 71
     0
 72
     2
 73
     0
 90
        0
 40
-0.6
 41
-30.0
 62
     5
 63
     7
 74
     1
 91
        4
 64
     7
 65
   257
 75
     1
175
     1
 42
1.0
 92
        0
 66
   257
 43
1.0
 76
     1
 77
     6
 78
     2
 67
     7
 79
     3
170
     0
171
     0
290
     0
174
     0
 93
        1
 44
0.0
173
     0
291
     0
 45
0.0
1001
ACAD
1000
AcDbSavedByObjectVersion
1070
     0
  0
VISUALSTYLE
  5
3C
102
{ACAD_XDICTIONARY
360
6BE
102
}
102
{ACAD_REACTORS
330
29
102
}
330
29
100
AcDbVisualStyle
  2
X-Ray
 70
    25
 71
     2
 72
     2
 73
     1
 90
        1
 40
0.5
 41
-30.0
 62
     5
 63
     7
 74
     1
 91
        0
 64
     7
 65
   257
 75
     1
175
     1
 42
1.0
 92
        8
 66
     7
 43
1.0
 76
     1
 77
     6
 78
     2
 67
     7
 79
     3
170
     0
171
     0
290
     0
174
     0
 93
       13
 44
0.0
173
     0
291
     0
 45
0.0
1001
ACAD
1000
AcDbSavedByObjectVersion
1070
     0
  0
DICTIONARYVAR
  5
609
102
{ACAD_REACTORS
330
603
102
}
330
603
100
DictionaryVariables
280
     0
  1
1
  0
DICTIONARYVAR
  5
60A
102
{ACAD_REACTORS
330
603
102
}
330
603
100
DictionaryVariables
280
     0
  1
1:1
  0
DICTIONARYVAR
  5
605
102
{ACAD_REACTORS
330
603
102
}
330
603
100
DictionaryVariables
280
     0
  1
STANDARD
  0
DICTIONARYVAR
  5
604
102
{ACAD_REACTORS
330
603
102
}
330
603
100
DictionaryVariables
280
     0
  1
STANDARD
  0
DICTIONARYVAR
  5
606
102
{ACAD_REACTORS
330
603
102
}
330
603
100
DictionaryVariables
280
     0
  1
ISO 128-34_2001
  0
DICTIONARYVAR
  5
607
102
{ACAD_REACTORS
330
603
102
}
330
603
100
DictionaryVariables
280
     0
  1
ISO 128-40_2001(E)
  0
DICTIONARYVAR
  5
67B
102
{ACAD_REACTORS
330
603
102
}
330
603
100
DictionaryVariables
280
     0
  1
2
  0
DICTIONARYVAR
  5
679
102
{ACAD_REACTORS
330
603
102
}
330
603
100
DictionaryVariables
280
     0
  1
1
  0
DICTIONARYVAR
  5
678
102
{ACAD_REACTORS
330
603
102
}
330
603
100
DictionaryVariables
280
     0
  1
0
  0
DICTIONARYVAR
  5
60C
102
{ACAD_REACTORS
330
603
102
}
330
603
100
DictionaryVariables
280
     0
  1
1
  0
DICTIONARYVAR
  5
60D
102
{ACAD_REACTORS
330
603
102
}
330
603
100
DictionaryVariables
280
     0
  1
15
  0
DICTIONARYVAR
  5
60B
102
{ACAD_REACTORS
330
603
102
}
330
603
100
DictionaryVariables
280
     0
  1
0
  0
DICTIONARYVAR
  5
608
102
{ACAD_REACTORS
330
603
102
}
330
603
100
DictionaryVariables
280
     0
  1
0
  0
DICTIONARYVAR
  5
677
102
{ACAD_REACTORS
330
603
102
}
330
603
100
DictionaryVariables
280
     0
  1
127
  0
DICTIONARYVAR
  5
67A
102
{ACAD_REACTORS
330
603
102
}
330
603
100
DictionaryVariables
280
     0
  1
0
  0
DICTIONARY
  5
643
102
{ACAD_REACTORS
330
63C
102
}
330
63C
100
AcDbDictionary
281
     1
  0
DICTIONARY
  5
61D
102
{ACAD_REACTORS
330
61C
102
}
330
61C
100
AcDbDictionary
281
     1
  3
DWGSETTINGS
350
61E
  3
TRANSSETTINGS
350
61F
  0
XRECORD
  5
602
102
{ACAD_REACTORS
330
600
102
}
330
600
100
AcDbXrecord
280
     1
330
583
330
584
330
58B
330
58C
330
593
330
594
330
59B
330
59E
330
5A7
330
5A8
330
5AF
330
5B0
330
5B9
330
5BA
330
5C1
330
5C2
330
5C9
330
5CA
330
5D1
330
5D2
330
5D9
330
5DA
330
5E1
330
5E2
330
5E9
330
5EA
330
5F1
330
5F2
330
5FA
330
5FB
  0
DICTIONARY
  5
6D0
330
6B
100
AcDbDictionary
280
     1
281
     1
  3
ACAD_XREC_ROUNDTRIP
360
6D1
  0
DICTIONARY
  5
6F0
330
610
100
AcDbDictionary
280
     1
281
     1
  3
ACAD_XREC_ROUNDTRIP
360
6F1
  0
DICTIONARY
  5
6D4
330
73
100
AcDbDictionary
280
     1
281
     1
  3
ACAD_XREC_ROUNDTRIP
360
6D5
  0
DICTIONARY
  5
6D2
330
6F
100
AcDbDictionary
280
     1
281
     1
  3
ACAD_XREC_ROUNDTRIP
360
6D3
  0
DICTIONARY
  5
6D6
330
77
100
AcDbDictionary
280
     1
281
     1
  3
ACAD_XREC_ROUNDTRIP
360
6D7
  0
DICTIONARY
  5
1A
330
19
100
AcDbDictionary
280
     1
281
     1
  3
ACAD_XREC_ROUNDTRIP
360
698
  3
BUMPTILE
360
1C
  3
DIFFUSETILE
360
1B
  3
OPACITYTILE
360
1F
  3
REFLECTIONTILE
360
1E
  3
REFRACTIONTILE
360
20
  3
SPECULARTILE
360
1D
  0
DICTIONARY
  5
12
330
11
100
AcDbDictionary
280
     1
281
     1
  3
ACAD_XREC_ROUNDTRIP
360
697
  3
BUMPTILE
360
14
  3
DIFFUSETILE
360
13
  3
OPACITYTILE
360
17
  3
REFLECTIONTILE
360
16
  3
REFRACTIONTILE
360
18
  3
SPECULARTILE
360
15
  0
DICTIONARY
  5
22
330
21
100
AcDbDictionary
280
     1
281
     1
  3
ACAD_XREC_ROUNDTRIP
360
699
  3
BUMPTILE
360
24
  3
DIFFUSETILE
360
23
  3
OPACITYTILE
360
27
  3
REFLECTIONTILE
360
26
  3
REFRACTIONTILE
360
28
  3
SPECULARTILE
360
25
  0
DICTIONARY
  5
6CC
330
67
100
AcDbDictionary
280
     1
281
     1
  3
ACAD_XREC_ROUNDTRIP
360
6CD
  0
DICTIONARY
  5
6CE
330
69
100
AcDbDictionary
280
     1
281
     1
  3
ACAD_XREC_ROUNDTRIP
360
6CF
  0
DICTIONARY
  5
6EE
330
60F
100
AcDbDictionary
280
     1
281
     1
  3
ACAD_XREC_ROUNDTRIP
360
6EF
  0
DICTIONARY
  5
67E
330
65
100
AcDbDictionary
280
     1
281
     1
  3
ACAD_ROUNDTRIP_2008_TABLESTYLE_CELLSTYLEMAP
360
67F
  3
ACAD_XREC_ROUNDTRIP
360
6CA
  0
DICTIONARY
  5
6A4
330
2F
100
AcDbDictionary
280
     1
281
     1
  3
ACAD_XREC_ROUNDTRIP
360
6A5
  0
DICTIONARY
  5
6A2
330
2E
100
AcDbDictionary
280
     1
281
     1
  3
ACAD_XREC_ROUNDTRIP
360
6A3
  0
DICTIONARY
  5
6B0
330
35
100
AcDbDictionary
280
     1
281
     1
  3
ACAD_XREC_ROUNDTRIP
360
6B1
  0
DICTIONARY
  5
6B8
330
39
100
AcDbDictionary
280
     1
281
     1
  3
ACAD_XREC_ROUNDTRIP
360
6B9
  0
DICTIONARY
  5
6AA
330
32
100
AcDbDictionary
280
     1
281
     1
  3
ACAD_XREC_ROUNDTRIP
360
6AB
  0
DICTIONARY
  5
6AE
330
34
100
AcDbDictionary
280
     1
281
     1
  3
ACAD_XREC_ROUNDTRIP
360
6AF
  0
DICTIONARY
  5
6C8
330
41
100
AcDbDictionary
280
     1
281
     1
  3
ACAD_XREC_ROUNDTRIP
360
6C9
  0
DICTIONARY
  5
6B6
330
38
100
AcDbDictionary
280
     1
281
     1
  3
ACAD_XREC_ROUNDTRIP
360
6B7
  0
DICTIONARY
  5
69A
330
2A
100
AcDbDictionary
280
     1
281
     1
  3
ACAD_XREC_ROUNDTRIP
360
69B
  0
DICTIONARY
  5
69C
330
2B
100
AcDbDictionary
280
     1
281
     1
  3
ACAD_XREC_ROUNDTRIP
360
69D
  0
DICTIONARY
  5
69E
330
2C
100
AcDbDictionary
280
     1
281
     1
  3
ACAD_XREC_ROUNDTRIP
360
69F
  0
DICTIONARY
  5
6A0
330
2D
100
AcDbDictionary
280
     1
281
     1
  3
ACAD_XREC_ROUNDTRIP
360
6A1
  0
DICTIONARY
  5
6A8
330
31
100
AcDbDictionary
280
     1
281
     1
  3
ACAD_XREC_ROUNDTRIP
360
6A9
  0
DICTIONARY
  5
6C4
330
3F
100
AcDbDictionary
280
     1
281
     1
  3
ACAD_XREC_ROUNDTRIP
360
6C5
  0
DICTIONARY
  5
6B4
330
37
100
AcDbDictionary
280
     1
281
     1
  3
ACAD_XREC_ROUNDTRIP
360
6B5
  0
DICTIONARY
  5
6C6
330
40
100
AcDbDictionary
280
     1
281
     1
  3
ACAD_XREC_ROUNDTRIP
360
6C7
  0
DICTIONARY
  5
6AC
330
33
100
AcDbDictionary
280
     1
281
     1
  3
ACAD_XREC_ROUNDTRIP
360
6AD
  0
DICTIONARY
  5
6C2
330
3E
100
AcDbDictionary
280
     1
281
     1
  3
ACAD_XREC_ROUNDTRIP
360
6C3
  0
DICTIONARY
  5
6C0
330
3D
100
AcDbDictionary
280
     1
281
     1
  3
ACAD_XREC_ROUNDTRIP
360
6C1
  0
DICTIONARY
  5
6BA
330
3A
100
AcDbDictionary
280
     1
281
     1
  3
ACAD_XREC_ROUNDTRIP
360
6BB
  0
DICTIONARY
  5
6BC
330
3B
100
AcDbDictionary
280
     1
281
     1
  3
ACAD_XREC_ROUNDTRIP
360
6BD
  0
DICTIONARY
  5
6B2
330
36
100
AcDbDictionary
280
     1
281
     1
  3
ACAD_XREC_ROUNDTRIP
360
6B3
  0
DICTIONARY
  5
6A6
330
30
100
AcDbDictionary
280
     1
281
     1
  3
ACAD_XREC_ROUNDTRIP
360
6A7
  0
DICTIONARY
  5
6BE
330
3C
100
AcDbDictionary
280
     1
281
     1
  3
ACAD_XREC_ROUNDTRIP
360
6BF
  0
XRECORD
  5
6D1
102
{ACAD_REACTORS
330
6D0
102
}
330
6D0
100
AcDbXrecord
280
     1
102
DISPLAYNAME
  1
Imperial24
102
FLAGS
 90
        0
  0
XRECORD
  5
6F1
102
{ACAD_REACTORS
330
6F0
102
}
330
6F0
100
AcDbXrecord
280
     1
102
DISPLAYNAME
  1
Metric50
102
FLAGS
 90
        0
  0
XRECORD
  5
6D5
102
{ACAD_REACTORS
330
6D4
102
}
330
6D4
100
AcDbXrecord
280
     1
102
SHADEPLOT
 70
     0
102
SHADEPLOTRESLEVEL
 70
     2
102
SHADEPLOTCUSTOMDPI
 70
   300
  0
XRECORD
  5
6D3
102
{ACAD_REACTORS
330
6D2
102
}
330
6D2
100
AcDbXrecord
280
     1
102
SHADEPLOT
 70
     0
102
SHADEPLOTRESLEVEL
 70
     2
102
SHADEPLOTCUSTOMDPI
 70
   300
  0
XRECORD
  5
6D7
102
{ACAD_REACTORS
330
6D6
102
}
330
6D6
100
AcDbXrecord
280
     1
102
SHADEPLOT
 70
     0
102
SHADEPLOTRESLEVEL
 70
     2
102
SHADEPLOTCUSTOMDPI
 70
   300
  0
XRECORD
  5
698
102
{ACAD_REACTORS
330
1A
102
}
330
1A
100
AcDbXrecord
280
     1
102
MATERIAL
148
0.0
149
0.0
149
0.0
 93
        0
 94
      127
282
     0
 72
     0
 77
     0
171
     0
175
     0
179
     0
273
     0
  0
XRECORD
  5
1C
102
{ACAD_REACTORS
330
1A
102
}
330
1A
100
AcDbXrecord
280
     1
270
     1
271
     1
  0
XRECORD
  5
1B
102
{ACAD_REACTORS
330
1A
102
}
330
1A
100
AcDbXrecord
280
     1
270
     1
271
     1
  0
XRECORD
  5
1F
102
{ACAD_REACTORS
330
1A
102
}
330
1A
100
AcDbXrecord
280
     1
270
     1
271
     1
  0
XRECORD
  5
1E
102
{ACAD_REACTORS
330
1A
102
}
330
1A
100
AcDbXrecord
280
     1
270
     1
271
     1
  0
XRECORD
  5
20
102
{ACAD_REACTORS
330
1A
102
}
330
1A
100
AcDbXrecord
280
     1
270
     1
271
     1
  0
XRECORD
  5
1D
102
{ACAD_REACTORS
330
1A
102
}
330
1A
100
AcDbXrecord
280
     1
270
     1
271
     1
  0
XRECORD
  5
697
102
{ACAD_REACTORS
330
12
102
}
330
12
100
AcDbXrecord
280
     1
102
MATERIAL
148
0.0
149
0.0
149
0.0
 93
        0
 94
      127
282
     0
 72
     0
 77
     0
171
     0
175
     0
179
     0
273
     0
  0
XRECORD
  5
14
102
{ACAD_REACTORS
330
12
102
}
330
12
100
AcDbXrecord
280
     1
270
     1
271
     1
  0
XRECORD
  5
13
102
{ACAD_REACTORS
330
12
102
}
330
12
100
AcDbXrecord
280
     1
270
     1
271
     1
  0
XRECORD
  5
17
102
{ACAD_REACTORS
330
12
102
}
330
12
100
AcDbXrecord
280
     1
270
     1
271
     1
  0
XRECORD
  5
16
102
{ACAD_REACTORS
330
12
102
}
330
12
100
AcDbXrecord
280
     1
270
     1
271
     1
  0
XRECORD
  5
18
102
{ACAD_REACTORS
330
12
102
}
330
12
100
AcDbXrecord
280
     1
270
     1
271
     1
  0
XRECORD
  5
15
102
{ACAD_REACTORS
330
12
102
}
330
12
100
AcDbXrecord
280
     1
270
     1
271
     1
  0
XRECORD
  5
699
102
{ACAD_REACTORS
330
22
102
}
330
22
100
AcDbXrecord
280
     1
102
MATERIAL
148
0.0
149
0.0
149
0.0
 93
        0
 94
      127
282
     0
 72
     0
 77
     0
171
     0
175
     0
179
     0
273
     0
  0
XRECORD
  5
24
102
{ACAD_REACTORS
330
22
102
}
330
22
100
AcDbXrecord
280
     1
270
     1
271
     1
  0
XRECORD
  5
23
102
{ACAD_REACTORS
330
22
102
}
330
22
100
AcDbXrecord
280
     1
270
     1
271
     1
  0
XRECORD
  5
27
102
{ACAD_REACTORS
330
22
102
}
330
22
100
AcDbXrecord
280
     1
270
     1
271
     1
  0
XRECORD
  5
26
102
{ACAD_REACTORS
330
22
102
}
330
22
100
AcDbXrecord
280
     1
270
     1
271
     1
  0
XRECORD
  5
28
102
{ACAD_REACTORS
330
22
102
}
330
22
100
AcDbXrecord
280
     1
270
     1
271
     1
  0
XRECORD
  5
25
102
{ACAD_REACTORS
330
22
102
}
330
22
100
AcDbXrecord
280
     1
270
     1
271
     1
  0
XRECORD
  5
6CD
102
{ACAD_REACTORS
330
6CC
102
}
330
6CC
100
AcDbXrecord
280
     1
102
ACAD_ROUNDTRIP_2012_MLEADER_STYLE
298
     1
  0
XRECORD
  5
6CF
102
{ACAD_REACTORS
330
6CE
102
}
330
6CE
100
AcDbXrecord
280
     1
102
DISPLAYNAME
  1
Imperial24
102
FLAGS
 90
        0
  0
XRECORD
  5
6EF
102
{ACAD_REACTORS
330
6EE
102
}
330
6EE
100
AcDbXrecord
280
     1
102
DISPLAYNAME
  1
Metric50
102
FLAGS
 90
        0
  0
CELLSTYLEMAP
  5
67F
102
{ACAD_REACTORS
330
67E
102
}
330
67E
100
AcDbCellStyleMap
 90
        3
300
CELLSTYLE
  1
TABLEFORMAT_BEGIN
 90
        5
170
     1
 91
        0
 92
    32768
 62
   257
 93
        1
300
CONTENTFORMAT
  1
CONTENTFORMAT_BEGIN
 90
        0
 91
        0
 92
      512
 93
        0
300

 40
0.0
140
1.0
 94
        5
 62
     0
340
55
144
3.5
309
CONTENTFORMAT_END
171
     1
301
MARGIN
  1
CELLMARGIN_BEGIN
 40
1.5
 40
1.5
 40
1.5
 40
1.5
 40
4.5
 40
4.5
309
CELLMARGIN_END
 94
        6
 95
        1
302
GRIDFORMAT
  1
GRIDFORMAT_BEGIN
 90
        0
 91
        1
 62
     0
 92
       -2
340
5B
 93
        0
 40
1.125
309
GRIDFORMAT_END
 95
        2
302
GRIDFORMAT
  1
GRIDFORMAT_BEGIN
 90
        0
 91
        1
 62
     0
 92
       -2
340
5B
 93
        0
 40
1.125
309
GRIDFORMAT_END
 95
        4
302
GRIDFORMAT
  1
GRIDFORMAT_BEGIN
 90
        0
 91
        1
 62
     0
 92
       -2
340
5B
 93
        0
 40
1.125
309
GRIDFORMAT_END
 95
        8
302
GRIDFORMAT
  1
GRIDFORMAT_BEGIN
 90
        0
 91
        1
 62
     0
 92
       -2
340
5B
 93
        0
 40
1.125
309
GRIDFORMAT_END
 95
       16
302
GRIDFORMAT
  1
GRIDFORMAT_BEGIN
 90
        0
 91
        1
 62
     0
 92
       -2
340
5B
 93
        0
 40
1.125
309
GRIDFORMAT_END
 95
       32
302
GRIDFORMAT
  1
GRIDFORMAT_BEGIN
 90
        0
 91
        1
 62
     0
 92
       -2
340
5B
 93
        0
 40
1.125
309
GRIDFORMAT_END
309
TABLEFORMAT_END
  1
CELLSTYLE_BEGIN
 90
        1
 91
        1
300
_TITLE
309
CELLSTYLE_END
300
CELLSTYLE
  1
TABLEFORMAT_BEGIN
 90
        5
170
     1
 91
        0
 92
        0
 62
   257
 93
        1
300
CONTENTFORMAT
  1
CONTENTFORMAT_BEGIN
 90
        0
 91
        0
 92
      512
 93
        0
300

 40
0.0
140
1.0
 94
        5
 62
     0
340
55
144
3.5
309
CONTENTFORMAT_END
171
     1
301
MARGIN
  1
CELLMARGIN_BEGIN
 40
1.5
 40
1.5
 40
1.5
 40
1.5
 40
4.5
 40
4.5
309
CELLMARGIN_END
 94
        6
 95
        1
302
GRIDFORMAT
  1
GRIDFORMAT_BEGIN
 90
        0
 91
        1
 62
     0
 92
       -2
340
5B
 93
        0
 40
1.125
309
GRIDFORMAT_END
 95
        2
302
GRIDFORMAT
  1
GRIDFORMAT_BEGIN
 90
        0
 91
        1
 62
     0
 92
       -2
340
5B
 93
        0
 40
1.125
309
GRIDFORMAT_END
 95
        4
302
GRIDFORMAT
  1
GRIDFORMAT_BEGIN
 90
        0
 91
        1
 62
     0
 92
       -2
340
5B
 93
        0
 40
1.125
309
GRIDFORMAT_END
 95
        8
302
GRIDFORMAT
  1
GRIDFORMAT_BEGIN
 90
        0
 91
        1
 62
     0
 92
       -2
340
5B
 93
        0
 40
1.125
309
GRIDFORMAT_END
 95
       16
302
GRIDFORMAT
  1
GRIDFORMAT_BEGIN
 90
        0
 91
        1
 62
     0
 92
       -2
340
5B
 93
        0
 40
1.125
309
GRIDFORMAT_END
 95
       32
302
GRIDFORMAT
  1
GRIDFORMAT_BEGIN
 90
        0
 91
        1
 62
     0
 92
       -2
340
5B
 93
        0
 40
1.125
309
GRIDFORMAT_END
309
TABLEFORMAT_END
  1
CELLSTYLE_BEGIN
 90
        2
 91
        1
300
_HEADER
309
CELLSTYLE_END
300
CELLSTYLE
  1
TABLEFORMAT_BEGIN
 90
        5
170
     1
 91
        0
 92
        0
 62
   257
 93
        1
300
CONTENTFORMAT
  1
CONTENTFORMAT_BEGIN
 90
        0
 91
        0
 92
      512
 93
        0
300

 40
0.0
140
1.0
 94
        2
 62
     0
340
55
144
3.5
309
CONTENTFORMAT_END
171
     1
301
MARGIN
  1
CELLMARGIN_BEGIN
 40
1.5
 40
1.5
 40
1.5
 40
1.5
 40
4.5
 40
4.5
309
CELLMARGIN_END
 94
        6
 95
        1
302
GRIDFORMAT
  1
GRIDFORMAT_BEGIN
 90
        0
 91
        1
 62
     0
 92
       -2
340
5B
 93
        0
 40
1.125
309
GRIDFORMAT_END
 95
        2
302
GRIDFORMAT
  1
GRIDFORMAT_BEGIN
 90
        0
 91
        1
 62
     0
 92
       -2
340
5B
 93
        0
 40
1.125
309
GRIDFORMAT_END
 95
        4
302
GRIDFORMAT
  1
GRIDFORMAT_BEGIN
 90
        0
 91
        1
 62
     0
 92
       -2
340
5B
 93
        0
 40
1.125
309
GRIDFORMAT_END
 95
        8
302
GRIDFORMAT
  1
GRIDFORMAT_BEGIN
 90
        0
 91
        1
 62
     0
 92
       -2
340
5B
 93
        0
 40
1.125
309
GRIDFORMAT_END
 95
       16
302
GRIDFORMAT
  1
GRIDFORMAT_BEGIN
 90
        0
 91
        1
 62
     0
 92
       -2
340
5B
 93
        0
 40
1.125
309
GRIDFORMAT_END
 95
       32
302
GRIDFORMAT
  1
GRIDFORMAT_BEGIN
 90
        0
 91
        1
 62
     0
 92
       -2
340
5B
 93
        0
 40
1.125
309
GRIDFORMAT_END
309
TABLEFORMAT_END
  1
CELLSTYLE_BEGIN
 90
        3
 91
        2
300
_DATA
309
CELLSTYLE_END
  0
XRECORD
  5
6CA
102
{ACAD_REACTORS
330
67E
102
}
330
67E
100
AcDbXrecord
280
     1
102
ACAD_ROUNDTRIP_PRE2007_TABLESTYLE
 90
      512
 91
        0
  1

 92
      512
 93
        0
  2

 94
      512
 95
        0
  3

  0
XRECORD
  5
6A5
102
{ACAD_REACTORS
330
6A4
102
}
330
6A4
100
AcDbXrecord
280
     1
102
RTVSPost2010Prop28
280
     1
102
RTVSPost2010PropOp28
 70
     1
102
RTVSPost2010Prop29
280
     1
102
RTVSPost2010PropOp29
 70
     1
102
RTVSPost2010Prop30
280
     0
102
RTVSPost2010PropOp30
 70
     1
102
RTVSPost2010Prop31
280
     0
102
RTVSPost2010PropOp31
 70
     1
102
RTVSPost2010Prop32
280
     0
102
RTVSPost2010PropOp32
 70
     1
102
RTVSPost2010Prop33
280
     0
102
RTVSPost2010PropOp33
 70
     1
102
RTVSPost2010Prop34
280
     0
102
RTVSPost2010PropOp34
 70
     1
102
RTVSPost2010Prop35
280
     0
102
RTVSPost2010PropOp35
 70
     1
102
RTVSPost2010Prop36
280
     0
102
RTVSPost2010PropOp36
 70
     1
102
RTVSPost2010Prop37
 90
       50
102
RTVSPost2010PropOp37
 70
     1
102
RTVSPost2010Prop38
140
0.0
102
RTVSPost2010PropOp38
 70
     1
102
RTVSPost2010Prop39
140
1.0
102
RTVSPost2010PropOp39
 70
     1
102
RTVSPost2010Prop40
 90
        0
102
RTVSPost2010PropOp40
 70
     1
102
RTVSPost2010Prop41ColorIndex
 90
       18
102
RTVSPost2010Prop41ColorRGB
 90
        0
102
RTVSPost2010PropOp41
 70
     1
102
RTVSPost2010Prop42
 90
       50
102
RTVSPost2010PropOp42
 70
     1
102
RTVSPost2010Prop43
 90
        3
102
RTVSPost2010PropOp43
 70
     1
102
RTVSPost2010Prop44ColorIndex
 90
        5
102
RTVSPost2010Prop44ColorRGB
 90
      255
102
RTVSPost2010PropOp44
 70
     1
102
RTVSPost2010Prop45
280
     0
102
RTVSPost2010PropOp45
 70
     1
102
RTVSPost2010Prop46
 90
       50
102
RTVSPost2010PropOp46
 70
     1
102
RTVSPost2010Prop47
 90
       50
102
RTVSPost2010PropOp47
 70
     1
102
RTVSPost2010Prop48
 90
       50
102
RTVSPost2010PropOp48
 70
     1
102
RTVSPost2010Prop49
280
     0
102
RTVSPost2010PropOp49
 70
     1
102
RTVSPost2010Prop50
 90
       50
102
RTVSPost2010PropOp50
 70
     1
102
RTVSPost2010Prop51ColorIndex
 90
      256
102
RTVSPost2010Prop51ColorRGB
 90
-16777216
102
RTVSPost2010PropOp51
 70
     0
102
RTVSPost2010Prop52
140
1.0
102
RTVSPost2010PropOp52
 70
     0
102
RTVSPost2010Prop53
 90
        2
102
RTVSPost2010PropOp53
 70
     1
102
RTVSPost2010Prop54
  1
strokes_ogs.tif
102
RTVSPost2010PropOp54
 70
     1
102
RTVSPost2010Prop55
280
     0
102
RTVSPost2010PropOp55
 70
     1
102
RTVSPost2010Prop56
140
1.0
102
RTVSPost2010PropOp56
 70
     1
102
RTVSPost2010Prop57
140
1.0
102
RTVSPost2010PropOp57
 70
     1
102
RTVSPropertyOp0
 70
     1
102
RTVSPropertyOp1
 70
     1
102
RTVSPropertyOp2
 70
     1
102
RTVSPropertyOp3
 70
     1
102
RTVSPropertyOp4
 70
     1
102
RTVSPropertyOp5
 70
     1
102
RTVSPropertyOp6
 70
     1
102
RTVSPropertyOp7
 70
     1
102
RTVSPropertyOp8
 70
     1
102
RTVSPropertyOp9
 70
     1
102
RTVSPropertyOp10
 70
     1
102
RTVSPropertyOp11
 70
     1
102
RTVSPropertyOp12
 70
     1
102
RTVSPropertyOp13
 70
     1
102
RTVSPropertyOp14
 70
     1
102
RTVSPropertyOp15
 70
     1
102
RTVSPropertyOp16
 70
     1
102
RTVSPropertyOp17
 70
     1
102
RTVSPropertyOp18
 70
     1
102
RTVSPropertyOp19
 70
     1
102
RTVSPropertyOp20
 70
     1
102
RTVSPropertyOp21
 70
     1
102
RTVSPropertyOp22
 70
     1
102
RTVSPropertyOp23
 70
     1
102
RTVSPropertyOp24
 70
     1
102
RTVSPropertyOp25
 70
     1
102
RTVSPropertyOp26
 70
     1
102
RTVSPropertyOp27
 70
     1
102
RTVSPropertyOp28
 70
     1
102
RTVSPropertyOp29
 70
     1
102
RTVSPropertyOp30
 70
     1
102
RTVSPropertyOp31
 70
     1
102
RTVSPropertyOp32
 70
     1
102
RTVSPropertyOp33
 70
     1
102
RTVSPropertyOp34
 70
     1
102
RTVSPropertyOp35
 70
     1
102
RTVSPropertyOp36
 70
     1
102
RTVSPropertyOp37
 70
     1
102
RTVSPropertyOp38
 70
     1
102
RTVSPropertyOp39
 70
     1
102
RTVSPropertyOp40
 70
     1
102
RTVSPropertyOp41
 70
     1
102
RTVSPropertyOp42
 70
     1
102
RTVSPropertyOp43
 70
     1
102
RTVSPropertyOp44
 70
     1
102
RTVSPropertyOp45
 70
     1
102
RTVSPropertyOp46
 70
     1
102
RTVSPropertyOp47
 70
     1
102
RTVSPropertyOp48
 70
     1
102
RTVSPropertyOp49
 70
     1
102
RTVSPropertyOp50
 70
     1
102
RTVSPropertyOp51
 70
     0
102
RTVSPropertyOp52
 70
     0
102
RTVSPropertyOp53
 70
     1
102
RTVSPropertyOp54
 70
     1
102
RTVSPropertyOp55
 70
     1
102
RTVSPropertyOp56
 70
     1
102
RTVSPropertyOp57
 70
     1
102
RTVSPropertyOp58
 70
     1
102
RTVSPropertyOp59
 70
     1
102
RTVSPropertyOp60
 70
     1
102
RTVSPropertyOp61
 70
     1
102
RTVSPropertyOp62
 70
     1
  0
XRECORD
  5
6A3
102
{ACAD_REACTORS
330
6A2
102
}
330
6A2
100
AcDbXrecord
280
     1
102
RTVSPost2010Prop28
280
     0
102
RTVSPost2010PropOp28
 70
     1
102
RTVSPost2010Prop29
280
     1
102
RTVSPost2010PropOp29
 70
     1
102
RTVSPost2010Prop30
280
     1
102
RTVSPost2010PropOp30
 70
     1
102
RTVSPost2010Prop31
280
     0
102
RTVSPost2010PropOp31
 70
     1
102
RTVSPost2010Prop32
280
     0
102
RTVSPost2010PropOp32
 70
     1
102
RTVSPost2010Prop33
280
     0
102
RTVSPost2010PropOp33
 70
     1
102
RTVSPost2010Prop34
280
     0
102
RTVSPost2010PropOp34
 70
     1
102
RTVSPost2010Prop35
280
     0
102
RTVSPost2010PropOp35
 70
     1
102
RTVSPost2010Prop36
280
     0
102
RTVSPost2010PropOp36
 70
     1
102
RTVSPost2010Prop37
 90
       50
102
RTVSPost2010PropOp37
 70
     1
102
RTVSPost2010Prop38
140
0.0
102
RTVSPost2010PropOp38
 70
     1
102
RTVSPost2010Prop39
140
1.0
102
RTVSPost2010PropOp39
 70
     1
102
RTVSPost2010Prop40
 90
        0
102
RTVSPost2010PropOp40
 70
     1
102
RTVSPost2010Prop41ColorIndex
 90
       18
102
RTVSPost2010Prop41ColorRGB
 90
        0
102
RTVSPost2010PropOp41
 70
     1
102
RTVSPost2010Prop42
 90
       50
102
RTVSPost2010PropOp42
 70
     1
102
RTVSPost2010Prop43
 90
        3
102
RTVSPost2010PropOp43
 70
     1
102
RTVSPost2010Prop44ColorIndex
 90
        5
102
RTVSPost2010Prop44ColorRGB
 90
      255
102
RTVSPost2010PropOp44
 70
     1
102
RTVSPost2010Prop45
280
     0
102
RTVSPost2010PropOp45
 70
     1
102
RTVSPost2010Prop46
 90
       50
102
RTVSPost2010PropOp46
 70
     1
102
RTVSPost2010Prop47
 90
       50
102
RTVSPost2010PropOp47
 70
     1
102
RTVSPost2010Prop48
 90
       50
102
RTVSPost2010PropOp48
 70
     1
102
RTVSPost2010Prop49
280
     0
102
RTVSPost2010PropOp49
 70
     1
102
RTVSPost2010Prop50
 90
       50
102
RTVSPost2010PropOp50
 70
     1
102
RTVSPost2010Prop51ColorIndex
 90
      256
102
RTVSPost2010Prop51ColorRGB
 90
-16777216
102
RTVSPost2010PropOp51
 70
     0
102
RTVSPost2010Prop52
140
1.0
102
RTVSPost2010PropOp52
 70
     0
102
RTVSPost2010Prop53
 90
        2
102
RTVSPost2010PropOp53
 70
     1
102
RTVSPost2010Prop54
  1
strokes_ogs.tif
102
RTVSPost2010PropOp54
 70
     1
102
RTVSPost2010Prop55
280
     0
102
RTVSPost2010PropOp55
 70
     1
102
RTVSPost2010Prop56
140
1.0
102
RTVSPost2010PropOp56
 70
     1
102
RTVSPost2010Prop57
140
1.0
102
RTVSPost2010PropOp57
 70
     1
102
RTVSPropertyOp0
 70
     1
102
RTVSPropertyOp1
 70
     1
102
RTVSPropertyOp2
 70
     1
102
RTVSPropertyOp3
 70
     1
102
RTVSPropertyOp4
 70
     1
102
RTVSPropertyOp5
 70
     1
102
RTVSPropertyOp6
 70
     1
102
RTVSPropertyOp7
 70
     1
102
RTVSPropertyOp8
 70
     1
102
RTVSPropertyOp9
 70
     1
102
RTVSPropertyOp10
 70
     1
102
RTVSPropertyOp11
 70
     1
102
RTVSPropertyOp12
 70
     1
102
RTVSPropertyOp13
 70
     1
102
RTVSPropertyOp14
 70
     1
102
RTVSPropertyOp15
 70
     1
102
RTVSPropertyOp16
 70
     1
102
RTVSPropertyOp17
 70
     1
102
RTVSPropertyOp18
 70
     1
102
RTVSPropertyOp19
 70
     1
102
RTVSPropertyOp20
 70
     1
102
RTVSPropertyOp21
 70
     1
102
RTVSPropertyOp22
 70
     1
102
RTVSPropertyOp23
 70
     1
102
RTVSPropertyOp24
 70
     1
102
RTVSPropertyOp25
 70
     1
102
RTVSPropertyOp26
 70
     1
102
RTVSPropertyOp27
 70
     1
102
RTVSPropertyOp28
 70
     1
102
RTVSPropertyOp29
 70
     1
102
RTVSPropertyOp30
 70
     1
102
RTVSPropertyOp31
 70
     1
102
RTVSPropertyOp32
 70
     1
102
RTVSPropertyOp33
 70
     1
102
RTVSPropertyOp34
 70
     1
102
RTVSPropertyOp35
 70
     1
102
RTVSPropertyOp36
 70
     1
102
RTVSPropertyOp37
 70
     1
102
RTVSPropertyOp38
 70
     1
102
RTVSPropertyOp39
 70
     1
102
RTVSPropertyOp40
 70
     1
102
RTVSPropertyOp41
 70
     1
102
RTVSPropertyOp42
 70
     1
102
RTVSPropertyOp43
 70
     1
102
RTVSPropertyOp44
 70
     1
102
RTVSPropertyOp45
 70
     1
102
RTVSPropertyOp46
 70
     1
102
RTVSPropertyOp47
 70
     1
102
RTVSPropertyOp48
 70
     1
102
RTVSPropertyOp49
 70
     1
102
RTVSPropertyOp50
 70
     1
102
RTVSPropertyOp51
 70
     0
102
RTVSPropertyOp52
 70
     0
102
RTVSPropertyOp53
 70
     1
102
RTVSPropertyOp54
 70
     1
102
RTVSPropertyOp55
 70
     1
102
RTVSPropertyOp56
 70
     1
102
RTVSPropertyOp57
 70
     1
102
RTVSPropertyOp58
 70
     1
102
RTVSPropertyOp59
 70
     1
102
RTVSPropertyOp60
 70
     1
102
RTVSPropertyOp61
 70
     1
102
RTVSPropertyOp62
 70
     1
  0
XRECORD
  5
6B1
102
{ACAD_REACTORS
330
6B0
102
}
330
6B0
100
AcDbXrecord
280
     1
102
RTVSPost2010Prop28
280
     0
102
RTVSPost2010PropOp28
 70
     1
102
RTVSPost2010Prop29
280
     1
102
RTVSPost2010PropOp29
 70
     1
102
RTVSPost2010Prop30
280
     1
102
RTVSPost2010PropOp30
 70
     1
102
RTVSPost2010Prop31
280
     0
102
RTVSPost2010PropOp31
 70
     1
102
RTVSPost2010Prop32
280
     0
102
RTVSPost2010PropOp32
 70
     1
102
RTVSPost2010Prop33
280
     0
102
RTVSPost2010PropOp33
 70
     1
102
RTVSPost2010Prop34
280
     0
102
RTVSPost2010PropOp34
 70
     1
102
RTVSPost2010Prop35
280
     0
102
RTVSPost2010PropOp35
 70
     1
102
RTVSPost2010Prop36
280
     0
102
RTVSPost2010PropOp36
 70
     1
102
RTVSPost2010Prop37
 90
       50
102
RTVSPost2010PropOp37
 70
     1
102
RTVSPost2010Prop38
140
0.0
102
RTVSPost2010PropOp38
 70
     1
102
RTVSPost2010Prop39
140
1.0
102
RTVSPost2010PropOp39
 70
     1
102
RTVSPost2010Prop40
 90
        0
102
RTVSPost2010PropOp40
 70
     1
102
RTVSPost2010Prop41ColorIndex
 90
       18
102
RTVSPost2010Prop41ColorRGB
 90
        0
102
RTVSPost2010PropOp41
 70
     1
102
RTVSPost2010Prop42
 90
       50
102
RTVSPost2010PropOp42
 70
     1
102
RTVSPost2010Prop43
 90
        3
102
RTVSPost2010PropOp43
 70
     1
102
RTVSPost2010Prop44ColorIndex
 90
        5
102
RTVSPost2010Prop44ColorRGB
 90
      255
102
RTVSPost2010PropOp44
 70
     1
102
RTVSPost2010Prop45
280
     0
102
RTVSPost2010PropOp45
 70
     1
102
RTVSPost2010Prop46
 90
       50
102
RTVSPost2010PropOp46
 70
     1
102
RTVSPost2010Prop47
 90
       50
102
RTVSPost2010PropOp47
 70
     1
102
RTVSPost2010Prop48
 90
       50
102
RTVSPost2010PropOp48
 70
     1
102
RTVSPost2010Prop49
280
     0
102
RTVSPost2010PropOp49
 70
     1
102
RTVSPost2010Prop50
 90
       50
102
RTVSPost2010PropOp50
 70
     1
102
RTVSPost2010Prop51ColorIndex
 90
      256
102
RTVSPost2010Prop51ColorRGB
 90
-16777216
102
RTVSPost2010PropOp51
 70
     0
102
RTVSPost2010Prop52
140
1.0
102
RTVSPost2010PropOp52
 70
     0
102
RTVSPost2010Prop53
 90
        2
102
RTVSPost2010PropOp53
 70
     1
102
RTVSPost2010Prop54
  1
strokes_ogs.tif
102
RTVSPost2010PropOp54
 70
     1
102
RTVSPost2010Prop55
280
     0
102
RTVSPost2010PropOp55
 70
     1
102
RTVSPost2010Prop56
140
1.0
102
RTVSPost2010PropOp56
 70
     1
102
RTVSPost2010Prop57
140
1.0
102
RTVSPost2010PropOp57
 70
     1
102
RTVSPropertyOp0
 70
     1
102
RTVSPropertyOp1
 70
     1
102
RTVSPropertyOp2
 70
     1
102
RTVSPropertyOp3
 70
     1
102
RTVSPropertyOp4
 70
     1
102
RTVSPropertyOp5
 70
     1
102
RTVSPropertyOp6
 70
     1
102
RTVSPropertyOp7
 70
     1
102
RTVSPropertyOp8
 70
     1
102
RTVSPropertyOp9
 70
     1
102
RTVSPropertyOp10
 70
     1
102
RTVSPropertyOp11
 70
     1
102
RTVSPropertyOp12
 70
     1
102
RTVSPropertyOp13
 70
     1
102
RTVSPropertyOp14
 70
     1
102
RTVSPropertyOp15
 70
     1
102
RTVSPropertyOp16
 70
     1
102
RTVSPropertyOp17
 70
     1
102
RTVSPropertyOp18
 70
     1
102
RTVSPropertyOp19
 70
     1
102
RTVSPropertyOp20
 70
     1
102
RTVSPropertyOp21
 70
     1
102
RTVSPropertyOp22
 70
     1
102
RTVSPropertyOp23
 70
     1
102
RTVSPropertyOp24
 70
     1
102
RTVSPropertyOp25
 70
     1
102
RTVSPropertyOp26
 70
     1
102
RTVSPropertyOp27
 70
     1
102
RTVSPropertyOp28
 70
     1
102
RTVSPropertyOp29
 70
     1
102
RTVSPropertyOp30
 70
     1
102
RTVSPropertyOp31
 70
     1
102
RTVSPropertyOp32
 70
     1
102
RTVSPropertyOp33
 70
     1
102
RTVSPropertyOp34
 70
     1
102
RTVSPropertyOp35
 70
     1
102
RTVSPropertyOp36
 70
     1
102
RTVSPropertyOp37
 70
     1
102
RTVSPropertyOp38
 70
     1
102
RTVSPropertyOp39
 70
     1
102
RTVSPropertyOp40
 70
     1
102
RTVSPropertyOp41
 70
     1
102
RTVSPropertyOp42
 70
     1
102
RTVSPropertyOp43
 70
     1
102
RTVSPropertyOp44
 70
     1
102
RTVSPropertyOp45
 70
     1
102
RTVSPropertyOp46
 70
     1
102
RTVSPropertyOp47
 70
     1
102
RTVSPropertyOp48
 70
     1
102
RTVSPropertyOp49
 70
     1
102
RTVSPropertyOp50
 70
     1
102
RTVSPropertyOp51
 70
     0
102
RTVSPropertyOp52
 70
     0
102
RTVSPropertyOp53
 70
     1
102
RTVSPropertyOp54
 70
     1
102
RTVSPropertyOp55
 70
     1
102
RTVSPropertyOp56
 70
     1
102
RTVSPropertyOp57
 70
     1
102
RTVSPropertyOp58
 70
     1
102
RTVSPropertyOp59
 70
     1
102
RTVSPropertyOp60
 70
     1
102
RTVSPropertyOp61
 70
     1
102
RTVSPropertyOp62
 70
     1
  0
XRECORD
  5
6B9
102
{ACAD_REACTORS
330
6B8
102
}
330
6B8
100
AcDbXrecord
280
     1
102
RTVSPost2010Prop28
280
     0
102
RTVSPost2010PropOp28
 70
     1
102
RTVSPost2010Prop29
280
     1
102
RTVSPost2010PropOp29
 70
     1
102
RTVSPost2010Prop30
280
     1
102
RTVSPost2010PropOp30
 70
     1
102
RTVSPost2010Prop31
280
     0
102
RTVSPost2010PropOp31
 70
     1
102
RTVSPost2010Prop32
280
     0
102
RTVSPost2010PropOp32
 70
     1
102
RTVSPost2010Prop33
280
     0
102
RTVSPost2010PropOp33
 70
     1
102
RTVSPost2010Prop34
280
     0
102
RTVSPost2010PropOp34
 70
     1
102
RTVSPost2010Prop35
280
     0
102
RTVSPost2010PropOp35
 70
     1
102
RTVSPost2010Prop36
280
     0
102
RTVSPost2010PropOp36
 70
     1
102
RTVSPost2010Prop37
 90
       50
102
RTVSPost2010PropOp37
 70
     1
102
RTVSPost2010Prop38
140
0.0
102
RTVSPost2010PropOp38
 70
     1
102
RTVSPost2010Prop39
140
1.0
102
RTVSPost2010PropOp39
 70
     1
102
RTVSPost2010Prop40
 90
        0
102
RTVSPost2010PropOp40
 70
     1
102
RTVSPost2010Prop41ColorIndex
 90
       18
102
RTVSPost2010Prop41ColorRGB
 90
        0
102
RTVSPost2010PropOp41
 70
     1
102
RTVSPost2010Prop42
 90
       50
102
RTVSPost2010PropOp42
 70
     1
102
RTVSPost2010Prop43
 90
        3
102
RTVSPost2010PropOp43
 70
     1
102
RTVSPost2010Prop44ColorIndex
 90
        5
102
RTVSPost2010Prop44ColorRGB
 90
      255
102
RTVSPost2010PropOp44
 70
     1
102
RTVSPost2010Prop45
280
     0
102
RTVSPost2010PropOp45
 70
     1
102
RTVSPost2010Prop46
 90
       50
102
RTVSPost2010PropOp46
 70
     1
102
RTVSPost2010Prop47
 90
       50
102
RTVSPost2010PropOp47
 70
     1
102
RTVSPost2010Prop48
 90
       50
102
RTVSPost2010PropOp48
 70
     1
102
RTVSPost2010Prop49
280
     0
102
RTVSPost2010PropOp49
 70
     1
102
RTVSPost2010Prop50
 90
       50
102
RTVSPost2010PropOp50
 70
     1
102
RTVSPost2010Prop51ColorIndex
 90
      256
102
RTVSPost2010Prop51ColorRGB
 90
-16777216
102
RTVSPost2010PropOp51
 70
     0
102
RTVSPost2010Prop52
140
1.0
102
RTVSPost2010PropOp52
 70
     0
102
RTVSPost2010Prop53
 90
        2
102
RTVSPost2010PropOp53
 70
     1
102
RTVSPost2010Prop54
  1
strokes_ogs.tif
102
RTVSPost2010PropOp54
 70
     1
102
RTVSPost2010Prop55
280
     0
102
RTVSPost2010PropOp55
 70
     1
102
RTVSPost2010Prop56
140
1.0
102
RTVSPost2010PropOp56
 70
     1
102
RTVSPost2010Prop57
140
1.0
102
RTVSPost2010PropOp57
 70
     1
102
RTVSPropertyOp0
 70
     1
102
RTVSPropertyOp1
 70
     1
102
RTVSPropertyOp2
 70
     1
102
RTVSPropertyOp3
 70
     1
102
RTVSPropertyOp4
 70
     1
102
RTVSPropertyOp5
 70
     1
102
RTVSPropertyOp6
 70
     1
102
RTVSPropertyOp7
 70
     1
102
RTVSPropertyOp8
 70
     1
102
RTVSPropertyOp9
 70
     1
102
RTVSPropertyOp10
 70
     1
102
RTVSPropertyOp11
 70
     1
102
RTVSPropertyOp12
 70
     1
102
RTVSPropertyOp13
 70
     1
102
RTVSPropertyOp14
 70
     1
102
RTVSPropertyOp15
 70
     1
102
RTVSPropertyOp16
 70
     1
102
RTVSPropertyOp17
 70
     1
102
RTVSPropertyOp18
 70
     1
102
RTVSPropertyOp19
 70
     1
102
RTVSPropertyOp20
 70
     1
102
RTVSPropertyOp21
 70
     1
102
RTVSPropertyOp22
 70
     1
102
RTVSPropertyOp23
 70
     1
102
RTVSPropertyOp24
 70
     1
102
RTVSPropertyOp25
 70
     1
102
RTVSPropertyOp26
 70
     1
102
RTVSPropertyOp27
 70
     1
102
RTVSPropertyOp28
 70
     1
102
RTVSPropertyOp29
 70
     1
102
RTVSPropertyOp30
 70
     1
102
RTVSPropertyOp31
 70
     1
102
RTVSPropertyOp32
 70
     1
102
RTVSPropertyOp33
 70
     1
102
RTVSPropertyOp34
 70
     1
102
RTVSPropertyOp35
 70
     1
102
RTVSPropertyOp36
 70
     1
102
RTVSPropertyOp37
 70
     1
102
RTVSPropertyOp38
 70
     1
102
RTVSPropertyOp39
 70
     1
102
RTVSPropertyOp40
 70
     1
102
RTVSPropertyOp41
 70
     1
102
RTVSPropertyOp42
 70
     1
102
RTVSPropertyOp43
 70
     1
102
RTVSPropertyOp44
 70
     1
102
RTVSPropertyOp45
 70
     1
102
RTVSPropertyOp46
 70
     1
102
RTVSPropertyOp47
 70
     1
102
RTVSPropertyOp48
 70
     1
102
RTVSPropertyOp49
 70
     1
102
RTVSPropertyOp50
 70
     1
102
RTVSPropertyOp51
 70
     0
102
RTVSPropertyOp52
 70
     0
102
RTVSPropertyOp53
 70
     1
102
RTVSPropertyOp54
 70
     1
102
RTVSPropertyOp55
 70
     1
102
RTVSPropertyOp56
 70
     1
102
RTVSPropertyOp57
 70
     1
102
RTVSPropertyOp58
 70
     1
102
RTVSPropertyOp59
 70
     1
102
RTVSPropertyOp60
 70
     1
102
RTVSPropertyOp61
 70
     1
102
RTVSPropertyOp62
 70
     1
  0
XRECORD
  5
6AB
102
{ACAD_REACTORS
330
6AA
102
}
330
6AA
100
AcDbXrecord
280
     1
102
RTVSPost2010Prop28
280
     0
102
RTVSPost2010PropOp28
 70
     1
102
RTVSPost2010Prop29
280
     1
102
RTVSPost2010PropOp29
 70
     1
102
RTVSPost2010Prop30
280
     1
102
RTVSPost2010PropOp30
 70
     1
102
RTVSPost2010Prop31
280
     0
102
RTVSPost2010PropOp31
 70
     1
102
RTVSPost2010Prop32
280
     0
102
RTVSPost2010PropOp32
 70
     1
102
RTVSPost2010Prop33
280
     0
102
RTVSPost2010PropOp33
 70
     1
102
RTVSPost2010Prop34
280
     0
102
RTVSPost2010PropOp34
 70
     1
102
RTVSPost2010Prop35
280
     0
102
RTVSPost2010PropOp35
 70
     1
102
RTVSPost2010Prop36
280
     0
102
RTVSPost2010PropOp36
 70
     1
102
RTVSPost2010Prop37
 90
       50
102
RTVSPost2010PropOp37
 70
     1
102
RTVSPost2010Prop38
140
0.0
102
RTVSPost2010PropOp38
 70
     1
102
RTVSPost2010Prop39
140
1.0
102
RTVSPost2010PropOp39
 70
     1
102
RTVSPost2010Prop40
 90
        0
102
RTVSPost2010PropOp40
 70
     1
102
RTVSPost2010Prop41ColorIndex
 90
       18
102
RTVSPost2010Prop41ColorRGB
 90
        0
102
RTVSPost2010PropOp41
 70
     1
102
RTVSPost2010Prop42
 90
       50
102
RTVSPost2010PropOp42
 70
     1
102
RTVSPost2010Prop43
 90
        3
102
RTVSPost2010PropOp43
 70
     1
102
RTVSPost2010Prop44ColorIndex
 90
        5
102
RTVSPost2010Prop44ColorRGB
 90
      255
102
RTVSPost2010PropOp44
 70
     1
102
RTVSPost2010Prop45
280
     0
102
RTVSPost2010PropOp45
 70
     1
102
RTVSPost2010Prop46
 90
       50
102
RTVSPost2010PropOp46
 70
     1
102
RTVSPost2010Prop47
 90
       50
102
RTVSPost2010PropOp47
 70
     1
102
RTVSPost2010Prop48
 90
       50
102
RTVSPost2010PropOp48
 70
     1
102
RTVSPost2010Prop49
280
     0
102
RTVSPost2010PropOp49
 70
     1
102
RTVSPost2010Prop50
 90
       50
102
RTVSPost2010PropOp50
 70
     1
102
RTVSPost2010Prop51ColorIndex
 90
      256
102
RTVSPost2010Prop51ColorRGB
 90
-16777216
102
RTVSPost2010PropOp51
 70
     0
102
RTVSPost2010Prop52
140
1.0
102
RTVSPost2010PropOp52
 70
     0
102
RTVSPost2010Prop53
 90
        2
102
RTVSPost2010PropOp53
 70
     1
102
RTVSPost2010Prop54
  1
strokes_ogs.tif
102
RTVSPost2010PropOp54
 70
     1
102
RTVSPost2010Prop55
280
     0
102
RTVSPost2010PropOp55
 70
     1
102
RTVSPost2010Prop56
140
1.0
102
RTVSPost2010PropOp56
 70
     1
102
RTVSPost2010Prop57
140
1.0
102
RTVSPost2010PropOp57
 70
     1
102
RTVSPropertyOp0
 70
     1
102
RTVSPropertyOp1
 70
     1
102
RTVSPropertyOp2
 70
     1
102
RTVSPropertyOp3
 70
     1
102
RTVSPropertyOp4
 70
     1
102
RTVSPropertyOp5
 70
     1
102
RTVSPropertyOp6
 70
     1
102
RTVSPropertyOp7
 70
     1
102
RTVSPropertyOp8
 70
     1
102
RTVSPropertyOp9
 70
     1
102
RTVSPropertyOp10
 70
     1
102
RTVSPropertyOp11
 70
     1
102
RTVSPropertyOp12
 70
     1
102
RTVSPropertyOp13
 70
     1
102
RTVSPropertyOp14
 70
     1
102
RTVSPropertyOp15
 70
     1
102
RTVSPropertyOp16
 70
     1
102
RTVSPropertyOp17
 70
     1
102
RTVSPropertyOp18
 70
     1
102
RTVSPropertyOp19
 70
     1
102
RTVSPropertyOp20
 70
     1
102
RTVSPropertyOp21
 70
     1
102
RTVSPropertyOp22
 70
     1
102
RTVSPropertyOp23
 70
     1
102
RTVSPropertyOp24
 70
     1
102
RTVSPropertyOp25
 70
     1
102
RTVSPropertyOp26
 70
     1
102
RTVSPropertyOp27
 70
     1
102
RTVSPropertyOp28
 70
     1
102
RTVSPropertyOp29
 70
     1
102
RTVSPropertyOp30
 70
     1
102
RTVSPropertyOp31
 70
     1
102
RTVSPropertyOp32
 70
     1
102
RTVSPropertyOp33
 70
     1
102
RTVSPropertyOp34
 70
     1
102
RTVSPropertyOp35
 70
     1
102
RTVSPropertyOp36
 70
     1
102
RTVSPropertyOp37
 70
     1
102
RTVSPropertyOp38
 70
     1
102
RTVSPropertyOp39
 70
     1
102
RTVSPropertyOp40
 70
     1
102
RTVSPropertyOp41
 70
     1
102
RTVSPropertyOp42
 70
     1
102
RTVSPropertyOp43
 70
     1
102
RTVSPropertyOp44
 70
     1
102
RTVSPropertyOp45
 70
     1
102
RTVSPropertyOp46
 70
     1
102
RTVSPropertyOp47
 70
     1
102
RTVSPropertyOp48
 70
     1
102
RTVSPropertyOp49
 70
     1
102
RTVSPropertyOp50
 70
     1
102
RTVSPropertyOp51
 70
     0
102
RTVSPropertyOp52
 70
     0
102
RTVSPropertyOp53
 70
     1
102
RTVSPropertyOp54
 70
     1
102
RTVSPropertyOp55
 70
     1
102
RTVSPropertyOp56
 70
     1
102
RTVSPropertyOp57
 70
     1
102
RTVSPropertyOp58
 70
     1
102
RTVSPropertyOp59
 70
     1
102
RTVSPropertyOp60
 70
     1
102
RTVSPropertyOp61
 70
     1
102
RTVSPropertyOp62
 70
     1
  0
XRECORD
  5
6AF
102
{ACAD_REACTORS
330
6AE
102
}
330
6AE
100
AcDbXrecord
280
     1
102
RTVSPost2010Prop28
280
     0
102
RTVSPost2010PropOp28
 70
     1
102
RTVSPost2010Prop29
280
     1
102
RTVSPost2010PropOp29
 70
     1
102
RTVSPost2010Prop30
280
     1
102
RTVSPost2010PropOp30
 70
     1
102
RTVSPost2010Prop31
280
     0
102
RTVSPost2010PropOp31
 70
     1
102
RTVSPost2010Prop32
280
     0
102
RTVSPost2010PropOp32
 70
     1
102
RTVSPost2010Prop33
280
     0
102
RTVSPost2010PropOp33
 70
     1
102
RTVSPost2010Prop34
280
     0
102
RTVSPost2010PropOp34
 70
     1
102
RTVSPost2010Prop35
280
     0
102
RTVSPost2010PropOp35
 70
     1
102
RTVSPost2010Prop36
280
     0
102
RTVSPost2010PropOp36
 70
     1
102
RTVSPost2010Prop37
 90
       50
102
RTVSPost2010PropOp37
 70
     1
102
RTVSPost2010Prop38
140
0.0
102
RTVSPost2010PropOp38
 70
     1
102
RTVSPost2010Prop39
140
1.0
102
RTVSPost2010PropOp39
 70
     1
102
RTVSPost2010Prop40
 90
        0
102
RTVSPost2010PropOp40
 70
     1
102
RTVSPost2010Prop41ColorIndex
 90
       18
102
RTVSPost2010Prop41ColorRGB
 90
        0
102
RTVSPost2010PropOp41
 70
     1
102
RTVSPost2010Prop42
 90
       50
102
RTVSPost2010PropOp42
 70
     1
102
RTVSPost2010Prop43
 90
        3
102
RTVSPost2010PropOp43
 70
     1
102
RTVSPost2010Prop44ColorIndex
 90
        5
102
RTVSPost2010Prop44ColorRGB
 90
      255
102
RTVSPost2010PropOp44
 70
     1
102
RTVSPost2010Prop45
280
     0
102
RTVSPost2010PropOp45
 70
     1
102
RTVSPost2010Prop46
 90
       50
102
RTVSPost2010PropOp46
 70
     1
102
RTVSPost2010Prop47
 90
       50
102
RTVSPost2010PropOp47
 70
     1
102
RTVSPost2010Prop48
 90
       50
102
RTVSPost2010PropOp48
 70
     1
102
RTVSPost2010Prop49
280
     0
102
RTVSPost2010PropOp49
 70
     1
102
RTVSPost2010Prop50
 90
       50
102
RTVSPost2010PropOp50
 70
     1
102
RTVSPost2010Prop51ColorIndex
 90
      256
102
RTVSPost2010Prop51ColorRGB
 90
-16777216
102
RTVSPost2010PropOp51
 70
     0
102
RTVSPost2010Prop52
140
1.0
102
RTVSPost2010PropOp52
 70
     0
102
RTVSPost2010Prop53
 90
        2
102
RTVSPost2010PropOp53
 70
     1
102
RTVSPost2010Prop54
  1
strokes_ogs.tif
102
RTVSPost2010PropOp54
 70
     1
102
RTVSPost2010Prop55
280
     0
102
RTVSPost2010PropOp55
 70
     1
102
RTVSPost2010Prop56
140
1.0
102
RTVSPost2010PropOp56
 70
     1
102
RTVSPost2010Prop57
140
1.0
102
RTVSPost2010PropOp57
 70
     1
102
RTVSPropertyOp0
 70
     1
102
RTVSPropertyOp1
 70
     1
102
RTVSPropertyOp2
 70
     1
102
RTVSPropertyOp3
 70
     1
102
RTVSPropertyOp4
 70
     1
102
RTVSPropertyOp5
 70
     1
102
RTVSPropertyOp6
 70
     1
102
RTVSPropertyOp7
 70
     1
102
RTVSPropertyOp8
 70
     1
102
RTVSPropertyOp9
 70
     1
102
RTVSPropertyOp10
 70
     1
102
RTVSPropertyOp11
 70
     1
102
RTVSPropertyOp12
 70
     1
102
RTVSPropertyOp13
 70
     1
102
RTVSPropertyOp14
 70
     1
102
RTVSPropertyOp15
 70
     1
102
RTVSPropertyOp16
 70
     1
102
RTVSPropertyOp17
 70
     1
102
RTVSPropertyOp18
 70
     1
102
RTVSPropertyOp19
 70
     1
102
RTVSPropertyOp20
 70
     1
102
RTVSPropertyOp21
 70
     1
102
RTVSPropertyOp22
 70
     1
102
RTVSPropertyOp23
 70
     1
102
RTVSPropertyOp24
 70
     1
102
RTVSPropertyOp25
 70
     1
102
RTVSPropertyOp26
 70
     1
102
RTVSPropertyOp27
 70
     1
102
RTVSPropertyOp28
 70
     1
102
RTVSPropertyOp29
 70
     1
102
RTVSPropertyOp30
 70
     1
102
RTVSPropertyOp31
 70
     1
102
RTVSPropertyOp32
 70
     1
102
RTVSPropertyOp33
 70
     1
102
RTVSPropertyOp34
 70
     1
102
RTVSPropertyOp35
 70
     1
102
RTVSPropertyOp36
 70
     1
102
RTVSPropertyOp37
 70
     1
102
RTVSPropertyOp38
 70
     1
102
RTVSPropertyOp39
 70
     1
102
RTVSPropertyOp40
 70
     1
102
RTVSPropertyOp41
 70
     1
102
RTVSPropertyOp42
 70
     1
102
RTVSPropertyOp43
 70
     1
102
RTVSPropertyOp44
 70
     1
102
RTVSPropertyOp45
 70
     1
102
RTVSPropertyOp46
 70
     1
102
RTVSPropertyOp47
 70
     1
102
RTVSPropertyOp48
 70
     1
102
RTVSPropertyOp49
 70
     1
102
RTVSPropertyOp50
 70
     1
102
RTVSPropertyOp51
 70
     0
102
RTVSPropertyOp52
 70
     0
102
RTVSPropertyOp53
 70
     1
102
RTVSPropertyOp54
 70
     1
102
RTVSPropertyOp55
 70
     1
102
RTVSPropertyOp56
 70
     1
102
RTVSPropertyOp57
 70
     1
102
RTVSPropertyOp58
 70
     1
102
RTVSPropertyOp59
 70
     1
102
RTVSPropertyOp60
 70
     1
102
RTVSPropertyOp61
 70
     1
102
RTVSPropertyOp62
 70
     1
  0
XRECORD
  5
6C9
102
{ACAD_REACTORS
330
6C8
102
}
330
6C8
100
AcDbXrecord
280
     1
102
RTVSPost2010Prop28
280
     0
102
RTVSPost2010PropOp28
 70
     0
102
RTVSPost2010Prop29
280
     1
102
RTVSPost2010PropOp29
 70
     0
102
RTVSPost2010Prop30
280
     1
102
RTVSPost2010PropOp30
 70
     0
102
RTVSPost2010Prop31
280
     0
102
RTVSPost2010PropOp31
 70
     0
102
RTVSPost2010Prop32
280
     0
102
RTVSPost2010PropOp32
 70
     0
102
RTVSPost2010Prop33
280
     0
102
RTVSPost2010PropOp33
 70
     0
102
RTVSPost2010Prop34
280
     0
102
RTVSPost2010PropOp34
 70
     0
102
RTVSPost2010Prop35
280
     0
102
RTVSPost2010PropOp35
 70
     0
102
RTVSPost2010Prop36
280
     0
102
RTVSPost2010PropOp36
 70
     0
102
RTVSPost2010Prop37
 90
       50
102
RTVSPost2010PropOp37
 70
     0
102
RTVSPost2010Prop38
140
0.0
102
RTVSPost2010PropOp38
 70
     0
102
RTVSPost2010Prop39
140
1.0
102
RTVSPost2010PropOp39
 70
     0
102
RTVSPost2010Prop40
 90
        0
102
RTVSPost2010PropOp40
 70
     0
102
RTVSPost2010Prop41ColorIndex
 90
       18
102
RTVSPost2010Prop41ColorRGB
 90
        0
102
RTVSPost2010PropOp41
 70
     0
102
RTVSPost2010Prop42
 90
       50
102
RTVSPost2010PropOp42
 70
     0
102
RTVSPost2010Prop43
 90
        3
102
RTVSPost2010PropOp43
 70
     0
102
RTVSPost2010Prop44ColorIndex
 90
        5
102
RTVSPost2010Prop44ColorRGB
 90
      255
102
RTVSPost2010PropOp44
 70
     0
102
RTVSPost2010Prop45
280
     0
102
RTVSPost2010PropOp45
 70
     0
102
RTVSPost2010Prop46
 90
       50
102
RTVSPost2010PropOp46
 70
     0
102
RTVSPost2010Prop47
 90
       50
102
RTVSPost2010PropOp47
 70
     0
102
RTVSPost2010Prop48
 90
       50
102
RTVSPost2010PropOp48
 70
     0
102
RTVSPost2010Prop49
280
     0
102
RTVSPost2010PropOp49
 70
     0
102
RTVSPost2010Prop50
 90
       50
102
RTVSPost2010PropOp50
 70
     0
102
RTVSPost2010Prop51ColorIndex
 90
      256
102
RTVSPost2010Prop51ColorRGB
 90
-16777216
102
RTVSPost2010PropOp51
 70
     0
102
RTVSPost2010Prop52
140
1.0
102
RTVSPost2010PropOp52
 70
     0
102
RTVSPost2010Prop53
 90
        2
102
RTVSPost2010PropOp53
 70
     0
102
RTVSPost2010Prop54
  1
strokes_ogs.tif
102
RTVSPost2010PropOp54
 70
     0
102
RTVSPost2010Prop55
280
     0
102
RTVSPost2010PropOp55
 70
     0
102
RTVSPost2010Prop56
140
1.0
102
RTVSPost2010PropOp56
 70
     0
102
RTVSPost2010Prop57
140
1.0
102
RTVSPost2010PropOp57
 70
     0
102
RTVSPropertyOp0
 70
     0
102
RTVSPropertyOp1
 70
     0
102
RTVSPropertyOp2
 70
     0
102
RTVSPropertyOp3
 70
     0
102
RTVSPropertyOp4
 70
     0
102
RTVSPropertyOp5
 70
     0
102
RTVSPropertyOp6
 70
     0
102
RTVSPropertyOp7
 70
     0
102
RTVSPropertyOp8
 70
     0
102
RTVSPropertyOp9
 70
     0
102
RTVSPropertyOp10
 70
     0
102
RTVSPropertyOp11
 70
     0
102
RTVSPropertyOp12
 70
     0
102
RTVSPropertyOp13
 70
     0
102
RTVSPropertyOp14
 70
     2
102
RTVSPropertyOp15
 70
     0
102
RTVSPropertyOp16
 70
     0
102
RTVSPropertyOp17
 70
     0
102
RTVSPropertyOp18
 70
     0
102
RTVSPropertyOp19
 70
     0
102
RTVSPropertyOp20
 70
     0
102
RTVSPropertyOp21
 70
     0
102
RTVSPropertyOp22
 70
     0
102
RTVSPropertyOp23
 70
     0
102
RTVSPropertyOp24
 70
     0
102
RTVSPropertyOp25
 70
     0
102
RTVSPropertyOp26
 70
     0
102
RTVSPropertyOp27
 70
     0
102
RTVSPropertyOp28
 70
     0
102
RTVSPropertyOp29
 70
     0
102
RTVSPropertyOp30
 70
     0
102
RTVSPropertyOp31
 70
     0
102
RTVSPropertyOp32
 70
     0
102
RTVSPropertyOp33
 70
     0
102
RTVSPropertyOp34
 70
     0
102
RTVSPropertyOp35
 70
     0
102
RTVSPropertyOp36
 70
     0
102
RTVSPropertyOp37
 70
     0
102
RTVSPropertyOp38
 70
     0
102
RTVSPropertyOp39
 70
     0
102
RTVSPropertyOp40
 70
     0
102
RTVSPropertyOp41
 70
     0
102
RTVSPropertyOp42
 70
     0
102
RTVSPropertyOp43
 70
     0
102
RTVSPropertyOp44
 70
     0
102
RTVSPropertyOp45
 70
     0
102
RTVSPropertyOp46
 70
     0
102
RTVSPropertyOp47
 70
     0
102
RTVSPropertyOp48
 70
     0
102
RTVSPropertyOp49
 70
     0
102
RTVSPropertyOp50
 70
     0
102
RTVSPropertyOp51
 70
     0
102
RTVSPropertyOp52
 70
     0
102
RTVSPropertyOp53
 70
     0
102
RTVSPropertyOp54
 70
     0
102
RTVSPropertyOp55
 70
     0
102
RTVSPropertyOp56
 70
     0
102
RTVSPropertyOp57
 70
     0
102
RTVSPropertyOp58
 70
     1
102
RTVSPropertyOp59
 70
     1
102
RTVSPropertyOp60
 70
     1
102
RTVSPropertyOp61
 70
     1
102
RTVSPropertyOp62
 70
     1
  0
XRECORD
  5
6B7
102
{ACAD_REACTORS
330
6B6
102
}
330
6B6
100
AcDbXrecord
280
     1
102
RTVSPost2010Prop28
280
     0
102
RTVSPost2010PropOp28
 70
     1
102
RTVSPost2010Prop29
280
     1
102
RTVSPost2010PropOp29
 70
     1
102
RTVSPost2010Prop30
280
     1
102
RTVSPost2010PropOp30
 70
     1
102
RTVSPost2010Prop31
280
     0
102
RTVSPost2010PropOp31
 70
     1
102
RTVSPost2010Prop32
280
     0
102
RTVSPost2010PropOp32
 70
     1
102
RTVSPost2010Prop33
280
     0
102
RTVSPost2010PropOp33
 70
     1
102
RTVSPost2010Prop34
280
     0
102
RTVSPost2010PropOp34
 70
     1
102
RTVSPost2010Prop35
280
     0
102
RTVSPost2010PropOp35
 70
     1
102
RTVSPost2010Prop36
280
     0
102
RTVSPost2010PropOp36
 70
     1
102
RTVSPost2010Prop37
 90
       50
102
RTVSPost2010PropOp37
 70
     1
102
RTVSPost2010Prop38
140
0.0
102
RTVSPost2010PropOp38
 70
     1
102
RTVSPost2010Prop39
140
1.0
102
RTVSPost2010PropOp39
 70
     1
102
RTVSPost2010Prop40
 90
        0
102
RTVSPost2010PropOp40
 70
     1
102
RTVSPost2010Prop41ColorIndex
 90
       18
102
RTVSPost2010Prop41ColorRGB
 90
        0
102
RTVSPost2010PropOp41
 70
     1
102
RTVSPost2010Prop42
 90
       50
102
RTVSPost2010PropOp42
 70
     1
102
RTVSPost2010Prop43
 90
        3
102
RTVSPost2010PropOp43
 70
     1
102
RTVSPost2010Prop44ColorIndex
 90
        5
102
RTVSPost2010Prop44ColorRGB
 90
      255
102
RTVSPost2010PropOp44
 70
     1
102
RTVSPost2010Prop45
280
     0
102
RTVSPost2010PropOp45
 70
     1
102
RTVSPost2010Prop46
 90
       50
102
RTVSPost2010PropOp46
 70
     1
102
RTVSPost2010Prop47
 90
       50
102
RTVSPost2010PropOp47
 70
     1
102
RTVSPost2010Prop48
 90
       50
102
RTVSPost2010PropOp48
 70
     1
102
RTVSPost2010Prop49
280
     0
102
RTVSPost2010PropOp49
 70
     1
102
RTVSPost2010Prop50
 90
       50
102
RTVSPost2010PropOp50
 70
     1
102
RTVSPost2010Prop51ColorIndex
 90
      256
102
RTVSPost2010Prop51ColorRGB
 90
-16777216
102
RTVSPost2010PropOp51
 70
     0
102
RTVSPost2010Prop52
140
1.0
102
RTVSPost2010PropOp52
 70
     0
102
RTVSPost2010Prop53
 90
        2
102
RTVSPost2010PropOp53
 70
     1
102
RTVSPost2010Prop54
  1
strokes_ogs.tif
102
RTVSPost2010PropOp54
 70
     1
102
RTVSPost2010Prop55
280
     0
102
RTVSPost2010PropOp55
 70
     1
102
RTVSPost2010Prop56
140
1.0
102
RTVSPost2010PropOp56
 70
     1
102
RTVSPost2010Prop57
140
1.0
102
RTVSPost2010PropOp57
 70
     1
102
RTVSPropertyOp0
 70
     1
102
RTVSPropertyOp1
 70
     1
102
RTVSPropertyOp2
 70
     1
102
RTVSPropertyOp3
 70
     1
102
RTVSPropertyOp4
 70
     1
102
RTVSPropertyOp5
 70
     1
102
RTVSPropertyOp6
 70
     1
102
RTVSPropertyOp7
 70
     1
102
RTVSPropertyOp8
 70
     1
102
RTVSPropertyOp9
 70
     1
102
RTVSPropertyOp10
 70
     1
102
RTVSPropertyOp11
 70
     1
102
RTVSPropertyOp12
 70
     1
102
RTVSPropertyOp13
 70
     1
102
RTVSPropertyOp14
 70
     1
102
RTVSPropertyOp15
 70
     1
102
RTVSPropertyOp16
 70
     1
102
RTVSPropertyOp17
 70
     1
102
RTVSPropertyOp18
 70
     1
102
RTVSPropertyOp19
 70
     1
102
RTVSPropertyOp20
 70
     1
102
RTVSPropertyOp21
 70
     1
102
RTVSPropertyOp22
 70
     1
102
RTVSPropertyOp23
 70
     1
102
RTVSPropertyOp24
 70
     1
102
RTVSPropertyOp25
 70
     1
102
RTVSPropertyOp26
 70
     1
102
RTVSPropertyOp27
 70
     1
102
RTVSPropertyOp28
 70
     1
102
RTVSPropertyOp29
 70
     1
102
RTVSPropertyOp30
 70
     1
102
RTVSPropertyOp31
 70
     1
102
RTVSPropertyOp32
 70
     1
102
RTVSPropertyOp33
 70
     1
102
RTVSPropertyOp34
 70
     1
102
RTVSPropertyOp35
 70
     1
102
RTVSPropertyOp36
 70
     1
102
RTVSPropertyOp37
 70
     1
102
RTVSPropertyOp38
 70
     1
102
RTVSPropertyOp39
 70
     1
102
RTVSPropertyOp40
 70
     1
102
RTVSPropertyOp41
 70
     1
102
RTVSPropertyOp42
 70
     1
102
RTVSPropertyOp43
 70
     1
102
RTVSPropertyOp44
 70
     1
102
RTVSPropertyOp45
 70
     1
102
RTVSPropertyOp46
 70
     1
102
RTVSPropertyOp47
 70
     1
102
RTVSPropertyOp48
 70
     1
102
RTVSPropertyOp49
 70
     1
102
RTVSPropertyOp50
 70
     1
102
RTVSPropertyOp51
 70
     0
102
RTVSPropertyOp52
 70
     0
102
RTVSPropertyOp53
 70
     1
102
RTVSPropertyOp54
 70
     1
102
RTVSPropertyOp55
 70
     1
102
RTVSPropertyOp56
 70
     1
102
RTVSPropertyOp57
 70
     1
102
RTVSPropertyOp58
 70
     1
102
RTVSPropertyOp59
 70
     1
102
RTVSPropertyOp60
 70
     1
102
RTVSPropertyOp61
 70
     1
102
RTVSPropertyOp62
 70
     1
  0
XRECORD
  5
69B
102
{ACAD_REACTORS
330
69A
102
}
330
69A
100
AcDbXrecord
280
     1
102
RTVSPost2010Prop28
280
     0
102
RTVSPost2010PropOp28
 70
     1
102
RTVSPost2010Prop29
280
     1
102
RTVSPost2010PropOp29
 70
     1
102
RTVSPost2010Prop30
280
     1
102
RTVSPost2010PropOp30
 70
     1
102
RTVSPost2010Prop31
280
     0
102
RTVSPost2010PropOp31
 70
     1
102
RTVSPost2010Prop32
280
     0
102
RTVSPost2010PropOp32
 70
     1
102
RTVSPost2010Prop33
280
     0
102
RTVSPost2010PropOp33
 70
     1
102
RTVSPost2010Prop34
280
     0
102
RTVSPost2010PropOp34
 70
     1
102
RTVSPost2010Prop35
280
     0
102
RTVSPost2010PropOp35
 70
     1
102
RTVSPost2010Prop36
280
     0
102
RTVSPost2010PropOp36
 70
     1
102
RTVSPost2010Prop37
 90
       50
102
RTVSPost2010PropOp37
 70
     1
102
RTVSPost2010Prop38
140
0.0
102
RTVSPost2010PropOp38
 70
     1
102
RTVSPost2010Prop39
140
1.0
102
RTVSPost2010PropOp39
 70
     1
102
RTVSPost2010Prop40
 90
        0
102
RTVSPost2010PropOp40
 70
     1
102
RTVSPost2010Prop41ColorIndex
 90
       18
102
RTVSPost2010Prop41ColorRGB
 90
        0
102
RTVSPost2010PropOp41
 70
     1
102
RTVSPost2010Prop42
 90
       50
102
RTVSPost2010PropOp42
 70
     1
102
RTVSPost2010Prop43
 90
        3
102
RTVSPost2010PropOp43
 70
     1
102
RTVSPost2010Prop44ColorIndex
 90
        5
102
RTVSPost2010Prop44ColorRGB
 90
      255
102
RTVSPost2010PropOp44
 70
     1
102
RTVSPost2010Prop45
280
     0
102
RTVSPost2010PropOp45
 70
     1
102
RTVSPost2010Prop46
 90
       50
102
RTVSPost2010PropOp46
 70
     1
102
RTVSPost2010Prop47
 90
       50
102
RTVSPost2010PropOp47
 70
     1
102
RTVSPost2010Prop48
 90
       50
102
RTVSPost2010PropOp48
 70
     1
102
RTVSPost2010Prop49
280
     0
102
RTVSPost2010PropOp49
 70
     1
102
RTVSPost2010Prop50
 90
       50
102
RTVSPost2010PropOp50
 70
     1
102
RTVSPost2010Prop51ColorIndex
 90
      256
102
RTVSPost2010Prop51ColorRGB
 90
-16777216
102
RTVSPost2010PropOp51
 70
     0
102
RTVSPost2010Prop52
140
1.0
102
RTVSPost2010PropOp52
 70
     0
102
RTVSPost2010Prop53
 90
        2
102
RTVSPost2010PropOp53
 70
     1
102
RTVSPost2010Prop54
  1
strokes_ogs.tif
102
RTVSPost2010PropOp54
 70
     1
102
RTVSPost2010Prop55
280
     0
102
RTVSPost2010PropOp55
 70
     1
102
RTVSPost2010Prop56
140
1.0
102
RTVSPost2010PropOp56
 70
     1
102
RTVSPost2010Prop57
140
1.0
102
RTVSPost2010PropOp57
 70
     1
102
RTVSPropertyOp0
 70
     1
102
RTVSPropertyOp1
 70
     1
102
RTVSPropertyOp2
 70
     1
102
RTVSPropertyOp3
 70
     1
102
RTVSPropertyOp4
 70
     1
102
RTVSPropertyOp5
 70
     1
102
RTVSPropertyOp6
 70
     1
102
RTVSPropertyOp7
 70
     1
102
RTVSPropertyOp8
 70
     1
102
RTVSPropertyOp9
 70
     1
102
RTVSPropertyOp10
 70
     1
102
RTVSPropertyOp11
 70
     1
102
RTVSPropertyOp12
 70
     1
102
RTVSPropertyOp13
 70
     1
102
RTVSPropertyOp14
 70
     1
102
RTVSPropertyOp15
 70
     1
102
RTVSPropertyOp16
 70
     1
102
RTVSPropertyOp17
 70
     1
102
RTVSPropertyOp18
 70
     1
102
RTVSPropertyOp19
 70
     1
102
RTVSPropertyOp20
 70
     1
102
RTVSPropertyOp21
 70
     1
102
RTVSPropertyOp22
 70
     1
102
RTVSPropertyOp23
 70
     1
102
RTVSPropertyOp24
 70
     1
102
RTVSPropertyOp25
 70
     1
102
RTVSPropertyOp26
 70
     1
102
RTVSPropertyOp27
 70
     1
102
RTVSPropertyOp28
 70
     1
102
RTVSPropertyOp29
 70
     1
102
RTVSPropertyOp30
 70
     1
102
RTVSPropertyOp31
 70
     1
102
RTVSPropertyOp32
 70
     1
102
RTVSPropertyOp33
 70
     1
102
RTVSPropertyOp34
 70
     1
102
RTVSPropertyOp35
 70
     1
102
RTVSPropertyOp36
 70
     1
102
RTVSPropertyOp37
 70
     1
102
RTVSPropertyOp38
 70
     1
102
RTVSPropertyOp39
 70
     1
102
RTVSPropertyOp40
 70
     1
102
RTVSPropertyOp41
 70
     1
102
RTVSPropertyOp42
 70
     1
102
RTVSPropertyOp43
 70
     1
102
RTVSPropertyOp44
 70
     1
102
RTVSPropertyOp45
 70
     1
102
RTVSPropertyOp46
 70
     1
102
RTVSPropertyOp47
 70
     1
102
RTVSPropertyOp48
 70
     1
102
RTVSPropertyOp49
 70
     1
102
RTVSPropertyOp50
 70
     1
102
RTVSPropertyOp51
 70
     0
102
RTVSPropertyOp52
 70
     0
102
RTVSPropertyOp53
 70
     1
102
RTVSPropertyOp54
 70
     1
102
RTVSPropertyOp55
 70
     1
102
RTVSPropertyOp56
 70
     1
102
RTVSPropertyOp57
 70
     1
102
RTVSPropertyOp58
 70
     1
102
RTVSPropertyOp59
 70
     1
102
RTVSPropertyOp60
 70
     1
102
RTVSPropertyOp61
 70
     1
102
RTVSPropertyOp62
 70
     1
  0
XRECORD
  5
69D
102
{ACAD_REACTORS
330
69C
102
}
330
69C
100
AcDbXrecord
280
     1
102
RTVSPost2010Prop28
280
     0
102
RTVSPost2010PropOp28
 70
     1
102
RTVSPost2010Prop29
280
     1
102
RTVSPost2010PropOp29
 70
     1
102
RTVSPost2010Prop30
280
     1
102
RTVSPost2010PropOp30
 70
     1
102
RTVSPost2010Prop31
280
     0
102
RTVSPost2010PropOp31
 70
     1
102
RTVSPost2010Prop32
280
     0
102
RTVSPost2010PropOp32
 70
     1
102
RTVSPost2010Prop33
280
     0
102
RTVSPost2010PropOp33
 70
     1
102
RTVSPost2010Prop34
280
     0
102
RTVSPost2010PropOp34
 70
     1
102
RTVSPost2010Prop35
280
     0
102
RTVSPost2010PropOp35
 70
     1
102
RTVSPost2010Prop36
280
     0
102
RTVSPost2010PropOp36
 70
     1
102
RTVSPost2010Prop37
 90
       50
102
RTVSPost2010PropOp37
 70
     1
102
RTVSPost2010Prop38
140
0.0
102
RTVSPost2010PropOp38
 70
     1
102
RTVSPost2010Prop39
140
1.0
102
RTVSPost2010PropOp39
 70
     1
102
RTVSPost2010Prop40
 90
        0
102
RTVSPost2010PropOp40
 70
     1
102
RTVSPost2010Prop41ColorIndex
 90
       18
102
RTVSPost2010Prop41ColorRGB
 90
        0
102
RTVSPost2010PropOp41
 70
     1
102
RTVSPost2010Prop42
 90
       50
102
RTVSPost2010PropOp42
 70
     1
102
RTVSPost2010Prop43
 90
        3
102
RTVSPost2010PropOp43
 70
     1
102
RTVSPost2010Prop44ColorIndex
 90
        5
102
RTVSPost2010Prop44ColorRGB
 90
      255
102
RTVSPost2010PropOp44
 70
     1
102
RTVSPost2010Prop45
280
     0
102
RTVSPost2010PropOp45
 70
     1
102
RTVSPost2010Prop46
 90
       50
102
RTVSPost2010PropOp46
 70
     1
102
RTVSPost2010Prop47
 90
       50
102
RTVSPost2010PropOp47
 70
     1
102
RTVSPost2010Prop48
 90
       50
102
RTVSPost2010PropOp48
 70
     1
102
RTVSPost2010Prop49
280
     0
102
RTVSPost2010PropOp49
 70
     1
102
RTVSPost2010Prop50
 90
       50
102
RTVSPost2010PropOp50
 70
     1
102
RTVSPost2010Prop51ColorIndex
 90
      256
102
RTVSPost2010Prop51ColorRGB
 90
-16777216
102
RTVSPost2010PropOp51
 70
     0
102
RTVSPost2010Prop52
140
1.0
102
RTVSPost2010PropOp52
 70
     0
102
RTVSPost2010Prop53
 90
        2
102
RTVSPost2010PropOp53
 70
     1
102
RTVSPost2010Prop54
  1
strokes_ogs.tif
102
RTVSPost2010PropOp54
 70
     1
102
RTVSPost2010Prop55
280
     0
102
RTVSPost2010PropOp55
 70
     1
102
RTVSPost2010Prop56
140
1.0
102
RTVSPost2010PropOp56
 70
     1
102
RTVSPost2010Prop57
140
1.0
102
RTVSPost2010PropOp57
 70
     1
102
RTVSPropertyOp0
 70
     1
102
RTVSPropertyOp1
 70
     1
102
RTVSPropertyOp2
 70
     1
102
RTVSPropertyOp3
 70
     1
102
RTVSPropertyOp4
 70
     1
102
RTVSPropertyOp5
 70
     1
102
RTVSPropertyOp6
 70
     1
102
RTVSPropertyOp7
 70
     1
102
RTVSPropertyOp8
 70
     1
102
RTVSPropertyOp9
 70
     1
102
RTVSPropertyOp10
 70
     1
102
RTVSPropertyOp11
 70
     1
102
RTVSPropertyOp12
 70
     1
102
RTVSPropertyOp13
 70
     1
102
RTVSPropertyOp14
 70
     1
102
RTVSPropertyOp15
 70
     1
102
RTVSPropertyOp16
 70
     1
102
RTVSPropertyOp17
 70
     1
102
RTVSPropertyOp18
 70
     1
102
RTVSPropertyOp19
 70
     1
102
RTVSPropertyOp20
 70
     1
102
RTVSPropertyOp21
 70
     1
102
RTVSPropertyOp22
 70
     1
102
RTVSPropertyOp23
 70
     1
102
RTVSPropertyOp24
 70
     1
102
RTVSPropertyOp25
 70
     1
102
RTVSPropertyOp26
 70
     1
102
RTVSPropertyOp27
 70
     1
102
RTVSPropertyOp28
 70
     1
102
RTVSPropertyOp29
 70
     1
102
RTVSPropertyOp30
 70
     1
102
RTVSPropertyOp31
 70
     1
102
RTVSPropertyOp32
 70
     1
102
RTVSPropertyOp33
 70
     1
102
RTVSPropertyOp34
 70
     1
102
RTVSPropertyOp35
 70
     1
102
RTVSPropertyOp36
 70
     1
102
RTVSPropertyOp37
 70
     1
102
RTVSPropertyOp38
 70
     1
102
RTVSPropertyOp39
 70
     1
102
RTVSPropertyOp40
 70
     1
102
RTVSPropertyOp41
 70
     1
102
RTVSPropertyOp42
 70
     1
102
RTVSPropertyOp43
 70
     1
102
RTVSPropertyOp44
 70
     1
102
RTVSPropertyOp45
 70
     1
102
RTVSPropertyOp46
 70
     1
102
RTVSPropertyOp47
 70
     1
102
RTVSPropertyOp48
 70
     1
102
RTVSPropertyOp49
 70
     1
102
RTVSPropertyOp50
 70
     1
102
RTVSPropertyOp51
 70
     0
102
RTVSPropertyOp52
 70
     0
102
RTVSPropertyOp53
 70
     1
102
RTVSPropertyOp54
 70
     1
102
RTVSPropertyOp55
 70
     1
102
RTVSPropertyOp56
 70
     1
102
RTVSPropertyOp57
 70
     1
102
RTVSPropertyOp58
 70
     1
102
RTVSPropertyOp59
 70
     1
102
RTVSPropertyOp60
 70
     1
102
RTVSPropertyOp61
 70
     1
102
RTVSPropertyOp62
 70
     1
  0
XRECORD
  5
69F
102
{ACAD_REACTORS
330
69E
102
}
330
69E
100
AcDbXrecord
280
     1
102
RTVSPost2010Prop28
280
     0
102
RTVSPost2010PropOp28
 70
     1
102
RTVSPost2010Prop29
280
     1
102
RTVSPost2010PropOp29
 70
     1
102
RTVSPost2010Prop30
280
     1
102
RTVSPost2010PropOp30
 70
     1
102
RTVSPost2010Prop31
280
     0
102
RTVSPost2010PropOp31
 70
     1
102
RTVSPost2010Prop32
280
     0
102
RTVSPost2010PropOp32
 70
     1
102
RTVSPost2010Prop33
280
     0
102
RTVSPost2010PropOp33
 70
     1
102
RTVSPost2010Prop34
280
     0
102
RTVSPost2010PropOp34
 70
     1
102
RTVSPost2010Prop35
280
     0
102
RTVSPost2010PropOp35
 70
     1
102
RTVSPost2010Prop36
280
     0
102
RTVSPost2010PropOp36
 70
     1
102
RTVSPost2010Prop37
 90
       50
102
RTVSPost2010PropOp37
 70
     1
102
RTVSPost2010Prop38
140
0.0
102
RTVSPost2010PropOp38
 70
     1
102
RTVSPost2010Prop39
140
1.0
102
RTVSPost2010PropOp39
 70
     1
102
RTVSPost2010Prop40
 90
        0
102
RTVSPost2010PropOp40
 70
     1
102
RTVSPost2010Prop41ColorIndex
 90
       18
102
RTVSPost2010Prop41ColorRGB
 90
        0
102
RTVSPost2010PropOp41
 70
     1
102
RTVSPost2010Prop42
 90
       50
102
RTVSPost2010PropOp42
 70
     1
102
RTVSPost2010Prop43
 90
        3
102
RTVSPost2010PropOp43
 70
     1
102
RTVSPost2010Prop44ColorIndex
 90
        5
102
RTVSPost2010Prop44ColorRGB
 90
      255
102
RTVSPost2010PropOp44
 70
     1
102
RTVSPost2010Prop45
280
     0
102
RTVSPost2010PropOp45
 70
     1
102
RTVSPost2010Prop46
 90
       50
102
RTVSPost2010PropOp46
 70
     1
102
RTVSPost2010Prop47
 90
       50
102
RTVSPost2010PropOp47
 70
     1
102
RTVSPost2010Prop48
 90
       50
102
RTVSPost2010PropOp48
 70
     1
102
RTVSPost2010Prop49
280
     0
102
RTVSPost2010PropOp49
 70
     1
102
RTVSPost2010Prop50
 90
       50
102
RTVSPost2010PropOp50
 70
     1
102
RTVSPost2010Prop51ColorIndex
 90
      256
102
RTVSPost2010Prop51ColorRGB
 90
-16777216
102
RTVSPost2010PropOp51
 70
     0
102
RTVSPost2010Prop52
140
1.0
102
RTVSPost2010PropOp52
 70
     0
102
RTVSPost2010Prop53
 90
        2
102
RTVSPost2010PropOp53
 70
     1
102
RTVSPost2010Prop54
  1
strokes_ogs.tif
102
RTVSPost2010PropOp54
 70
     1
102
RTVSPost2010Prop55
280
     0
102
RTVSPost2010PropOp55
 70
     1
102
RTVSPost2010Prop56
140
1.0
102
RTVSPost2010PropOp56
 70
     1
102
RTVSPost2010Prop57
140
1.0
102
RTVSPost2010PropOp57
 70
     1
102
RTVSPropertyOp0
 70
     1
102
RTVSPropertyOp1
 70
     1
102
RTVSPropertyOp2
 70
     1
102
RTVSPropertyOp3
 70
     1
102
RTVSPropertyOp4
 70
     1
102
RTVSPropertyOp5
 70
     1
102
RTVSPropertyOp6
 70
     1
102
RTVSPropertyOp7
 70
     1
102
RTVSPropertyOp8
 70
     1
102
RTVSPropertyOp9
 70
     1
102
RTVSPropertyOp10
 70
     1
102
RTVSPropertyOp11
 70
     1
102
RTVSPropertyOp12
 70
     1
102
RTVSPropertyOp13
 70
     1
102
RTVSPropertyOp14
 70
     1
102
RTVSPropertyOp15
 70
     1
102
RTVSPropertyOp16
 70
     1
102
RTVSPropertyOp17
 70
     1
102
RTVSPropertyOp18
 70
     1
102
RTVSPropertyOp19
 70
     1
102
RTVSPropertyOp20
 70
     1
102
RTVSPropertyOp21
 70
     1
102
RTVSPropertyOp22
 70
     1
102
RTVSPropertyOp23
 70
     1
102
RTVSPropertyOp24
 70
     1
102
RTVSPropertyOp25
 70
     1
102
RTVSPropertyOp26
 70
     1
102
RTVSPropertyOp27
 70
     1
102
RTVSPropertyOp28
 70
     1
102
RTVSPropertyOp29
 70
     1
102
RTVSPropertyOp30
 70
     1
102
RTVSPropertyOp31
 70
     1
102
RTVSPropertyOp32
 70
     1
102
RTVSPropertyOp33
 70
     1
102
RTVSPropertyOp34
 70
     1
102
RTVSPropertyOp35
 70
     1
102
RTVSPropertyOp36
 70
     1
102
RTVSPropertyOp37
 70
     1
102
RTVSPropertyOp38
 70
     1
102
RTVSPropertyOp39
 70
     1
102
RTVSPropertyOp40
 70
     1
102
RTVSPropertyOp41
 70
     1
102
RTVSPropertyOp42
 70
     1
102
RTVSPropertyOp43
 70
     1
102
RTVSPropertyOp44
 70
     1
102
RTVSPropertyOp45
 70
     1
102
RTVSPropertyOp46
 70
     1
102
RTVSPropertyOp47
 70
     1
102
RTVSPropertyOp48
 70
     1
102
RTVSPropertyOp49
 70
     1
102
RTVSPropertyOp50
 70
     1
102
RTVSPropertyOp51
 70
     0
102
RTVSPropertyOp52
 70
     0
102
RTVSPropertyOp53
 70
     1
102
RTVSPropertyOp54
 70
     1
102
RTVSPropertyOp55
 70
     1
102
RTVSPropertyOp56
 70
     1
102
RTVSPropertyOp57
 70
     1
102
RTVSPropertyOp58
 70
     1
102
RTVSPropertyOp59
 70
     1
102
RTVSPropertyOp60
 70
     1
102
RTVSPropertyOp61
 70
     1
102
RTVSPropertyOp62
 70
     1
  0
XRECORD
  5
6A1
102
{ACAD_REACTORS
330
6A0
102
}
330
6A0
100
AcDbXrecord
280
     1
102
RTVSPost2010Prop28
280
     0
102
RTVSPost2010PropOp28
 70
     1
102
RTVSPost2010Prop29
280
     1
102
RTVSPost2010PropOp29
 70
     1
102
RTVSPost2010Prop30
280
     1
102
RTVSPost2010PropOp30
 70
     1
102
RTVSPost2010Prop31
280
     0
102
RTVSPost2010PropOp31
 70
     1
102
RTVSPost2010Prop32
280
     0
102
RTVSPost2010PropOp32
 70
     1
102
RTVSPost2010Prop33
280
     0
102
RTVSPost2010PropOp33
 70
     1
102
RTVSPost2010Prop34
280
     0
102
RTVSPost2010PropOp34
 70
     1
102
RTVSPost2010Prop35
280
     0
102
RTVSPost2010PropOp35
 70
     1
102
RTVSPost2010Prop36
280
     0
102
RTVSPost2010PropOp36
 70
     1
102
RTVSPost2010Prop37
 90
       50
102
RTVSPost2010PropOp37
 70
     1
102
RTVSPost2010Prop38
140
0.0
102
RTVSPost2010PropOp38
 70
     1
102
RTVSPost2010Prop39
140
1.0
102
RTVSPost2010PropOp39
 70
     1
102
RTVSPost2010Prop40
 90
        0
102
RTVSPost2010PropOp40
 70
     1
102
RTVSPost2010Prop41ColorIndex
 90
       18
102
RTVSPost2010Prop41ColorRGB
 90
        0
102
RTVSPost2010PropOp41
 70
     1
102
RTVSPost2010Prop42
 90
       50
102
RTVSPost2010PropOp42
 70
     1
102
RTVSPost2010Prop43
 90
        3
102
RTVSPost2010PropOp43
 70
     1
102
RTVSPost2010Prop44ColorIndex
 90
        5
102
RTVSPost2010Prop44ColorRGB
 90
      255
102
RTVSPost2010PropOp44
 70
     1
102
RTVSPost2010Prop45
280
     0
102
RTVSPost2010PropOp45
 70
     1
102
RTVSPost2010Prop46
 90
       50
102
RTVSPost2010PropOp46
 70
     1
102
RTVSPost2010Prop47
 90
       50
102
RTVSPost2010PropOp47
 70
     1
102
RTVSPost2010Prop48
 90
       50
102
RTVSPost2010PropOp48
 70
     1
102
RTVSPost2010Prop49
280
     0
102
RTVSPost2010PropOp49
 70
     1
102
RTVSPost2010Prop50
 90
       50
102
RTVSPost2010PropOp50
 70
     1
102
RTVSPost2010Prop51ColorIndex
 90
      256
102
RTVSPost2010Prop51ColorRGB
 90
-16777216
102
RTVSPost2010PropOp51
 70
     0
102
RTVSPost2010Prop52
140
1.0
102
RTVSPost2010PropOp52
 70
     0
102
RTVSPost2010Prop53
 90
        2
102
RTVSPost2010PropOp53
 70
     1
102
RTVSPost2010Prop54
  1
strokes_ogs.tif
102
RTVSPost2010PropOp54
 70
     1
102
RTVSPost2010Prop55
280
     0
102
RTVSPost2010PropOp55
 70
     1
102
RTVSPost2010Prop56
140
1.0
102
RTVSPost2010PropOp56
 70
     1
102
RTVSPost2010Prop57
140
1.0
102
RTVSPost2010PropOp57
 70
     1
102
RTVSPropertyOp0
 70
     1
102
RTVSPropertyOp1
 70
     1
102
RTVSPropertyOp2
 70
     1
102
RTVSPropertyOp3
 70
     1
102
RTVSPropertyOp4
 70
     1
102
RTVSPropertyOp5
 70
     1
102
RTVSPropertyOp6
 70
     1
102
RTVSPropertyOp7
 70
     1
102
RTVSPropertyOp8
 70
     1
102
RTVSPropertyOp9
 70
     1
102
RTVSPropertyOp10
 70
     1
102
RTVSPropertyOp11
 70
     1
102
RTVSPropertyOp12
 70
     1
102
RTVSPropertyOp13
 70
     1
102
RTVSPropertyOp14
 70
     1
102
RTVSPropertyOp15
 70
     1
102
RTVSPropertyOp16
 70
     1
102
RTVSPropertyOp17
 70
     1
102
RTVSPropertyOp18
 70
     1
102
RTVSPropertyOp19
 70
     1
102
RTVSPropertyOp20
 70
     1
102
RTVSPropertyOp21
 70
     1
102
RTVSPropertyOp22
 70
     1
102
RTVSPropertyOp23
 70
     1
102
RTVSPropertyOp24
 70
     1
102
RTVSPropertyOp25
 70
     1
102
RTVSPropertyOp26
 70
     1
102
RTVSPropertyOp27
 70
     1
102
RTVSPropertyOp28
 70
     1
102
RTVSPropertyOp29
 70
     1
102
RTVSPropertyOp30
 70
     1
102
RTVSPropertyOp31
 70
     1
102
RTVSPropertyOp32
 70
     1
102
RTVSPropertyOp33
 70
     1
102
RTVSPropertyOp34
 70
     1
102
RTVSPropertyOp35
 70
     1
102
RTVSPropertyOp36
 70
     1
102
RTVSPropertyOp37
 70
     1
102
RTVSPropertyOp38
 70
     1
102
RTVSPropertyOp39
 70
     1
102
RTVSPropertyOp40
 70
     1
102
RTVSPropertyOp41
 70
     1
102
RTVSPropertyOp42
 70
     1
102
RTVSPropertyOp43
 70
     1
102
RTVSPropertyOp44
 70
     1
102
RTVSPropertyOp45
 70
     1
102
RTVSPropertyOp46
 70
     1
102
RTVSPropertyOp47
 70
     1
102
RTVSPropertyOp48
 70
     1
102
RTVSPropertyOp49
 70
     1
102
RTVSPropertyOp50
 70
     1
102
RTVSPropertyOp51
 70
     0
102
RTVSPropertyOp52
 70
     0
102
RTVSPropertyOp53
 70
     1
102
RTVSPropertyOp54
 70
     1
102
RTVSPropertyOp55
 70
     1
102
RTVSPropertyOp56
 70
     1
102
RTVSPropertyOp57
 70
     1
102
RTVSPropertyOp58
 70
     1
102
RTVSPropertyOp59
 70
     1
102
RTVSPropertyOp60
 70
     1
102
RTVSPropertyOp61
 70
     1
102
RTVSPropertyOp62
 70
     1
  0
XRECORD
  5
6A9
102
{ACAD_REACTORS
330
6A8
102
}
330
6A8
100
AcDbXrecord
280
     1
102
RTVSPost2010Prop28
280
     0
102
RTVSPost2010PropOp28
 70
     1
102
RTVSPost2010Prop29
280
     1
102
RTVSPost2010PropOp29
 70
     1
102
RTVSPost2010Prop30
280
     1
102
RTVSPost2010PropOp30
 70
     1
102
RTVSPost2010Prop31
280
     0
102
RTVSPost2010PropOp31
 70
     1
102
RTVSPost2010Prop32
280
     0
102
RTVSPost2010PropOp32
 70
     1
102
RTVSPost2010Prop33
280
     0
102
RTVSPost2010PropOp33
 70
     1
102
RTVSPost2010Prop34
280
     0
102
RTVSPost2010PropOp34
 70
     1
102
RTVSPost2010Prop35
280
     0
102
RTVSPost2010PropOp35
 70
     1
102
RTVSPost2010Prop36
280
     0
102
RTVSPost2010PropOp36
 70
     1
102
RTVSPost2010Prop37
 90
       50
102
RTVSPost2010PropOp37
 70
     1
102
RTVSPost2010Prop38
140
0.0
102
RTVSPost2010PropOp38
 70
     1
102
RTVSPost2010Prop39
140
1.0
102
RTVSPost2010PropOp39
 70
     1
102
RTVSPost2010Prop40
 90
        0
102
RTVSPost2010PropOp40
 70
     1
102
RTVSPost2010Prop41ColorIndex
 90
       18
102
RTVSPost2010Prop41ColorRGB
 90
        0
102
RTVSPost2010PropOp41
 70
     1
102
RTVSPost2010Prop42
 90
       50
102
RTVSPost2010PropOp42
 70
     1
102
RTVSPost2010Prop43
 90
        3
102
RTVSPost2010PropOp43
 70
     1
102
RTVSPost2010Prop44ColorIndex
 90
        5
102
RTVSPost2010Prop44ColorRGB
 90
      255
102
RTVSPost2010PropOp44
 70
     1
102
RTVSPost2010Prop45
280
     0
102
RTVSPost2010PropOp45
 70
     1
102
RTVSPost2010Prop46
 90
       50
102
RTVSPost2010PropOp46
 70
     1
102
RTVSPost2010Prop47
 90
       50
102
RTVSPost2010PropOp47
 70
     1
102
RTVSPost2010Prop48
 90
       50
102
RTVSPost2010PropOp48
 70
     1
102
RTVSPost2010Prop49
280
     0
102
RTVSPost2010PropOp49
 70
     1
102
RTVSPost2010Prop50
 90
       50
102
RTVSPost2010PropOp50
 70
     1
102
RTVSPost2010Prop51ColorIndex
 90
      256
102
RTVSPost2010Prop51ColorRGB
 90
-16777216
102
RTVSPost2010PropOp51
 70
     0
102
RTVSPost2010Prop52
140
1.0
102
RTVSPost2010PropOp52
 70
     0
102
RTVSPost2010Prop53
 90
        2
102
RTVSPost2010PropOp53
 70
     1
102
RTVSPost2010Prop54
  1
strokes_ogs.tif
102
RTVSPost2010PropOp54
 70
     1
102
RTVSPost2010Prop55
280
     0
102
RTVSPost2010PropOp55
 70
     1
102
RTVSPost2010Prop56
140
1.0
102
RTVSPost2010PropOp56
 70
     1
102
RTVSPost2010Prop57
140
1.0
102
RTVSPost2010PropOp57
 70
     1
102
RTVSPropertyOp0
 70
     1
102
RTVSPropertyOp1
 70
     1
102
RTVSPropertyOp2
 70
     1
102
RTVSPropertyOp3
 70
     1
102
RTVSPropertyOp4
 70
     1
102
RTVSPropertyOp5
 70
     1
102
RTVSPropertyOp6
 70
     1
102
RTVSPropertyOp7
 70
     1
102
RTVSPropertyOp8
 70
     1
102
RTVSPropertyOp9
 70
     1
102
RTVSPropertyOp10
 70
     1
102
RTVSPropertyOp11
 70
     1
102
RTVSPropertyOp12
 70
     1
102
RTVSPropertyOp13
 70
     1
102
RTVSPropertyOp14
 70
     1
102
RTVSPropertyOp15
 70
     1
102
RTVSPropertyOp16
 70
     1
102
RTVSPropertyOp17
 70
     1
102
RTVSPropertyOp18
 70
     1
102
RTVSPropertyOp19
 70
     1
102
RTVSPropertyOp20
 70
     1
102
RTVSPropertyOp21
 70
     1
102
RTVSPropertyOp22
 70
     1
102
RTVSPropertyOp23
 70
     1
102
RTVSPropertyOp24
 70
     1
102
RTVSPropertyOp25
 70
     1
102
RTVSPropertyOp26
 70
     1
102
RTVSPropertyOp27
 70
     1
102
RTVSPropertyOp28
 70
     1
102
RTVSPropertyOp29
 70
     1
102
RTVSPropertyOp30
 70
     1
102
RTVSPropertyOp31
 70
     1
102
RTVSPropertyOp32
 70
     1
102
RTVSPropertyOp33
 70
     1
102
RTVSPropertyOp34
 70
     1
102
RTVSPropertyOp35
 70
     1
102
RTVSPropertyOp36
 70
     1
102
RTVSPropertyOp37
 70
     1
102
RTVSPropertyOp38
 70
     1
102
RTVSPropertyOp39
 70
     1
102
RTVSPropertyOp40
 70
     1
102
RTVSPropertyOp41
 70
     1
102
RTVSPropertyOp42
 70
     1
102
RTVSPropertyOp43
 70
     1
102
RTVSPropertyOp44
 70
     1
102
RTVSPropertyOp45
 70
     1
102
RTVSPropertyOp46
 70
     1
102
RTVSPropertyOp47
 70
     1
102
RTVSPropertyOp48
 70
     1
102
RTVSPropertyOp49
 70
     1
102
RTVSPropertyOp50
 70
     1
102
RTVSPropertyOp51
 70
     0
102
RTVSPropertyOp52
 70
     0
102
RTVSPropertyOp53
 70
     1
102
RTVSPropertyOp54
 70
     1
102
RTVSPropertyOp55
 70
     1
102
RTVSPropertyOp56
 70
     1
102
RTVSPropertyOp57
 70
     1
102
RTVSPropertyOp58
 70
     1
102
RTVSPropertyOp59
 70
     1
102
RTVSPropertyOp60
 70
     1
102
RTVSPropertyOp61
 70
     1
102
RTVSPropertyOp62
 70
     1
  0
XRECORD
  5
6C5
102
{ACAD_REACTORS
330
6C4
102
}
330
6C4
100
AcDbXrecord
280
     1
102
RTVSPost2010Prop28
280
     0
102
RTVSPost2010PropOp28
 70
     0
102
RTVSPost2010Prop29
280
     1
102
RTVSPost2010PropOp29
 70
     0
102
RTVSPost2010Prop30
280
     1
102
RTVSPost2010PropOp30
 70
     0
102
RTVSPost2010Prop31
280
     0
102
RTVSPost2010PropOp31
 70
     0
102
RTVSPost2010Prop32
280
     0
102
RTVSPost2010PropOp32
 70
     0
102
RTVSPost2010Prop33
280
     0
102
RTVSPost2010PropOp33
 70
     0
102
RTVSPost2010Prop34
280
     0
102
RTVSPost2010PropOp34
 70
     0
102
RTVSPost2010Prop35
280
     0
102
RTVSPost2010PropOp35
 70
     0
102
RTVSPost2010Prop36
280
     0
102
RTVSPost2010PropOp36
 70
     0
102
RTVSPost2010Prop37
 90
       50
102
RTVSPost2010PropOp37
 70
     0
102
RTVSPost2010Prop38
140
0.0
102
RTVSPost2010PropOp38
 70
     0
102
RTVSPost2010Prop39
140
1.0
102
RTVSPost2010PropOp39
 70
     0
102
RTVSPost2010Prop40
 90
        0
102
RTVSPost2010PropOp40
 70
     0
102
RTVSPost2010Prop41ColorIndex
 90
       18
102
RTVSPost2010Prop41ColorRGB
 90
        0
102
RTVSPost2010PropOp41
 70
     0
102
RTVSPost2010Prop42
 90
       50
102
RTVSPost2010PropOp42
 70
     0
102
RTVSPost2010Prop43
 90
        3
102
RTVSPost2010PropOp43
 70
     0
102
RTVSPost2010Prop44ColorIndex
 90
        5
102
RTVSPost2010Prop44ColorRGB
 90
      255
102
RTVSPost2010PropOp44
 70
     0
102
RTVSPost2010Prop45
280
     0
102
RTVSPost2010PropOp45
 70
     0
102
RTVSPost2010Prop46
 90
       50
102
RTVSPost2010PropOp46
 70
     0
102
RTVSPost2010Prop47
 90
       50
102
RTVSPost2010PropOp47
 70
     0
102
RTVSPost2010Prop48
 90
       50
102
RTVSPost2010PropOp48
 70
     0
102
RTVSPost2010Prop49
280
     0
102
RTVSPost2010PropOp49
 70
     0
102
RTVSPost2010Prop50
 90
       50
102
RTVSPost2010PropOp50
 70
     0
102
RTVSPost2010Prop51ColorIndex
 90
      256
102
RTVSPost2010Prop51ColorRGB
 90
-16777216
102
RTVSPost2010PropOp51
 70
     0
102
RTVSPost2010Prop52
140
1.0
102
RTVSPost2010PropOp52
 70
     0
102
RTVSPost2010Prop53
 90
        2
102
RTVSPost2010PropOp53
 70
     0
102
RTVSPost2010Prop54
  1
strokes_ogs.tif
102
RTVSPost2010PropOp54
 70
     0
102
RTVSPost2010Prop55
280
     0
102
RTVSPost2010PropOp55
 70
     0
102
RTVSPost2010Prop56
140
1.0
102
RTVSPost2010PropOp56
 70
     0
102
RTVSPost2010Prop57
140
1.0
102
RTVSPost2010PropOp57
 70
     0
102
RTVSPropertyOp0
 70
     0
102
RTVSPropertyOp1
 70
     0
102
RTVSPropertyOp2
 70
     0
102
RTVSPropertyOp3
 70
     0
102
RTVSPropertyOp4
 70
     0
102
RTVSPropertyOp5
 70
     0
102
RTVSPropertyOp6
 70
     0
102
RTVSPropertyOp7
 70
     0
102
RTVSPropertyOp8
 70
     0
102
RTVSPropertyOp9
 70
     0
102
RTVSPropertyOp10
 70
     0
102
RTVSPropertyOp11
 70
     0
102
RTVSPropertyOp12
 70
     0
102
RTVSPropertyOp13
 70
     0
102
RTVSPropertyOp14
 70
     2
102
RTVSPropertyOp15
 70
     0
102
RTVSPropertyOp16
 70
     0
102
RTVSPropertyOp17
 70
     0
102
RTVSPropertyOp18
 70
     0
102
RTVSPropertyOp19
 70
     0
102
RTVSPropertyOp20
 70
     0
102
RTVSPropertyOp21
 70
     0
102
RTVSPropertyOp22
 70
     0
102
RTVSPropertyOp23
 70
     0
102
RTVSPropertyOp24
 70
     0
102
RTVSPropertyOp25
 70
     0
102
RTVSPropertyOp26
 70
     0
102
RTVSPropertyOp27
 70
     0
102
RTVSPropertyOp28
 70
     0
102
RTVSPropertyOp29
 70
     0
102
RTVSPropertyOp30
 70
     0
102
RTVSPropertyOp31
 70
     0
102
RTVSPropertyOp32
 70
     0
102
RTVSPropertyOp33
 70
     0
102
RTVSPropertyOp34
 70
     0
102
RTVSPropertyOp35
 70
     0
102
RTVSPropertyOp36
 70
     0
102
RTVSPropertyOp37
 70
     0
102
RTVSPropertyOp38
 70
     0
102
RTVSPropertyOp39
 70
     0
102
RTVSPropertyOp40
 70
     0
102
RTVSPropertyOp41
 70
     0
102
RTVSPropertyOp42
 70
     0
102
RTVSPropertyOp43
 70
     0
102
RTVSPropertyOp44
 70
     0
102
RTVSPropertyOp45
 70
     0
102
RTVSPropertyOp46
 70
     0
102
RTVSPropertyOp47
 70
     0
102
RTVSPropertyOp48
 70
     0
102
RTVSPropertyOp49
 70
     0
102
RTVSPropertyOp50
 70
     0
102
RTVSPropertyOp51
 70
     0
102
RTVSPropertyOp52
 70
     0
102
RTVSPropertyOp53
 70
     0
102
RTVSPropertyOp54
 70
     0
102
RTVSPropertyOp55
 70
     0
102
RTVSPropertyOp56
 70
     0
102
RTVSPropertyOp57
 70
     0
102
RTVSPropertyOp58
 70
     1
102
RTVSPropertyOp59
 70
     1
102
RTVSPropertyOp60
 70
     1
102
RTVSPropertyOp61
 70
     1
102
RTVSPropertyOp62
 70
     1
  0
XRECORD
  5
6B5
102
{ACAD_REACTORS
330
6B4
102
}
330
6B4
100
AcDbXrecord
280
     1
102
RTVSPost2010Prop28
280
     0
102
RTVSPost2010PropOp28
 70
     1
102
RTVSPost2010Prop29
280
     1
102
RTVSPost2010PropOp29
 70
     1
102
RTVSPost2010Prop30
280
     1
102
RTVSPost2010PropOp30
 70
     1
102
RTVSPost2010Prop31
280
     0
102
RTVSPost2010PropOp31
 70
     1
102
RTVSPost2010Prop32
280
     0
102
RTVSPost2010PropOp32
 70
     1
102
RTVSPost2010Prop33
280
     0
102
RTVSPost2010PropOp33
 70
     1
102
RTVSPost2010Prop34
280
     0
102
RTVSPost2010PropOp34
 70
     1
102
RTVSPost2010Prop35
280
     0
102
RTVSPost2010PropOp35
 70
     1
102
RTVSPost2010Prop36
280
     0
102
RTVSPost2010PropOp36
 70
     1
102
RTVSPost2010Prop37
 90
       50
102
RTVSPost2010PropOp37
 70
     1
102
RTVSPost2010Prop38
140
0.0
102
RTVSPost2010PropOp38
 70
     1
102
RTVSPost2010Prop39
140
1.0
102
RTVSPost2010PropOp39
 70
     1
102
RTVSPost2010Prop40
 90
        0
102
RTVSPost2010PropOp40
 70
     1
102
RTVSPost2010Prop41ColorIndex
 90
       18
102
RTVSPost2010Prop41ColorRGB
 90
        0
102
RTVSPost2010PropOp41
 70
     1
102
RTVSPost2010Prop42
 90
       50
102
RTVSPost2010PropOp42
 70
     1
102
RTVSPost2010Prop43
 90
        3
102
RTVSPost2010PropOp43
 70
     1
102
RTVSPost2010Prop44ColorIndex
 90
        5
102
RTVSPost2010Prop44ColorRGB
 90
      255
102
RTVSPost2010PropOp44
 70
     1
102
RTVSPost2010Prop45
280
     0
102
RTVSPost2010PropOp45
 70
     1
102
RTVSPost2010Prop46
 90
       50
102
RTVSPost2010PropOp46
 70
     1
102
RTVSPost2010Prop47
 90
       50
102
RTVSPost2010PropOp47
 70
     1
102
RTVSPost2010Prop48
 90
       50
102
RTVSPost2010PropOp48
 70
     1
102
RTVSPost2010Prop49
280
     0
102
RTVSPost2010PropOp49
 70
     1
102
RTVSPost2010Prop50
 90
       50
102
RTVSPost2010PropOp50
 70
     1
102
RTVSPost2010Prop51ColorIndex
 90
      256
102
RTVSPost2010Prop51ColorRGB
 90
-16777216
102
RTVSPost2010PropOp51
 70
     0
102
RTVSPost2010Prop52
140
1.0
102
RTVSPost2010PropOp52
 70
     0
102
RTVSPost2010Prop53
 90
        2
102
RTVSPost2010PropOp53
 70
     1
102
RTVSPost2010Prop54
  1
strokes_ogs.tif
102
RTVSPost2010PropOp54
 70
     1
102
RTVSPost2010Prop55
280
     0
102
RTVSPost2010PropOp55
 70
     1
102
RTVSPost2010Prop56
140
1.0
102
RTVSPost2010PropOp56
 70
     1
102
RTVSPost2010Prop57
140
1.0
102
RTVSPost2010PropOp57
 70
     1
102
RTVSPropertyOp0
 70
     1
102
RTVSPropertyOp1
 70
     1
102
RTVSPropertyOp2
 70
     1
102
RTVSPropertyOp3
 70
     1
102
RTVSPropertyOp4
 70
     1
102
RTVSPropertyOp5
 70
     1
102
RTVSPropertyOp6
 70
     1
102
RTVSPropertyOp7
 70
     1
102
RTVSPropertyOp8
 70
     1
102
RTVSPropertyOp9
 70
     1
102
RTVSPropertyOp10
 70
     1
102
RTVSPropertyOp11
 70
     1
102
RTVSPropertyOp12
 70
     1
102
RTVSPropertyOp13
 70
     1
102
RTVSPropertyOp14
 70
     1
102
RTVSPropertyOp15
 70
     1
102
RTVSPropertyOp16
 70
     1
102
RTVSPropertyOp17
 70
     1
102
RTVSPropertyOp18
 70
     1
102
RTVSPropertyOp19
 70
     1
102
RTVSPropertyOp20
 70
     1
102
RTVSPropertyOp21
 70
     1
102
RTVSPropertyOp22
 70
     1
102
RTVSPropertyOp23
 70
     1
102
RTVSPropertyOp24
 70
     1
102
RTVSPropertyOp25
 70
     1
102
RTVSPropertyOp26
 70
     1
102
RTVSPropertyOp27
 70
     1
102
RTVSPropertyOp28
 70
     1
102
RTVSPropertyOp29
 70
     1
102
RTVSPropertyOp30
 70
     1
102
RTVSPropertyOp31
 70
     1
102
RTVSPropertyOp32
 70
     1
102
RTVSPropertyOp33
 70
     1
102
RTVSPropertyOp34
 70
     1
102
RTVSPropertyOp35
 70
     1
102
RTVSPropertyOp36
 70
     1
102
RTVSPropertyOp37
 70
     1
102
RTVSPropertyOp38
 70
     1
102
RTVSPropertyOp39
 70
     1
102
RTVSPropertyOp40
 70
     1
102
RTVSPropertyOp41
 70
     1
102
RTVSPropertyOp42
 70
     1
102
RTVSPropertyOp43
 70
     1
102
RTVSPropertyOp44
 70
     1
102
RTVSPropertyOp45
 70
     1
102
RTVSPropertyOp46
 70
     1
102
RTVSPropertyOp47
 70
     1
102
RTVSPropertyOp48
 70
     1
102
RTVSPropertyOp49
 70
     1
102
RTVSPropertyOp50
 70
     1
102
RTVSPropertyOp51
 70
     0
102
RTVSPropertyOp52
 70
     0
102
RTVSPropertyOp53
 70
     1
102
RTVSPropertyOp54
 70
     1
102
RTVSPropertyOp55
 70
     1
102
RTVSPropertyOp56
 70
     1
102
RTVSPropertyOp57
 70
     1
102
RTVSPropertyOp58
 70
     1
102
RTVSPropertyOp59
 70
     1
102
RTVSPropertyOp60
 70
     1
102
RTVSPropertyOp61
 70
     1
102
RTVSPropertyOp62
 70
     1
  0
XRECORD
  5
6C7
102
{ACAD_REACTORS
330
6C6
102
}
330
6C6
100
AcDbXrecord
280
     1
102
RTVSPost2010Prop28
280
     0
102
RTVSPost2010PropOp28
 70
     0
102
RTVSPost2010Prop29
280
     1
102
RTVSPost2010PropOp29
 70
     0
102
RTVSPost2010Prop30
280
     1
102
RTVSPost2010PropOp30
 70
     0
102
RTVSPost2010Prop31
280
     0
102
RTVSPost2010PropOp31
 70
     0
102
RTVSPost2010Prop32
280
     0
102
RTVSPost2010PropOp32
 70
     0
102
RTVSPost2010Prop33
280
     0
102
RTVSPost2010PropOp33
 70
     0
102
RTVSPost2010Prop34
280
     0
102
RTVSPost2010PropOp34
 70
     0
102
RTVSPost2010Prop35
280
     0
102
RTVSPost2010PropOp35
 70
     0
102
RTVSPost2010Prop36
280
     0
102
RTVSPost2010PropOp36
 70
     0
102
RTVSPost2010Prop37
 90
       50
102
RTVSPost2010PropOp37
 70
     0
102
RTVSPost2010Prop38
140
0.0
102
RTVSPost2010PropOp38
 70
     0
102
RTVSPost2010Prop39
140
1.0
102
RTVSPost2010PropOp39
 70
     0
102
RTVSPost2010Prop40
 90
        0
102
RTVSPost2010PropOp40
 70
     0
102
RTVSPost2010Prop41ColorIndex
 90
       18
102
RTVSPost2010Prop41ColorRGB
 90
        0
102
RTVSPost2010PropOp41
 70
     0
102
RTVSPost2010Prop42
 90
       50
102
RTVSPost2010PropOp42
 70
     0
102
RTVSPost2010Prop43
 90
        3
102
RTVSPost2010PropOp43
 70
     0
102
RTVSPost2010Prop44ColorIndex
 90
        5
102
RTVSPost2010Prop44ColorRGB
 90
      255
102
RTVSPost2010PropOp44
 70
     0
102
RTVSPost2010Prop45
280
     0
102
RTVSPost2010PropOp45
 70
     0
102
RTVSPost2010Prop46
 90
       50
102
RTVSPost2010PropOp46
 70
     0
102
RTVSPost2010Prop47
 90
       50
102
RTVSPost2010PropOp47
 70
     0
102
RTVSPost2010Prop48
 90
       50
102
RTVSPost2010PropOp48
 70
     0
102
RTVSPost2010Prop49
280
     0
102
RTVSPost2010PropOp49
 70
     0
102
RTVSPost2010Prop50
 90
       50
102
RTVSPost2010PropOp50
 70
     0
102
RTVSPost2010Prop51ColorIndex
 90
      256
102
RTVSPost2010Prop51ColorRGB
 90
-16777216
102
RTVSPost2010PropOp51
 70
     0
102
RTVSPost2010Prop52
140
1.0
102
RTVSPost2010PropOp52
 70
     0
102
RTVSPost2010Prop53
 90
        2
102
RTVSPost2010PropOp53
 70
     0
102
RTVSPost2010Prop54
  1
strokes_ogs.tif
102
RTVSPost2010PropOp54
 70
     0
102
RTVSPost2010Prop55
280
     0
102
RTVSPost2010PropOp55
 70
     0
102
RTVSPost2010Prop56
140
1.0
102
RTVSPost2010PropOp56
 70
     0
102
RTVSPost2010Prop57
140
1.0
102
RTVSPost2010PropOp57
 70
     0
102
RTVSPropertyOp0
 70
     0
102
RTVSPropertyOp1
 70
     0
102
RTVSPropertyOp2
 70
     0
102
RTVSPropertyOp3
 70
     0
102
RTVSPropertyOp4
 70
     0
102
RTVSPropertyOp5
 70
     0
102
RTVSPropertyOp6
 70
     0
102
RTVSPropertyOp7
 70
     0
102
RTVSPropertyOp8
 70
     0
102
RTVSPropertyOp9
 70
     0
102
RTVSPropertyOp10
 70
     0
102
RTVSPropertyOp11
 70
     0
102
RTVSPropertyOp12
 70
     0
102
RTVSPropertyOp13
 70
     0
102
RTVSPropertyOp14
 70
     2
102
RTVSPropertyOp15
 70
     0
102
RTVSPropertyOp16
 70
     0
102
RTVSPropertyOp17
 70
     0
102
RTVSPropertyOp18
 70
     0
102
RTVSPropertyOp19
 70
     0
102
RTVSPropertyOp20
 70
     0
102
RTVSPropertyOp21
 70
     0
102
RTVSPropertyOp22
 70
     0
102
RTVSPropertyOp23
 70
     0
102
RTVSPropertyOp24
 70
     0
102
RTVSPropertyOp25
 70
     0
102
RTVSPropertyOp26
 70
     0
102
RTVSPropertyOp27
 70
     0
102
RTVSPropertyOp28
 70
     0
102
RTVSPropertyOp29
 70
     0
102
RTVSPropertyOp30
 70
     0
102
RTVSPropertyOp31
 70
     0
102
RTVSPropertyOp32
 70
     0
102
RTVSPropertyOp33
 70
     0
102
RTVSPropertyOp34
 70
     0
102
RTVSPropertyOp35
 70
     0
102
RTVSPropertyOp36
 70
     0
102
RTVSPropertyOp37
 70
     0
102
RTVSPropertyOp38
 70
     0
102
RTVSPropertyOp39
 70
     0
102
RTVSPropertyOp40
 70
     0
102
RTVSPropertyOp41
 70
     0
102
RTVSPropertyOp42
 70
     0
102
RTVSPropertyOp43
 70
     0
102
RTVSPropertyOp44
 70
     0
102
RTVSPropertyOp45
 70
     0
102
RTVSPropertyOp46
 70
     0
102
RTVSPropertyOp47
 70
     0
102
RTVSPropertyOp48
 70
     0
102
RTVSPropertyOp49
 70
     0
102
RTVSPropertyOp50
 70
     0
102
RTVSPropertyOp51
 70
     0
102
RTVSPropertyOp52
 70
     0
102
RTVSPropertyOp53
 70
     0
102
RTVSPropertyOp54
 70
     0
102
RTVSPropertyOp55
 70
     0
102
RTVSPropertyOp56
 70
     0
102
RTVSPropertyOp57
 70
     0
102
RTVSPropertyOp58
 70
     1
102
RTVSPropertyOp59
 70
     1
102
RTVSPropertyOp60
 70
     1
102
RTVSPropertyOp61
 70
     1
102
RTVSPropertyOp62
 70
     1
  0
XRECORD
  5
6AD
102
{ACAD_REACTORS
330
6AC
102
}
330
6AC
100
AcDbXrecord
280
     1
102
RTVSPost2010Prop28
280
     0
102
RTVSPost2010PropOp28
 70
     1
102
RTVSPost2010Prop29
280
     1
102
RTVSPost2010PropOp29
 70
     1
102
RTVSPost2010Prop30
280
     1
102
RTVSPost2010PropOp30
 70
     1
102
RTVSPost2010Prop31
280
     0
102
RTVSPost2010PropOp31
 70
     1
102
RTVSPost2010Prop32
280
     0
102
RTVSPost2010PropOp32
 70
     1
102
RTVSPost2010Prop33
280
     0
102
RTVSPost2010PropOp33
 70
     1
102
RTVSPost2010Prop34
280
     0
102
RTVSPost2010PropOp34
 70
     1
102
RTVSPost2010Prop35
280
     0
102
RTVSPost2010PropOp35
 70
     1
102
RTVSPost2010Prop36
280
     0
102
RTVSPost2010PropOp36
 70
     1
102
RTVSPost2010Prop37
 90
       50
102
RTVSPost2010PropOp37
 70
     1
102
RTVSPost2010Prop38
140
0.0
102
RTVSPost2010PropOp38
 70
     1
102
RTVSPost2010Prop39
140
1.0
102
RTVSPost2010PropOp39
 70
     1
102
RTVSPost2010Prop40
 90
        0
102
RTVSPost2010PropOp40
 70
     1
102
RTVSPost2010Prop41ColorIndex
 90
       18
102
RTVSPost2010Prop41ColorRGB
 90
        0
102
RTVSPost2010PropOp41
 70
     1
102
RTVSPost2010Prop42
 90
       50
102
RTVSPost2010PropOp42
 70
     1
102
RTVSPost2010Prop43
 90
        3
102
RTVSPost2010PropOp43
 70
     1
102
RTVSPost2010Prop44ColorIndex
 90
        5
102
RTVSPost2010Prop44ColorRGB
 90
      255
102
RTVSPost2010PropOp44
 70
     1
102
RTVSPost2010Prop45
280
     0
102
RTVSPost2010PropOp45
 70
     1
102
RTVSPost2010Prop46
 90
       50
102
RTVSPost2010PropOp46
 70
     1
102
RTVSPost2010Prop47
 90
       50
102
RTVSPost2010PropOp47
 70
     1
102
RTVSPost2010Prop48
 90
       50
102
RTVSPost2010PropOp48
 70
     1
102
RTVSPost2010Prop49
280
     0
102
RTVSPost2010PropOp49
 70
     1
102
RTVSPost2010Prop50
 90
       50
102
RTVSPost2010PropOp50
 70
     1
102
RTVSPost2010Prop51ColorIndex
 90
      256
102
RTVSPost2010Prop51ColorRGB
 90
-16777216
102
RTVSPost2010PropOp51
 70
     0
102
RTVSPost2010Prop52
140
1.0
102
RTVSPost2010PropOp52
 70
     0
102
RTVSPost2010Prop53
 90
        2
102
RTVSPost2010PropOp53
 70
     1
102
RTVSPost2010Prop54
  1
strokes_ogs.tif
102
RTVSPost2010PropOp54
 70
     1
102
RTVSPost2010Prop55
280
     0
102
RTVSPost2010PropOp55
 70
     1
102
RTVSPost2010Prop56
140
1.0
102
RTVSPost2010PropOp56
 70
     1
102
RTVSPost2010Prop57
140
1.0
102
RTVSPost2010PropOp57
 70
     1
102
RTVSPropertyOp0
 70
     1
102
RTVSPropertyOp1
 70
     1
102
RTVSPropertyOp2
 70
     1
102
RTVSPropertyOp3
 70
     1
102
RTVSPropertyOp4
 70
     1
102
RTVSPropertyOp5
 70
     1
102
RTVSPropertyOp6
 70
     1
102
RTVSPropertyOp7
 70
     1
102
RTVSPropertyOp8
 70
     1
102
RTVSPropertyOp9
 70
     1
102
RTVSPropertyOp10
 70
     1
102
RTVSPropertyOp11
 70
     1
102
RTVSPropertyOp12
 70
     1
102
RTVSPropertyOp13
 70
     1
102
RTVSPropertyOp14
 70
     1
102
RTVSPropertyOp15
 70
     1
102
RTVSPropertyOp16
 70
     1
102
RTVSPropertyOp17
 70
     1
102
RTVSPropertyOp18
 70
     1
102
RTVSPropertyOp19
 70
     1
102
RTVSPropertyOp20
 70
     1
102
RTVSPropertyOp21
 70
     1
102
RTVSPropertyOp22
 70
     1
102
RTVSPropertyOp23
 70
     1
102
RTVSPropertyOp24
 70
     1
102
RTVSPropertyOp25
 70
     1
102
RTVSPropertyOp26
 70
     1
102
RTVSPropertyOp27
 70
     1
102
RTVSPropertyOp28
 70
     1
102
RTVSPropertyOp29
 70
     1
102
RTVSPropertyOp30
 70
     1
102
RTVSPropertyOp31
 70
     1
102
RTVSPropertyOp32
 70
     1
102
RTVSPropertyOp33
 70
     1
102
RTVSPropertyOp34
 70
     1
102
RTVSPropertyOp35
 70
     1
102
RTVSPropertyOp36
 70
     1
102
RTVSPropertyOp37
 70
     1
102
RTVSPropertyOp38
 70
     1
102
RTVSPropertyOp39
 70
     1
102
RTVSPropertyOp40
 70
     1
102
RTVSPropertyOp41
 70
     1
102
RTVSPropertyOp42
 70
     1
102
RTVSPropertyOp43
 70
     1
102
RTVSPropertyOp44
 70
     1
102
RTVSPropertyOp45
 70
     1
102
RTVSPropertyOp46
 70
     1
102
RTVSPropertyOp47
 70
     1
102
RTVSPropertyOp48
 70
     1
102
RTVSPropertyOp49
 70
     1
102
RTVSPropertyOp50
 70
     1
102
RTVSPropertyOp51
 70
     0
102
RTVSPropertyOp52
 70
     0
102
RTVSPropertyOp53
 70
     1
102
RTVSPropertyOp54
 70
     1
102
RTVSPropertyOp55
 70
     1
102
RTVSPropertyOp56
 70
     1
102
RTVSPropertyOp57
 70
     1
102
RTVSPropertyOp58
 70
     1
102
RTVSPropertyOp59
 70
     1
102
RTVSPropertyOp60
 70
     1
102
RTVSPropertyOp61
 70
     1
102
RTVSPropertyOp62
 70
     1
  0
XRECORD
  5
6C3
102
{ACAD_REACTORS
330
6C2
102
}
330
6C2
100
AcDbXrecord
280
     1
102
RTVSPost2010Prop28
280
     0
102
RTVSPost2010PropOp28
 70
     1
102
RTVSPost2010Prop29
280
     1
102
RTVSPost2010PropOp29
 70
     1
102
RTVSPost2010Prop30
280
     1
102
RTVSPost2010PropOp30
 70
     1
102
RTVSPost2010Prop31
280
     0
102
RTVSPost2010PropOp31
 70
     1
102
RTVSPost2010Prop32
280
     0
102
RTVSPost2010PropOp32
 70
     1
102
RTVSPost2010Prop33
280
     0
102
RTVSPost2010PropOp33
 70
     1
102
RTVSPost2010Prop34
280
     0
102
RTVSPost2010PropOp34
 70
     1
102
RTVSPost2010Prop35
280
     0
102
RTVSPost2010PropOp35
 70
     1
102
RTVSPost2010Prop36
280
     0
102
RTVSPost2010PropOp36
 70
     1
102
RTVSPost2010Prop37
 90
       50
102
RTVSPost2010PropOp37
 70
     1
102
RTVSPost2010Prop38
140
0.0
102
RTVSPost2010PropOp38
 70
     1
102
RTVSPost2010Prop39
140
1.0
102
RTVSPost2010PropOp39
 70
     1
102
RTVSPost2010Prop40
 90
        0
102
RTVSPost2010PropOp40
 70
     1
102
RTVSPost2010Prop41ColorIndex
 90
       18
102
RTVSPost2010Prop41ColorRGB
 90
        0
102
RTVSPost2010PropOp41
 70
     1
102
RTVSPost2010Prop42
 90
       50
102
RTVSPost2010PropOp42
 70
     1
102
RTVSPost2010Prop43
 90
        3
102
RTVSPost2010PropOp43
 70
     1
102
RTVSPost2010Prop44ColorIndex
 90
        5
102
RTVSPost2010Prop44ColorRGB
 90
      255
102
RTVSPost2010PropOp44
 70
     1
102
RTVSPost2010Prop45
280
     0
102
RTVSPost2010PropOp45
 70
     1
102
RTVSPost2010Prop46
 90
       50
102
RTVSPost2010PropOp46
 70
     1
102
RTVSPost2010Prop47
 90
       50
102
RTVSPost2010PropOp47
 70
     1
102
RTVSPost2010Prop48
 90
       50
102
RTVSPost2010PropOp48
 70
     1
102
RTVSPost2010Prop49
280
     0
102
RTVSPost2010PropOp49
 70
     1
102
RTVSPost2010Prop50
 90
       50
102
RTVSPost2010PropOp50
 70
     1
102
RTVSPost2010Prop51ColorIndex
 90
      256
102
RTVSPost2010Prop51ColorRGB
 90
-16777216
102
RTVSPost2010PropOp51
 70
     0
102
RTVSPost2010Prop52
140
1.0
102
RTVSPost2010PropOp52
 70
     0
102
RTVSPost2010Prop53
 90
        2
102
RTVSPost2010PropOp53
 70
     1
102
RTVSPost2010Prop54
  1
strokes_ogs.tif
102
RTVSPost2010PropOp54
 70
     1
102
RTVSPost2010Prop55
280
     0
102
RTVSPost2010PropOp55
 70
     1
102
RTVSPost2010Prop56
140
1.0
102
RTVSPost2010PropOp56
 70
     1
102
RTVSPost2010Prop57
140
1.0
102
RTVSPost2010PropOp57
 70
     1
102
RTVSPropertyOp0
 70
     1
102
RTVSPropertyOp1
 70
     1
102
RTVSPropertyOp2
 70
     1
102
RTVSPropertyOp3
 70
     1
102
RTVSPropertyOp4
 70
     1
102
RTVSPropertyOp5
 70
     1
102
RTVSPropertyOp6
 70
     1
102
RTVSPropertyOp7
 70
     1
102
RTVSPropertyOp8
 70
     1
102
RTVSPropertyOp9
 70
     1
102
RTVSPropertyOp10
 70
     1
102
RTVSPropertyOp11
 70
     1
102
RTVSPropertyOp12
 70
     1
102
RTVSPropertyOp13
 70
     1
102
RTVSPropertyOp14
 70
     1
102
RTVSPropertyOp15
 70
     1
102
RTVSPropertyOp16
 70
     1
102
RTVSPropertyOp17
 70
     1
102
RTVSPropertyOp18
 70
     1
102
RTVSPropertyOp19
 70
     1
102
RTVSPropertyOp20
 70
     1
102
RTVSPropertyOp21
 70
     1
102
RTVSPropertyOp22
 70
     1
102
RTVSPropertyOp23
 70
     1
102
RTVSPropertyOp24
 70
     1
102
RTVSPropertyOp25
 70
     1
102
RTVSPropertyOp26
 70
     1
102
RTVSPropertyOp27
 70
     1
102
RTVSPropertyOp28
 70
     1
102
RTVSPropertyOp29
 70
     1
102
RTVSPropertyOp30
 70
     1
102
RTVSPropertyOp31
 70
     1
102
RTVSPropertyOp32
 70
     1
102
RTVSPropertyOp33
 70
     1
102
RTVSPropertyOp34
 70
     1
102
RTVSPropertyOp35
 70
     1
102
RTVSPropertyOp36
 70
     1
102
RTVSPropertyOp37
 70
     1
102
RTVSPropertyOp38
 70
     1
102
RTVSPropertyOp39
 70
     1
102
RTVSPropertyOp40
 70
     1
102
RTVSPropertyOp41
 70
     1
102
RTVSPropertyOp42
 70
     1
102
RTVSPropertyOp43
 70
     1
102
RTVSPropertyOp44
 70
     1
102
RTVSPropertyOp45
 70
     1
102
RTVSPropertyOp46
 70
     1
102
RTVSPropertyOp47
 70
     1
102
RTVSPropertyOp48
 70
     1
102
RTVSPropertyOp49
 70
     1
102
RTVSPropertyOp50
 70
     1
102
RTVSPropertyOp51
 70
     0
102
RTVSPropertyOp52
 70
     0
102
RTVSPropertyOp53
 70
     1
102
RTVSPropertyOp54
 70
     1
102
RTVSPropertyOp55
 70
     1
102
RTVSPropertyOp56
 70
     1
102
RTVSPropertyOp57
 70
     1
102
RTVSPropertyOp58
 70
     1
102
RTVSPropertyOp59
 70
     1
102
RTVSPropertyOp60
 70
     1
102
RTVSPropertyOp61
 70
     1
102
RTVSPropertyOp62
 70
     1
  0
XRECORD
  5
6C1
102
{ACAD_REACTORS
330
6C0
102
}
330
6C0
100
AcDbXrecord
280
     1
102
RTVSPost2010Prop28
280
     0
102
RTVSPost2010PropOp28
 70
     1
102
RTVSPost2010Prop29
280
     1
102
RTVSPost2010PropOp29
 70
     1
102
RTVSPost2010Prop30
280
     1
102
RTVSPost2010PropOp30
 70
     1
102
RTVSPost2010Prop31
280
     0
102
RTVSPost2010PropOp31
 70
     1
102
RTVSPost2010Prop32
280
     0
102
RTVSPost2010PropOp32
 70
     1
102
RTVSPost2010Prop33
280
     0
102
RTVSPost2010PropOp33
 70
     1
102
RTVSPost2010Prop34
280
     0
102
RTVSPost2010PropOp34
 70
     1
102
RTVSPost2010Prop35
280
     0
102
RTVSPost2010PropOp35
 70
     1
102
RTVSPost2010Prop36
280
     0
102
RTVSPost2010PropOp36
 70
     1
102
RTVSPost2010Prop37
 90
       50
102
RTVSPost2010PropOp37
 70
     1
102
RTVSPost2010Prop38
140
0.0
102
RTVSPost2010PropOp38
 70
     1
102
RTVSPost2010Prop39
140
1.0
102
RTVSPost2010PropOp39
 70
     1
102
RTVSPost2010Prop40
 90
        0
102
RTVSPost2010PropOp40
 70
     1
102
RTVSPost2010Prop41ColorIndex
 90
       18
102
RTVSPost2010Prop41ColorRGB
 90
        0
102
RTVSPost2010PropOp41
 70
     1
102
RTVSPost2010Prop42
 90
       50
102
RTVSPost2010PropOp42
 70
     1
102
RTVSPost2010Prop43
 90
        3
102
RTVSPost2010PropOp43
 70
     1
102
RTVSPost2010Prop44ColorIndex
 90
        5
102
RTVSPost2010Prop44ColorRGB
 90
      255
102
RTVSPost2010PropOp44
 70
     1
102
RTVSPost2010Prop45
280
     0
102
RTVSPost2010PropOp45
 70
     1
102
RTVSPost2010Prop46
 90
       50
102
RTVSPost2010PropOp46
 70
     1
102
RTVSPost2010Prop47
 90
       50
102
RTVSPost2010PropOp47
 70
     1
102
RTVSPost2010Prop48
 90
       50
102
RTVSPost2010PropOp48
 70
     1
102
RTVSPost2010Prop49
280
     0
102
RTVSPost2010PropOp49
 70
     1
102
RTVSPost2010Prop50
 90
       50
102
RTVSPost2010PropOp50
 70
     1
102
RTVSPost2010Prop51ColorIndex
 90
      256
102
RTVSPost2010Prop51ColorRGB
 90
-16777216
102
RTVSPost2010PropOp51
 70
     0
102
RTVSPost2010Prop52
140
1.0
102
RTVSPost2010PropOp52
 70
     0
102
RTVSPost2010Prop53
 90
        2
102
RTVSPost2010PropOp53
 70
     1
102
RTVSPost2010Prop54
  1
strokes_ogs.tif
102
RTVSPost2010PropOp54
 70
     1
102
RTVSPost2010Prop55
280
     0
102
RTVSPost2010PropOp55
 70
     1
102
RTVSPost2010Prop56
140
1.0
102
RTVSPost2010PropOp56
 70
     1
102
RTVSPost2010Prop57
140
1.0
102
RTVSPost2010PropOp57
 70
     1
102
RTVSPropertyOp0
 70
     1
102
RTVSPropertyOp1
 70
     1
102
RTVSPropertyOp2
 70
     1
102
RTVSPropertyOp3
 70
     1
102
RTVSPropertyOp4
 70
     1
102
RTVSPropertyOp5
 70
     1
102
RTVSPropertyOp6
 70
     1
102
RTVSPropertyOp7
 70
     1
102
RTVSPropertyOp8
 70
     1
102
RTVSPropertyOp9
 70
     1
102
RTVSPropertyOp10
 70
     1
102
RTVSPropertyOp11
 70
     1
102
RTVSPropertyOp12
 70
     1
102
RTVSPropertyOp13
 70
     1
102
RTVSPropertyOp14
 70
     1
102
RTVSPropertyOp15
 70
     1
102
RTVSPropertyOp16
 70
     1
102
RTVSPropertyOp17
 70
     1
102
RTVSPropertyOp18
 70
     1
102
RTVSPropertyOp19
 70
     1
102
RTVSPropertyOp20
 70
     1
102
RTVSPropertyOp21
 70
     1
102
RTVSPropertyOp22
 70
     1
102
RTVSPropertyOp23
 70
     1
102
RTVSPropertyOp24
 70
     1
102
RTVSPropertyOp25
 70
     1
102
RTVSPropertyOp26
 70
     1
102
RTVSPropertyOp27
 70
     1
102
RTVSPropertyOp28
 70
     1
102
RTVSPropertyOp29
 70
     1
102
RTVSPropertyOp30
 70
     1
102
RTVSPropertyOp31
 70
     1
102
RTVSPropertyOp32
 70
     1
102
RTVSPropertyOp33
 70
     1
102
RTVSPropertyOp34
 70
     1
102
RTVSPropertyOp35
 70
     1
102
RTVSPropertyOp36
 70
     1
102
RTVSPropertyOp37
 70
     1
102
RTVSPropertyOp38
 70
     1
102
RTVSPropertyOp39
 70
     1
102
RTVSPropertyOp40
 70
     1
102
RTVSPropertyOp41
 70
     1
102
RTVSPropertyOp42
 70
     1
102
RTVSPropertyOp43
 70
     1
102
RTVSPropertyOp44
 70
     1
102
RTVSPropertyOp45
 70
     1
102
RTVSPropertyOp46
 70
     1
102
RTVSPropertyOp47
 70
     1
102
RTVSPropertyOp48
 70
     1
102
RTVSPropertyOp49
 70
     1
102
RTVSPropertyOp50
 70
     1
102
RTVSPropertyOp51
 70
     0
102
RTVSPropertyOp52
 70
     0
102
RTVSPropertyOp53
 70
     1
102
RTVSPropertyOp54
 70
     1
102
RTVSPropertyOp55
 70
     1
102
RTVSPropertyOp56
 70
     1
102
RTVSPropertyOp57
 70
     1
102
RTVSPropertyOp58
 70
     1
102
RTVSPropertyOp59
 70
     1
102
RTVSPropertyOp60
 70
     1
102
RTVSPropertyOp61
 70
     1
102
RTVSPropertyOp62
 70
     1
  0
XRECORD
  5
6BB
102
{ACAD_REACTORS
330
6BA
102
}
330
6BA
100
AcDbXrecord
280
     1
102
RTVSPost2010Prop28
280
     0
102
RTVSPost2010PropOp28
 70
     1
102
RTVSPost2010Prop29
280
     1
102
RTVSPost2010PropOp29
 70
     1
102
RTVSPost2010Prop30
280
     1
102
RTVSPost2010PropOp30
 70
     1
102
RTVSPost2010Prop31
280
     0
102
RTVSPost2010PropOp31
 70
     1
102
RTVSPost2010Prop32
280
     0
102
RTVSPost2010PropOp32
 70
     1
102
RTVSPost2010Prop33
280
     0
102
RTVSPost2010PropOp33
 70
     1
102
RTVSPost2010Prop34
280
     0
102
RTVSPost2010PropOp34
 70
     1
102
RTVSPost2010Prop35
280
     0
102
RTVSPost2010PropOp35
 70
     1
102
RTVSPost2010Prop36
280
     0
102
RTVSPost2010PropOp36
 70
     1
102
RTVSPost2010Prop37
 90
       50
102
RTVSPost2010PropOp37
 70
     1
102
RTVSPost2010Prop38
140
0.0
102
RTVSPost2010PropOp38
 70
     1
102
RTVSPost2010Prop39
140
1.0
102
RTVSPost2010PropOp39
 70
     1
102
RTVSPost2010Prop40
 90
        0
102
RTVSPost2010PropOp40
 70
     1
102
RTVSPost2010Prop41ColorIndex
 90
       18
102
RTVSPost2010Prop41ColorRGB
 90
        0
102
RTVSPost2010PropOp41
 70
     1
102
RTVSPost2010Prop42
 90
       50
102
RTVSPost2010PropOp42
 70
     1
102
RTVSPost2010Prop43
 90
        3
102
RTVSPost2010PropOp43
 70
     1
102
RTVSPost2010Prop44ColorIndex
 90
        5
102
RTVSPost2010Prop44ColorRGB
 90
      255
102
RTVSPost2010PropOp44
 70
     1
102
RTVSPost2010Prop45
280
     0
102
RTVSPost2010PropOp45
 70
     1
102
RTVSPost2010Prop46
 90
       50
102
RTVSPost2010PropOp46
 70
     1
102
RTVSPost2010Prop47
 90
       50
102
RTVSPost2010PropOp47
 70
     1
102
RTVSPost2010Prop48
 90
       50
102
RTVSPost2010PropOp48
 70
     1
102
RTVSPost2010Prop49
280
     0
102
RTVSPost2010PropOp49
 70
     1
102
RTVSPost2010Prop50
 90
       50
102
RTVSPost2010PropOp50
 70
     1
102
RTVSPost2010Prop51ColorIndex
 90
      256
102
RTVSPost2010Prop51ColorRGB
 90
-16777216
102
RTVSPost2010PropOp51
 70
     0
102
RTVSPost2010Prop52
140
1.0
102
RTVSPost2010PropOp52
 70
     0
102
RTVSPost2010Prop53
 90
        2
102
RTVSPost2010PropOp53
 70
     1
102
RTVSPost2010Prop54
  1
strokes_ogs.tif
102
RTVSPost2010PropOp54
 70
     1
102
RTVSPost2010Prop55
280
     0
102
RTVSPost2010PropOp55
 70
     1
102
RTVSPost2010Prop56
140
1.0
102
RTVSPost2010PropOp56
 70
     1
102
RTVSPost2010Prop57
140
1.0
102
RTVSPost2010PropOp57
 70
     1
102
RTVSPropertyOp0
 70
     1
102
RTVSPropertyOp1
 70
     1
102
RTVSPropertyOp2
 70
     1
102
RTVSPropertyOp3
 70
     1
102
RTVSPropertyOp4
 70
     1
102
RTVSPropertyOp5
 70
     1
102
RTVSPropertyOp6
 70
     1
102
RTVSPropertyOp7
 70
     1
102
RTVSPropertyOp8
 70
     1
102
RTVSPropertyOp9
 70
     1
102
RTVSPropertyOp10
 70
     1
102
RTVSPropertyOp11
 70
     1
102
RTVSPropertyOp12
 70
     1
102
RTVSPropertyOp13
 70
     1
102
RTVSPropertyOp14
 70
     1
102
RTVSPropertyOp15
 70
     1
102
RTVSPropertyOp16
 70
     1
102
RTVSPropertyOp17
 70
     1
102
RTVSPropertyOp18
 70
     1
102
RTVSPropertyOp19
 70
     1
102
RTVSPropertyOp20
 70
     1
102
RTVSPropertyOp21
 70
     1
102
RTVSPropertyOp22
 70
     1
102
RTVSPropertyOp23
 70
     1
102
RTVSPropertyOp24
 70
     1
102
RTVSPropertyOp25
 70
     1
102
RTVSPropertyOp26
 70
     1
102
RTVSPropertyOp27
 70
     1
102
RTVSPropertyOp28
 70
     1
102
RTVSPropertyOp29
 70
     1
102
RTVSPropertyOp30
 70
     1
102
RTVSPropertyOp31
 70
     1
102
RTVSPropertyOp32
 70
     1
102
RTVSPropertyOp33
 70
     1
102
RTVSPropertyOp34
 70
     1
102
RTVSPropertyOp35
 70
     1
102
RTVSPropertyOp36
 70
     1
102
RTVSPropertyOp37
 70
     1
102
RTVSPropertyOp38
 70
     1
102
RTVSPropertyOp39
 70
     1
102
RTVSPropertyOp40
 70
     1
102
RTVSPropertyOp41
 70
     1
102
RTVSPropertyOp42
 70
     1
102
RTVSPropertyOp43
 70
     1
102
RTVSPropertyOp44
 70
     1
102
RTVSPropertyOp45
 70
     1
102
RTVSPropertyOp46
 70
     1
102
RTVSPropertyOp47
 70
     1
102
RTVSPropertyOp48
 70
     1
102
RTVSPropertyOp49
 70
     1
102
RTVSPropertyOp50
 70
     1
102
RTVSPropertyOp51
 70
     0
102
RTVSPropertyOp52
 70
     0
102
RTVSPropertyOp53
 70
     1
102
RTVSPropertyOp54
 70
     1
102
RTVSPropertyOp55
 70
     1
102
RTVSPropertyOp56
 70
     1
102
RTVSPropertyOp57
 70
     1
102
RTVSPropertyOp58
 70
     1
102
RTVSPropertyOp59
 70
     1
102
RTVSPropertyOp60
 70
     1
102
RTVSPropertyOp61
 70
     1
102
RTVSPropertyOp62
 70
     1
  0
XRECORD
  5
6BD
102
{ACAD_REACTORS
330
6BC
102
}
330
6BC
100
AcDbXrecord
280
     1
102
RTVSPost2010Prop28
280
     0
102
RTVSPost2010PropOp28
 70
     1
102
RTVSPost2010Prop29
280
     1
102
RTVSPost2010PropOp29
 70
     1
102
RTVSPost2010Prop30
280
     1
102
RTVSPost2010PropOp30
 70
     1
102
RTVSPost2010Prop31
280
     0
102
RTVSPost2010PropOp31
 70
     1
102
RTVSPost2010Prop32
280
     0
102
RTVSPost2010PropOp32
 70
     1
102
RTVSPost2010Prop33
280
     0
102
RTVSPost2010PropOp33
 70
     1
102
RTVSPost2010Prop34
280
     0
102
RTVSPost2010PropOp34
 70
     1
102
RTVSPost2010Prop35
280
     0
102
RTVSPost2010PropOp35
 70
     1
102
RTVSPost2010Prop36
280
     0
102
RTVSPost2010PropOp36
 70
     1
102
RTVSPost2010Prop37
 90
       50
102
RTVSPost2010PropOp37
 70
     1
102
RTVSPost2010Prop38
140
0.0
102
RTVSPost2010PropOp38
 70
     1
102
RTVSPost2010Prop39
140
1.0
102
RTVSPost2010PropOp39
 70
     1
102
RTVSPost2010Prop40
 90
        0
102
RTVSPost2010PropOp40
 70
     1
102
RTVSPost2010Prop41ColorIndex
 90
       18
102
RTVSPost2010Prop41ColorRGB
 90
        0
102
RTVSPost2010PropOp41
 70
     1
102
RTVSPost2010Prop42
 90
       50
102
RTVSPost2010PropOp42
 70
     1
102
RTVSPost2010Prop43
 90
        3
102
RTVSPost2010PropOp43
 70
     1
102
RTVSPost2010Prop44ColorIndex
 90
        5
102
RTVSPost2010Prop44ColorRGB
 90
      255
102
RTVSPost2010PropOp44
 70
     1
102
RTVSPost2010Prop45
280
     0
102
RTVSPost2010PropOp45
 70
     1
102
RTVSPost2010Prop46
 90
       50
102
RTVSPost2010PropOp46
 70
     1
102
RTVSPost2010Prop47
 90
       50
102
RTVSPost2010PropOp47
 70
     1
102
RTVSPost2010Prop48
 90
       50
102
RTVSPost2010PropOp48
 70
     1
102
RTVSPost2010Prop49
280
     0
102
RTVSPost2010PropOp49
 70
     1
102
RTVSPost2010Prop50
 90
       50
102
RTVSPost2010PropOp50
 70
     1
102
RTVSPost2010Prop51ColorIndex
 90
      256
102
RTVSPost2010Prop51ColorRGB
 90
-16777216
102
RTVSPost2010PropOp51
 70
     0
102
RTVSPost2010Prop52
140
1.0
102
RTVSPost2010PropOp52
 70
     0
102
RTVSPost2010Prop53
 90
        2
102
RTVSPost2010PropOp53
 70
     1
102
RTVSPost2010Prop54
  1
strokes_ogs.tif
102
RTVSPost2010PropOp54
 70
     1
102
RTVSPost2010Prop55
280
     0
102
RTVSPost2010PropOp55
 70
     1
102
RTVSPost2010Prop56
140
1.0
102
RTVSPost2010PropOp56
 70
     1
102
RTVSPost2010Prop57
140
1.0
102
RTVSPost2010PropOp57
 70
     1
102
RTVSPropertyOp0
 70
     1
102
RTVSPropertyOp1
 70
     1
102
RTVSPropertyOp2
 70
     1
102
RTVSPropertyOp3
 70
     1
102
RTVSPropertyOp4
 70
     1
102
RTVSPropertyOp5
 70
     1
102
RTVSPropertyOp6
 70
     1
102
RTVSPropertyOp7
 70
     1
102
RTVSPropertyOp8
 70
     1
102
RTVSPropertyOp9
 70
     1
102
RTVSPropertyOp10
 70
     1
102
RTVSPropertyOp11
 70
     1
102
RTVSPropertyOp12
 70
     1
102
RTVSPropertyOp13
 70
     1
102
RTVSPropertyOp14
 70
     1
102
RTVSPropertyOp15
 70
     1
102
RTVSPropertyOp16
 70
     1
102
RTVSPropertyOp17
 70
     1
102
RTVSPropertyOp18
 70
     1
102
RTVSPropertyOp19
 70
     1
102
RTVSPropertyOp20
 70
     1
102
RTVSPropertyOp21
 70
     1
102
RTVSPropertyOp22
 70
     1
102
RTVSPropertyOp23
 70
     1
102
RTVSPropertyOp24
 70
     1
102
RTVSPropertyOp25
 70
     1
102
RTVSPropertyOp26
 70
     1
102
RTVSPropertyOp27
 70
     1
102
RTVSPropertyOp28
 70
     1
102
RTVSPropertyOp29
 70
     1
102
RTVSPropertyOp30
 70
     1
102
RTVSPropertyOp31
 70
     1
102
RTVSPropertyOp32
 70
     1
102
RTVSPropertyOp33
 70
     1
102
RTVSPropertyOp34
 70
     1
102
RTVSPropertyOp35
 70
     1
102
RTVSPropertyOp36
 70
     1
102
RTVSPropertyOp37
 70
     1
102
RTVSPropertyOp38
 70
     1
102
RTVSPropertyOp39
 70
     1
102
RTVSPropertyOp40
 70
     1
102
RTVSPropertyOp41
 70
     1
102
RTVSPropertyOp42
 70
     1
102
RTVSPropertyOp43
 70
     1
102
RTVSPropertyOp44
 70
     1
102
RTVSPropertyOp45
 70
     1
102
RTVSPropertyOp46
 70
     1
102
RTVSPropertyOp47
 70
     1
102
RTVSPropertyOp48
 70
     1
102
RTVSPropertyOp49
 70
     1
102
RTVSPropertyOp50
 70
     1
102
RTVSPropertyOp51
 70
     0
102
RTVSPropertyOp52
 70
     0
102
RTVSPropertyOp53
 70
     1
102
RTVSPropertyOp54
 70
     1
102
RTVSPropertyOp55
 70
     1
102
RTVSPropertyOp56
 70
     1
102
RTVSPropertyOp57
 70
     1
102
RTVSPropertyOp58
 70
     1
102
RTVSPropertyOp59
 70
     1
102
RTVSPropertyOp60
 70
     1
102
RTVSPropertyOp61
 70
     1
102
RTVSPropertyOp62
 70
     1
  0
XRECORD
  5
6B3
102
{ACAD_REACTORS
330
6B2
102
}
330
6B2
100
AcDbXrecord
280
     1
102
RTVSPost2010Prop28
280
     0
102
RTVSPost2010PropOp28
 70
     1
102
RTVSPost2010Prop29
280
     1
102
RTVSPost2010PropOp29
 70
     1
102
RTVSPost2010Prop30
280
     1
102
RTVSPost2010PropOp30
 70
     1
102
RTVSPost2010Prop31
280
     0
102
RTVSPost2010PropOp31
 70
     1
102
RTVSPost2010Prop32
280
     0
102
RTVSPost2010PropOp32
 70
     1
102
RTVSPost2010Prop33
280
     0
102
RTVSPost2010PropOp33
 70
     1
102
RTVSPost2010Prop34
280
     0
102
RTVSPost2010PropOp34
 70
     1
102
RTVSPost2010Prop35
280
     0
102
RTVSPost2010PropOp35
 70
     1
102
RTVSPost2010Prop36
280
     0
102
RTVSPost2010PropOp36
 70
     1
102
RTVSPost2010Prop37
 90
       50
102
RTVSPost2010PropOp37
 70
     1
102
RTVSPost2010Prop38
140
0.0
102
RTVSPost2010PropOp38
 70
     1
102
RTVSPost2010Prop39
140
1.0
102
RTVSPost2010PropOp39
 70
     1
102
RTVSPost2010Prop40
 90
        0
102
RTVSPost2010PropOp40
 70
     1
102
RTVSPost2010Prop41ColorIndex
 90
       18
102
RTVSPost2010Prop41ColorRGB
 90
        0
102
RTVSPost2010PropOp41
 70
     1
102
RTVSPost2010Prop42
 90
       50
102
RTVSPost2010PropOp42
 70
     1
102
RTVSPost2010Prop43
 90
        3
102
RTVSPost2010PropOp43
 70
     1
102
RTVSPost2010Prop44ColorIndex
 90
        5
102
RTVSPost2010Prop44ColorRGB
 90
      255
102
RTVSPost2010PropOp44
 70
     1
102
RTVSPost2010Prop45
280
     0
102
RTVSPost2010PropOp45
 70
     1
102
RTVSPost2010Prop46
 90
       50
102
RTVSPost2010PropOp46
 70
     1
102
RTVSPost2010Prop47
 90
       50
102
RTVSPost2010PropOp47
 70
     1
102
RTVSPost2010Prop48
 90
       50
102
RTVSPost2010PropOp48
 70
     1
102
RTVSPost2010Prop49
280
     0
102
RTVSPost2010PropOp49
 70
     1
102
RTVSPost2010Prop50
 90
       50
102
RTVSPost2010PropOp50
 70
     1
102
RTVSPost2010Prop51ColorIndex
 90
      256
102
RTVSPost2010Prop51ColorRGB
 90
-16777216
102
RTVSPost2010PropOp51
 70
     0
102
RTVSPost2010Prop52
140
1.0
102
RTVSPost2010PropOp52
 70
     0
102
RTVSPost2010Prop53
 90
        2
102
RTVSPost2010PropOp53
 70
     1
102
RTVSPost2010Prop54
  1
strokes_ogs.tif
102
RTVSPost2010PropOp54
 70
     1
102
RTVSPost2010Prop55
280
     0
102
RTVSPost2010PropOp55
 70
     1
102
RTVSPost2010Prop56
140
1.0
102
RTVSPost2010PropOp56
 70
     1
102
RTVSPost2010Prop57
140
1.0
102
RTVSPost2010PropOp57
 70
     1
102
RTVSPropertyOp0
 70
     1
102
RTVSPropertyOp1
 70
     1
102
RTVSPropertyOp2
 70
     1
102
RTVSPropertyOp3
 70
     1
102
RTVSPropertyOp4
 70
     1
102
RTVSPropertyOp5
 70
     1
102
RTVSPropertyOp6
 70
     1
102
RTVSPropertyOp7
 70
     1
102
RTVSPropertyOp8
 70
     1
102
RTVSPropertyOp9
 70
     1
102
RTVSPropertyOp10
 70
     1
102
RTVSPropertyOp11
 70
     1
102
RTVSPropertyOp12
 70
     1
102
RTVSPropertyOp13
 70
     1
102
RTVSPropertyOp14
 70
     1
102
RTVSPropertyOp15
 70
     1
102
RTVSPropertyOp16
 70
     1
102
RTVSPropertyOp17
 70
     1
102
RTVSPropertyOp18
 70
     1
102
RTVSPropertyOp19
 70
     1
102
RTVSPropertyOp20
 70
     1
102
RTVSPropertyOp21
 70
     1
102
RTVSPropertyOp22
 70
     1
102
RTVSPropertyOp23
 70
     1
102
RTVSPropertyOp24
 70
     1
102
RTVSPropertyOp25
 70
     1
102
RTVSPropertyOp26
 70
     1
102
RTVSPropertyOp27
 70
     1
102
RTVSPropertyOp28
 70
     1
102
RTVSPropertyOp29
 70
     1
102
RTVSPropertyOp30
 70
     1
102
RTVSPropertyOp31
 70
     1
102
RTVSPropertyOp32
 70
     1
102
RTVSPropertyOp33
 70
     1
102
RTVSPropertyOp34
 70
     1
102
RTVSPropertyOp35
 70
     1
102
RTVSPropertyOp36
 70
     1
102
RTVSPropertyOp37
 70
     1
102
RTVSPropertyOp38
 70
     1
102
RTVSPropertyOp39
 70
     1
102
RTVSPropertyOp40
 70
     1
102
RTVSPropertyOp41
 70
     1
102
RTVSPropertyOp42
 70
     1
102
RTVSPropertyOp43
 70
     1
102
RTVSPropertyOp44
 70
     1
102
RTVSPropertyOp45
 70
     1
102
RTVSPropertyOp46
 70
     1
102
RTVSPropertyOp47
 70
     1
102
RTVSPropertyOp48
 70
     1
102
RTVSPropertyOp49
 70
     1
102
RTVSPropertyOp50
 70
     1
102
RTVSPropertyOp51
 70
     0
102
RTVSPropertyOp52
 70
     0
102
RTVSPropertyOp53
 70
     1
102
RTVSPropertyOp54
 70
     1
102
RTVSPropertyOp55
 70
     1
102
RTVSPropertyOp56
 70
     1
102
RTVSPropertyOp57
 70
     1
102
RTVSPropertyOp58
 70
     1
102
RTVSPropertyOp59
 70
     1
102
RTVSPropertyOp60
 70
     1
102
RTVSPropertyOp61
 70
     1
102
RTVSPropertyOp62
 70
     1
  0
XRECORD
  5
6A7
102
{ACAD_REACTORS
330
6A6
102
}
330
6A6
100
AcDbXrecord
280
     1
102
RTVSPost2010Prop28
280
     0
102
RTVSPost2010PropOp28
 70
     1
102
RTVSPost2010Prop29
280
     1
102
RTVSPost2010PropOp29
 70
     1
102
RTVSPost2010Prop30
280
     1
102
RTVSPost2010PropOp30
 70
     1
102
RTVSPost2010Prop31
280
     0
102
RTVSPost2010PropOp31
 70
     1
102
RTVSPost2010Prop32
280
     0
102
RTVSPost2010PropOp32
 70
     1
102
RTVSPost2010Prop33
280
     0
102
RTVSPost2010PropOp33
 70
     1
102
RTVSPost2010Prop34
280
     0
102
RTVSPost2010PropOp34
 70
     1
102
RTVSPost2010Prop35
280
     0
102
RTVSPost2010PropOp35
 70
     1
102
RTVSPost2010Prop36
280
     0
102
RTVSPost2010PropOp36
 70
     1
102
RTVSPost2010Prop37
 90
       50
102
RTVSPost2010PropOp37
 70
     1
102
RTVSPost2010Prop38
140
0.0
102
RTVSPost2010PropOp38
 70
     1
102
RTVSPost2010Prop39
140
1.0
102
RTVSPost2010PropOp39
 70
     1
102
RTVSPost2010Prop40
 90
        0
102
RTVSPost2010PropOp40
 70
     1
102
RTVSPost2010Prop41ColorIndex
 90
       18
102
RTVSPost2010Prop41ColorRGB
 90
        0
102
RTVSPost2010PropOp41
 70
     1
102
RTVSPost2010Prop42
 90
       50
102
RTVSPost2010PropOp42
 70
     1
102
RTVSPost2010Prop43
 90
        3
102
RTVSPost2010PropOp43
 70
     1
102
RTVSPost2010Prop44ColorIndex
 90
        5
102
RTVSPost2010Prop44ColorRGB
 90
      255
102
RTVSPost2010PropOp44
 70
     1
102
RTVSPost2010Prop45
280
     0
102
RTVSPost2010PropOp45
 70
     1
102
RTVSPost2010Prop46
 90
       50
102
RTVSPost2010PropOp46
 70
     1
102
RTVSPost2010Prop47
 90
       50
102
RTVSPost2010PropOp47
 70
     1
102
RTVSPost2010Prop48
 90
       50
102
RTVSPost2010PropOp48
 70
     1
102
RTVSPost2010Prop49
280
     0
102
RTVSPost2010PropOp49
 70
     1
102
RTVSPost2010Prop50
 90
       50
102
RTVSPost2010PropOp50
 70
     1
102
RTVSPost2010Prop51ColorIndex
 90
      256
102
RTVSPost2010Prop51ColorRGB
 90
-16777216
102
RTVSPost2010PropOp51
 70
     0
102
RTVSPost2010Prop52
140
1.0
102
RTVSPost2010PropOp52
 70
     0
102
RTVSPost2010Prop53
 90
        2
102
RTVSPost2010PropOp53
 70
     1
102
RTVSPost2010Prop54
  1
strokes_ogs.tif
102
RTVSPost2010PropOp54
 70
     1
102
RTVSPost2010Prop55
280
     0
102
RTVSPost2010PropOp55
 70
     1
102
RTVSPost2010Prop56
140
1.0
102
RTVSPost2010PropOp56
 70
     1
102
RTVSPost2010Prop57
140
1.0
102
RTVSPost2010PropOp57
 70
     1
102
RTVSPropertyOp0
 70
     1
102
RTVSPropertyOp1
 70
     1
102
RTVSPropertyOp2
 70
     1
102
RTVSPropertyOp3
 70
     1
102
RTVSPropertyOp4
 70
     1
102
RTVSPropertyOp5
 70
     1
102
RTVSPropertyOp6
 70
     1
102
RTVSPropertyOp7
 70
     1
102
RTVSPropertyOp8
 70
     1
102
RTVSPropertyOp9
 70
     1
102
RTVSPropertyOp10
 70
     1
102
RTVSPropertyOp11
 70
     1
102
RTVSPropertyOp12
 70
     1
102
RTVSPropertyOp13
 70
     1
102
RTVSPropertyOp14
 70
     1
102
RTVSPropertyOp15
 70
     1
102
RTVSPropertyOp16
 70
     1
102
RTVSPropertyOp17
 70
     1
102
RTVSPropertyOp18
 70
     1
102
RTVSPropertyOp19
 70
     1
102
RTVSPropertyOp20
 70
     1
102
RTVSPropertyOp21
 70
     1
102
RTVSPropertyOp22
 70
     1
102
RTVSPropertyOp23
 70
     1
102
RTVSPropertyOp24
 70
     1
102
RTVSPropertyOp25
 70
     1
102
RTVSPropertyOp26
 70
     1
102
RTVSPropertyOp27
 70
     1
102
RTVSPropertyOp28
 70
     1
102
RTVSPropertyOp29
 70
     1
102
RTVSPropertyOp30
 70
     1
102
RTVSPropertyOp31
 70
     1
102
RTVSPropertyOp32
 70
     1
102
RTVSPropertyOp33
 70
     1
102
RTVSPropertyOp34
 70
     1
102
RTVSPropertyOp35
 70
     1
102
RTVSPropertyOp36
 70
     1
102
RTVSPropertyOp37
 70
     1
102
RTVSPropertyOp38
 70
     1
102
RTVSPropertyOp39
 70
     1
102
RTVSPropertyOp40
 70
     1
102
RTVSPropertyOp41
 70
     1
102
RTVSPropertyOp42
 70
     1
102
RTVSPropertyOp43
 70
     1
102
RTVSPropertyOp44
 70
     1
102
RTVSPropertyOp45
 70
     1
102
RTVSPropertyOp46
 70
     1
102
RTVSPropertyOp47
 70
     1
102
RTVSPropertyOp48
 70
     1
102
RTVSPropertyOp49
 70
     1
102
RTVSPropertyOp50
 70
     1
102
RTVSPropertyOp51
 70
     0
102
RTVSPropertyOp52
 70
     0
102
RTVSPropertyOp53
 70
     1
102
RTVSPropertyOp54
 70
     1
102
RTVSPropertyOp55
 70
     1
102
RTVSPropertyOp56
 70
     1
102
RTVSPropertyOp57
 70
     1
102
RTVSPropertyOp58
 70
     1
102
RTVSPropertyOp59
 70
     1
102
RTVSPropertyOp60
 70
     1
102
RTVSPropertyOp61
 70
     1
102
RTVSPropertyOp62
 70
     1
  0
XRECORD
  5
6BF
102
{ACAD_REACTORS
330
6BE
102
}
330
6BE
100
AcDbXrecord
280
     1
102
RTVSPost2010Prop28
280
     0
102
RTVSPost2010PropOp28
 70
     1
102
RTVSPost2010Prop29
280
     1
102
RTVSPost2010PropOp29
 70
     1
102
RTVSPost2010Prop30
280
     1
102
RTVSPost2010PropOp30
 70
     1
102
RTVSPost2010Prop31
280
     0
102
RTVSPost2010PropOp31
 70
     1
102
RTVSPost2010Prop32
280
     0
102
RTVSPost2010PropOp32
 70
     1
102
RTVSPost2010Prop33
280
     0
102
RTVSPost2010PropOp33
 70
     1
102
RTVSPost2010Prop34
280
     0
102
RTVSPost2010PropOp34
 70
     1
102
RTVSPost2010Prop35
280
     0
102
RTVSPost2010PropOp35
 70
     1
102
RTVSPost2010Prop36
280
     0
102
RTVSPost2010PropOp36
 70
     1
102
RTVSPost2010Prop37
 90
       50
102
RTVSPost2010PropOp37
 70
     1
102
RTVSPost2010Prop38
140
0.0
102
RTVSPost2010PropOp38
 70
     1
102
RTVSPost2010Prop39
140
1.0
102
RTVSPost2010PropOp39
 70
     1
102
RTVSPost2010Prop40
 90
        0
102
RTVSPost2010PropOp40
 70
     1
102
RTVSPost2010Prop41ColorIndex
 90
       18
102
RTVSPost2010Prop41ColorRGB
 90
        0
102
RTVSPost2010PropOp41
 70
     1
102
RTVSPost2010Prop42
 90
       50
102
RTVSPost2010PropOp42
 70
     1
102
RTVSPost2010Prop43
 90
        3
102
RTVSPost2010PropOp43
 70
     1
102
RTVSPost2010Prop44ColorIndex
 90
        5
102
RTVSPost2010Prop44ColorRGB
 90
      255
102
RTVSPost2010PropOp44
 70
     1
102
RTVSPost2010Prop45
280
     0
102
RTVSPost2010PropOp45
 70
     1
102
RTVSPost2010Prop46
 90
       50
102
RTVSPost2010PropOp46
 70
     1
102
RTVSPost2010Prop47
 90
       50
102
RTVSPost2010PropOp47
 70
     1
102
RTVSPost2010Prop48
 90
       50
102
RTVSPost2010PropOp48
 70
     1
102
RTVSPost2010Prop49
280
     0
102
RTVSPost2010PropOp49
 70
     1
102
RTVSPost2010Prop50
 90
       50
102
RTVSPost2010PropOp50
 70
     1
102
RTVSPost2010Prop51ColorIndex
 90
      256
102
RTVSPost2010Prop51ColorRGB
 90
-16777216
102
RTVSPost2010PropOp51
 70
     0
102
RTVSPost2010Prop52
140
1.0
102
RTVSPost2010PropOp52
 70
     0
102
RTVSPost2010Prop53
 90
        2
102
RTVSPost2010PropOp53
 70
     1
102
RTVSPost2010Prop54
  1
strokes_ogs.tif
102
RTVSPost2010PropOp54
 70
     1
102
RTVSPost2010Prop55
280
     0
102
RTVSPost2010PropOp55
 70
     1
102
RTVSPost2010Prop56
140
1.0
102
RTVSPost2010PropOp56
 70
     1
102
RTVSPost2010Prop57
140
1.0
102
RTVSPost2010PropOp57
 70
     1
102
RTVSPropertyOp0
 70
     1
102
RTVSPropertyOp1
 70
     1
102
RTVSPropertyOp2
 70
     1
102
RTVSPropertyOp3
 70
     1
102
RTVSPropertyOp4
 70
     1
102
RTVSPropertyOp5
 70
     1
102
RTVSPropertyOp6
 70
     1
102
RTVSPropertyOp7
 70
     1
102
RTVSPropertyOp8
 70
     1
102
RTVSPropertyOp9
 70
     1
102
RTVSPropertyOp10
 70
     1
102
RTVSPropertyOp11
 70
     1
102
RTVSPropertyOp12
 70
     1
102
RTVSPropertyOp13
 70
     1
102
RTVSPropertyOp14
 70
     1
102
RTVSPropertyOp15
 70
     1
102
RTVSPropertyOp16
 70
     1
102
RTVSPropertyOp17
 70
     1
102
RTVSPropertyOp18
 70
     1
102
RTVSPropertyOp19
 70
     1
102
RTVSPropertyOp20
 70
     1
102
RTVSPropertyOp21
 70
     1
102
RTVSPropertyOp22
 70
     1
102
RTVSPropertyOp23
 70
     1
102
RTVSPropertyOp24
 70
     1
102
RTVSPropertyOp25
 70
     1
102
RTVSPropertyOp26
 70
     1
102
RTVSPropertyOp27
 70
     1
102
RTVSPropertyOp28
 70
     1
102
RTVSPropertyOp29
 70
     1
102
RTVSPropertyOp30
 70
     1
102
RTVSPropertyOp31
 70
     1
102
RTVSPropertyOp32
 70
     1
102
RTVSPropertyOp33
 70
     1
102
RTVSPropertyOp34
 70
     1
102
RTVSPropertyOp35
 70
     1
102
RTVSPropertyOp36
 70
     1
102
RTVSPropertyOp37
 70
     1
102
RTVSPropertyOp38
 70
     1
102
RTVSPropertyOp39
 70
     1
102
RTVSPropertyOp40
 70
     1
102
RTVSPropertyOp41
 70
     1
102
RTVSPropertyOp42
 70
     1
102
RTVSPropertyOp43
 70
     1
102
RTVSPropertyOp44
 70
     1
102
RTVSPropertyOp45
 70
     1
102
RTVSPropertyOp46
 70
     1
102
RTVSPropertyOp47
 70
     1
102
RTVSPropertyOp48
 70
     1
102
RTVSPropertyOp49
 70
     1
102
RTVSPropertyOp50
 70
     1
102
RTVSPropertyOp51
 70
     0
102
RTVSPropertyOp52
 70
     0
102
RTVSPropertyOp53
 70
     1
102
RTVSPropertyOp54
 70
     1
102
RTVSPropertyOp55
 70
     1
102
RTVSPropertyOp56
 70
     1
102
RTVSPropertyOp57
 70
     1
102
RTVSPropertyOp58
 70
     1
102
RTVSPropertyOp59
 70
     1
102
RTVSPropertyOp60
 70
     1
102
RTVSPropertyOp61
 70
     1
102
RTVSPropertyOp62
 70
     1
  0
ENDSEC
  0
EOF
