  0
SECTION
  2
HEADER
  9
$ACADVER
  1
AC1015
  9
$ACADMAINTVER
 70
    18
  9
$DWGCODEPAGE
  3
ANSI_932
  9
$INSBASE
 10
0.0
 20
0.0
 30
0.0
  9
$EXTMIN
 10
-1844.463659000914
 20
-437.5053851283292
 30
-0.0000000000000142
  9
$EXTMAX
 10
2444.357651406748
 20
1178.542594906663
 30
0.0
  9
$LIMMIN
 10
-20.0
 20
-7.5
  9
$LIMMAX
 10
277.0
 20
202.5
  9
$ORTHOMODE
 70
     0
  9
$REGENMODE
 70
     1
  9
$FILLMODE
 70
     1
  9
$QTEXTMODE
 70
     0
  9
$MIRRTEXT
 70
     0
  9
$LTSCALE
 40
1.0
  9
$ATTMODE
 70
     1
  9
$TEXTSIZE
 40
9.0
  9
$TRACEWID
 40
1.0
  9
$TEXTSTYLE
  7
STANDARD
  9
$CLAYER
  8
AM_VIEWS
  9
$CELTYPE
  6
ByLayer
  9
$CECOLOR
 62
   256
  9
$CELTSCALE
 40
1.0
  9
$DISPSILH
 70
     0
  9
$DIMSCALE
 40
1.0
  9
$DIMASZ
 40
1.8
  9
$DIMEXO
 40
1.0
  9
$DIMDLI
 40
10.0
  9
$DIMRND
 40
0.0
  9
$DIMDLE
 40
0.0
  9
$DIMEXE
 40
1.0
  9
$DIMTP
 40
0.1
  9
$DIMTM
 40
0.1
  9
$DIMTXT
 40
3.5
  9
$DIMCEN
 40
0.0
  9
$DIMTSZ
 40
0.0
  9
$DIMTOL
 70
     0
  9
$DIMLIM
 70
     0
  9
$DIMTIH
 70
     0
  9
$DIMTOH
 70
     0
  9
$DIMSE1
 70
     0
  9
$DIMSE2
 70
     0
  9
$DIMTAD
 70
     3
  9
$DIMZIN
 70
     8
  9
$DIMBLK
  1
Open30
  9
$DIMASO
 70
     1
  9
$DIMSHO
 70
     1
  9
$DIMPOST
  1

  9
$DIMAPOST
  1
"
  9
$DIMALT
 70
     0
  9
$DIMALTD
 70
     2
  9
$DIMALTF
 40
0.0393701
  9
$DIMLFAC
 40
1.0
  9
$DIMTOFL
 70
     1
  9
$DIMTVP
 40
0.0
  9
$DIMTIX
 70
     0
  9
$DIMSOXD
 70
     0
  9
$DIMSAH
 70
     0
  9
$DIMBLK1
  1

  9
$DIMBLK2
  1

  9
$DIMSTYLE
  2
JIS2
  9
$DIMCLRD
 70
   256
  9
$DIMCLRE
 70
   256
  9
$DIMCLRT
 70
     2
  9
$DIMTFAC
 40
0.71
  9
$DIMGAP
 40
0.5
  9
$DIMJUST
 70
     0
  9
$DIMSD1
 70
     0
  9
$DIMSD2
 70
     0
  9
$DIMTOLJ
 70
     0
  9
$DIMTZIN
 70
     8
  9
$DIMALTZ
 70
     0
  9
$DIMALTTZ
 70
     0
  9
$DIMUPT
 70
     0
  9
$DIMDEC
 70
     2
  9
$DIMTDEC
 70
     2
  9
$DIMALTU
 70
     2
  9
$DIMALTTD
 70
     2
  9
$DIMTXSTY
  7
STANDARD
  9
$DIMAUNIT
 70
     0
  9
$DIMADEC
 70
     0
  9
$DIMALTRND
 40
0.0
  9
$DIMAZIN
 70
     2
  9
$DIMDSEP
 70
    46
  9
$DIMATFIT
 70
     3
  9
$DIMFRAC
 70
     0
  9
$DIMLDRBLK
  1
Open30
  9
$DIMLUNIT
 70
     2
  9
$DIMLWD
 70
    -1
  9
$DIMLWE
 70
    -1
  9
$DIMTMOVE
 70
     0
  9
$LUNITS
 70
     2
  9
$LUPREC
 70
     2
  9
$SKETCHINC
 40
1.0
  9
$FILLETRAD
 40
2.5
  9
$AUNITS
 70
     0
  9
$AUPREC
 70
     0
  9
$MENU
  1
.
  9
$ELEVATION
 40
0.0
  9
$PELEVATION
 40
0.0
  9
$THICKNESS
 40
0.0
  9
$LIMCHECK
 70
     0
  9
$CHAMFERA
 40
2.5
  9
$CHAMFERB
 40
2.5
  9
$CHAMFERC
 40
20.0
  9
$CHAMFERD
 40
0.0
  9
$SKPOLY
 70
     0
  9
$TDCREATE
 40
2459320.649039352
  9
$TDUCREATE
 40
2459320.274039352
  9
$TDUPDATE
 40
2459320.649062500
  9
$TDUUPDATE
 40
2459320.274062500
  9
$TDINDWG
 40
0.0000462963
  9
$TDUSRTIMER
 40
0.0000462963
  9
$USRTIMER
 70
     1
  9
$ANGBASE
 50
0.0
  9
$ANGDIR
 70
     0
  9
$PDMODE
 70
     0
  9
$PDSIZE
 40
0.0
  9
$PLINEWID
 40
0.0
  9
$SPLFRAME
 70
     0
  9
$SPLINETYPE
 70
     6
  9
$SPLINESEGS
 70
     8
  9
$HANDSEED
  5
61F
  9
$SURFTAB1
 70
     6
  9
$SURFTAB2
 70
     6
  9
$SURFTYPE
 70
     6
  9
$SURFU
 70
     6
  9
$SURFV
 70
     6
  9
$UCSBASE
  2

  9
$UCSNAME
  2

  9
$UCSORG
 10
0.0
 20
0.0
 30
0.0
  9
$UCSXDIR
 10
1.0
 20
0.0
 30
0.0
  9
$UCSYDIR
 10
0.0
 20
1.0
 30
0.0
  9
$UCSORTHOREF
  2

  9
$UCSORTHOVIEW
 70
     0
  9
$UCSORGTOP
 10
0.0
 20
0.0
 30
0.0
  9
$UCSORGBOTTOM
 10
0.0
 20
0.0
 30
0.0
  9
$UCSORGLEFT
 10
0.0
 20
0.0
 30
0.0
  9
$UCSORGRIGHT
 10
0.0
 20
0.0
 30
0.0
  9
$UCSORGFRONT
 10
0.0
 20
0.0
 30
0.0
  9
$UCSORGBACK
 10
0.0
 20
0.0
 30
0.0
  9
$PUCSBASE
  2

  9
$PUCSNAME
  2

  9
$PUCSORG
 10
0.0
 20
0.0
 30
0.0
  9
$PUCSXDIR
 10
1.0
 20
0.0
 30
0.0
  9
$PUCSYDIR
 10
0.0
 20
1.0
 30
0.0
  9
$PUCSORTHOREF
  2

  9
$PUCSORTHOVIEW
 70
     0
  9
$PUCSORGTOP
 10
0.0
 20
0.0
 30
0.0
  9
$PUCSORGBOTTOM
 10
0.0
 20
0.0
 30
0.0
  9
$PUCSORGLEFT
 10
0.0
 20
0.0
 30
0.0
  9
$PUCSORGRIGHT
 10
0.0
 20
0.0
 30
0.0
  9
$PUCSORGFRONT
 10
0.0
 20
0.0
 30
0.0
  9
$PUCSORGBACK
 10
0.0
 20
0.0
 30
0.0
  9
$USERI1
 70
     0
  9
$USERI2
 70
     0
  9
$USERI3
 70
     0
  9
$USERI4
 70
     0
  9
$USERI5
 70
     0
  9
$USERR1
 40
0.0
  9
$USERR2
 40
0.0
  9
$USERR3
 40
0.0
  9
$USERR4
 40
0.0
  9
$USERR5
 40
0.0
  9
$WORLDVIEW
 70
     1
  9
$SHADEDGE
 70
     3
  9
$SHADEDIF
 70
    70
  9
$TILEMODE
 70
     1
  9
$MAXACTVP
 70
    64
  9
$PINSBASE
 10
0.0
 20
0.0
 30
0.0
  9
$PLIMCHECK
 70
     0
  9
$PEXTMIN
 10
1.000000000000000E+20
 20
1.000000000000000E+20
 30
1.000000000000000E+20
  9
$PEXTMAX
 10
-1.000000000000000E+20
 20
-1.000000000000000E+20
 30
-1.000000000000000E+20
  9
$PLIMMIN
 10
0.0
 20
0.0
  9
$PLIMMAX
 10
12.0
 20
9.0
  9
$UNITMODE
 70
     0
  9
$VISRETAIN
 70
     1
  9
$PLINEGEN
 70
     0
  9
$PSLTSCALE
 70
     1
  9
$TREEDEPTH
 70
  3020
  9
$CMLSTYLE
  2
Standard
  9
$CMLJUST
 70
     0
  9
$CMLSCALE
 40
20.0
  9
$PROXYGRAPHICS
 70
     1
  9
$MEASUREMENT
 70
     1
  9
$CELWEIGHT
370
    -1
  9
$ENDCAPS
280
     0
  9
$JOINSTYLE
280
     0
  9
$LWDISPLAY
290
     0
  9
$INSUNITS
 70
     4
  9
$HYPERLINKBASE
  1

  9
$STYLESHEET
  1

  9
$XEDIT
290
     1
  9
$CEPSNTYPE
380
     0
  9
$PSTYLEMODE
290
     1
  9
$FINGERPRINTGUID
  2
{85F35F47-67EB-F44C-8516-52DE0444DBFD}
  9
$VERSIONGUID
  2
{10293D7C-A936-5747-8F33-B9489A91C7E4}
  9
$EXTNAMES
290
     1
  9
$PSVPSCALE
 40
0.0
  9
$OLESTARTUP
290
     0
  0
ENDSEC
  0
SECTION
  2
CLASSES
  0
CLASS
  1
ACDBDICTIONARYWDFLT
  2
AcDbDictionaryWithDefault
  3
ObjectDBX Classes
 90
        0
280
     0
281
     0
  0
CLASS
  1
MATERIAL
  2
AcDbMaterial
  3
ObjectDBX Classes
 90
     1153
280
     0
281
     0
  0
CLASS
  1
VISUALSTYLE
  2
AcDbVisualStyle
  3
ObjectDBX Classes
 90
     4095
280
     0
281
     0
  0
CLASS
  1
SCALE
  2
AcDbScale
  3
ObjectDBX Classes
 90
     1153
280
     0
281
     0
  0
CLASS
  1
TABLESTYLE
  2
AcDbTableStyle
  3
ObjectDBX Classes
 90
     4095
280
     0
281
     0
  0
CLASS
  1
MLEADERSTYLE
  2
AcDbMLeaderStyle
  3
ACDB_MLEADERSTYLE_CLASS
 90
     4095
280
     0
281
     0
  0
CLASS
  1
ACDBSECTIONVIEWSTYLE
  2
AcDbSectionViewStyle
  3
ObjectDBX Classes
 90
     1025
280
     0
281
     0
  0
CLASS
  1
ACDBDETAILVIEWSTYLE
  2
AcDbDetailViewStyle
  3
ObjectDBX Classes
 90
     1025
280
     0
281
     0
  0
CLASS
  1
ACMESCOPE
  2
AcMeScope
  3
AcMeServices
 90
     1024
280
     0
281
     0
  0
CLASS
  1
ACMECOMMANDHISTORY
  2
AcMeCommandHistory
  3
AcMeServices
 90
     1024
280
     0
281
     0
  0
CLASS
  1
ACIMSYSVARMAN
  2
AcImSysVarManager
  3
AcMeServices
 90
     1024
280
     0
281
     0
  0
CLASS
  1
ACIMINTSYSVAR
  2
AcImIntSysVar
  3
AcMeServices
 90
     1024
280
     0
281
     0
  0
CLASS
  1
ACMESTATEMGR
  2
AcMeStateMgr
  3
AcMeServices
 90
     1024
280
     0
281
     0
  0
CLASS
  1
ACGREFMASTER
  2
AcGrefMaster
  3
AcAttribServices
 90
     1024
280
     0
281
     0
  0
CLASS
  1
SORTENTSTABLE
  2
AcDbSortentsTable
  3
ObjectDBX Classes
 90
        0
280
     0
281
     0
  0
CLASS
  1
DICTIONARYVAR
  2
AcDbDictionaryVar
  3
ObjectDBX Classes
 90
        0
280
     0
281
     0
  0
CLASS
  1
ACME_DOCUMENT
  2
AcMeDbDoc
  3
AcMeServices
 90
     1024
280
     0
281
     0
  0
CLASS
  1
AMGSETTINGSOBJ
  2
AmgSettingsObj
  3
"AcadM|Product Description: AutoCAD Mechanical|Company: Autodesk, Inc."
 90
     1024
280
     0
281
     0
  0
CLASS
  1
ACDBENTITYCACHE
  2
AcMeEntityCache
  3
AcMeServices
 90
     1024
280
     0
281
     0
  0
CLASS
  1
ACME_DATABASE
  2
AcMeDbDatabase
  3
AcMeServices
 90
     1024
280
     0
281
     0
  0
CLASS
  1
ACRFINSADJUSTERMGR
  2
AcRfInsAdjusterMgr
  3
AcMeServices
 90
     1024
280
     0
281
     0
  0
CLASS
  1
ACGREFACADMASTER
  2
AcGrefacadMaster
  3
AcGrefServices
 90
     1024
280
     0
281
     0
  0
CLASS
  1
AMIMASTER
  2
AmiMaster
  3
AmiServices
 90
     1024
280
     0
281
     0
  0
CLASS
  1
AMDTMENUSTATEMGR
  2
AmdtMenuStateMgr
  3
McadcomServices
 90
     1024
280
     0
281
     0
  0
CLASS
  1
AMDTMCOMMENUSTATE
  2
AmdtMcomMenuState
  3
McadcomServices
 90
     1024
280
     0
281
     0
  0
CLASS
  1
MAPIAMMOUDLE
  2
MApiAmModule
  3
MApiAmServices
 90
     1024
280
     0
281
     0
  0
CLASS
  1
ACIMSTRSYSVAR
  2
AcImStrSysVar
  3
AcMeServices
 90
     1024
280
     0
281
     0
  0
CLASS
  1
AMDTAMMENUSTATE
  2
AmdtAmMenuState
  3
DesignerAssemblies_arx
 90
     1024
280
     0
281
     0
  0
CLASS
  1
ACAMPROJECT
  2
AcAmProject
  3
DesignerAssemblies
 90
     1024
280
     0
281
     0
  0
CLASS
  1
ACAMGRCOMPDEF
  2
AcAmGrCompDef
  3
DesignerAssemblies
 90
     1024
280
     0
281
     0
  0
CLASS
  1
ACAMCOMPDEF
  2
AcAmCompDef
  3
DesignerAssemblies
 90
     1024
280
     0
281
     0
  0
CLASS
  1
ACAMCOMPDEFMGR
  2
AcAmCompDefMgr
  3
DesignerAssemblies
 90
     1024
280
     0
281
     0
  0
CLASS
  1
AMCONTEXTMGR
  2
AcAmContextMgr
  3
DesignerAssemblies
 90
     1024
280
     0
281
     0
  0
CLASS
  1
ACAMCONTEXTMODELER
  2
AcAmContextModeler
  3
DesignerAssemblies
 90
     1024
280
     0
281
     0
  0
CLASS
  1
ACMDATADICTIONARY
  2
AcmDataDictionary
  3
"AcmSymBB|Product Description: AutoCAD Mechanical|Company: Autodesk, Inc."
 90
     1024
280
     0
281
     0
  0
CLASS
  1
ACAMGRCOMPDEFSET
  2
AcAmGrCompDefSet
  3
DesignerAssemblies
 90
     1024
280
     0
281
     0
  0
CLASS
  1
AMDTBROWSERDBTAB
  2
AmdtBrowserDbTab
  3
McadcomServices
 90
     1024
280
     0
281
     0
  0
CLASS
  1
CBROWSERAPPOBJECT
  2
CBrowserAppObject
  3
McadcomServices
 90
     1024
280
     0
281
     0
  0
CLASS
  1
DM_PLACEHOLDER
  2
AcDmSelsetPlaceholder
  3
McadcomServices
 90
     1024
280
     0
281
     0
  0
CLASS
  1
ACMSTANDARDISO
  2
AcmStandardISO
  3
"Amdt_StdImp|Product Description: AutoCAD Mechanical|Company: Autodesk, Inc."
 90
     1024
280
     0
281
     0
  0
CLASS
  1
AMDTEDGESTANDARDISO13715
  2
AmdtEdgeStdISO13715
  3
"Amdt_StdImp|Product Description: AutoCAD Mechanical|Company: Autodesk, Inc."
 90
     1024
280
     0
281
     0
  0
CLASS
  1
ACMSURFSTANDARDISO2002
  2
AcmSurfTextStdISO2002
  3
"Amdt_StdImp|Product Description: AutoCAD Mechanical|Company: Autodesk, Inc."
 90
     1024
280
     0
281
     0
  0
CLASS
  1
ACMFCFSTANDARDISO2012
  2
AcmFCFStdISO2012
  3
"Amdt_StdImp|Product Description: AutoCAD Mechanical|Company: Autodesk, Inc."
 90
     1024
280
     0
281
     0
  0
CLASS
  1
ACMWELDSTANDARDISO
  2
AcmWeldingStdISO
  3
"Amdt_StdImp|Product Description: AutoCAD Mechanical|Company: Autodesk, Inc."
 90
     1024
280
     0
281
     0
  0
CLASS
  1
ACMIDSTANDARDISO2012
  2
AcmIdStdISO2012
  3
"Amdt_StdImp|Product Description: AutoCAD Mechanical|Company: Autodesk, Inc."
 90
     1024
280
     0
281
     0
  0
CLASS
  1
ACMDATUMSTANDARDISO2012
  2
AcmDatumStdISO2012
  3
"Amdt_StdImp|Product Description: AutoCAD Mechanical|Company: Autodesk, Inc."
 90
     1024
280
     0
281
     0
  0
CLASS
  1
ACMBOMSTANDARDISO
  2
AcmBOMStdISO
  3
"Amdt_StdImp|Product Description: AutoCAD Mechanical|Company: Autodesk, Inc."
 90
     1024
280
     0
281
     0
  0
CLASS
  1
ACMDETAILSTANDARDISO
  2
AmdtDetailSymStdISO
  3
"Amdt_StdImp|Product Description: AutoCAD Mechanical|Company: Autodesk, Inc."
 90
     1024
280
     0
281
     0
  0
CLASS
  1
ACMSECTIONSTANDARDISO2001
  2
AmdtSectionSymStdISO2001
  3
"Amdt_StdImp|Product Description: AutoCAD Mechanical|Company: Autodesk, Inc."
 90
     1024
280
     0
281
     0
  0
CLASS
  1
ACMCENTERLINESTANDARDISO
  2
AmdtCenterLineStdISO
  3
"Amdt_StdImp|Product Description: AutoCAD Mechanical|Company: Autodesk, Inc."
 90
     1024
280
     0
281
     0
  0
CLASS
  1
ACMTHREADLINESTANDARDISO
  2
AmdtThreadLineStdISO
  3
"Amdt_StdImp|Product Description: AutoCAD Mechanical|Company: Autodesk, Inc."
 90
     1024
280
     0
281
     0
  0
CLASS
  1
ACMNOTESTANDARDISO
  2
AmdtNoteStdISO
  3
"Amdt_StdImp|Product Description: AutoCAD Mechanical|Company: Autodesk, Inc."
 90
     1024
280
     0
281
     0
  0
CLASS
  1
ACMTAPERSTANDARDISO
  2
AcmTaperStdISO
  3
"Amdt_StdImp|Product Description: AutoCAD Mechanical|Company: Autodesk, Inc."
 90
     1024
280
     0
281
     0
  0
CLASS
  1
ACMANOOTATIONVIEWSTANDARDISO
  2
AmdtAnViewStdISO
  3
"Amdt_StdImp|Product Description: AutoCAD Mechanical|Company: Autodesk, Inc."
 90
     1024
280
     0
281
     0
  0
CLASS
  1
ACAMGLAYSTD
  2
AcAmgLayStd
  3
"AmgLay|Product Description: AutoCAD Mechanical|Company: Autodesk, Inc."
 90
     1024
280
     0
281
     0
  0
CLASS
  1
ACAMGTITLESTD
  2
AcAmgTitleStd
  3
"AmgTitle|Product Description: AutoCAD Mechanical|Company: Autodesk, Inc."
 90
     1024
280
     0
281
     0
  0
CLASS
  1
ACAMGDIMSTD
  2
AcAmgDimStd
  3
"AmgDim|Product Description: AutoCAD Mechanical|Company: Autodesk, Inc."
 90
     1024
280
     0
281
     0
  0
CLASS
  1
AMGOBJPROPCFG
  2
AmgObjPropCfg
  3
"AmgLay|Product Description: AutoCAD Mechanical|Company: Autodesk, Inc."
 90
     1024
280
     0
281
     0
  0
CLASS
  1
ACAMGHOLECHARTSTDISO
  2
AcAmgHoleChartStdISO
  3
"AmgDim" "Product Description: AutoCAD Mechanical|Company: Autodesk, Inc."
 90
     1024
280
     0
281
     0
  0
CLASS
  1
ACMSECTIONSTANDARDCUSTOM
  2
AmdtSectionSymStdCustom
  3
"Amdt_StdImp|Product Description: AutoCAD Mechanical|Company: Autodesk, Inc."
 90
     1024
280
     0
281
     0
  0
CLASS
  1
ACMDETAILTANDARDCUSTOM
  2
AmdtDetailSymStdCustom
  3
"Amdt_StdImp|Product Description: AutoCAD Mechanical|Company: Autodesk, Inc."
 90
     1024
280
     0
281
     0
  0
CLASS
  1
FIELD
  2
AcDbField
  3
ObjectDBX Classes
 90
     1152
280
     0
281
     0
  0
CLASS
  1
FIELDLIST
  2
AcDbFieldList
  3
ObjectDBX Classes
 90
     1152
280
     0
281
     0
  0
CLASS
  1
AMDTNOTETEMPLATEDB
  2
AmdtNoteTemplateDB
  3
"AcmSymBB" "Product Description: AutoCAD Mechanical|Company: Autodesk, Inc."
 90
     1024
280
     0
281
     0
  0
CLASS
  1
CELLSTYLEMAP
  2
AcDbCellStyleMap
  3
ObjectDBX Classes
 90
     1152
280
     0
281
     0
  0
CLASS
  1
ACDBPLACEHOLDER
  2
AcDbPlaceHolder
  3
ObjectDBX Classes
 90
        0
280
     0
281
     0
  0
CLASS
  1
LAYOUT
  2
AcDbLayout
  3
ObjectDBX Classes
 90
        0
280
     0
281
     0
  0
ENDSEC
  0
SECTION
  2
TABLES
  0
TABLE
  2
VPORT
  5
8
330
0
100
AcDbSymbolTable
 70
     1
  0
VPORT
  5
57
330
8
100
AcDbSymbolTableRecord
100
AcDbViewportTableRecord
  2
*Active
 70
     0
 10
0.0
 20
0.0
 11
1.0
 21
1.0
 12
429.3112759721252
 22
341.7141375610812
 13
0.0
 23
0.0
 14
10.0
 24
10.0
 15
10.0
 25
10.0
 16
0.0
 26
0.0
 36
1.0
 17
0.0
 27
0.0
 37
0.0
 40
2055.924794619449
 41
2.180967238689547
 42
50.0
 43
0.0
 44
0.0
 50
0.0
 51
0.0
 71
     0
 72
  1000
 73
     1
 74
     1
 75
     0
 76
     0
 77
     0
 78
     0
281
     0
 65
     1
110
0.0
120
0.0
130
0.0
111
1.0
121
0.0
131
0.0
112
0.0
122
1.0
132
0.0
 79
     0
146
0.0
1001
ACAD_NAV_VCDISPLAY
1070
     3
  0
ENDTAB
  0
TABLE
  2
LTYPE
  5
5
330
0
100
AcDbSymbolTable
 70
    20
  0
LTYPE
  5
5B
330
5
100
AcDbSymbolTableRecord
100
AcDbLinetypeTableRecord
  2
ByBlock
 70
     0
  3

 72
    65
 73
     0
 40
0.0
  0
LTYPE
  5
5C
330
5
100
AcDbSymbolTableRecord
100
AcDbLinetypeTableRecord
  2
ByLayer
 70
     0
  3

 72
    65
 73
     0
 40
0.0
  0
LTYPE
  5
5D
330
5
100
AcDbSymbolTableRecord
100
AcDbLinetypeTableRecord
  2
Continuous
 70
     0
  3
Solid line
 72
    65
 73
     0
 40
0.0
  0
LTYPE
  5
81
330
5
100
AcDbSymbolTableRecord
100
AcDbLinetypeTableRecord
  2
HIDDEN
 70
     0
  3
Hidden __ __ __ __ __ __ __ __ __ __ __ __ __ _
 72
    65
 73
     2
 40
9.524999999999998
 49
6.349999999999999
 74
     0
 49
-3.174999999999999
 74
     0
  0
LTYPE
  5
82
330
5
100
AcDbSymbolTableRecord
100
AcDbLinetypeTableRecord
  2
PHANTOM2
 70
     0
  3
Phantom (.5x) ___ _ _ ___ _ _ ___ _ _ ___ _ _
 72
    65
 73
     6
 40
31.75
 49
15.875
 74
     0
 49
-3.174999999999999
 74
     0
 49
3.174999999999999
 74
     0
 49
-3.174999999999999
 74
     0
 49
3.174999999999999
 74
     0
 49
-3.174999999999999
 74
     0
  0
LTYPE
  5
83
330
5
100
AcDbSymbolTableRecord
100
AcDbLinetypeTableRecord
  2
CENTER
 70
     0
  3
Center ____ _ ____ _ ____ _ ____ _ ____ _ ____
 72
    65
 73
     4
 40
50.8
 49
31.75
 74
     0
 49
-6.349999999999999
 74
     0
 49
6.349999999999999
 74
     0
 49
-6.349999999999999
 74
     0
  0
LTYPE
  5
9C
330
5
100
AcDbSymbolTableRecord
100
AcDbLinetypeTableRecord
  2
AM_ISO02W050
 70
     0
  3
__ __ __ __ __ __ __ __ __ __ __ __ __ __ __
 72
    65
 73
     2
 40
7.5
 49
6.0
 74
     0
 49
-1.5
 74
     0
  0
LTYPE
  5
9D
330
5
100
AcDbSymbolTableRecord
100
AcDbLinetypeTableRecord
  2
AM_ISO08W050
 70
     0
  3
____ . ____ . ____ . ____ . ____ . ____ . ____
 72
    65
 73
     4
 40
18.0
 49
12.0
 74
     0
 49
-1.5
 74
     0
 49
3.0
 74
     0
 49
-1.5
 74
     0
  0
LTYPE
  5
9E
330
5
100
AcDbSymbolTableRecord
100
AcDbLinetypeTableRecord
  2
AM_ISO09W050
 70
     0
  3
_____ . . _____ . . _____ . . ____ .. ____
 72
    65
 73
     6
 40
22.5
 49
12.0
 74
     0
 49
-1.5
 74
     0
 49
3.0
 74
     0
 49
-1.5
 74
     0
 49
3.0
 74
     0
 49
-1.5
 74
     0
  0
LTYPE
  5
9F
330
5
100
AcDbSymbolTableRecord
100
AcDbLinetypeTableRecord
  2
Amconstr
 70
     0
  3
_______________________
 72
    65
 73
     2
 40
9999.0
 49
9999.0
 74
     0
 49
0.0
 74
     0
  0
LTYPE
  5
A0
330
5
100
AcDbSymbolTableRecord
100
AcDbLinetypeTableRecord
  2
AM_ISO08W050x2
 70
     0
  3
__ . __ . __ . __ . __ . __
 72
    65
 73
     4
 40
9.0
 49
6.0
 74
     0
 49
-0.75
 74
     0
 49
1.5
 74
     0
 49
-0.75
 74
     0
  0
LTYPE
  5
A1
330
5
100
AcDbSymbolTableRecord
100
AcDbLinetypeTableRecord
  2
AM_ISO02W050x2
 70
     0
  3
 _ _ _ _ _ _ _ _ _ _ _ _
 72
    65
 73
     2
 40
3.75
 49
3.0
 74
     0
 49
-0.75
 74
     0
  0
LTYPE
  5
A2
330
5
100
AcDbSymbolTableRecord
100
AcDbLinetypeTableRecord
  2
Amzigzag
 70
     0
  3
/\/-/\/-/\/-/\/-/\/-/\/
 72
    65
 73
     2
 40
11.0001
 49
0.0001
 74
     4
 75
   136
340
96
 46
0.04
 50
0.0
 44
0.0
 45
0.0
 49
-11.0
 74
     0
  0
LTYPE
  5
A3
330
5
100
AcDbSymbolTableRecord
100
AcDbLinetypeTableRecord
  2
ACJISWELD
 70
     0
  3
_ _ _ _ _
 72
    65
 73
     2
 40
2.0
 49
2.0
 74
     0
 49
-1.0
 74
     0
  0
LTYPE
  5
A4
330
5
100
AcDbSymbolTableRecord
100
AcDbLinetypeTableRecord
  2
ACJISTGL
 70
     0
  3
_ _ _ _ _
 72
    65
 73
     2
 40
3.0
 49
2.0
 74
     0
 49
-1.0
 74
     0
  0
LTYPE
  5
A5
330
5
100
AcDbSymbolTableRecord
100
AcDbLinetypeTableRecord
  2
ACJISTGB
 70
     0
  3
__ . . __ . .
 72
    65
 73
     6
 40
9.0
 49
4.0
 74
     0
 49
-1.0
 74
     0
 49
1.0
 74
     0
 49
-1.0
 74
     0
 49
1.0
 74
     0
 49
-1.0
 74
     0
  0
LTYPE
  5
A6
330
5
100
AcDbSymbolTableRecord
100
AcDbLinetypeTableRecord
  2
DASHDOT
 70
     0
  3
Dash dot __ . __ . __ . __ . __ . __ . __ . __
 72
    65
 73
     4
 40
25.4
 49
12.7
 74
     0
 49
-6.349999999999999
 74
     0
 49
0.0
 74
     0
 49
-6.349999999999999
 74
     0
  0
LTYPE
  5
A7
330
5
100
AcDbSymbolTableRecord
100
AcDbLinetypeTableRecord
  2
DASHED
 70
     0
  3
Dashed __ __ __ __ __ __ __ __ __ __ __ __ __ _
 72
    65
 73
     2
 40
19.05
 49
12.7
 74
     0
 49
-6.349999999999999
 74
     0
  0
LTYPE
  5
A8
330
5
100
AcDbSymbolTableRecord
100
AcDbLinetypeTableRecord
  2
PHANTOM
 70
     0
  3
Phantom ______  __  __  ______  __  __  ______
 72
    65
 73
     6
 40
63.5
 49
31.75
 74
     0
 49
-6.349999999999999
 74
     0
 49
6.349999999999999
 74
     0
 49
-6.349999999999999
 74
     0
 49
6.349999999999999
 74
     0
 49
-6.349999999999999
 74
     0
  0
LTYPE
  5
593
330
5
100
AcDbSymbolTableRecord
100
AcDbLinetypeTableRecord
  2
ACISOWELD
 70
     0
  3
_ _ _ _ _
 72
    65
 73
     2
 40
2.0
 49
2.0
 74
     0
 49
-1.0
 74
     0
  0
LTYPE
  5
594
330
5
100
AcDbSymbolTableRecord
100
AcDbLinetypeTableRecord
  2
ACISOTGL
 70
     0
  3
_ _ _ _ _
 72
    65
 73
     2
 40
3.0
 49
2.0
 74
     0
 49
-1.0
 74
     0
  0
LTYPE
  5
595
330
5
100
AcDbSymbolTableRecord
100
AcDbLinetypeTableRecord
  2
ACISOTGB
 70
     0
  3
__ . . __ . .
 72
    65
 73
     6
 40
9.0
 49
4.0
 74
     0
 49
-1.0
 74
     0
 49
1.0
 74
     0
 49
-1.0
 74
     0
 49
1.0
 74
     0
 49
-1.0
 74
     0
  0
ENDTAB
  0
TABLE
  2
LAYER
  5
2
330
0
100
AcDbSymbolTable
 70
    13
  0
LAYER
  5
54
330
2
100
AcDbSymbolTableRecord
100
AcDbLayerTableRecord
  2
0
 70
     0
 62
     7
  6
Continuous
370
    -3
390
F
1001
AcAecLayerStandard
1000

1000

  0
LAYER
  5
79
330
2
100
AcDbSymbolTableRecord
100
AcDbLayerTableRecord
  2
Defpoints
 70
     0
 62
     7
  6
Continuous
290
     0
370
    -3
390
F
1001
AcAecLayerStandard
1000

1000

  0
LAYER
  5
C3
102
{ACAD_XDICTIONARY
360
C4
102
}
330
2
100
AcDbSymbolTableRecord
100
AcDbLayerTableRecord
  2
AM_VIEWS
 70
     0
 62
    -1
  6
Continuous
290
     0
370
    13
390
F
1001
AcAecLayerStandard
1000

1000

  0
LAYER
  5
C7
102
{ACAD_XDICTIONARY
360
C8
102
}
330
2
100
AcDbSymbolTableRecord
100
AcDbLayerTableRecord
  2
OUTLINE
 70
     0
 62
     3
  6
Continuous
370
    -3
390
F
  0
LAYER
  5
CC
102
{ACAD_XDICTIONARY
360
CD
102
}
330
2
100
AcDbSymbolTableRecord
100
AcDbLayerTableRecord
  2
DETAIL
 70
     0
 62
     5
  6
Continuous
370
    -3
390
F
  0
LAYER
  5
1BB
102
{ACAD_XDICTIONARY
360
1BC
102
}
330
2
100
AcDbSymbolTableRecord
100
AcDbLayerTableRecord
  2
BASIS
 70
     0
 62
     6
  6
DASHDOT
370
    -3
390
F
  0
LAYER
  5
1BE
102
{ACAD_XDICTIONARY
360
1BF
102
}
330
2
100
AcDbSymbolTableRecord
100
AcDbLayerTableRecord
  2
NOTE
 70
     0
 62
     4
  6
Continuous
370
    -3
390
F
  0
LAYER
  5
1FD
102
{ACAD_XDICTIONARY
360
1FE
102
}
330
2
100
AcDbSymbolTableRecord
100
AcDbLayerTableRecord
  2
ARRANGE
 70
     0
 62
     1
  6
Continuous
370
    -3
390
F
  0
LAYER
  5
202
330
2
100
AcDbSymbolTableRecord
100
AcDbLayerTableRecord
  2
AM_7
 70
     0
 62
     4
  6
AM_ISO08W050
370
    13
390
F
1001
AcAecLayerStandard
1000

1000

  0
LAYER
  5
205
102
{ACAD_XDICTIONARY
360
206
102
}
330
2
100
AcDbSymbolTableRecord
100
AcDbLayerTableRecord
  2
FIX
 70
     0
 62
    11
  6
Continuous
370
    -3
390
F
  0
LAYER
  5
20F
102
{ACAD_XDICTIONARY
360
210
102
}
330
2
100
AcDbSymbolTableRecord
100
AcDbLayerTableRecord
  2
3_ALL_AXES
 70
     0
 62
     7
  6
Continuous
370
    -3
390
F
  0
LAYER
  5
232
102
{ACAD_XDICTIONARY
360
233
102
}
330
2
100
AcDbSymbolTableRecord
100
AcDbLayerTableRecord
  2
ETC
 70
     0
 62
    61
  6
Continuous
370
    -3
390
F
  0
LAYER
  5
235
102
{ACAD_XDICTIONARY
360
236
102
}
330
2
100
AcDbSymbolTableRecord
100
AcDbLayerTableRecord
  2
SIZE
 70
     0
 62
    30
  6
Continuous
370
    -3
390
F
  0
ENDTAB
  0
TABLE
  2
STYLE
  5
3
330
0
100
AcDbSymbolTable
 70
     9
  0
STYLE
  5
55
330
3
100
AcDbSymbolTableRecord
100
AcDbTextStyleTableRecord
  2
STANDARD
 70
     0
 40
0.0
 41
1.0
 50
0.0
 71
     0
 42
9.0
  3
exthalf2.shx
  4
extfont2.shx
  0
STYLE
  5
5A
330
3
100
AcDbSymbolTableRecord
100
AcDbTextStyleTableRecord
  2
Annotative
 70
     0
 40
0.0
 41
1.0
 50
0.0
 71
     0
 42
0.2
  3
txt
  4

1001
AcadAnnotative
1000
AnnotativeData
1002
{
1070
     1
1070
     1
1002
}
  0
STYLE
  5
96
330
3
100
AcDbSymbolTableRecord
100
AcDbTextStyleTableRecord
  2

 70
     1
 40
0.0
 41
1.0
 50
0.0
 71
     0
 42
2.5
  3
genltshp.shx
  4
extfont2.shx
  0
STYLE
  5
97
330
3
100
AcDbSymbolTableRecord
100
AcDbTextStyleTableRecord
  2
ACJISGDT
 70
     0
 40
0.0
 41
1.0
 50
0.0
 71
     0
 42
2.5
  3
amgdt.shx
  4
extfont2.shx
  0
STYLE
  5
98
330
3
100
AcDbSymbolTableRecord
100
AcDbTextStyleTableRecord
  2
STANDARD_MODELNAME
 70
     0
 40
80.0
 41
0.8
 50
0.0
 71
     0
 42
64.0
  3
MONOTXT.shx
  4
BIGFONT.shx
  0
STYLE
  5
99
330
3
100
AcDbSymbolTableRecord
100
AcDbTextStyleTableRecord
  2
KAIGAI_STANDARD_1
 70
     0
 40
53.0
 41
0.51
 50
0.0
 71
     0
 42
53.0
  3
MONOTXT.shx
  4
BIGFONT.shx
  0
STYLE
  5
9A
330
3
100
AcDbSymbolTableRecord
100
AcDbTextStyleTableRecord
  2
AUDIT_D_191004085756-470174
 70
     0
 40
0.0
 41
1.0
 50
0.0
 71
     0
 42
0.0
  3
exthalf2
  4
ExtFont2
  0
STYLE
  5
591
330
3
100
AcDbSymbolTableRecord
100
AcDbTextStyleTableRecord
  2
ACISOTS
 70
     0
 40
0.0
 41
1.0
 50
0.0
 71
     0
 42
0.2
  3
isocp.shx
  4

  0
STYLE
  5
592
330
3
100
AcDbSymbolTableRecord
100
AcDbTextStyleTableRecord
  2
ACISOGDT
 70
     0
 40
0.0
 41
1.0
 50
0.0
 71
     0
 42
0.2
  3
amgdt.shx
  4

  0
ENDTAB
  0
TABLE
  2
VIEW
  5
6
330
0
100
AcDbSymbolTable
 70
     0
  0
ENDTAB
  0
TABLE
  2
UCS
  5
7
330
0
100
AcDbSymbolTable
 70
     0
  0
ENDTAB
  0
TABLE
  2
APPID
  5
9
330
0
100
AcDbSymbolTable
 70
    31
  0
APPID
  5
56
330
9
100
AcDbSymbolTableRecord
100
AcDbRegAppTableRecord
  2
ACAD
 70
     0
  0
APPID
  5
5E
330
9
100
AcDbSymbolTableRecord
100
AcDbRegAppTableRecord
  2
AcadAnnotative
 70
     0
  0
APPID
  5
78
330
9
100
AcDbSymbolTableRecord
100
AcDbRegAppTableRecord
  2
ACAD_PSEXT
 70
     0
  0
APPID
  5
7A
330
9
100
AcDbSymbolTableRecord
100
AcDbRegAppTableRecord
  2
MCAD_NO_VIS
 70
     0
  0
APPID
  5
7B
330
9
100
AcDbSymbolTableRecord
100
AcDbRegAppTableRecord
  2
ACAD_TEMP_GRAPHIC
 70
     0
  0
APPID
  5
84
330
9
100
AcDbSymbolTableRecord
100
AcDbRegAppTableRecord
  2
ACAD_DSTYLE_DIMJAG
 70
     0
  0
APPID
  5
85
330
9
100
AcDbSymbolTableRecord
100
AcDbRegAppTableRecord
  2
ACAD_DSTYLE_DIMTALN
 70
     0
  0
APPID
  5
86
330
9
100
AcDbSymbolTableRecord
100
AcDbRegAppTableRecord
  2
ACAD_NAV_VCDISPLAY
 70
     0
  0
APPID
  5
87
330
9
100
AcDbSymbolTableRecord
100
AcDbRegAppTableRecord
  2
ACAD_DSTYLE_DIMBREAK
 70
     0
  0
APPID
  5
88
330
9
100
AcDbSymbolTableRecord
100
AcDbRegAppTableRecord
  2
AcAecLayerStandard
 70
     0
  0
APPID
  5
89
330
9
100
AcDbSymbolTableRecord
100
AcDbRegAppTableRecord
  2
GENIUS_GENODEF_13
 70
     0
  0
APPID
  5
8A
330
9
100
AcDbSymbolTableRecord
100
AcDbRegAppTableRecord
  2
GENIUS_GENSCREG_15
 70
     0
  0
APPID
  5
8B
330
9
100
AcDbSymbolTableRecord
100
AcDbRegAppTableRecord
  2
GENIUS_GENOBJ-N-SDF_13
 70
     0
  0
APPID
  5
8C
330
9
100
AcDbSymbolTableRecord
100
AcDbRegAppTableRecord
  2
ACAD_DSTYLE_DIMINSPECT
 70
     0
  0
APPID
  5
8D
330
9
100
AcDbSymbolTableRecord
100
AcDbRegAppTableRecord
  2
GENIUS_GENOBJ-N-CEN_13
 70
     0
  0
APPID
  5
8E
330
9
100
AcDbSymbolTableRecord
100
AcDbRegAppTableRecord
  2
GENIUS_GENCEN_19
 70
     0
  0
APPID
  5
8F
330
9
100
AcDbSymbolTableRecord
100
AcDbRegAppTableRecord
  2
ACAD_DIMASSOC_CALC_DIMLFAC
 70
     0
  0
APPID
  5
90
330
9
100
AcDbSymbolTableRecord
100
AcDbRegAppTableRecord
  2
ACAD_DIMASSOC_DIMLFAC
 70
     0
  0
APPID
  5
91
330
9
100
AcDbSymbolTableRecord
100
AcDbRegAppTableRecord
  2
ACAD_DIMASSOC_OVERRIDDEN_DIMLFAC
 70
     0
  0
APPID
  5
92
330
9
100
AcDbSymbolTableRecord
100
AcDbRegAppTableRecord
  2
GradientColor1ACI
 70
     0
  0
APPID
  5
93
330
9
100
AcDbSymbolTableRecord
100
AcDbRegAppTableRecord
  2
GradientColor2ACI
 70
     0
  0
APPID
  5
94
330
9
100
AcDbSymbolTableRecord
100
AcDbRegAppTableRecord
  2
ACAD_DSTYLE_DIMRADIAL_EXTENSION
 70
     0
  0
APPID
  5
95
330
9
100
AcDbSymbolTableRecord
100
AcDbRegAppTableRecord
  2
ACATTRIBSERVICES
 70
     0
  0
APPID
  5
52F
330
9
100
AcDbSymbolTableRecord
100
AcDbRegAppTableRecord
  2
DCO15
 70
     0
  0
APPID
  5
569
330
9
100
AcDbSymbolTableRecord
100
AcDbRegAppTableRecord
  2
DESIGNERASSEMBLIES
 70
     0
  0
APPID
  5
5E9
330
9
100
AcDbSymbolTableRecord
100
AcDbRegAppTableRecord
  2
ACAD_MLEADERVER
 70
     0
  0
APPID
  5
5F6
330
9
100
AcDbSymbolTableRecord
100
AcDbRegAppTableRecord
  2
ACAD_DSTYLE_DIMARC_LENGTH_SYMBOL
 70
     0
  0
APPID
  5
5F7
330
9
100
AcDbSymbolTableRecord
100
AcDbRegAppTableRecord
  2
ACAD_DSTYLE_DIM_LINETYPE
 70
     0
  0
APPID
  5
5F8
330
9
100
AcDbSymbolTableRecord
100
AcDbRegAppTableRecord
  2
ACAD_DSTYLE_DIM_EXT1_LINETYPE
 70
     0
  0
APPID
  5
5F9
330
9
100
AcDbSymbolTableRecord
100
AcDbRegAppTableRecord
  2
ACAD_DSTYLE_DIM_EXT2_LINETYPE
 70
     0
  0
APPID
  5
5FA
330
9
100
AcDbSymbolTableRecord
100
AcDbRegAppTableRecord
  2
ACAD_DSTYLE_DIMFLIPARROW_WHICH_SYMBOL
 70
     0
  0
ENDTAB
  0
TABLE
  2
DIMSTYLE
  5
A
330
0
100
AcDbSymbolTable
 70
    19
100
AcDbDimStyleTable
 71
     1
340
AC
  0
DIMSTYLE
105
58
330
A
100
AcDbSymbolTableRecord
100
AcDbDimStyleTableRecord
  2
Standard
 70
     0
340
55
  0
DIMSTYLE
105
59
330
A
100
AcDbSymbolTableRecord
100
AcDbDimStyleTableRecord
  2
Annotative
 70
     0
 40
0.0
 41
2.5
 42
0.625
 43
3.75
 44
1.25
 73
     0
 74
     0
 77
     1
 78
     8
140
2.5
141
2.5
143
0.03937007874016
147
0.625
171
     3
172
     1
271
     2
272
     2
274
     3
278
    44
283
     0
284
     8
340
55
1001
AcadAnnotative
1000
AnnotativeData
1002
{
1070
     1
1070
     1
1002
}
  0
DIMSTYLE
105
AA
330
A
100
AcDbSymbolTableRecord
100
AcDbDimStyleTableRecord
  2
ISO-25
 70
     0
 41
2.5
 42
0.625
 43
3.75
 44
1.25
 73
     0
 74
     0
 77
     1
 78
     8
140
2.5
141
2.5
143
0.03937007874016
147
0.625
171
     3
172
     1
271
     2
272
     2
274
     3
278
    44
283
     0
284
     8
340
55
  0
DIMSTYLE
105
AB
330
A
100
AcDbSymbolTableRecord
100
AcDbDimStyleTableRecord
  2
AM_JIS
 70
     0
  4
"
 41
6.0
 42
1.0
 43
10.0
 44
1.0
 47
0.1
 48
0.1
 73
     0
 74
     0
 77
     3
 78
     8
 79
     2
140
9.0
141
0.0
143
0.0393701
146
0.71
147
1.5
172
     1
176
   256
177
   256
178
     2
271
     2
272
     2
283
     0
284
     8
340
55
371
    -1
372
    -1
1001
ACAD_DSTYLE_DIMBREAK
1070
   391
1040
3.75
1001
ACAD_DSTYLE_DIMJAG
1070
   388
1040
1.5
1001
ACAD_DSTYLE_DIMTALN
1070
   392
1070
     0
1001
ACAD_DSTYLE_DIMARC_LENGTH_SYMBOL
1070
   379
1070
     1
1001
ACAD_DSTYLE_DIM_LINETYPE
1070
   380
1005
5B
1001
ACAD_DSTYLE_DIM_EXT1_LINETYPE
1070
   381
1005
5B
1001
ACAD_DSTYLE_DIM_EXT2_LINETYPE
1070
   382
1005
5B
  0
DIMSTYLE
105
AC
330
A
100
AcDbSymbolTableRecord
100
AcDbDimStyleTableRecord
  2
JIS2
 70
     0
  4
"
 41
1.8
 42
1.0
 43
10.0
 44
1.0
 47
0.1
 48
0.1
 73
     0
 74
     0
 77
     3
 78
     8
 79
     2
140
3.5
141
0.0
143
0.0393701
146
0.71
147
0.5
172
     1
176
   256
177
   256
178
     2
271
     2
272
     2
283
     0
284
     8
340
55
341
AD
342
AD
371
    -1
372
    -1
1001
ACAD_DSTYLE_DIMBREAK
1070
   391
1040
3.75
1001
ACAD_DSTYLE_DIMJAG
1070
   388
1040
1.5
1001
ACAD_DSTYLE_DIMTALN
1070
   392
1070
     0
1001
ACAD_DSTYLE_DIMARC_LENGTH_SYMBOL
1070
   379
1070
     1
1001
ACAD_DSTYLE_DIM_LINETYPE
1070
   380
1005
5B
1001
ACAD_DSTYLE_DIM_EXT1_LINETYPE
1070
   381
1005
5B
1001
ACAD_DSTYLE_DIM_EXT2_LINETYPE
1070
   382
1005
5B
  0
DIMSTYLE
105
B3
102
{ACAD_REACTORS
330
2CB
330
2D5
102
}
330
A
100
AcDbSymbolTableRecord
100
AcDbDimStyleTableRecord
  2
JIS2$3
 70
     0
  4
"
 41
1.8
 42
1.0
 43
10.0
 44
1.0
 47
0.1
 48
0.1
 73
     0
 74
     0
 77
     3
 78
     8
 79
     2
140
3.5
141
0.0
143
0.0393701
146
0.71
147
0.5
172
     1
176
   256
177
   256
178
     2
271
     2
272
     2
283
     0
284
     8
288
     1
289
     2
340
55
341
AD
342
AD
371
    -1
372
    -1
1001
ACAD_DSTYLE_DIMBREAK
1070
   391
1040
3.75
1001
ACAD_DSTYLE_DIMJAG
1070
   388
1040
1.5
1001
ACAD_DSTYLE_DIMTALN
1070
   392
1070
     0
1001
ACAD_DSTYLE_DIMARC_LENGTH_SYMBOL
1070
   379
1070
     1
1001
ACAD_DSTYLE_DIM_LINETYPE
1070
   380
1005
5B
1001
ACAD_DSTYLE_DIM_EXT1_LINETYPE
1070
   381
1005
5B
1001
ACAD_DSTYLE_DIM_EXT2_LINETYPE
1070
   382
1005
5B
  0
DIMSTYLE
105
B4
330
A
100
AcDbSymbolTableRecord
100
AcDbDimStyleTableRecord
  2
JIS2$4
 70
     0
  4
"
 41
1.8
 42
1.0
 43
10.0
 44
1.0
 47
0.1
 48
0.1
 73
     0
 74
     0
 77
     3
 78
     8
 79
     2
140
3.5
141
0.0
143
0.0393701
146
0.71
147
0.5
172
     1
176
   256
177
   256
178
     2
271
     2
272
     2
283
     0
284
     8
289
     2
340
55
341
AD
342
AD
371
    -1
372
    -1
1001
ACAD_DSTYLE_DIMBREAK
1070
   391
1040
3.75
1001
ACAD_DSTYLE_DIMJAG
1070
   388
1040
1.5
1001
ACAD_DSTYLE_DIMTALN
1070
   392
1070
     0
1001
ACAD_DSTYLE_DIMARC_LENGTH_SYMBOL
1070
   379
1070
     1
1001
ACAD_DSTYLE_DIM_LINETYPE
1070
   380
1005
5B
1001
ACAD_DSTYLE_DIM_EXT1_LINETYPE
1070
   381
1005
5B
1001
ACAD_DSTYLE_DIM_EXT2_LINETYPE
1070
   382
1005
5B
  0
DIMSTYLE
105
B5
330
A
100
AcDbSymbolTableRecord
100
AcDbDimStyleTableRecord
  2
JIS2$6
 70
     0
  4
"
 41
1.8
 42
1.0
 43
10.0
 44
1.0
 47
0.1
 48
0.1
 73
     0
 74
     0
 78
     8
 79
     2
140
3.5
141
0.0
143
0.0393701
146
0.71
147
0.5
172
     1
176
   256
177
   256
178
     2
271
     2
272
     2
283
     0
284
     8
340
55
341
AD
342
AD
371
    -1
372
    -1
1001
ACAD_DSTYLE_DIMBREAK
1070
   391
1040
3.75
1001
ACAD_DSTYLE_DIMJAG
1070
   388
1040
1.5
1001
ACAD_DSTYLE_DIMTALN
1070
   392
1070
     0
1001
ACAD_DSTYLE_DIMARC_LENGTH_SYMBOL
1070
   379
1070
     1
1001
ACAD_DSTYLE_DIM_LINETYPE
1070
   380
1005
5B
1001
ACAD_DSTYLE_DIM_EXT1_LINETYPE
1070
   381
1005
5B
1001
ACAD_DSTYLE_DIM_EXT2_LINETYPE
1070
   382
1005
5B
  0
DIMSTYLE
105
B6
330
A
100
AcDbSymbolTableRecord
100
AcDbDimStyleTableRecord
  2
JIS2$7
 70
     0
  4
"
 41
1.8
 42
1.0
 43
10.0
 44
1.0
 47
0.1
 48
0.1
 73
     0
 74
     0
 77
     3
 78
     8
 79
     2
140
3.5
141
0.0
143
0.0393701
146
0.71
147
0.5
172
     1
176
   256
177
   256
178
     2
271
     2
272
     2
283
     0
284
     8
340
55
341
AD
342
AD
371
    -1
372
    -1
1001
ACAD_DSTYLE_DIMBREAK
1070
   391
1040
3.75
1001
ACAD_DSTYLE_DIMJAG
1070
   388
1040
1.5
1001
ACAD_DSTYLE_DIMTALN
1070
   392
1070
     0
1001
ACAD_DSTYLE_DIMARC_LENGTH_SYMBOL
1070
   379
1070
     1
1001
ACAD_DSTYLE_DIM_LINETYPE
1070
   380
1005
5B
1001
ACAD_DSTYLE_DIM_EXT1_LINETYPE
1070
   381
1005
5B
1001
ACAD_DSTYLE_DIM_EXT2_LINETYPE
1070
   382
1005
5B
  0
DIMSTYLE
105
B7
330
A
100
AcDbSymbolTableRecord
100
AcDbDimStyleTableRecord
  2
JIS2$SF
 70
     0
  4
"
 41
1.8
 42
1.0
 43
10.0
 44
1.0
 47
0.1
 48
0.1
 73
     0
 74
     0
 75
     1
 76
     1
 77
     3
 78
     8
 79
     2
140
3.5
141
0.0
143
0.0393701
146
0.71
147
0.5
172
     1
176
   256
177
   256
178
     2
271
     2
272
     2
283
     0
284
     8
340
55
341
AD
342
AD
371
    -1
372
    -1
1001
ACAD_DSTYLE_DIMBREAK
1070
   391
1040
3.75
1001
ACAD_DSTYLE_DIMJAG
1070
   388
1040
1.5
1001
ACAD_DSTYLE_DIMTALN
1070
   392
1070
     0
1001
ACAD_DSTYLE_DIMARC_LENGTH_SYMBOL
1070
   379
1070
     1
1001
ACAD_DSTYLE_DIM_LINETYPE
1070
   380
1005
5B
1001
ACAD_DSTYLE_DIM_EXT1_LINETYPE
1070
   381
1005
5B
1001
ACAD_DSTYLE_DIM_EXT2_LINETYPE
1070
   382
1005
5B
  0
DIMSTYLE
105
B8
330
A
100
AcDbSymbolTableRecord
100
AcDbDimStyleTableRecord
  2
JIS2$SH
 70
     0
  4
"
 41
1.8
 42
1.0
 43
10.0
 44
1.0
 47
0.1
 48
0.1
 73
     0
 74
     0
 75
     1
 76
     1
 77
     3
 78
     8
 79
     2
140
3.5
141
0.0
143
0.0393701
144
2.0
146
0.71
147
0.5
172
     1
173
     1
176
   256
177
   256
178
     2
271
     2
272
     2
283
     0
284
     8
340
55
341
AD
342
AD
343
B9
371
    -1
372
    -1
1001
ACAD_DSTYLE_DIMBREAK
1070
   391
1040
3.75
1001
ACAD_DSTYLE_DIMJAG
1070
   388
1040
1.5
1001
ACAD_DSTYLE_DIMTALN
1070
   392
1070
     0
1001
ACAD_DSTYLE_DIMARC_LENGTH_SYMBOL
1070
   379
1070
     1
1001
ACAD_DSTYLE_DIM_LINETYPE
1070
   380
1005
5B
1001
ACAD_DSTYLE_DIM_EXT1_LINETYPE
1070
   381
1005
5B
1001
ACAD_DSTYLE_DIM_EXT2_LINETYPE
1070
   382
1005
5B
  0
DIMSTYLE
105
BD
102
{ACAD_REACTORS
330
234
330
249
330
257
330
263
330
271
330
27D
330
28B
330
2A2
330
2AF
330
2BC
102
}
330
A
100
AcDbSymbolTableRecord
100
AcDbDimStyleTableRecord
  2
JIS2$0
 70
     0
  4
"
 41
1.8
 42
1.0
 43
10.0
 44
1.0
 47
0.1
 48
0.1
 73
     0
 74
     0
 77
     3
 78
     8
 79
     2
140
3.5
141
0.0
143
0.0393701
146
0.71
147
1.5
172
     1
176
   256
177
   256
178
     2
271
     2
272
     2
283
     0
284
     8
340
55
341
AD
342
AD
371
    -1
372
    -1
1001
ACAD_DSTYLE_DIMBREAK
1070
   391
1040
3.75
1001
ACAD_DSTYLE_DIMJAG
1070
   388
1040
1.5
1001
ACAD_DSTYLE_DIMARC_LENGTH_SYMBOL
1070
   379
1070
     1
1001
ACAD_DSTYLE_DIM_LINETYPE
1070
   380
1005
5B
1001
ACAD_DSTYLE_DIM_EXT1_LINETYPE
1070
   381
1005
5B
1001
ACAD_DSTYLE_DIM_EXT2_LINETYPE
1070
   382
1005
5B
  0
DIMSTYLE
105
584
102
{ACAD_REACTORS
330
572
102
}
330
A
100
AcDbSymbolTableRecord
100
AcDbDimStyleTableRecord
  2
AM_ISO
 70
     0
  4
"
 41
3.5
 42
1.0
 43
10.0
 44
1.0
 47
0.1
 48
0.1
 73
     0
 74
     0
 77
     1
 78
     8
 79
     2
140
3.5
141
0.0
143
0.0393701
146
0.71
147
1.5
172
     1
176
   256
177
   256
178
     2
271
     2
272
     3
274
     4
283
     0
284
     8
340
55
371
    -1
372
    -1
1001
ACAD_DSTYLE_DIMJAG
1070
   388
1040
1.5
1001
ACAD_DSTYLE_DIMBREAK
1070
   391
1040
3.75
1001
ACAD_DSTYLE_DIMARC_LENGTH_SYMBOL
1070
   379
1070
     1
1001
ACAD_DSTYLE_DIM_LINETYPE
1070
   380
1005
5B
1001
ACAD_DSTYLE_DIM_EXT1_LINETYPE
1070
   381
1005
5B
1001
ACAD_DSTYLE_DIM_EXT2_LINETYPE
1070
   382
1005
5B
  0
DIMSTYLE
105
586
330
A
100
AcDbSymbolTableRecord
100
AcDbDimStyleTableRecord
  2
AM_ISO$3
 70
     0
  4
"
 41
3.5
 42
1.0
 43
10.0
 44
1.0
 47
0.1
 48
0.1
 73
     0
 77
     1
 78
     8
 79
     2
140
3.5
141
0.0
143
0.0393701
146
0.71
147
1.5
176
   256
177
   256
178
     2
271
     2
272
     3
274
     4
283
     0
284
     8
288
     1
289
     0
340
55
371
    -1
372
    -1
1001
ACAD_DSTYLE_DIMBREAK
1070
   391
1040
3.75
1001
ACAD_DSTYLE_DIMJAG
1070
   388
1040
1.5
1001
ACAD_DSTYLE_DIMARC_LENGTH_SYMBOL
1070
   379
1070
     1
1001
ACAD_DSTYLE_DIM_LINETYPE
1070
   380
1005
5B
1001
ACAD_DSTYLE_DIM_EXT1_LINETYPE
1070
   381
1005
5B
1001
ACAD_DSTYLE_DIM_EXT2_LINETYPE
1070
   382
1005
5B
  0
DIMSTYLE
105
587
330
A
100
AcDbSymbolTableRecord
100
AcDbDimStyleTableRecord
  2
AM_ISO$4
 70
     0
  4
"
 41
3.5
 42
1.0
 43
10.0
 44
1.0
 47
0.1
 48
0.1
 73
     0
 77
     1
 78
     8
 79
     2
140
3.5
141
0.0
143
0.0393701
146
0.71
147
1.5
176
   256
177
   256
178
     2
271
     2
272
     3
274
     4
283
     0
284
     8
288
     1
289
     0
340
55
371
    -1
372
    -1
1001
ACAD_DSTYLE_DIMBREAK
1070
   391
1040
3.75
1001
ACAD_DSTYLE_DIMJAG
1070
   388
1040
1.5
1001
ACAD_DSTYLE_DIMARC_LENGTH_SYMBOL
1070
   379
1070
     1
1001
ACAD_DSTYLE_DIM_LINETYPE
1070
   380
1005
5B
1001
ACAD_DSTYLE_DIM_EXT1_LINETYPE
1070
   381
1005
5B
1001
ACAD_DSTYLE_DIM_EXT2_LINETYPE
1070
   382
1005
5B
  0
DIMSTYLE
105
588
330
A
100
AcDbSymbolTableRecord
100
AcDbDimStyleTableRecord
  2
AM_ISO$6
 70
     0
  4
"
 41
3.5
 42
1.0
 43
10.0
 44
1.0
 47
0.1
 48
0.1
 73
     0
 74
     0
 78
     8
 79
     2
140
3.5
141
0.0
143
0.0393701
146
0.71
147
1.5
172
     1
176
   256
177
   256
178
     2
271
     2
272
     3
274
     4
283
     0
284
     8
340
55
371
    -1
372
    -1
1001
ACAD_DSTYLE_DIMBREAK
1070
   391
1040
3.75
1001
ACAD_DSTYLE_DIMJAG
1070
   388
1040
1.5
1001
ACAD_DSTYLE_DIMARC_LENGTH_SYMBOL
1070
   379
1070
     1
1001
ACAD_DSTYLE_DIM_LINETYPE
1070
   380
1005
5B
1001
ACAD_DSTYLE_DIM_EXT1_LINETYPE
1070
   381
1005
5B
1001
ACAD_DSTYLE_DIM_EXT2_LINETYPE
1070
   382
1005
5B
  0
DIMSTYLE
105
589
330
A
100
AcDbSymbolTableRecord
100
AcDbDimStyleTableRecord
  2
AM_ISO$7
 70
     0
  4
"
 41
3.5
 42
1.0
 43
10.0
 44
1.0
 47
0.1
 48
0.1
 73
     0
 74
     0
 77
     1
 78
     8
 79
     2
140
3.5
141
0.0
143
0.0393701
146
0.71
147
1.5
172
     1
176
   256
177
   256
178
     2
271
     2
272
     3
274
     4
283
     0
284
     8
340
55
371
    -1
372
    -1
1001
ACAD_DSTYLE_DIMBREAK
1070
   391
1040
3.75
1001
ACAD_DSTYLE_DIMJAG
1070
   388
1040
1.5
1001
ACAD_DSTYLE_DIMARC_LENGTH_SYMBOL
1070
   379
1070
     1
1001
ACAD_DSTYLE_DIM_LINETYPE
1070
   380
1005
5B
1001
ACAD_DSTYLE_DIM_EXT1_LINETYPE
1070
   381
1005
5B
1001
ACAD_DSTYLE_DIM_EXT2_LINETYPE
1070
   382
1005
5B
  0
DIMSTYLE
105
58A
330
A
100
AcDbSymbolTableRecord
100
AcDbDimStyleTableRecord
  2
AM_ISO$SF
 70
     0
  4
"
 41
3.5
 42
1.0
 43
10.0
 44
1.0
 47
0.1
 48
0.1
 73
     0
 74
     0
 75
     1
 76
     1
 77
     1
 78
     8
 79
     2
140
3.5
141
0.0
143
0.0393701
146
0.71
147
1.5
172
     1
176
   256
177
   256
178
     2
271
     2
272
     3
274
     4
283
     0
284
     8
340
55
371
    -1
372
    -1
1001
ACAD_DSTYLE_DIMBREAK
1070
   391
1040
3.75
1001
ACAD_DSTYLE_DIMJAG
1070
   388
1040
1.5
1001
ACAD_DSTYLE_DIMARC_LENGTH_SYMBOL
1070
   379
1070
     1
1001
ACAD_DSTYLE_DIM_LINETYPE
1070
   380
1005
5B
1001
ACAD_DSTYLE_DIM_EXT1_LINETYPE
1070
   381
1005
5B
1001
ACAD_DSTYLE_DIM_EXT2_LINETYPE
1070
   382
1005
5B
  0
DIMSTYLE
105
58B
330
A
100
AcDbSymbolTableRecord
100
AcDbDimStyleTableRecord
  2
AM_ISO$SH
 70
     0
  4
"
 41
3.5
 42
1.0
 43
10.0
 44
1.0
 47
0.1
 48
0.1
 73
     0
 74
     0
 75
     1
 76
     1
 77
     1
 78
     8
 79
     2
140
3.5
141
0.0
143
0.0393701
144
2.0
146
0.71
147
1.5
172
     1
173
     1
176
   256
177
   256
178
     2
271
     2
272
     3
274
     4
283
     0
284
     8
340
55
343
B9
371
    -1
372
    -1
1001
ACAD_DSTYLE_DIMBREAK
1070
   391
1040
3.75
1001
ACAD_DSTYLE_DIMJAG
1070
   388
1040
1.5
1001
ACAD_DSTYLE_DIMARC_LENGTH_SYMBOL
1070
   379
1070
     1
1001
ACAD_DSTYLE_DIM_LINETYPE
1070
   380
1005
5B
1001
ACAD_DSTYLE_DIM_EXT1_LINETYPE
1070
   381
1005
5B
1001
ACAD_DSTYLE_DIM_EXT2_LINETYPE
1070
   382
1005
5B
  0
ENDTAB
  0
TABLE
  2
BLOCK_RECORD
  5
1
330
0
100
AcDbSymbolTable
 70
    30
  0
BLOCK_RECORD
  5
70
102
{ACAD_XDICTIONARY
360
22F
102
}
330
1
100
AcDbSymbolTableRecord
100
AcDbBlockTableRecord
  2
*Model_Space
340
73
  0
BLOCK_RECORD
  5
6C
330
1
100
AcDbSymbolTableRecord
100
AcDbBlockTableRecord
  2
*Paper_Space
340
6F
  0
BLOCK_RECORD
  5
74
330
1
100
AcDbSymbolTableRecord
100
AcDbBlockTableRecord
  2
*Paper_Space0
340
77
  0
BLOCK_RECORD
  5
AD
330
1
100
AcDbSymbolTableRecord
100
AcDbBlockTableRecord
  2
_Open30
340
0
  0
BLOCK_RECORD
  5
B9
330
1
100
AcDbSymbolTableRecord
100
AcDbBlockTableRecord
  2
GENAXEH
340
0
  0
BLOCK_RECORD
  5
23D
330
1
100
AcDbSymbolTableRecord
100
AcDbBlockTableRecord
  2
_DotBlank
340
0
102
{BLKREFS
331
5FE
331
514
331
515
331
51C
331
51D
331
523
331
524
331
529
331
52A
331
4D4
331
4D5
331
4DC
331
4DD
331
4E6
331
4E7
331
4EE
331
4EF
331
50C
331
50D
331
601
331
608
331
60B
331
612
331
615
102
}
  0
BLOCK_RECORD
  5
2E1
330
1
100
AcDbSymbolTableRecord
100
AcDbBlockTableRecord
  2
CustomObjectsInViewport1_0
340
0
102
{BLKREFS
331
2DF
102
}
  0
BLOCK_RECORD
  5
301
330
1
100
AcDbSymbolTableRecord
100
AcDbBlockTableRecord
  2
*D17
340
0
  0
BLOCK_RECORD
  5
30E
330
1
100
AcDbSymbolTableRecord
100
AcDbBlockTableRecord
  2
*D18
340
0
  0
BLOCK_RECORD
  5
31B
330
1
100
AcDbSymbolTableRecord
100
AcDbBlockTableRecord
  2
*D19
340
0
  0
BLOCK_RECORD
  5
326
330
1
100
AcDbSymbolTableRecord
100
AcDbBlockTableRecord
  2
*D20
340
0
  0
BLOCK_RECORD
  5
333
330
1
100
AcDbSymbolTableRecord
100
AcDbBlockTableRecord
  2
*D21
340
0
  0
BLOCK_RECORD
  5
33E
330
1
100
AcDbSymbolTableRecord
100
AcDbBlockTableRecord
  2
*D22
340
0
  0
BLOCK_RECORD
  5
34B
330
1
100
AcDbSymbolTableRecord
100
AcDbBlockTableRecord
  2
*D23
340
0
  0
BLOCK_RECORD
  5
35A
330
1
100
AcDbSymbolTableRecord
100
AcDbBlockTableRecord
  2
*D24
340
0
  0
BLOCK_RECORD
  5
365
330
1
100
AcDbSymbolTableRecord
100
AcDbBlockTableRecord
  2
*D25
340
0
  0
BLOCK_RECORD
  5
370
330
1
100
AcDbSymbolTableRecord
100
AcDbBlockTableRecord
  2
*D26
340
0
  0
BLOCK_RECORD
  5
37B
330
1
100
AcDbSymbolTableRecord
100
AcDbBlockTableRecord
  2
*D27
340
0
  0
BLOCK_RECORD
  5
384
330
1
100
AcDbSymbolTableRecord
100
AcDbBlockTableRecord
  2
*D28
340
0
  0
ENDTAB
  0
ENDSEC
  0
SECTION
  2
BLOCKS
  0
BLOCK
  5
71
330
70
100
AcDbEntity
  8
0
100
AcDbBlockBegin
  2
*Model_Space
 70
     0
 10
0.0
 20
0.0
 30
0.0
  3
*Model_Space
  1

  0
ENDBLK
  5
72
330
70
100
AcDbEntity
  8
0
100
AcDbBlockEnd
  0
BLOCK
  5
6D
330
6C
100
AcDbEntity
 67
     1
  8
0
100
AcDbBlockBegin
  2
*Paper_Space
 70
     0
 10
0.0
 20
0.0
 30
0.0
  3
*Paper_Space
  1

  0
ENDBLK
  5
6E
330
6C
100
AcDbEntity
 67
     1
  8
0
100
AcDbBlockEnd
  0
BLOCK
  5
75
330
74
100
AcDbEntity
 67
     1
  8
0
100
AcDbBlockBegin
  2
*Paper_Space0
 70
     0
 10
0.0
 20
0.0
 30
0.0
  3
*Paper_Space0
  1

  0
ENDBLK
  5
76
330
74
100
AcDbEntity
 67
     1
  8
0
100
AcDbBlockEnd
  0
BLOCK
  5
AE
330
AD
100
AcDbEntity
  8
0
100
AcDbBlockBegin
  2
_Open30
 70
     0
 10
0.0
 20
0.0
 30
0.0
  3
_Open30
  1

  0
LINE
  5
AF
330
AD
100
AcDbEntity
  8
0
  6
ByBlock
 62
     0
370
    -2
100
AcDbLine
 10
-1.0
 20
0.26794919
 30
0.0
 11
0.0
 21
0.0
 31
0.0
  0
LINE
  5
B0
330
AD
100
AcDbEntity
  8
0
  6
ByBlock
 62
     0
370
    -2
100
AcDbLine
 10
0.0
 20
0.0
 30
0.0
 11
-1.0
 21
-0.26794919
 31
0.0
  0
LINE
  5
B1
330
AD
100
AcDbEntity
  8
0
  6
ByBlock
 62
     0
370
    -2
100
AcDbLine
 10
0.0
 20
0.0
 30
0.0
 11
-1.0
 21
0.0
 31
0.0
  0
ENDBLK
  5
B2
330
AD
100
AcDbEntity
  8
0
100
AcDbBlockEnd
  0
BLOCK
  5
BA
330
B9
100
AcDbEntity
  8
0
100
AcDbBlockBegin
  2
GENAXEH
 70
     0
 10
0.0
 20
0.0
 30
0.0
  3
GENAXEH
  1

  0
LINE
  5
BB
330
B9
100
AcDbEntity
  8
0
100
AcDbLine
 10
-1.0
 20
0.0
 30
0.0
 11
1.0
 21
0.0
 31
0.0
  0
ENDBLK
  5
BC
330
B9
100
AcDbEntity
  8
0
100
AcDbBlockEnd
  0
BLOCK
  5
23E
330
23D
100
AcDbEntity
  8
0
100
AcDbBlockBegin
  2
_DotBlank
 70
     0
 10
0.0
 20
0.0
 30
0.0
  3
_DotBlank
  1

  0
CIRCLE
  5
23F
330
23D
100
AcDbEntity
  8
0
  6
ByBlock
 62
     0
370
    -2
100
AcDbCircle
 10
0.0
 20
0.0
 30
0.0
 40
0.5
  0
LINE
  5
240
330
23D
100
AcDbEntity
  8
0
  6
ByBlock
 62
     0
370
    -2
100
AcDbLine
 10
-0.5
 20
0.0
 30
0.0
 11
-1.0
 21
0.0
 31
0.0
  0
ENDBLK
  5
241
330
23D
100
AcDbEntity
  8
0
100
AcDbBlockEnd
  0
BLOCK
  5
2E2
330
2E1
100
AcDbEntity
  8
0
100
AcDbBlockBegin
  2
CustomObjectsInViewport1_0
 70
     0
 10
0.0
 20
0.0
 30
0.0
  3
CustomObjectsInViewport1_0
  1

  0
LINE
  5
2E3
330
2E1
100
AcDbEntity
  8
NOTE
100
AcDbLine
 10
-325.2999315681105
 20
-431.9719349357471
 30
0.0
 11
216.3600684318894
 21
-431.9719349357469
 31
0.0
  0
LINE
  5
2E4
330
2E1
100
AcDbEntity
  8
NOTE
100
AcDbLine
 10
216.3600684318894
 20
-431.9719349357469
 30
0.0
 11
419.7717748796294
 21
-271.2621486549755
 31
0.0
  0
LWPOLYLINE
  5
2E5
330
2E1
100
AcDbEntity
  8
NOTE
  6
Continuous
100
AcDbPolyline
 90
        2
 70
   129
 43
6.428571428571434
 10
444.8050543148693
 20
-248.944553284432
 42
1.0
 10
451.2336257434407
 20
-248.944553284432
 42
1.0
  0
LINE
  5
2E6
330
2E1
100
AcDbEntity
  8
NOTE
  6
Continuous
100
AcDbLine
 10
442.9751319667397
 20
-252.9298381720291
 30
0.0
 11
419.7717748796294
 21
-271.2621486549755
 31
0.0
  0
TEXT
  5
2E7
330
2E1
100
AcDbEntity
  8
NOTE
 62
     2
100
AcDbText
 10
-325.2999315681105
 20
-396.9719349357471
 30
0.0
 40
70.0
  1
O.D φ32(VP25)
 41
0.9
100
AcDbText
  0
LINE
  5
2E8
330
2E1
100
AcDbEntity
  8
NOTE
100
AcDbLine
 10
1508.922101115742
 20
423.7101328166431
 30
0.0
 11
763.1421011157413
 21
423.7101328166431
 31
0.0
  0
LINE
  5
2E9
330
2E1
100
AcDbEntity
  8
NOTE
100
AcDbLine
 10
763.1421011157413
 20
423.7101328166431
 30
0.0
 11
680.6595912199607
 21
222.2646563804862
 31
0.0
  0
LINE
  5
2EA
330
2E1
100
AcDbEntity
  8
NOTE
  6
Continuous
100
AcDbLine
 10
680.6595912199607
 20
222.2646563804862
 30
0.0
 11
667.0184677991433
 21
188.9491982293812
 31
0.0
  0
LINE
  5
2EB
330
2E1
100
AcDbEntity
  8
NOTE
  6
Continuous
100
AcDbLine
 10
671.7327411938932
 20
225.9197843517842
 30
0.0
 11
667.0184677991433
 21
188.9491982293812
 31
0.0
  0
LINE
  5
2EC
330
2E1
100
AcDbEntity
  8
NOTE
  6
Continuous
100
AcDbLine
 10
667.0184677991433
 20
188.9491982293812
 30
0.0
 11
689.5864412460281
 21
218.6095284091881
 31
0.0
  0
TEXT
  5
2ED
330
2E1
100
AcDbEntity
  8
NOTE
 62
     2
100
AcDbText
 10
833.1421011157413
 20
458.7101328166432
 30
0.0
 40
70.0
  1
Power supply opening
 41
0.9
100
AcDbText
  0
LINE
  5
2EE
330
2E1
100
AcDbEntity
  8
NOTE
100
AcDbLine
 10
2367.217651406747
 20
567.2989808822626
 30
0.0
 11
674.1743180734138
 21
567.2989808822626
 31
0.0
  0
LINE
  5
2EF
330
2E1
100
AcDbEntity
  8
NOTE
100
AcDbLine
 10
674.1743180734138
 20
567.2989808822626
 30
0.0
 11
623.584943374785
 21
250.432226392082
 31
0.0
  0
LINE
  5
2F0
330
2E1
100
AcDbEntity
  8
NOTE
  6
Continuous
100
AcDbLine
 10
623.584943374785
 20
250.432226392082
 30
0.0
 11
617.909242766998
 21
214.8824525164191
 31
0.0
  0
LINE
  5
2F1
330
2E1
100
AcDbEntity
  8
NOTE
  6
Continuous
100
AcDbLine
 10
614.059410260118
 20
251.9530257726211
 30
0.0
 11
617.909242766998
 21
214.8824525164191
 31
0.0
  0
LINE
  5
2F2
330
2E1
100
AcDbEntity
  8
NOTE
  6
Continuous
100
AcDbLine
 10
617.909242766998
 20
214.8824525164191
 30
0.0
 11
633.1104764894521
 21
248.911427011543
 31
0.0
  0
TEXT
  5
2F3
330
2E1
100
AcDbEntity
  8
NOTE
 62
     2
100
AcDbText
 10
744.1743180734138
 20
602.2989808822626
 30
0.0
 40
70.0
  1
Ceiling suspension fixture(4-13 × 20 oval)
 41
0.95
100
AcDbText
  0
LINE
  5
2F4
330
2E1
100
AcDbEntity
  8
NOTE
100
AcDbLine
 10
-1844.463659000914
 20
-119.7474004521737
 30
0.0
 11
-784.1969923342476
 21
-119.7474004521737
 31
0.0
  0
LINE
  5
2F5
330
2E1
100
AcDbEntity
  8
NOTE
100
AcDbLine
 10
-784.1969923342476
 20
-119.7474004521737
 30
0.0
 11
-702.9401035030615
 21
-77.55313655728521
 31
0.0
  0
LINE
  5
2F6
330
2E1
100
AcDbEntity
  8
NOTE
  6
Continuous
100
AcDbLine
 10
-702.9401035030615
 20
-77.55313655728521
 30
0.0
 11
-670.9907572340039
 21
-60.96279982231044
 31
0.0
  0
LINE
  5
2F7
330
2E1
100
AcDbEntity
  8
NOTE
  6
Continuous
100
AcDbLine
 10
-698.4947362130977
 20
-86.11393801110873
 30
0.0
 11
-670.9907572340039
 21
-60.96279982231044
 31
0.0
  0
LINE
  5
2F8
330
2E1
100
AcDbEntity
  8
NOTE
  6
Continuous
100
AcDbLine
 10
-670.9907572340039
 20
-60.96279982231044
 30
0.0
 11
-707.3854707930252
 21
-68.9923351034617
 31
0.0
  0
TEXT
  5
2F9
330
2E1
100
AcDbEntity
  8
NOTE
 62
     2
100
AcDbText
 10
-1844.463659000914
 20
-84.74740045217366
 30
0.0
 40
70.0
  1
Alternative duct position
100
AcDbText
  0
LINE
  5
2FA
330
2E1
100
AcDbEntity
  8
NOTE
100
AcDbLine
 10
1393.568831489298
 20
-353.1213662238362
 30
0.0
 11
870.9021648226308
 21
-353.1213662238362
 31
0.0
  0
LINE
  5
2FB
330
2E1
100
AcDbEntity
  8
NOTE
100
AcDbLine
 10
870.9021648226308
 20
-353.1213662238362
 30
0.0
 11
720.0339952871622
 21
-69.89100735337387
 31
0.0
  0
LINE
  5
2FC
330
2E1
100
AcDbEntity
  8
NOTE
  6
Continuous
100
AcDbLine
 10
720.0339952871622
 20
-69.89100735337389
 30
0.0
 11
703.1092427659946
 21
-38.11754748358271
 31
0.0
  0
LINE
  5
2FD
330
2E1
100
AcDbEntity
  8
NOTE
  6
Continuous
100
AcDbLine
 10
728.5476681227702
 20
-65.35603362437658
 30
0.0
 11
703.1092427659946
 21
-38.11754748358271
 31
0.0
  0
LINE
  5
2FE
330
2E1
100
AcDbEntity
  8
NOTE
  6
Continuous
100
AcDbLine
 10
703.1092427659946
 20
-38.11754748358271
 30
0.0
 11
711.5203224515542
 21
-74.4259810823712
 31
0.0
  0
TEXT
  5
2FF
330
2E1
100
AcDbEntity
  8
NOTE
 62
     2
100
AcDbText
 10
940.9021648226312
 20
-318.1213662238361
 30
0.0
 40
70.0
  1
Control box
100
AcDbText
  0
ENDBLK
  5
300
330
2E1
100
AcDbEntity
  8
0
100
AcDbBlockEnd
  0
BLOCK
  5
302
330
301
100
AcDbEntity
  8
0
100
AcDbBlockBegin
  2
*D17
 70
     1
 10
0.0
 20
0.0
 30
0.0
  3
*D17
  1

  0
LINE
  5
5FB
330
301
100
AcDbEntity
  8
SIZE
  6
ByBlock
100
AcDbLine
 10
589.3092427021724
 20
-196.2175475701651
 30
0.0
 11
589.3092427021724
 21
-423.5053851283291
 31
0.0
  0
LINE
  5
5FC
330
301
100
AcDbEntity
  8
SIZE
  6
ByBlock
100
AcDbLine
 10
704.3092427659953
 20
-39.11754748358271
 30
0.0
 11
704.3092427659953
 21
-423.5053851283291
 31
0.0
  0
LINE
  5
5FD
330
301
100
AcDbEntity
  8
SIZE
  6
ByBlock
100
AcDbLine
 10
619.3092427021724
 20
-422.5053851283291
 30
0.0
 11
674.3092427659953
 21
-422.5053851283291
 31
0.0
  0
INSERT
  5
5FE
330
301
100
AcDbEntity
  8
SIZE
100
AcDbBlockReference
  2
_DotBlank
 10
589.3092427021724
 20
-422.5053851283291
 30
0.0
 41
30.0
 42
30.0
 43
30.0
  0
LINE
  5
5FF
330
301
100
AcDbEntity
  8
SIZE
100
AcDbLine
 10
559.3092427021725
 20
-422.5053851283291
 30
0.0
 11
529.3092427021725
 21
-422.5053851283291
 31
0.0
  0
LINE
  5
600
330
301
100
AcDbEntity
  8
SIZE
  6
ByBlock
100
AcDbLine
 10
589.3092427021724
 20
-422.5053851283291
 30
0.0
 11
619.3092427021724
 21
-422.5053851283291
 31
0.0
  0
INSERT
  5
601
330
301
100
AcDbEntity
  8
SIZE
100
AcDbBlockReference
  2
_DotBlank
 10
704.3092427659953
 20
-422.5053851283291
 30
0.0
 41
30.0
 42
30.0
 43
30.0
  0
POINT
  5
602
330
301
100
AcDbEntity
  8
Defpoints
 62
     0
100
AcDbPoint
 10
589.3092427021724
 20
-195.2175475701651
 30
0.0
  0
POINT
  5
603
330
301
100
AcDbEntity
  8
Defpoints
 62
     0
100
AcDbPoint
 10
704.3092427659953
 20
-38.11754748358271
 30
0.0
  0
POINT
  5
604
330
301
100
AcDbEntity
  8
Defpoints
 62
     0
100
AcDbPoint
 10
704.3092427659953
 20
-422.5053851283291
 30
0.0
  0
ENDBLK
  5
303
330
301
100
AcDbEntity
  8
0
100
AcDbBlockEnd
  0
BLOCK
  5
30F
330
30E
100
AcDbEntity
  8
0
100
AcDbBlockBegin
  2
*D18
 70
     1
 10
0.0
 20
0.0
 30
0.0
  3
*D18
  1

  0
LINE
  5
4CF
330
30E
100
AcDbEntity
  8
SIZE
  6
ByBlock
100
AcDbLine
 10
704.1092427653309
 20
222.2824526603591
 30
0.0
 11
933.3453264065536
 21
222.2824526603592
 31
0.0
  0
LINE
  5
4D0
330
30E
100
AcDbEntity
  8
SIZE
  6
ByBlock
100
AcDbLine
 10
588.5092427011803
 20
266.8824526852633
 30
0.0
 11
933.3453264065534
 21
266.8824526852634
 31
0.0
  0
LINE
  5
4D1
330
30E
100
AcDbEntity
  8
SIZE
  6
ByBlock
100
AcDbLine
 10
932.3453264065536
 20
192.2824526603592
 30
0.0
 11
932.3453264065536
 21
162.2824526603591
 31
0.0
  0
LINE
  5
4D2
330
30E
100
AcDbEntity
  8
SIZE
  6
ByBlock
100
AcDbLine
 10
932.3453264065534
 20
296.8824526852634
 30
0.0
 11
932.3453264065534
 21
326.8824526852634
 31
0.0
  0
LINE
  5
4D3
330
30E
100
AcDbEntity
  8
SIZE
  6
ByBlock
100
AcDbLine
 10
932.3453264065536
 20
222.2824526603592
 30
0.0
 11
932.3453264065534
 21
266.8824526852634
 31
0.0
  0
INSERT
  5
4D4
330
30E
100
AcDbEntity
  8
SIZE
100
AcDbBlockReference
  2
_DotBlank
 10
932.3453264065536
 20
222.2824526603592
 30
0.0
 41
30.0
 42
30.0
 43
30.0
 50
90.0
  0
INSERT
  5
4D5
330
30E
100
AcDbEntity
  8
SIZE
100
AcDbBlockReference
  2
_DotBlank
 10
932.3453264065534
 20
266.8824526852634
 30
0.0
 41
30.0
 42
30.0
 43
30.0
 50
270.0
  0
POINT
  5
4D6
330
30E
100
AcDbEntity
  8
Defpoints
 62
     0
100
AcDbPoint
 10
703.1092427653309
 20
222.2824526603591
 30
0.0
  0
POINT
  5
4D7
330
30E
100
AcDbEntity
  8
Defpoints
 62
     0
100
AcDbPoint
 10
587.5092427011802
 20
266.8824526852633
 30
0.0
  0
POINT
  5
4D8
330
30E
100
AcDbEntity
  8
Defpoints
 62
     0
100
AcDbPoint
 10
932.3453264065534
 20
266.8824526852634
 30
0.0
  0
ENDBLK
  5
310
330
30E
100
AcDbEntity
  8
0
100
AcDbBlockEnd
  0
BLOCK
  5
31C
330
31B
100
AcDbEntity
  8
0
100
AcDbBlockBegin
  2
*D19
 70
     1
 10
0.0
 20
0.0
 30
0.0
  3
*D19
  1

  0
LINE
  5
4D9
330
31B
100
AcDbEntity
  8
SIZE
  6
ByBlock
100
AcDbLine
 10
588.3092427010685
 20
-198.2175475718387
 30
0.0
 11
1028.685367723244
 21
-198.2175475718387
 31
0.0
  0
LINE
  5
4DA
330
31B
100
AcDbEntity
  8
SIZE
  6
ByBlock
100
AcDbLine
 10
588.5092427011803
 20
266.8824526852633
 30
0.0
 11
1028.685367723244
 21
266.8824526852634
 31
0.0
  0
LINE
  5
4DB
330
31B
100
AcDbEntity
  8
SIZE
  6
ByBlock
100
AcDbLine
 10
1027.685367723244
 20
-168.2175475718386
 30
0.0
 11
1027.685367723244
 21
236.8824526852634
 31
0.0
  0
INSERT
  5
4DC
330
31B
100
AcDbEntity
  8
SIZE
100
AcDbBlockReference
  2
_DotBlank
 10
1027.685367723244
 20
-198.2175475718387
 30
0.0
 41
30.0
 42
30.0
 43
30.0
 50
270.0
  0
INSERT
  5
4DD
330
31B
100
AcDbEntity
  8
SIZE
100
AcDbBlockReference
  2
_DotBlank
 10
1027.685367723244
 20
266.8824526852634
 30
0.0
 41
30.0
 42
30.0
 43
30.0
 50
90.0
  0
POINT
  5
4DE
330
31B
100
AcDbEntity
  8
Defpoints
 62
     0
100
AcDbPoint
 10
587.3092427010686
 20
-198.2175475718387
 30
0.0
  0
POINT
  5
4DF
330
31B
100
AcDbEntity
  8
Defpoints
 62
     0
100
AcDbPoint
 10
587.5092427011802
 20
266.8824526852633
 30
0.0
  0
POINT
  5
4E0
330
31B
100
AcDbEntity
  8
Defpoints
 62
     0
100
AcDbPoint
 10
1027.685367723244
 20
266.8824526852634
 30
0.0
  0
ENDBLK
  5
31D
330
31B
100
AcDbEntity
  8
0
100
AcDbBlockEnd
  0
BLOCK
  5
327
330
326
100
AcDbEntity
  8
0
100
AcDbBlockBegin
  2
*D20
 70
     1
 10
0.0
 20
0.0
 30
0.0
  3
*D20
  1

  0
LINE
  5
4E1
330
326
100
AcDbEntity
  8
SIZE
  6
ByBlock
100
AcDbLine
 10
-632.8907572105661
 20
270.0824525469226
 30
0.0
 11
-749.0846728561148
 21
270.0824525469225
 31
0.0
  0
LINE
  5
4E2
330
326
100
AcDbEntity
  8
SIZE
  6
ByBlock
100
AcDbLine
 10
-675.2907572340034
 20
214.8824525164174
 30
0.0
 11
-749.0846728561146
 21
214.8824525164174
 31
0.0
  0
LINE
  5
4E3
330
326
100
AcDbEntity
  8
SIZE
  6
ByBlock
100
AcDbLine
 10
-748.0846728561147
 20
300.0824525469225
 30
0.0
 11
-748.0846728561147
 21
330.0824525469225
 31
0.0
  0
LINE
  5
4E4
330
326
100
AcDbEntity
  8
SIZE
  6
ByBlock
100
AcDbLine
 10
-748.0846728561147
 20
184.8824525164173
 30
0.0
 11
-748.0846728561147
 21
154.8824525164173
 31
0.0
  0
LINE
  5
4E5
330
326
100
AcDbEntity
  8
SIZE
  6
ByBlock
100
AcDbLine
 10
-748.0846728561147
 20
270.0824525469225
 30
0.0
 11
-748.0846728561147
 21
214.8824525164174
 31
0.0
  0
INSERT
  5
4E6
330
326
100
AcDbEntity
  8
SIZE
100
AcDbBlockReference
  2
_DotBlank
 10
-748.0846728561147
 20
270.0824525469225
 30
0.0
 41
30.0
 42
30.0
 43
30.0
 50
270.0
  0
INSERT
  5
4E7
330
326
100
AcDbEntity
  8
SIZE
100
AcDbBlockReference
  2
_DotBlank
 10
-748.0846728561147
 20
214.8824525164174
 30
0.0
 41
30.0
 42
30.0
 43
30.0
 50
90.0
  0
POINT
  5
4E8
330
326
100
AcDbEntity
  8
Defpoints
 62
     0
100
AcDbPoint
 10
-631.890757210566
 20
270.0824525469226
 30
0.0
  0
POINT
  5
4E9
330
326
100
AcDbEntity
  8
Defpoints
 62
     0
100
AcDbPoint
 10
-674.2907572340034
 20
214.8824525164174
 30
0.0
  0
POINT
  5
4EA
330
326
100
AcDbEntity
  8
Defpoints
 62
     0
100
AcDbPoint
 10
-748.0846728561147
 20
214.8824525164174
 30
0.0
  0
ENDBLK
  5
328
330
326
100
AcDbEntity
  8
0
100
AcDbBlockEnd
  0
BLOCK
  5
334
330
333
100
AcDbEntity
  8
0
100
AcDbBlockBegin
  2
*D21
 70
     1
 10
0.0
 20
0.0
 30
0.0
  3
*D21
  1

  0
LINE
  5
4EB
330
333
100
AcDbEntity
  8
SIZE
  6
ByBlock
100
AcDbLine
 10
270.4691159153732
 20
-198.2175475718387
 30
0.0
 11
258.1804275152296
 21
-198.2175475718387
 31
0.0
  0
LINE
  5
4EC
330
333
100
AcDbEntity
  8
SIZE
  6
ByBlock
100
AcDbLine
 10
434.950404045401
 20
-262.2846862351427
 30
0.0
 11
258.1804275152296
 21
-262.2846862351427
 31
0.0
  0
LINE
  5
4ED
330
333
100
AcDbEntity
  8
SIZE
  6
ByBlock
100
AcDbLine
 10
259.1804275152295
 20
-228.2175475718387
 30
0.0
 11
259.1804275152295
 21
-232.2846862351427
 31
0.0
  0
INSERT
  5
4EE
330
333
100
AcDbEntity
  8
SIZE
100
AcDbBlockReference
  2
_DotBlank
 10
259.1804275152295
 20
-198.2175475718387
 30
0.0
 41
30.0
 42
30.0
 43
30.0
 50
90.0
  0
INSERT
  5
4EF
330
333
100
AcDbEntity
  8
SIZE
100
AcDbBlockReference
  2
_DotBlank
 10
259.1804275152295
 20
-262.2846862351427
 30
0.0
 41
30.0
 42
30.0
 43
30.0
 50
270.0
  0
POINT
  5
4F0
330
333
100
AcDbEntity
  8
Defpoints
 62
     0
100
AcDbPoint
 10
271.4691159153732
 20
-198.2175475718387
 30
0.0
  0
POINT
  5
4F1
330
333
100
AcDbEntity
  8
Defpoints
 62
     0
100
AcDbPoint
 10
435.950404045401
 20
-262.2846862351427
 30
0.0
  0
POINT
  5
4F2
330
333
100
AcDbEntity
  8
Defpoints
 62
     0
100
AcDbPoint
 10
259.1804275152295
 20
-262.2846862351427
 30
0.0
  0
ENDBLK
  5
335
330
333
100
AcDbEntity
  8
0
100
AcDbBlockEnd
  0
BLOCK
  5
33F
330
33E
100
AcDbEntity
  8
0
100
AcDbBlockBegin
  2
*D22
 70
     1
 10
0.0
 20
0.0
 30
0.0
  3
*D22
  1

  0
LINE
  5
605
330
33E
100
AcDbEntity
  8
SIZE
  6
ByBlock
100
AcDbLine
 10
435.9504040454007
 20
-300.1302239643983
 30
0.0
 11
435.9504040454007
 21
-423.5053851283291
 31
0.0
  0
LINE
  5
606
330
33E
100
AcDbEntity
  8
SIZE
  6
ByBlock
100
AcDbLine
 10
589.3092427021724
 20
-196.2175475701651
 30
0.0
 11
589.3092427021724
 21
-423.5053851283291
 31
0.0
  0
LINE
  5
607
330
33E
100
AcDbEntity
  8
SIZE
  6
ByBlock
100
AcDbLine
 10
465.9504040454008
 20
-422.5053851283291
 30
0.0
 11
559.3092427021725
 21
-422.5053851283291
 31
0.0
  0
INSERT
  5
608
330
33E
100
AcDbEntity
  8
SIZE
100
AcDbBlockReference
  2
_DotBlank
 10
435.9504040454007
 20
-422.5053851283291
 30
0.0
 41
30.0
 42
30.0
 43
30.0
  0
LINE
  5
609
330
33E
100
AcDbEntity
  8
SIZE
100
AcDbLine
 10
405.9504040454007
 20
-422.5053851283291
 30
0.0
 11
375.9504040454008
 21
-422.5053851283291
 31
0.0
  0
LINE
  5
60A
330
33E
100
AcDbEntity
  8
SIZE
  6
ByBlock
100
AcDbLine
 10
435.9504040454007
 20
-422.5053851283291
 30
0.0
 11
465.9504040454008
 21
-422.5053851283291
 31
0.0
  0
INSERT
  5
60B
330
33E
100
AcDbEntity
  8
SIZE
100
AcDbBlockReference
  2
_DotBlank
 10
589.3092427021724
 20
-422.5053851283291
 30
0.0
 41
30.0
 42
30.0
 43
30.0
  0
POINT
  5
60C
330
33E
100
AcDbEntity
  8
Defpoints
 62
     0
100
AcDbPoint
 10
435.9504040454007
 20
-299.1302239643983
 30
0.0
  0
POINT
  5
60D
330
33E
100
AcDbEntity
  8
Defpoints
 62
     0
100
AcDbPoint
 10
589.3092427021724
 20
-195.2175475701651
 30
0.0
  0
POINT
  5
60E
330
33E
100
AcDbEntity
  8
Defpoints
 62
     0
100
AcDbPoint
 10
589.3092427021724
 20
-422.5053851283291
 30
0.0
  0
ENDBLK
  5
340
330
33E
100
AcDbEntity
  8
0
100
AcDbBlockEnd
  0
BLOCK
  5
34C
330
34B
100
AcDbEntity
  8
0
100
AcDbBlockBegin
  2
*D23
 70
     1
 10
0.0
 20
0.0
 30
0.0
  3
*D23
  1

  0
LINE
  5
60F
330
34B
100
AcDbEntity
  8
SIZE
  6
ByBlock
100
AcDbLine
 10
588.5092427011766
 20
266.8824526852633
 30
0.0
 11
804.6165253375617
 21
266.8824526852633
 31
0.0
  0
LINE
  5
610
330
34B
100
AcDbEntity
  8
SIZE
  6
ByBlock
100
AcDbLine
 10
610.2092427134246
 20
101.5824525938961
 30
0.0
 11
804.6165253375617
 21
101.5824525938961
 31
0.0
  0
LINE
  5
611
330
34B
100
AcDbEntity
  8
SIZE
  6
ByBlock
100
AcDbLine
 10
803.6165253375617
 20
236.8824526852634
 30
0.0
 11
803.6165253375617
 21
131.5824525938961
 31
0.0
  0
INSERT
  5
612
330
34B
100
AcDbEntity
  8
SIZE
100
AcDbBlockReference
  2
_DotBlank
 10
803.6165253375617
 20
266.8824526852633
 30
0.0
 41
30.0
 42
30.0
 43
30.0
 50
270.0
  0
LINE
  5
613
330
34B
100
AcDbEntity
  8
SIZE
100
AcDbLine
 10
803.6165253375617
 20
296.8824526852633
 30
0.0
 11
803.6165253375617
 21
326.8824526852633
 31
0.0
  0
LINE
  5
614
330
34B
100
AcDbEntity
  8
SIZE
  6
ByBlock
100
AcDbLine
 10
803.6165253375617
 20
266.8824526852633
 30
0.0
 11
803.6165253375617
 21
236.8824526852634
 31
0.0
  0
INSERT
  5
615
330
34B
100
AcDbEntity
  8
SIZE
100
AcDbBlockReference
  2
_DotBlank
 10
803.6165253375617
 20
101.5824525938961
 30
0.0
 41
30.0
 42
30.0
 43
30.0
 50
90.0
  0
LINE
  5
616
330
34B
100
AcDbEntity
  8
SIZE
100
AcDbLine
 10
803.6165253375617
 20
71.58245259389612
 30
0.0
 11
803.6165253375617
 21
41.58245259389611
 31
0.0
  0
LINE
  5
617
330
34B
100
AcDbEntity
  8
SIZE
  6
ByBlock
100
AcDbLine
 10
803.6165253375617
 20
101.5824525938961
 30
0.0
 11
803.6165253375617
 21
131.5824525938961
 31
0.0
  0
POINT
  5
618
330
34B
100
AcDbEntity
  8
Defpoints
 62
     0
100
AcDbPoint
 10
587.5092427011765
 20
266.8824526852633
 30
0.0
  0
POINT
  5
619
330
34B
100
AcDbEntity
  8
Defpoints
 62
     0
100
AcDbPoint
 10
609.2092427134246
 20
101.5824525938961
 30
0.0
  0
POINT
  5
61A
330
34B
100
AcDbEntity
  8
Defpoints
 62
     0
100
AcDbPoint
 10
803.6165253375617
 20
101.5824525938961
 30
0.0
  0
ENDBLK
  5
34D
330
34B
100
AcDbEntity
  8
0
100
AcDbBlockEnd
  0
BLOCK
  5
35B
330
35A
100
AcDbEntity
  8
0
100
AcDbBlockBegin
  2
*D24
 70
     1
 10
0.0
 20
0.0
 30
0.0
  3
*D24
  1

  0
LINE
  5
509
330
35A
100
AcDbEntity
  8
SIZE
  6
ByBlock
100
AcDbLine
 10
-473.0907572340024
 20
257.5556648237916
 30
0.0
 11
-473.0907572340024
 21
438.8544614652996
 31
0.0
  0
LINE
  5
50A
330
35A
100
AcDbEntity
  8
SIZE
  6
ByBlock
100
AcDbLine
 10
437.3092427659953
 20
257.7782862131289
 30
0.0
 11
437.3092427659953
 21
438.8544614652996
 31
0.0
  0
LINE
  5
50B
330
35A
100
AcDbEntity
  8
SIZE
  6
ByBlock
100
AcDbLine
 10
-443.0907572340024
 20
437.8544614652996
 30
0.0
 11
407.3092427659953
 21
437.8544614652996
 31
0.0
  0
INSERT
  5
50C
330
35A
100
AcDbEntity
  8
SIZE
100
AcDbBlockReference
  2
_DotBlank
 10
-473.0907572340024
 20
437.8544614652996
 30
0.0
 41
30.0
 42
30.0
 43
30.0
 50
180.0
  0
INSERT
  5
50D
330
35A
100
AcDbEntity
  8
SIZE
100
AcDbBlockReference
  2
_DotBlank
 10
437.3092427659953
 20
437.8544614652996
 30
0.0
 41
30.0
 42
30.0
 43
30.0
  0
POINT
  5
50E
330
35A
100
AcDbEntity
  8
Defpoints
 62
     0
100
AcDbPoint
 10
-473.0907572340024
 20
256.5556648237916
 30
0.0
  0
POINT
  5
50F
330
35A
100
AcDbEntity
  8
Defpoints
 62
     0
100
AcDbPoint
 10
437.3092427659953
 20
256.7782862131289
 30
0.0
  0
POINT
  5
510
330
35A
100
AcDbEntity
  8
Defpoints
 62
     0
100
AcDbPoint
 10
437.3092427659953
 20
437.8544614652996
 30
0.0
  0
ENDBLK
  5
35C
330
35A
100
AcDbEntity
  8
0
100
AcDbBlockEnd
  0
BLOCK
  5
366
330
365
100
AcDbEntity
  8
0
100
AcDbBlockBegin
  2
*D25
 70
     1
 10
0.0
 20
0.0
 30
0.0
  3
*D25
  1

  0
LINE
  5
511
330
365
100
AcDbEntity
  8
SIZE
  6
ByBlock
100
AcDbLine
 10
590.7092427659931
 20
261.2824525164187
 30
0.0
 11
590.7092427659931
 21
520.8949369422903
 31
0.0
  0
LINE
  5
512
330
365
100
AcDbEntity
  8
SIZE
  6
ByBlock
100
AcDbLine
 10
-631.8907572340053
 20
267.8824525164173
 30
0.0
 11
-631.8907572340053
 21
520.8949369422903
 31
0.0
  0
LINE
  5
513
330
365
100
AcDbEntity
  8
SIZE
  6
ByBlock
100
AcDbLine
 10
560.7092427659932
 20
519.8949369422903
 30
0.0
 11
-601.8907572340054
 21
519.8949369422903
 31
0.0
  0
INSERT
  5
514
330
365
100
AcDbEntity
  8
SIZE
100
AcDbBlockReference
  2
_DotBlank
 10
590.7092427659931
 20
519.8949369422903
 30
0.0
 41
30.0
 42
30.0
 43
30.0
  0
INSERT
  5
515
330
365
100
AcDbEntity
  8
SIZE
100
AcDbBlockReference
  2
_DotBlank
 10
-631.8907572340053
 20
519.8949369422903
 30
0.0
 41
30.0
 42
30.0
 43
30.0
 50
180.0
  0
POINT
  5
516
330
365
100
AcDbEntity
  8
Defpoints
 62
     0
100
AcDbPoint
 10
590.7092427659931
 20
260.2824525164187
 30
0.0
  0
POINT
  5
517
330
365
100
AcDbEntity
  8
Defpoints
 62
     0
100
AcDbPoint
 10
-631.8907572340053
 20
266.8824525164173
 30
0.0
  0
POINT
  5
518
330
365
100
AcDbEntity
  8
Defpoints
 62
     0
100
AcDbPoint
 10
-631.8907572340053
 20
519.8949369422903
 30
0.0
  0
ENDBLK
  5
367
330
365
100
AcDbEntity
  8
0
100
AcDbBlockEnd
  0
BLOCK
  5
371
330
370
100
AcDbEntity
  8
0
100
AcDbBlockBegin
  2
*D26
 70
     1
 10
0.0
 20
0.0
 30
0.0
  3
*D26
  1

  0
LINE
  5
519
330
370
100
AcDbEntity
  8
SIZE
  6
ByBlock
100
AcDbLine
 10
617.909242766998
 20
242.3809805456885
 30
0.0
 11
617.909242766998
 21
591.5955536802134
 31
0.0
  0
LINE
  5
51A
330
370
100
AcDbEntity
  8
SIZE
  6
ByBlock
100
AcDbLine
 10
-660.6907572330006
 20
247.9968925039711
 30
0.0
 11
-660.6907572330006
 21
591.5955536802134
 31
0.0
  0
LINE
  5
51B
330
370
100
AcDbEntity
  8
SIZE
  6
ByBlock
100
AcDbLine
 10
587.909242766998
 20
590.5955536802134
 30
0.0
 11
-630.6907572330005
 21
590.5955536802134
 31
0.0
  0
INSERT
  5
51C
330
370
100
AcDbEntity
  8
SIZE
100
AcDbBlockReference
  2
_DotBlank
 10
617.909242766998
 20
590.5955536802134
 30
0.0
 41
30.0
 42
30.0
 43
30.0
  0
INSERT
  5
51D
330
370
100
AcDbEntity
  8
SIZE
100
AcDbBlockReference
  2
_DotBlank
 10
-660.6907572330006
 20
590.5955536802134
 30
0.0
 41
30.0
 42
30.0
 43
30.0
 50
180.0
  0
POINT
  5
51E
330
370
100
AcDbEntity
  8
Defpoints
 62
     0
100
AcDbPoint
 10
617.909242766998
 20
241.3809805456885
 30
0.0
  0
POINT
  5
51F
330
370
100
AcDbEntity
  8
Defpoints
 62
     0
100
AcDbPoint
 10
-660.6907572330006
 20
246.9968925039712
 30
0.0
  0
POINT
  5
520
330
370
100
AcDbEntity
  8
Defpoints
 62
     0
100
AcDbPoint
 10
-660.6907572330006
 20
590.5955536802134
 30
0.0
  0
ENDBLK
  5
372
330
370
100
AcDbEntity
  8
0
100
AcDbBlockEnd
  0
BLOCK
  5
37C
330
37B
100
AcDbEntity
  8
0
100
AcDbBlockBegin
  2
*D27
 70
     1
 10
0.0
 20
0.0
 30
0.0
  3
*D27
  1

  0
LINE
  5
521
330
37B
100
AcDbEntity
  8
SIZE
  6
ByBlock
100
AcDbLine
 10
-417.1632787746769
 20
172.3507869124012
 30
0.0
 11
-529.0182356933278
 21
30.81411812043459
 31
0.0
  0
LINE
  5
522
330
37B
100
AcDbEntity
  8
SIZE
  6
ByBlock
100
AcDbLine
 10
-547.6193926088463
 20
7.276978077424757
 30
0.0
 11
-751.8284065456477
 21
-251.1207216412178
 31
0.0
  0
INSERT
  5
523
330
37B
100
AcDbEntity
  8
SIZE
100
AcDbBlockReference
  2
_DotBlank
 10
-398.5621218591587
 20
195.8879269554111
 30
0.0
 41
30.0
 42
30.0
 43
30.0
 50
51.68104933503114
  0
INSERT
  5
524
330
37B
100
AcDbEntity
  8
SIZE
100
AcDbBlockReference
  2
_DotBlank
 10
-547.6193926088463
 20
7.276978077424757
 30
0.0
 41
30.0
 42
30.0
 43
30.0
 50
231.6810493350311
  0
POINT
  5
525
330
37B
100
AcDbEntity
  8
Defpoints
 62
     0
100
AcDbPoint
 10
-547.6193926088463
 20
7.276978077424757
 30
0.0
  0
POINT
  5
526
330
37B
100
AcDbEntity
  8
Defpoints
 62
     0
100
AcDbPoint
 10
-398.5621218591587
 20
195.8879269554111
 30
0.0
  0
ENDBLK
  5
37D
330
37B
100
AcDbEntity
  8
0
100
AcDbBlockEnd
  0
BLOCK
  5
385
330
384
100
AcDbEntity
  8
0
100
AcDbBlockBegin
  2
*D28
 70
     1
 10
0.0
 20
0.0
 30
0.0
  3
*D28
  1

  0
LINE
  5
527
330
384
100
AcDbEntity
  8
SIZE
  6
ByBlock
100
AcDbLine
 10
-428.6959887638299
 20
190.0703304007913
 30
0.0
 11
-517.4855257041747
 21
13.09457463204464
 31
0.0
  0
LINE
  5
528
330
384
100
AcDbEntity
  8
SIZE
  6
ByBlock
100
AcDbLine
 10
-530.9384858466513
 20
-13.71993381776542
 30
0.0
 11
-687.1790695590228
 21
-325.1394584271222
 31
0.0
  0
INSERT
  5
529
330
384
100
AcDbEntity
  8
SIZE
100
AcDbBlockReference
  2
_DotBlank
 10
-415.2430286213534
 20
216.8848388506014
 30
0.0
 41
30.0
 42
30.0
 43
30.0
 50
63.35687257442283
  0
INSERT
  5
52A
330
384
100
AcDbEntity
  8
SIZE
100
AcDbBlockReference
  2
_DotBlank
 10
-530.9384858466513
 20
-13.71993381776542
 30
0.0
 41
30.0
 42
30.0
 43
30.0
 50
243.3568725744228
  0
POINT
  5
52B
330
384
100
AcDbEntity
  8
Defpoints
 62
     0
100
AcDbPoint
 10
-530.9384858466513
 20
-13.71993381776542
 30
0.0
  0
POINT
  5
52C
330
384
100
AcDbEntity
  8
Defpoints
 62
     0
100
AcDbPoint
 10
-415.2430286213534
 20
216.8848388506014
 30
0.0
  0
ENDBLK
  5
386
330
384
100
AcDbEntity
  8
0
100
AcDbBlockEnd
  0
ENDSEC
  0
SECTION
  2
ENTITIES
  0
LINE
  5
C6
330
70
100
AcDbEntity
  8
OUTLINE
100
AcDbLine
 10
704.309242765994
 20
221.0824525164171
 30
0.0
 11
704.309242765994
 21
-38.11754748358362
 31
0.0
  0
LINE
  5
C9
330
70
100
AcDbEntity
  8
OUTLINE
100
AcDbLine
 10
703.1092427659932
 20
-39.31754748358435
 30
0.0
 11
703.1092427659932
 21
-38.11754748358362
 31
0.0
  0
LINE
  5
CA
330
70
100
AcDbEntity
  8
OUTLINE
100
AcDbLine
 10
703.1092427659932
 20
222.2824525164178
 30
0.0
 11
703.1092427659932
 21
221.0824525164171
 31
0.0
  0
LINE
  5
CB
330
70
100
AcDbEntity
  8
DETAIL
100
AcDbLine
 10
637.9092427659925
 20
221.6824525164193
 30
0.0
 11
637.9092427659925
 21
218.0824525164171
 31
0.0
  0
LINE
  5
CE
330
70
100
AcDbEntity
  8
DETAIL
100
AcDbLine
 10
637.9092427659961
 20
204.88245251642
 30
0.0
 11
637.9092427659961
 21
208.4824525164186
 31
0.0
  0
LINE
  5
CF
330
70
100
AcDbEntity
  8
DETAIL
100
AcDbLine
 10
634.7092427659918
 20
204.88245251642
 30
0.0
 11
634.7092427659918
 21
208.4824525164186
 31
0.0
  0
LINE
  5
D0
330
70
100
AcDbEntity
  8
DETAIL
100
AcDbLine
 10
634.7092427659881
 20
218.0824525164171
 30
0.0
 11
634.7092427659881
 21
221.6824525164193
 31
0.0
  0
LINE
  5
D1
330
70
100
AcDbEntity
  8
DETAIL
100
AcDbLine
 10
604.2092427659918
 20
45.78245251641783
 30
0.0
 11
604.2092427659918
 21
208.4824525164149
 31
0.0
  0
LINE
  5
D2
330
70
100
AcDbEntity
  8
OUTLINE
100
AcDbLine
 10
604.2092427659918
 20
211.6824525164156
 30
0.0
 11
604.2092427659918
 21
257.5824525164171
 31
0.0
  0
LINE
  5
D3
330
70
100
AcDbEntity
  8
OUTLINE
100
AcDbLine
 10
602.4092427659962
 20
40.98245251641492
 30
0.0
 11
602.4092427659962
 21
-138.6175474835836
 31
0.0
  0
LINE
  5
D4
330
70
100
AcDbEntity
  8
OUTLINE
100
AcDbLine
 10
602.4092427659962
 20
-142.4175474835829
 30
0.0
 11
602.4092427659962
 21
-143.2175474835822
 31
0.0
  0
LINE
  5
D5
330
70
100
AcDbEntity
  8
DETAIL
100
AcDbLine
 10
599.7092427659918
 20
44.18245251641565
 30
0.0
 11
599.7092427659918
 21
43.68245251641565
 31
0.0
  0
LINE
  5
D6
330
70
100
AcDbEntity
  8
DETAIL
100
AcDbLine
 10
599.4092427659961
 20
-142.4175474835829
 30
0.0
 11
599.4092427659961
 21
-143.2175474835822
 31
0.0
  0
LINE
  5
D7
330
70
100
AcDbEntity
  8
OUTLINE
100
AcDbLine
 10
598.4092427659962
 20
262.5824525164171
 30
0.0
 11
603.4092427659961
 21
257.5824525164171
 31
0.0
  0
LINE
  5
D8
330
70
100
AcDbEntity
  8
DETAIL
100
AcDbLine
 10
586.7043619889918
 20
-122.2174989255836
 30
0.0
 11
586.6866783239929
 21
-123.9949830405821
 31
0.0
  0
LINE
  5
D9
330
70
100
AcDbEntity
  8
DETAIL
100
AcDbLine
 10
596.7092427659918
 20
48.78245251641783
 30
0.0
 11
596.7092427659918
 21
208.4824525164149
 31
0.0
  0
LINE
  5
DA
330
70
100
AcDbEntity
  8
DETAIL
100
AcDbLine
 10
596.7092427659918
 20
211.6824525164156
 30
0.0
 11
596.7092427659918
 21
254.5824525164171
 31
0.0
  0
LINE
  5
DB
330
70
100
AcDbEntity
  8
DETAIL
100
AcDbLine
 10
596.7092427659918
 20
44.18245251641565
 30
0.0
 11
596.7092427659918
 21
43.98245251641492
 31
0.0
  0
LINE
  5
DC
330
70
100
AcDbEntity
  8
DETAIL
100
AcDbLine
 10
593.4092427659961
 20
263.3824525164164
 30
0.0
 11
593.4092427659961
 21
231.0619193674174
 31
0.0
  0
LINE
  5
DD
330
70
100
AcDbEntity
  8
DETAIL
100
AcDbLine
 10
593.4092427659961
 20
208.551876256417
 30
0.0
 11
593.4092427659961
 21
43.38245251641637
 31
0.0
  0
LINE
  5
DE
330
70
100
AcDbEntity
  8
OUTLINE
100
AcDbLine
 10
591.9092427659961
 20
-195.2175474835821
 30
0.0
 11
591.9092427659961
 21
-143.2132103965814
 31
0.0
  0
LINE
  5
DF
330
70
100
AcDbEntity
  8
DETAIL
100
AcDbLine
 10
591.9092427659961
 20
-142.410508260582
 30
0.0
 11
591.9092427659961
 21
-141.6175474835836
 31
0.0
  0
LINE
  5
E0
330
70
100
AcDbEntity
  8
DETAIL
100
AcDbLine
 10
591.1092427659932
 20
208.4824525164149
 30
0.0
 11
591.1092427659932
 21
177.1824525164156
 31
0.0
  0
LINE
  5
E1
330
70
100
AcDbEntity
  8
DETAIL
100
AcDbLine
 10
590.9092427659961
 20
-123.2175474835822
 30
0.0
 11
590.9092427659961
 21
-195.2175474835821
 31
0.0
  0
LINE
  5
E2
330
70
100
AcDbEntity
  8
DETAIL
100
AcDbLine
 10
590.7092427659917
 20
260.2824525164178
 30
0.0
 11
590.7092427659917
 21
248.3877281634159
 31
0.0
  0
LINE
  5
E3
330
70
100
AcDbEntity
  8
DETAIL
100
AcDbLine
 10
590.4092427659962
 20
-123.2175474835822
 30
0.0
 11
590.4092427659962
 21
1.998730194416566
 31
0.0
  0
LINE
  5
E4
330
70
100
AcDbEntity
  8
DETAIL
100
AcDbLine
 10
590.4092427659962
 20
7.418916793416428
 30
0.0
 11
590.4092427659962
 21
43.38245251641637
 31
0.0
  0
LINE
  5
E5
330
70
100
AcDbEntity
  8
DETAIL
100
AcDbLine
 10
589.9092427659962
 20
260.2824525164178
 30
0.0
 11
589.9092427659962
 21
249.9016775434175
 31
0.0
  0
LINE
  5
E6
330
70
100
AcDbEntity
  8
DETAIL
100
AcDbLine
 10
589.9092427659962
 20
-123.2175474835822
 30
0.0
 11
589.9092427659962
 21
-195.2175474835821
 31
0.0
  0
LINE
  5
E7
330
70
100
AcDbEntity
  8
DETAIL
100
AcDbLine
 10
589.3092427659939
 20
-38.11754748358362
 30
0.0
 11
589.3092427659939
 21
0.3389736214157892
 31
0.0
  0
LINE
  5
E8
330
70
100
AcDbEntity
  8
DETAIL
100
AcDbLine
 10
589.3092427659939
 20
9.078673366417206
 30
0.0
 11
589.3092427659939
 21
32.58245251641711
 31
0.0
  0
LINE
  5
E9
330
70
100
AcDbEntity
  8
DETAIL
100
AcDbLine
 10
589.3092427659939
 20
35.58245251641711
 30
0.0
 11
589.3092427659939
 21
43.38245251641637
 31
0.0
  0
LINE
  5
EA
330
70
100
AcDbEntity
  8
DETAIL
100
AcDbLine
 10
589.1174198909939
 20
41.8324525164171
 30
0.0
 11
589.1174198909939
 21
35.58245251641711
 31
0.0
  0
LINE
  5
EB
330
70
100
AcDbEntity
  8
DETAIL
100
AcDbLine
 10
589.1174198909939
 20
32.58245251641711
 30
0.0
 11
589.1174198909939
 21
24.00758075441627
 31
0.0
  0
LINE
  5
EC
330
70
100
AcDbEntity
  8
DETAIL
100
AcDbLine
 10
589.1092427659932
 20
261.8824525164164
 30
0.0
 11
589.1092427659932
 21
232.0824525164171
 31
0.0
  0
LINE
  5
ED
330
70
100
AcDbEntity
  8
DETAIL
100
AcDbLine
 10
589.0428046039923
 20
43.38245251641637
 30
0.0
 11
589.0428046039923
 21
41.8324525164171
 31
0.0
  0
LINE
  5
EE
330
70
100
AcDbEntity
  8
DETAIL
100
AcDbLine
 10
589.0092427659947
 20
9.408823494417447
 30
0.0
 11
589.0092427659947
 21
0.0088234944159922
 31
0.0
  0
LINE
  5
EF
330
70
100
AcDbEntity
  8
OUTLINE
100
AcDbLine
 10
588.9092427659961
 20
-198.2175474835822
 30
0.0
 11
588.9092427659961
 21
-197.2175474835858
 31
0.0
  0
LINE
  5
F0
330
70
100
AcDbEntity
  8
DETAIL
100
AcDbLine
 10
588.9092427659961
 20
-126.2175474835821
 30
0.0
 11
588.9092427659961
 21
-197.2175474835858
 31
0.0
  0
LINE
  5
F1
330
70
100
AcDbEntity
  8
DETAIL
100
AcDbLine
 10
588.7092427659918
 20
9.408823494417447
 30
0.0
 11
588.7092427659918
 21
23.59940363041824
 31
0.0
  0
LINE
  5
F2
330
70
100
AcDbEntity
  8
DETAIL
100
AcDbLine
 10
588.7092427659918
 20
0.0088234944159922
 30
0.0
 11
588.7092427659918
 21
-38.11754748358362
 31
0.0
  0
LINE
  5
F3
330
70
100
AcDbEntity
  8
DETAIL
100
AcDbLine
 10
588.5092427659947
 20
-40.91749940958107
 30
0.0
 11
588.5092427659947
 21
212.1772852924187
 31
0.0
  0
LINE
  5
F4
330
70
100
AcDbEntity
  8
DETAIL
100
AcDbLine
 10
588.4092427659961
 20
-121.2172428275844
 30
0.0
 11
588.4092427659961
 21
-114.9175474835829
 31
0.0
  0
LINE
  5
F5
330
70
100
AcDbEntity
  8
DETAIL
100
AcDbLine
 10
588.4092427659961
 20
-111.9175474835829
 30
0.0
 11
588.4092427659961
 21
-40.91754748358289
 31
0.0
  0
LINE
  5
F6
330
70
100
AcDbEntity
  8
DETAIL
100
AcDbLine
 10
587.309242765994
 20
-124.6175474835836
 30
0.0
 11
587.309242765994
 21
-122.2175474835858
 31
0.0
  0
LINE
  5
F7
330
70
100
AcDbEntity
  8
DETAIL
100
AcDbLine
 10
587.309242765994
 20
232.0824525164171
 30
0.0
 11
587.309242765994
 21
175.3169767057989
 31
0.0
  0
LINE
  5
F8
330
70
100
AcDbEntity
  8
DETAIL
100
AcDbLine
 10
586.4312695549925
 20
-122.2175474835858
 30
0.0
 11
586.4312695549925
 21
-123.7395742715853
 31
0.0
  0
LINE
  5
F9
330
70
100
AcDbEntity
  8
DETAIL
100
AcDbLine
 10
586.309242765994
 20
-122.2175474835858
 30
0.0
 11
586.309242765994
 21
-123.6175474835836
 31
0.0
  0
LINE
  5
FA
330
70
100
AcDbEntity
  8
DETAIL
100
AcDbLine
 10
585.9092427659962
 20
-198.2175474835822
 30
0.0
 11
585.9092427659962
 21
-197.2175474835858
 31
0.0
  0
LINE
  5
FB
330
70
100
AcDbEntity
  8
DETAIL
100
AcDbLine
 10
585.1092427659969
 20
232.0824525164171
 30
0.0
 11
585.1092427659859
 21
174.0075509431353
 31
0.0
  0
LINE
  5
FC
330
70
100
AcDbEntity
  8
DETAIL
100
AcDbLine
 10
581.9092427659962
 20
140.1939952484172
 30
0.0
 11
581.9092427659962
 21
67.37090978441483
 31
0.0
  0
LINE
  5
FD
330
70
100
AcDbEntity
  8
DETAIL
100
AcDbLine
 10
579.9092427659961
 20
263.3824525164164
 30
0.0
 11
579.9092427659961
 21
262.5824525164171
 31
0.0
  0
LINE
  5
FE
330
70
100
AcDbEntity
  8
DETAIL
100
AcDbLine
 10
578.2092427659917
 20
263.3824525164164
 30
0.0
 11
578.2092427659917
 21
264.1824525164157
 31
0.0
  0
LINE
  5
FF
330
70
100
AcDbEntity
  8
DETAIL
100
AcDbLine
 10
576.9092427659962
 20
263.3824525164164
 30
0.0
 11
576.9092427659962
 21
262.5824525164171
 31
0.0
  0
LINE
  5
100
330
70
100
AcDbEntity
  8
DETAIL
100
AcDbLine
 10
573.2092427659917
 20
263.3824525164164
 30
0.0
 11
573.2092427659917
 21
264.1824525164157
 31
0.0
  0
LINE
  5
101
330
70
100
AcDbEntity
  8
DETAIL
100
AcDbLine
 10
572.9092427659962
 20
-119.2175474835821
 30
0.0
 11
572.9092427659962
 21
51.78245251641783
 31
0.0
  0
LINE
  5
102
330
70
100
AcDbEntity
  8
DETAIL
100
AcDbLine
 10
572.9092427659962
 20
155.7824525164178
 30
0.0
 11
572.9092427659962
 21
165.769215681179
 31
0.0
  0
LINE
  5
103
330
70
100
AcDbEntity
  8
DETAIL
100
AcDbLine
 10
557.9092427659998
 20
170.7824525164105
 30
0.0
 11
557.9092427659961
 21
209.2824525164106
 31
0.0
  0
LINE
  5
104
330
70
100
AcDbEntity
  8
DETAIL
100
AcDbLine
 10
572.9092427659962
 20
155.7824525164178
 30
0.0
 11
581.9092427659962
 21
140.1939952484172
 31
0.0
  0
LINE
  5
105
330
70
100
AcDbEntity
  8
DETAIL
100
AcDbLine
 10
599.7092427659918
 20
45.78245251641783
 30
0.0
 11
596.7092427659918
 21
48.78245251641783
 31
0.0
  0
LINE
  5
106
330
70
100
AcDbEntity
  8
DETAIL
100
AcDbLine
 10
599.4092427659961
 20
43.98245251641492
 30
0.0
 11
602.4092427659962
 21
40.98245251641492
 31
0.0
  0
LINE
  5
107
330
70
100
AcDbEntity
  8
DETAIL
100
AcDbLine
 10
-498.0907572340038
 20
250.5824525164171
 30
0.0
 11
-553.0907572340038
 21
232.0824525164171
 31
0.0
  0
LINE
  5
108
330
70
100
AcDbEntity
  8
DETAIL
100
AcDbLine
 10
517.3092427659939
 20
232.0824525164171
 30
0.0
 11
462.309242765994
 21
250.5824525164171
 31
0.0
  0
LINE
  5
109
330
70
100
AcDbEntity
  8
DETAIL
100
AcDbLine
 10
-631.690757234006
 20
-126.2175474835821
 30
0.0
 11
-628.690757234006
 21
-123.2175474835822
 31
0.0
  0
LINE
  5
10A
330
70
100
AcDbEntity
  8
DETAIL
100
AcDbLine
 10
585.9092427659962
 20
-123.2175474835822
 30
0.0
 11
588.9092427659961
 21
-126.2175474835821
 31
0.0
  0
LINE
  5
10B
330
70
100
AcDbEntity
  8
DETAIL
100
AcDbLine
 10
575.9092427659961
 20
-122.2175474835858
 30
0.0
 11
572.9092427659962
 21
-119.2175474835821
 31
0.0
  0
LINE
  5
10C
330
70
100
AcDbEntity
  8
OUTLINE
100
AcDbLine
 10
592.6092427659932
 20
264.1824525164157
 30
0.0
 11
573.2092427659917
 21
264.1824525164157
 31
0.0
  0
LINE
  5
10D
330
70
100
AcDbEntity
  8
DETAIL
100
AcDbLine
 10
593.4092427659961
 20
263.3824525164164
 30
0.0
 11
585.4092427659962
 21
263.3824525164164
 31
0.0
  0
LINE
  5
10E
330
70
100
AcDbEntity
  8
DETAIL
100
AcDbLine
 10
585.4092427659962
 20
263.3824525164164
 30
0.0
 11
573.2092427659917
 21
263.3824525164164
 31
0.0
  0
LINE
  5
10F
330
70
100
AcDbEntity
  8
DETAIL
100
AcDbLine
 10
573.2092427659917
 20
262.5824525164171
 30
0.0
 11
579.9092427659961
 21
262.5824525164171
 31
0.0
  0
LINE
  5
110
330
70
100
AcDbEntity
  8
OUTLINE
100
AcDbLine
 10
593.4092427659961
 20
262.5824525164171
 30
0.0
 11
598.4092427659962
 21
262.5824525164171
 31
0.0
  0
LINE
  5
111
330
70
100
AcDbEntity
  8
DETAIL
100
AcDbLine
 10
589.1092427659932
 20
261.8824525164164
 30
0.0
 11
-631.8907572340067
 21
261.8824525164164
 31
0.0
  0
LINE
  5
112
330
70
100
AcDbEntity
  8
OUTLINE
370
    13
100
AcDbLine
 10
589.1092427659932
 20
266.8824525164164
 30
0.0
 11
-631.8907572340067
 21
266.8824525164164
 31
0.0
  0
LINE
  5
113
330
70
100
AcDbEntity
  8
DETAIL
100
AcDbLine
 10
604.2092427659918
 20
257.5824525164171
 30
0.0
 11
599.7092427659918
 21
257.5824525164171
 31
0.0
  0
LINE
  5
114
330
70
100
AcDbEntity
  8
DETAIL
100
AcDbLine
 10
584.7092427659954
 20
170.7824525164124
 30
0.0
 11
557.9092427659998
 21
170.7824525164105
 31
0.0
  0
LINE
  5
115
330
70
100
AcDbEntity
  8
DETAIL
100
AcDbLine
 10
462.309242765994
 20
250.5824525164171
 30
0.0
 11
412.309242765994
 21
250.5824525164171
 31
0.0
  0
LINE
  5
116
330
70
100
AcDbEntity
  8
DETAIL
100
AcDbLine
 10
-448.0907572340038
 20
250.5824525164171
 30
0.0
 11
-498.0907572340038
 21
250.5824525164171
 31
0.0
  0
LINE
  5
117
330
70
100
AcDbEntity
  8
DETAIL
100
AcDbLine
 10
589.9092427659962
 20
250.0824525164171
 30
0.0
 11
590.7092427659917
 21
250.0824525164171
 31
0.0
  0
LINE
  5
118
330
70
100
AcDbEntity
  8
DETAIL
100
AcDbLine
 10
584.7092427659954
 20
173.9824525164131
 30
0.0
 11
557.9092427659998
 21
173.9824525164113
 31
0.0
  0
LINE
  5
119
330
70
100
AcDbEntity
  8
DETAIL
100
AcDbLine
 10
589.1092427659932
 20
232.0824525164171
 30
0.0
 11
517.3092427659939
 21
232.0824525164171
 31
0.0
  0
LINE
  5
11A
330
70
100
AcDbEntity
  8
DETAIL
100
AcDbLine
 10
357.309242765994
 20
232.0824525164171
 30
0.0
 11
-393.0907572340038
 21
232.0824525164171
 31
0.0
  0
LINE
  5
11B
330
70
100
AcDbEntity
  8
DETAIL
100
AcDbLine
 10
-553.0907572340038
 20
232.0824525164171
 30
0.0
 11
-597.5572221211805
 21
232.0824525164171
 31
0.0
  0
LINE
  5
11C
330
70
100
AcDbEntity
  8
OUTLINE
100
AcDbLine
 10
604.2092427659918
 20
222.2824525164178
 30
0.0
 11
703.1092427659932
 21
222.2824525164178
 31
0.0
  0
LINE
  5
11D
330
70
100
AcDbEntity
  8
OUTLINE
100
AcDbLine
 10
704.309242765994
 20
221.0824525164171
 30
0.0
 11
703.1092427659932
 21
221.0824525164171
 31
0.0
  0
LINE
  5
11E
330
70
100
AcDbEntity
  8
DETAIL
100
AcDbLine
 10
634.7092427659918
 20
204.88245251642
 30
0.0
 11
637.9092427659961
 21
204.88245251642
 31
0.0
  0
LINE
  5
11F
330
70
100
AcDbEntity
  8
OUTLINE
100
AcDbLine
 10
-677.4907572340053
 20
204.8824525164218
 30
0.0
 11
-680.690757234006
 21
204.8824525164218
 31
0.0
  0
LINE
  5
120
330
70
100
AcDbEntity
  8
OUTLINE
100
AcDbLine
 10
-674.2907572340045
 20
211.6824525164193
 30
0.0
 11
-637.0907572340038
 21
211.6824525164156
 31
0.0
  0
LINE
  5
121
330
70
100
AcDbEntity
  8
DETAIL
100
AcDbLine
 10
631.5092427659947
 20
211.6824525164193
 30
0.0
 11
594.309242765994
 21
211.6824525164156
 31
0.0
  0
LINE
  5
122
330
70
100
AcDbEntity
  8
DETAIL
100
AcDbLine
 10
560.9092427659925
 20
212.2824525164106
 30
0.0
 11
581.7092427659881
 21
212.2824525164124
 31
0.0
  0
LINE
  5
123
330
70
100
AcDbEntity
  8
DETAIL
100
AcDbLine
 10
575.9092427659961
 20
168.769215681179
 30
0.0
 11
587.9092427659961
 21
168.769215681179
 31
0.0
  0
LINE
  5
124
330
70
100
AcDbEntity
  8
DETAIL
100
AcDbLine
 10
-603.6907572330055
 20
214.2824525164124
 30
0.0
 11
-624.4907572340053
 21
214.2824525164142
 31
0.0
  0
LINE
  5
125
330
70
100
AcDbEntity
  8
OUTLINE
100
AcDbLine
 10
-674.2907572340045
 20
214.88245251642
 30
0.0
 11
-637.0907572340038
 21
214.8824525164164
 31
0.0
  0
LINE
  5
126
330
70
100
AcDbEntity
  8
DETAIL
100
AcDbLine
 10
631.509242765991
 20
214.88245251642
 30
0.0
 11
594.3092427659903
 21
214.8824525164164
 31
0.0
  0
LINE
  5
127
330
70
100
AcDbEntity
  8
DETAIL
100
AcDbLine
 10
634.7092427659881
 20
221.6824525164193
 30
0.0
 11
637.9092427659925
 21
221.6824525164193
 31
0.0
  0
LINE
  5
128
330
70
100
AcDbEntity
  8
OUTLINE
100
AcDbLine
 10
-677.4907572340053
 20
221.6824525164211
 30
0.0
 11
-680.690757234006
 21
221.6824525164211
 31
0.0
  0
LINE
  5
129
330
70
100
AcDbEntity
  8
DETAIL
100
AcDbLine
 10
-600.6907572340024
 20
252.5824525164117
 30
0.0
 11
-627.4907572340016
 21
252.5824525164135
 31
0.0
  0
LINE
  5
12A
330
70
100
AcDbEntity
  8
DETAIL
100
AcDbLine
 10
-627.4907572340016
 20
255.7824525164142
 30
0.0
 11
-600.6907572340024
 21
255.7824525164124
 31
0.0
  0
LINE
  5
12B
330
70
100
AcDbEntity
  8
DETAIL
100
AcDbLine
 10
-631.2907572340045
 20
129.7549686574166
 30
0.0
 11
-631.4907572340053
 21
129.7549686574166
 31
0.0
  0
LINE
  5
12C
330
70
100
AcDbEntity
  8
DETAIL
100
AcDbLine
 10
412.309242765994
 20
250.5824525164171
 30
0.0
 11
357.309242765994
 21
232.0824525164171
 31
0.0
  0
LINE
  5
12D
330
70
100
AcDbEntity
  8
DETAIL
100
AcDbLine
 10
-393.0907572340038
 20
232.0824525164171
 30
0.0
 11
-448.0907572340038
 21
250.5824525164171
 31
0.0
  0
LINE
  5
12E
330
70
100
AcDbEntity
  8
DETAIL
100
AcDbLine
 10
593.4092427659961
 20
45.78245251641783
 30
0.0
 11
599.7092427659918
 21
45.78245251641783
 31
0.0
  0
LINE
  5
12F
330
70
100
AcDbEntity
  8
DETAIL
100
AcDbLine
 10
604.2092427659918
 20
45.78245251641783
 30
0.0
 11
599.7092427659918
 21
45.78245251641783
 31
0.0
  0
LINE
  5
130
330
70
100
AcDbEntity
  8
DETAIL
100
AcDbLine
 10
595.0092427659947
 20
44.98245251641856
 30
0.0
 11
603.4092427659961
 21
44.98245251641856
 31
0.0
  0
LINE
  5
131
330
70
100
AcDbEntity
  8
DETAIL
100
AcDbLine
 10
595.0092427659947
 20
44.18245251641565
 30
0.0
 11
603.4092427659961
 21
44.18245251641565
 31
0.0
  0
LINE
  5
132
330
70
100
AcDbEntity
  8
DETAIL
100
AcDbLine
 10
592.0092427659946
 20
43.98245251641492
 30
0.0
 11
599.4092427659961
 21
43.98245251641492
 31
0.0
  0
LINE
  5
133
330
70
100
AcDbEntity
  8
DETAIL
100
AcDbLine
 10
603.4092427659961
 20
43.38245251641637
 30
0.0
 11
600.0092427659946
 21
43.38245251641637
 31
0.0
  0
LINE
  5
134
330
70
100
AcDbEntity
  8
DETAIL
100
AcDbLine
 10
593.4092427659961
 20
43.38245251641637
 30
0.0
 11
588.5092427659947
 21
43.38245251641637
 31
0.0
  0
LINE
  5
135
330
70
100
AcDbEntity
  8
DETAIL
100
AcDbLine
 10
589.1174198909939
 20
41.8324525164171
 30
0.0
 11
589.0428046039923
 21
41.8324525164171
 31
0.0
  0
LINE
  5
136
330
70
100
AcDbEntity
  8
DETAIL
100
AcDbLine
 10
589.0092427659947
 20
9.408823494417447
 30
0.0
 11
588.5092427659947
 21
9.408823494417447
 31
0.0
  0
LINE
  5
137
330
70
100
AcDbEntity
  8
DETAIL
100
AcDbLine
 10
589.0092427659947
 20
0.0088234944159922
 30
0.0
 11
588.5092427659947
 21
0.0088234944159922
 31
0.0
  0
LINE
  5
138
330
70
100
AcDbEntity
  8
DETAIL
100
AcDbLine
 10
588.7092427659918
 20
-31.81754748358435
 30
0.0
 11
588.5092427659947
 21
-31.81754748358435
 31
0.0
  0
LINE
  5
139
330
70
100
AcDbEntity
  8
DETAIL
100
AcDbLine
 10
588.5092427659947
 20
-33.81754748358435
 30
0.0
 11
588.7092427659918
 21
-33.81754748358435
 31
0.0
  0
LINE
  5
13A
330
70
100
AcDbEntity
  8
DETAIL
100
AcDbLine
 10
588.7092427659918
 20
-38.11754748358362
 30
0.0
 11
589.3092427659939
 21
-38.11754748358362
 31
0.0
  0
LINE
  5
13B
330
70
100
AcDbEntity
  8
OUTLINE
100
AcDbLine
 10
704.309242765994
 20
-38.11754748358362
 30
0.0
 11
703.1092427659932
 21
-38.11754748358362
 31
0.0
  0
LINE
  5
13C
330
70
100
AcDbEntity
  8
DETAIL
100
AcDbLine
 10
590.4092427659962
 20
-38.11754748358362
 30
0.0
 11
589.3092427659939
 21
-38.11754748358362
 31
0.0
  0
LINE
  5
13D
330
70
100
AcDbEntity
  8
OUTLINE
100
AcDbLine
 10
703.1092427659932
 20
-39.31754748358435
 30
0.0
 11
602.4092427659962
 21
-39.31754748358435
 31
0.0
  0
LINE
  5
13E
330
70
100
AcDbEntity
  8
DETAIL
100
AcDbLine
 10
-631.4907572340053
 20
-40.91754748358289
 30
0.0
 11
-630.690757234006
 21
-40.91754748358289
 31
0.0
  0
LINE
  5
13F
330
70
100
AcDbEntity
  8
DETAIL
100
AcDbLine
 10
587.9092427659961
 20
-40.91754748358289
 30
0.0
 11
588.5092427659947
 21
-40.91754748358289
 31
0.0
  0
LINE
  5
140
330
70
100
AcDbEntity
  8
DETAIL
100
AcDbLine
 10
-630.690757234006
 20
-40.91754748358289
 30
0.0
 11
-631.2907572340045
 21
-40.91754748358289
 31
0.0
  0
LINE
  5
141
330
70
100
AcDbEntity
  8
DETAIL
  6
HIDDEN
100
AcDbLine
 10
-631.190757234006
 20
-84.21754748358216
 30
0.0
 11
-630.690757234006
 21
-84.21754748358216
 31
0.0
  0
LINE
  5
142
330
70
100
AcDbEntity
  8
DETAIL
100
AcDbLine
 10
-631.190757234006
 20
-84.71754748358581
 30
0.0
 11
-630.690757234006
 21
-84.71754748358581
 31
0.0
  0
LINE
  5
143
330
70
100
AcDbEntity
  8
DETAIL
100
AcDbLine
 10
-631.190757234006
 20
-87.71754748358217
 30
0.0
 11
-630.690757234006
 21
-87.71754748358217
 31
0.0
  0
LINE
  5
144
330
70
100
AcDbEntity
  8
DETAIL
  6
HIDDEN
100
AcDbLine
 10
-631.190757234006
 20
-88.21754748358216
 30
0.0
 11
-630.690757234006
 21
-88.21754748358216
 31
0.0
  0
LINE
  5
145
330
70
100
AcDbEntity
  8
DETAIL
100
AcDbLine
 10
-631.9188317680055
 20
-124.5995851275838
 30
0.0
 11
-630.690757234006
 21
-124.5997721685817
 31
0.0
  0
LINE
  5
146
330
70
100
AcDbEntity
  8
DETAIL
100
AcDbLine
 10
-631.9188317680055
 20
-109.6675474835829
 30
0.0
 11
-631.7907572340045
 21
-109.6675474835829
 31
0.0
  0
LINE
  5
147
330
70
100
AcDbEntity
  8
DETAIL
100
AcDbLine
 10
-631.7907572340045
 20
-119.2175474835821
 30
0.0
 11
-631.190757234006
 21
-119.2175474835821
 31
0.0
  0
LINE
  5
148
330
70
100
AcDbEntity
  8
DETAIL
100
AcDbLine
 10
587.9092427659961
 20
-122.2175474835858
 30
0.0
 11
575.9092427659961
 21
-122.2175474835858
 31
0.0
  0
LINE
  5
149
330
70
100
AcDbEntity
  8
DETAIL
100
AcDbLine
 10
-630.690757234006
 20
-122.2175474835858
 30
0.0
 11
-631.7907572340045
 21
-122.2175474835858
 31
0.0
  0
LINE
  5
14A
330
70
100
AcDbEntity
  8
DETAIL
100
AcDbLine
 10
-628.690757234006
 20
-123.2175474835822
 30
0.0
 11
585.9092427659962
 21
-123.2175474835822
 31
0.0
  0
LINE
  5
14B
330
70
100
AcDbEntity
  8
DETAIL
100
AcDbLine
 10
589.9092427659962
 20
-123.2175474835822
 30
0.0
 11
590.9092427659961
 21
-123.2175474835822
 31
0.0
  0
LINE
  5
14C
330
70
100
AcDbEntity
  8
OUTLINE
100
AcDbLine
 10
-632.690757234006
 20
-123.2175474835822
 30
0.0
 11
-634.6907572330056
 21
-123.2175474835822
 31
0.0
  0
LINE
  5
14D
330
70
100
AcDbEntity
  8
DETAIL
100
AcDbLine
 10
-631.8413557440035
 20
-124.6675474835829
 30
0.0
 11
-630.690757234006
 21
-124.6675474835829
 31
0.0
  0
LINE
  5
14E
330
70
100
AcDbEntity
  8
DETAIL
100
AcDbLine
 10
589.9092427659962
 20
-126.2175474835821
 30
0.0
 11
590.9092427659961
 21
-126.2175474835821
 31
0.0
  0
LINE
  5
14F
330
70
100
AcDbEntity
  8
DETAIL
100
AcDbLine
 10
-632.690757234006
 20
-126.2175474835821
 30
0.0
 11
-633.6907572340059
 21
-126.2175474835821
 31
0.0
  0
LINE
  5
150
330
70
100
AcDbEntity
  8
OUTLINE
100
AcDbLine
 10
590.9092427659961
 20
-141.6175474835836
 30
0.0
 11
599.4092427659961
 21
-141.6175474835836
 31
0.0
  0
LINE
  5
151
330
70
100
AcDbEntity
  8
OUTLINE
100
AcDbLine
 10
602.4092427659962
 20
-142.4175474835829
 30
0.0
 11
592.0092427659946
 21
-142.4175474835829
 31
0.0
  0
LINE
  5
152
330
70
100
AcDbEntity
  8
OUTLINE
100
AcDbLine
 10
592.0092427659946
 20
-143.2175474835822
 30
0.0
 11
602.4092427659962
 21
-143.2175474835822
 31
0.0
  0
LINE
  5
153
330
70
100
AcDbEntity
  8
DETAIL
100
AcDbLine
 10
-631.8413557440035
 20
-135.4319763755848
 30
0.0
 11
-631.690757234006
 21
-135.4356457965841
 31
0.0
  0
LINE
  5
154
330
70
100
AcDbEntity
  8
DETAIL
100
AcDbLine
 10
-634.690757234006
 20
-192.2175474835858
 30
0.0
 11
-633.6907572340059
 21
-192.2175474835858
 31
0.0
  0
LINE
  5
155
330
70
100
AcDbEntity
  8
DETAIL
100
AcDbLine
 10
591.9092427659961
 20
-192.2175474835858
 30
0.0
 11
590.9092427659961
 21
-192.2175474835858
 31
0.0
  0
LINE
  5
156
330
70
100
AcDbEntity
  8
OUTLINE
100
AcDbLine
 10
-634.690757234006
 20
-195.2175474835821
 30
0.0
 11
-633.6907572340059
 21
-195.2175474835821
 31
0.0
  0
LINE
  5
157
330
70
100
AcDbEntity
  8
OUTLINE
100
AcDbLine
 10
591.9092427659961
 20
-195.2175474835821
 30
0.0
 11
590.9092427659961
 21
-195.2175474835821
 31
0.0
  0
LINE
  5
158
330
70
100
AcDbEntity
  8
DETAIL
100
AcDbLine
 10
-631.690757234006
 20
-197.2175474835858
 30
0.0
 11
588.9092427659961
 21
-197.2175474835858
 31
0.0
  0
LINE
  5
159
330
70
100
AcDbEntity
  8
OUTLINE
100
AcDbLine
 10
-631.690757234006
 20
-198.2175474835822
 30
0.0
 11
-42.24100744600582
 21
-198.2175474835822
 31
0.0
  0
LINE
  5
15A
330
70
100
AcDbEntity
  8
OUTLINE
100
AcDbLine
 10
-42.24100744600582
 20
-198.2175474835822
 30
0.0
 11
-0.5405070210072154
 21
-198.2175474835822
 31
0.0
  0
LINE
  5
15B
330
70
100
AcDbEntity
  8
OUTLINE
100
AcDbLine
 10
-0.5405070210072154
 20
-198.2175474835822
 30
0.0
 11
57.75899255399417
 21
-198.2175474835822
 31
0.0
  0
LINE
  5
15C
330
70
100
AcDbEntity
  8
OUTLINE
100
AcDbLine
 10
57.75899255399417
 20
-198.2175474835822
 30
0.0
 11
107.7589925539941
 21
-198.2175474835822
 31
0.0
  0
LINE
  5
15D
330
70
100
AcDbEntity
  8
OUTLINE
100
AcDbLine
 10
107.7589925539941
 20
-198.2175474835822
 30
0.0
 11
355.4021966504915
 21
-198.2175474835822
 31
0.0
  0
LINE
  5
15E
330
70
100
AcDbEntity
  8
OUTLINE
100
AcDbLine
 10
520.3914830689937
 20
-198.2175474835822
 30
0.0
 11
588.9092427659961
 21
-198.2175474835822
 31
0.0
  0
LINE
  5
15F
330
70
100
AcDbEntity
  8
DETAIL
100
AcDbLine
 10
596.7092427659918
 20
254.5824525164171
 30
0.0
 11
599.7092427659918
 21
257.5824525164171
 31
0.0
  0
LINE
  5
160
330
70
100
AcDbEntity
  8
DETAIL
100
AcDbLine
 10
572.9092427659962
 20
165.769215681179
 30
0.0
 11
575.9092427659961
 21
168.769215681179
 31
0.0
  0
LINE
  5
161
330
70
100
AcDbEntity
  8
DETAIL
100
AcDbLine
 10
588.5092427659947
 20
23.39940363041751
 30
0.0
 11
589.1174198909939
 21
24.00758075441627
 31
0.0
  0
LINE
  5
162
330
70
100
AcDbEntity
  8
DETAIL
100
AcDbLine
 10
581.9092427659962
 20
67.37090978441483
 30
0.0
 11
572.9092427659962
 21
51.78245251641783
 31
0.0
  0
LINE
  5
163
330
70
100
AcDbEntity
  8
OUTLINE
100
AcDbLine
 10
602.4092427659962
 20
-138.6175474835836
 30
0.0
 11
599.4092427659961
 21
-141.6175474835836
 31
0.0
  0
LINE
  5
164
330
70
100
AcDbEntity
  8
DETAIL
100
AcDbLine
 10
-631.9188317680055
 20
-124.5995851275838
 30
0.0
 11
-631.8413557440035
 21
-124.6675474835829
 31
0.0
  0
LINE
  5
165
330
70
100
AcDbEntity
  8
DETAIL
100
AcDbLine
 10
-600.690757234006
 20
217.2824525164124
 30
0.0
 11
-600.6907572340024
 21
255.7824525164124
 31
0.0
  0
LINE
  5
166
330
70
100
AcDbEntity
  8
DETAIL
100
AcDbLine
 10
-631.9188317680055
 20
-109.6675474835829
 30
0.0
 11
-631.7907572340045
 21
-100.9734572325833
 31
0.0
  0
LINE
  5
167
330
70
100
AcDbEntity
  8
DETAIL
100
AcDbLine
 10
-627.4907572340053
 20
217.2824525164142
 30
0.0
 11
-627.4907572340016
 21
252.5824525164135
 31
0.0
  0
LINE
  5
168
330
70
100
AcDbEntity
  8
DETAIL
100
AcDbLine
 10
-628.690757234006
 20
-198.2175474835822
 30
0.0
 11
-628.690757234006
 21
-197.2175474835858
 31
0.0
  0
LINE
  5
169
330
70
100
AcDbEntity
  8
DETAIL
100
AcDbLine
 10
-630.6907572340096
 20
167.8325466790556
 30
0.0
 11
-630.6907572340024
 21
249.3824525164164
 31
0.0
  0
LINE
  5
16A
330
70
100
AcDbEntity
  8
DETAIL
100
AcDbLine
 10
-630.690757234006
 20
168.4480497104159
 30
0.0
 11
-630.690757234006
 21
-125.2175474835821
 31
0.0
  0
LINE
  5
16B
330
70
100
AcDbEntity
  8
DETAIL
100
AcDbLine
 10
-631.190757234006
 20
-40.91754748358289
 30
0.0
 11
-631.190757234006
 21
-122.2175474835858
 31
0.0
  0
LINE
  5
16C
330
70
100
AcDbEntity
  8
DETAIL
100
AcDbLine
 10
-631.2907572340045
 20
215.3769026647187
 30
0.0
 11
-631.2907572340045
 21
207.987619741416
 31
0.0
  0
LINE
  5
16D
330
70
100
AcDbEntity
  8
DETAIL
100
AcDbLine
 10
-631.2907572340045
 20
168.8424035814169
 30
0.0
 11
-631.2907572340045
 21
-40.91749940958107
 31
0.0
  0
LINE
  5
16E
330
70
100
AcDbEntity
  8
OUTLINE
100
AcDbLine
 10
-631.4907572340053
 20
214.9840658394478
 30
0.0
 11
-631.4907572340053
 21
169.2355426260474
 31
0.0
  0
LINE
  5
16F
330
70
100
AcDbEntity
  8
OUTLINE
100
AcDbLine
 10
-631.4907572340053
 20
168.9908432834163
 30
0.0
 11
-631.4907572340053
 21
-40.91644292858473
 31
0.0
  0
LINE
  5
170
330
70
100
AcDbEntity
  8
OUTLINE
100
AcDbLine
 10
-631.690757234006
 20
-198.2175474835822
 30
0.0
 11
-631.690757234006
 21
-197.2175474835858
 31
0.0
  0
LINE
  5
171
330
70
100
AcDbEntity
  8
DETAIL
100
AcDbLine
 10
-631.690757234006
 20
-126.2175474835821
 30
0.0
 11
-631.690757234006
 21
-197.2175474835858
 31
0.0
  0
LINE
  5
172
330
70
100
AcDbEntity
  8
OUTLINE
100
AcDbLine
 10
-631.7907572340045
 20
-27.41754748358289
 30
0.0
 11
-631.7907572340045
 21
-122.2175474835858
 31
0.0
  0
LINE
  5
173
330
70
100
AcDbEntity
  8
DETAIL
100
AcDbLine
 10
-631.8413557440035
 20
-124.6675474835829
 30
0.0
 11
-631.8413557440035
 21
-127.7175474835821
 31
0.0
  0
LINE
  5
174
330
70
100
AcDbEntity
  8
DETAIL
100
AcDbLine
 10
-631.8413557440035
 20
-130.7175474835821
 30
0.0
 11
-631.8413557440035
 21
-135.4319763755848
 31
0.0
  0
LINE
  5
175
330
70
100
AcDbEntity
  8
DETAIL
100
AcDbLine
 10
-631.8907572340067
 20
261.8824525164164
 30
0.0
 11
-631.8907572340067
 21
257.4258267812693
 31
0.0
  0
LINE
  5
176
330
70
100
AcDbEntity
  8
OUTLINE
100
AcDbLine
 10
-631.9188317680055
 20
-109.6675474835829
 30
0.0
 11
-631.9188317680055
 21
-124.5995851275838
 31
0.0
  0
LINE
  5
177
330
70
100
AcDbEntity
  8
DETAIL
100
AcDbLine
 10
-632.690757234006
 20
260.2824525164178
 30
0.0
 11
-632.690757234006
 21
253.113404136253
 31
0.0
  0
LINE
  5
178
330
70
100
AcDbEntity
  8
DETAIL
100
AcDbLine
 10
-632.690757234006
 20
-123.2175474835822
 30
0.0
 11
-632.690757234006
 21
-195.2175474835821
 31
0.0
  0
LINE
  5
179
330
70
100
AcDbEntity
  8
OUTLINE
100
AcDbLine
 10
-633.4907572340052
 20
260.2824525164178
 30
0.0
 11
-633.4907572340016
 21
251.6095582588514
 31
0.0
  0
LINE
  5
17A
330
70
100
AcDbEntity
  8
DETAIL
100
AcDbLine
 10
-633.6907572340059
 20
-123.2175474835822
 30
0.0
 11
-633.6907572340059
 21
-195.2175474835821
 31
0.0
  0
LINE
  5
17B
330
70
100
AcDbEntity
  8
OUTLINE
100
AcDbLine
 10
-633.8907572340067
 20
218.0824525164135
 30
0.0
 11
-633.8907572340031
 21
249.3824525164164
 31
0.0
  0
LINE
  5
17C
330
70
100
AcDbEntity
  8
OUTLINE
100
AcDbLine
 10
-634.6907572330056
 20
-123.2175474835822
 30
0.0
 11
-634.690757234006
 21
-195.2175474835821
 31
0.0
  0
LINE
  5
17D
330
70
100
AcDbEntity
  8
OUTLINE
100
AcDbLine
 10
-677.4907572340053
 20
221.6824525164211
 30
0.0
 11
-677.4907572340053
 21
218.0824525164189
 31
0.0
  0
LINE
  5
17E
330
70
100
AcDbEntity
  8
OUTLINE
100
AcDbLine
 10
-677.4907572330048
 20
204.8824525164218
 30
0.0
 11
-677.4907572340053
 21
208.4824525164204
 31
0.0
  0
LINE
  5
17F
330
70
100
AcDbEntity
  8
OUTLINE
100
AcDbLine
 10
-680.6907572330056
 20
204.8824525164218
 30
0.0
 11
-680.690757234006
 21
208.4824525164204
 31
0.0
  0
LINE
  5
180
330
70
100
AcDbEntity
  8
OUTLINE
100
AcDbLine
 10
-680.690757234006
 20
218.0824525164189
 30
0.0
 11
-680.690757234006
 21
221.6824525164211
 31
0.0
  0
ARC
  5
181
330
70
100
AcDbEntity
  8
OUTLINE
100
AcDbCircle
 10
592.6092427659932
 20
262.5824525164171
 30
0.0
 40
1.6
100
AcDbArc
 50
0.0
 51
90.0
  0
ARC
  5
182
330
70
100
AcDbEntity
  8
DETAIL
100
AcDbCircle
 10
589.1092427659932
 20
260.2824525164178
 30
0.0
 40
1.6
100
AcDbArc
 50
0.0
 51
90.0
  0
ARC
  5
183
330
70
100
AcDbEntity
  8
DETAIL
100
AcDbCircle
 10
589.1092427659932
 20
260.2824525164178
 30
0.0
 40
0.8
100
AcDbArc
 50
0.0
 51
90.0
  0
ARC
  5
184
330
70
100
AcDbEntity
  8
DETAIL
100
AcDbCircle
 10
584.7092427659918
 20
177.1824525164138
 30
0.0
 40
6.4
100
AcDbArc
 50
270.0
 51
0.0
  0
ARC
  5
185
330
70
100
AcDbEntity
  8
DETAIL
100
AcDbCircle
 10
584.7092427659918
 20
177.1824525164138
 30
0.0
 40
3.2
100
AcDbArc
 50
270.0
 51
0.0
  0
ARC
  5
186
330
70
100
AcDbEntity
  8
DETAIL
100
AcDbCircle
 10
573.2092427659917
 20
263.3824525164164
 30
0.0
 40
0.8
100
AcDbArc
 50
90.0
 51
270.0
  0
ARC
  5
187
330
70
100
AcDbEntity
  8
DETAIL
100
AcDbCircle
 10
601.9092427659962
 20
216.559952516418
 30
0.0
 40
6.522499999999999
100
AcDbArc
 50
61.52233692830608
 51
69.31248550229565
  0
ARC
  5
188
330
70
100
AcDbEntity
  8
DETAIL
100
AcDbCircle
 10
631.5092427659947
 20
208.4824525164186
 30
0.0
 40
6.4
100
AcDbArc
 50
0.0
 51
90.0
  0
ARC
  5
189
330
70
100
AcDbEntity
  8
DETAIL
100
AcDbCircle
 10
594.309242765994
 20
208.4824525164149
 30
0.0
 40
6.4
100
AcDbArc
 50
90.0
 51
180.0
  0
ARC
  5
18A
330
70
100
AcDbEntity
  8
DETAIL
100
AcDbCircle
 10
631.509242765991
 20
218.0824525164171
 30
0.0
 40
6.4
100
AcDbArc
 50
311.3564356951048
 51
0.0
  0
ARC
  5
18B
330
70
100
AcDbEntity
  8
DETAIL
100
AcDbCircle
 10
631.509242765991
 20
218.0824525164171
 30
0.0
 40
3.2
100
AcDbArc
 50
270.0
 51
0.0
  0
ARC
  5
18C
330
70
100
AcDbEntity
  8
DETAIL
100
AcDbCircle
 10
631.5092427659947
 20
208.4824525164186
 30
0.0
 40
3.2
100
AcDbArc
 50
0.0
 51
90.0
  0
ARC
  5
18D
330
70
100
AcDbEntity
  8
DETAIL
100
AcDbCircle
 10
594.309242765994
 20
208.4824525164149
 30
0.0
 40
3.2
100
AcDbArc
 50
90.0
 51
180.0
  0
ARC
  5
18E
330
70
100
AcDbEntity
  8
DETAIL
100
AcDbCircle
 10
702.3092427659939
 20
220.2824525164178
 30
0.0
 40
1.4
100
AcDbArc
 50
34.87677884021811
 51
55.12322116015758
  0
ARC
  5
18F
330
70
100
AcDbEntity
  8
DETAIL
100
AcDbCircle
 10
581.7092427659917
 20
209.2824525164124
 30
0.0
 40
3.0
100
AcDbArc
 50
0.0
 51
90.0
  0
ARC
  5
190
330
70
100
AcDbEntity
  8
DETAIL
100
AcDbCircle
 10
560.9092427659962
 20
209.2824525164106
 30
0.0
 40
3.0
100
AcDbArc
 50
90.0
 51
180.0
  0
ARC
  5
191
330
70
100
AcDbEntity
  8
DETAIL
100
AcDbCircle
 10
437.309242765994
 20
101.5824525164171
 30
0.0
 40
142.5
100
AcDbArc
 50
276.7358414457432
 51
173.2641585542568
  0
ARC
  5
192
330
70
100
AcDbEntity
  8
DETAIL
100
AcDbCircle
 10
437.309242765994
 20
101.5824525164171
 30
0.0
 40
142.5
100
AcDbArc
 50
173.2641585542568
 51
276.7358414457432
  0
CIRCLE
  5
193
330
70
100
AcDbEntity
  8
DETAIL
100
AcDbCircle
 10
437.309242765994
 20
101.5824525164171
 30
0.0
 40
129.0
  0
CIRCLE
  5
194
330
70
100
AcDbEntity
  8
DETAIL
100
AcDbCircle
 10
437.309242765994
 20
101.5824525164171
 30
0.0
 40
120.2
  0
ARC
  5
195
330
70
100
AcDbEntity
  8
DETAIL
100
AcDbCircle
 10
584.4867427659956
 20
4.708823494416719
 30
0.0
 40
6.522499999999999
100
AcDbArc
 50
313.8973981674134
 51
46.1026018325866
  0
ARC
  5
196
330
70
100
AcDbEntity
  8
DETAIL
100
AcDbCircle
 10
595.0092427659947
 20
45.78245251641783
 30
0.0
 40
1.6
100
AcDbArc
 50
180.0
 51
270.0
  0
ARC
  5
197
330
70
100
AcDbEntity
  8
DETAIL
100
AcDbCircle
 10
595.0092427659947
 20
45.78245251641783
 30
0.0
 40
0.8
100
AcDbArc
 50
180.0
 51
270.0
  0
ARC
  5
198
330
70
100
AcDbEntity
  8
DETAIL
100
AcDbCircle
 10
603.4092427659961
 20
44.18245251641565
 30
0.0
 40
0.8
100
AcDbArc
 50
270.0
 51
90.0
  0
ARC
  5
199
330
70
100
AcDbEntity
  8
OUTLINE
100
AcDbCircle
 10
-674.2907572340045
 20
218.0824525164171
 30
0.0
 40
6.4
100
AcDbArc
 50
180.0
 51
270.0
  0
ARC
  5
19A
330
70
100
AcDbEntity
  8
OUTLINE
100
AcDbCircle
 10
-637.0907572340038
 20
218.0824525164135
 30
0.0
 40
6.4
100
AcDbArc
 50
270.0
 51
0.0
  0
ARC
  5
19B
330
70
100
AcDbEntity
  8
OUTLINE
100
AcDbCircle
 10
-674.2907572340045
 20
208.4824525164186
 30
0.0
 40
6.4
100
AcDbArc
 50
131.3564356951048
 51
180.0
  0
ARC
  5
19C
330
70
100
AcDbEntity
  8
OUTLINE
100
AcDbCircle
 10
-627.4907572330012
 20
249.3824525164164
 30
0.0
 40
6.4
100
AcDbArc
 50
90.0
 51
180.0
  0
ARC
  5
19D
330
70
100
AcDbEntity
  8
OUTLINE
100
AcDbCircle
 10
-674.2907572340045
 20
208.4824525164186
 30
0.0
 40
3.2
100
AcDbArc
 50
90.0
 51
180.0
  0
ARC
  5
19E
330
70
100
AcDbEntity
  8
DETAIL
100
AcDbCircle
 10
-627.4907572330012
 20
249.3824525164164
 30
0.0
 40
3.2
100
AcDbArc
 50
90.0
 51
180.0
  0
ARC
  5
19F
330
70
100
AcDbEntity
  8
OUTLINE
100
AcDbCircle
 10
-674.2907572340045
 20
218.0824525164171
 30
0.0
 40
3.2
100
AcDbArc
 50
180.0
 51
270.0
  0
ARC
  5
1A0
330
70
100
AcDbEntity
  8
OUTLINE
100
AcDbCircle
 10
-637.0907572340038
 20
218.0824525164135
 30
0.0
 40
3.2
100
AcDbArc
 50
270.0
 51
0.0
  0
ARC
  5
1A1
330
70
100
AcDbEntity
  8
DETAIL
100
AcDbCircle
 10
-624.4907572340053
 20
217.2824525164142
 30
0.0
 40
3.0
100
AcDbArc
 50
180.0
 51
270.0
  0
ARC
  5
1A2
330
70
100
AcDbEntity
  8
DETAIL
100
AcDbCircle
 10
-603.6907572330055
 20
217.2824525164124
 30
0.0
 40
3.0
100
AcDbArc
 50
270.0
 51
0.0
  0
ARC
  5
1A3
330
70
100
AcDbEntity
  8
OUTLINE
100
AcDbCircle
 10
-631.8907572340067
 20
260.2824525164178
 30
0.0
 40
1.6
100
AcDbArc
 50
90.0
 51
180.0
  0
ARC
  5
1A4
330
70
100
AcDbEntity
  8
DETAIL
100
AcDbCircle
 10
-631.8907572340067
 20
260.2824525164178
 30
0.0
 40
0.8
100
AcDbArc
 50
90.0
 51
180.0
  0
ARC
  5
1A5
330
70
100
AcDbEntity
  8
DETAIL
100
AcDbCircle
 10
-473.0907572340038
 20
101.5824525164171
 30
0.0
 40
142.5
100
AcDbArc
 50
107.2641585540206
 51
173.2641585542568
  0
ARC
  5
1A6
330
70
100
AcDbEntity
  8
DETAIL
100
AcDbCircle
 10
-473.0907572340038
 20
101.5824525164171
 30
0.0
 40
142.5
100
AcDbArc
 50
342.7358414457803
 51
107.2641585540206
  0
ARC
  5
1A7
330
70
100
AcDbEntity
  8
DETAIL
100
AcDbCircle
 10
-473.0907572340038
 20
101.5824525164171
 30
0.0
 40
142.5
100
AcDbArc
 50
276.7358414457432
 51
342.7358414457803
  0
ARC
  5
1A8
330
70
100
AcDbEntity
  8
DETAIL
100
AcDbCircle
 10
-473.0907572340038
 20
101.5824525164171
 30
0.0
 40
142.5
100
AcDbArc
 50
173.2641585542568
 51
276.7358414457432
  0
CIRCLE
  5
1A9
330
70
100
AcDbEntity
  8
DETAIL
100
AcDbCircle
 10
-473.0907572340038
 20
101.5824525164171
 30
0.0
 40
129.0
  0
CIRCLE
  5
1AA
330
70
100
AcDbEntity
  8
DETAIL
100
AcDbCircle
 10
-473.0907572340038
 20
101.5824525164171
 30
0.0
 40
120.2
  0
ARC
  5
1AB
330
70
100
AcDbEntity
  8
DETAIL
100
AcDbCircle
 10
601.9092427659962
 20
-33.5950474835845
 30
0.0
 40
6.522499999999999
100
AcDbArc
 50
274.4053569754071
 51
298.477663071694
  0
ARC
  5
1AC
330
70
100
AcDbEntity
  8
DETAIL
100
AcDbCircle
 10
586.4092427659961
 20
-121.2172428275844
 30
0.0
 40
2.0
100
AcDbArc
 50
318.6307527508814
 51
0.0
  0
ARC
  5
1AD
330
70
100
AcDbEntity
  8
DETAIL
100
AcDbCircle
 10
589.5092427659947
 20
-36.01754748358144
 30
0.0
 40
1.6
100
AcDbArc
 50
231.296068745702
 51
239.9573780631516
  0
ARC
  5
1AE
330
70
100
AcDbEntity
  8
DETAIL
100
AcDbCircle
 10
702.3092427659939
 20
-37.31754748358435
 30
0.0
 40
1.4
100
AcDbArc
 50
304.8767788398424
 51
325.1232211597819
  0
ARC
  5
1AF
330
70
100
AcDbEntity
  8
OUTLINE
100
AcDbCircle
 10
588.9092427659961
 20
-195.2175474835821
 30
0.0
 40
2.0
100
AcDbArc
 50
270.0
 51
0.0
  0
ARC
  5
1B0
330
70
100
AcDbEntity
  8
DETAIL
100
AcDbCircle
 10
592.0092427659946
 20
-141.6175474835836
 30
0.0
 40
1.6
100
AcDbArc
 50
226.5275288020237
 51
270.0
  0
ARC
  5
1B1
330
70
100
AcDbEntity
  8
DETAIL
100
AcDbCircle
 10
588.9092427659961
 20
-195.2175474835821
 30
0.0
 40
1.0
100
AcDbArc
 50
270.0
 51
0.0
  0
ARC
  5
1B2
330
70
100
AcDbEntity
  8
OUTLINE
100
AcDbCircle
 10
592.0092427659946
 20
-141.6175474835836
 30
0.0
 40
0.8
100
AcDbArc
 50
180.0
 51
270.0
  0
ARC
  5
1B3
330
70
100
AcDbEntity
  8
OUTLINE
100
AcDbCircle
 10
-631.690757234006
 20
-195.2175474835821
 30
0.0
 40
2.0
100
AcDbArc
 50
180.0
 51
270.0
  0
ARC
  5
1B4
330
70
100
AcDbEntity
  8
OUTLINE
100
AcDbCircle
 10
-631.690757234006
 20
-195.2175474835821
 30
0.0
 40
1.0
100
AcDbArc
 50
180.0
 51
270.0
  0
SPLINE
  5
1B5
330
70
100
AcDbEntity
  8
DETAIL
100
AcDbSpline
210
0.0
220
0.0
230
1.0
 70
     8
 71
     3
 72
    22
 73
    18
 74
     0
 42
0.0000001
 43
0.0000000001
 40
0.0
 40
0.0
 40
0.0
 40
0.0
 40
0.125
 40
0.15625
 40
0.1875
 40
0.25
 40
0.3125
 40
0.375
 40
0.4375
 40
0.5
 40
0.5625
 40
0.625
 40
0.6875
 40
0.75
 40
0.8125
 40
0.875
 40
1.0
 40
1.0
 40
1.0
 40
1.0
 10
603.4295223459958
 20
-39.75301031658455
 30
0.0
 10
603.3912997729967
 20
-39.7708309795853
 30
0.0
 10
603.3428608349931
 20
-39.79304805258289
 30
0.0
 10
603.2867162739967
 20
-39.8198848085849
 30
0.0
 10
603.2450579479955
 20
-39.83739993858399
 30
0.0
 10
603.1914474049954
 20
-39.85895002958205
 30
0.0
 10
603.1279338489948
 20
-39.88579414258493
 30
0.0
 10
603.063604127994
 20
-39.90925235158284
 30
0.0
 10
602.9990724589952
 20
-39.93134175558225
 30
0.0
 10
602.9348409869962
 20
-39.95532807158452
 30
0.0
 10
602.8696106759926
 20
-39.97309554658205
 30
0.0
 10
602.804674293995
 20
-39.99274864758263
 30
0.0
 10
602.7395610369967
 20
-40.01107808758388
 30
0.0
 10
602.6739192899949
 20
-40.02572923358457
 30
0.0
 10
602.6086842639961
 20
-40.04224260258342
 30
0.0
 10
602.5202397029934
 20
-40.05923296158289
 30
0.0
 10
602.4536079369936
 20
-40.07102923458297
 30
0.0
 10
602.4092530589951
 20
-40.07910374958373
 30
0.0
  0
SPLINE
  5
1B6
330
70
100
AcDbEntity
  8
DETAIL
100
AcDbSpline
210
0.0
220
0.0
230
1.0
 70
     8
 71
     3
 72
    25
 73
    21
 74
     0
 42
0.0000001
 43
0.0000000001
 40
0.0
 40
0.0
 40
0.0
 40
0.0
 40
0.125
 40
0.15625
 40
0.1875
 40
0.25
 40
0.3125
 40
0.34375
 40
0.375
 40
0.4375
 40
0.5
 40
0.5625
 40
0.625
 40
0.65625
 40
0.6875
 40
0.75
 40
0.8125
 40
0.84375
 40
0.875
 40
1.0
 40
1.0
 40
1.0
 40
1.0
 10
591.0092427659947
 20
4.708823494416719
 30
0.0
 10
591.0090838199939
 20
4.724922250417876
 30
0.0
 10
591.0088104609931
 20
4.745666651415376
 30
0.0
 10
591.0087064569925
 20
4.768697069415793
 30
0.0
 10
591.0081591959933
 20
4.788024787416361
 30
0.0
 10
591.0072971279914
 20
4.813459377415711
 30
0.0
 10
591.0065276329951
 20
4.838876336416433
 30
0.0
 10
591.0058322559962
 20
4.858232264417893
 30
0.0
 10
591.0049252809949
 20
4.873450090417463
 30
0.0
 10
591.0037657949942
 20
4.894494821415719
 30
0.0
 10
591.0028154879946
 20
4.916247897417633
 30
0.0
 10
591.0001421029919
 20
4.948767461417446
 30
0.0
 10
590.998302422995
 20
4.972949327417154
 30
0.0
 10
590.9967606789941
 20
4.993914224418404
 30
0.0
 10
590.9951884239963
 20
5.010735722418758
 30
0.0
 10
590.9931708999939
 20
5.030555352415831
 30
0.0
 10
590.9912774889926
 20
5.050297041416342
 30
0.0
 10
590.9895066529934
 20
5.06724324341485
 30
0.0
 10
590.9855067729949
 20
5.099326179417403
 30
0.0
 10
590.9825234419949
 20
5.124326637418562
 30
0.0
 10
590.9800248079955
 20
5.144882307416992
 30
0.0
  0
SPLINE
  5
1B7
330
70
100
AcDbEntity
  8
DETAIL
100
AcDbSpline
210
0.0
220
0.0
230
1.0
 70
     8
 71
     3
 72
    25
 73
    21
 74
     0
 42
0.0000001
 43
0.0000000001
 40
0.0
 40
0.0
 40
0.0
 40
0.0
 40
0.125
 40
0.1875
 40
0.25
 40
0.3125
 40
0.375
 40
0.4375
 40
0.46875
 40
0.5
 40
0.53125
 40
0.5625
 40
0.625
 40
0.65625
 40
0.6875
 40
0.75
 40
0.8125
 40
0.84375
 40
0.875
 40
1.0
 40
1.0
 40
1.0
 40
1.0
 10
590.9800248079955
 20
5.14488230941788
 30
0.0
 10
590.9721449069947
 20
5.19285411241799
 30
0.0
 10
590.9607117579944
 20
5.264848977418296
 30
0.0
 10
590.9439207539945
 20
5.360693488415563
 30
0.0
 10
590.9266924169933
 20
5.432122254416754
 30
0.0
 10
590.911773627995
 20
5.503791365415963
 30
0.0
 10
590.8922517319951
 20
5.574953710416593
 30
0.0
 10
590.8753263719955
 20
5.633949181417847
 30
0.0
 10
590.8614418549951
 20
5.681595877416839
 30
0.0
 10
590.8524554209943
 20
5.716163830416917
 30
0.0
 10
590.8379332869917
 20
5.755174899415578
 30
0.0
 10
590.820531376994
 20
5.805708691415929
 30
0.0
 10
590.802435248992
 20
5.856242058416682
 30
0.0
 10
590.7849510729938
 20
5.907887423418287
 30
0.0
 10
590.7659447139922
 20
5.955085364417755
 30
0.0
 10
590.7415397119948
 20
6.012619665416423
 30
0.0
 10
590.7178594889956
 20
6.070422812415927
 30
0.0
 10
590.6976934839949
 20
6.117190599416062
 30
0.0
 10
590.661204145992
 20
6.190767983418481
 30
0.0
 10
590.6324214499945
 20
6.25119036041724
 30
0.0
 10
590.6088752659961
 20
6.299813737416116
 30
0.0
  0
SPLINE
  5
1B8
330
70
100
AcDbEntity
  8
DETAIL
100
AcDbSpline
210
0.0
220
0.0
230
1.0
 70
     8
 71
     3
 72
    25
 73
    21
 74
     0
 42
0.0000001
 43
0.0000000001
 40
0.0
 40
0.0
 40
0.0
 40
0.0
 40
0.125
 40
0.15625
 40
0.1875
 40
0.25
 40
0.3125
 40
0.34375
 40
0.375
 40
0.4375
 40
0.5
 40
0.5625
 40
0.625
 40
0.65625
 40
0.6875
 40
0.75
 40
0.8125
 40
0.84375
 40
0.875
 40
1.0
 40
1.0
 40
1.0
 40
1.0
 10
590.9800248079955
 20
4.272764678415114
 30
0.0
 10
590.9820191229918
 20
4.288801946415333
 30
0.0
 10
590.9845207039943
 20
4.309471695418324
 30
0.0
 10
590.9874965419949
 20
4.332405900415324
 30
0.0
 10
590.9895360259943
 20
4.35168362641707
 30
0.0
 10
590.9920786559923
 20
4.377061913415673
 30
0.0
 10
590.9947110859938
 20
4.40241645941569
 30
0.0
 10
590.9966068879948
 20
4.421732170416362
 30
0.0
 10
590.9977387369945
 20
4.436942462416482
 30
0.0
 10
590.9993983169952
 20
4.457970439416385
 30
0.0
 10
591.0013608509943
 20
4.479689603416773
 30
0.0
 10
591.0030476039938
 20
4.512242221415363
 30
0.0
 10
591.0044495009933
 20
4.536438755418203
 30
0.0
 10
591.0057178609931
 20
4.557412811416725
 30
0.0
 10
591.0064018369921
 20
4.574264068418415
 30
0.0
 10
591.0070434149929
 20
4.594129795415938
 30
0.0
 10
591.0077981289941
 20
4.61390963341546
 30
0.0
 10
591.0083010879934
 20
4.630898312418139
 30
0.0
 10
591.0086089049946
 20
4.663104940416815
 30
0.0
 10
591.0089817269945
 20
4.688192857414833
 30
0.0
 10
591.0092427659947
 20
4.708823491415387
 30
0.0
  0
SPLINE
  5
1B9
330
70
100
AcDbEntity
  8
DETAIL
100
AcDbSpline
210
0.0
220
0.0
230
1.0
 70
     8
 71
     3
 72
    25
 73
    21
 74
     0
 42
0.0000001
 43
0.0000000001
 40
0.0
 40
0.0
 40
0.0
 40
0.0
 40
0.125
 40
0.1875
 40
0.25
 40
0.3125
 40
0.375
 40
0.4375
 40
0.46875
 40
0.5
 40
0.53125
 40
0.5625
 40
0.625
 40
0.65625
 40
0.6875
 40
0.75
 40
0.8125
 40
0.84375
 40
0.875
 40
1.0
 40
1.0
 40
1.0
 40
1.0
 10
590.6088752589966
 20
3.117833236417936
 30
0.0
 10
590.6310877759933
 20
3.163502069415699
 30
0.0
 10
590.664777989994
 20
3.231920661415642
 30
0.0
 10
590.7082125249944
 20
3.323484081418428
 30
0.0
 10
590.7363306709921
 20
3.39316306841647
 30
0.0
 10
590.7666784539942
 20
3.462353044415067
 30
0.0
 10
590.7925654459941
 20
3.532492643418663
 30
0.0
 10
590.8133580439935
 20
3.590866724418447
 30
0.0
 10
590.829956916994
 20
3.638077276416879
 30
0.0
 10
590.8429796269956
 20
3.671996679415315
 30
0.0
 10
590.8537257199932
 20
3.711614485415339
 30
0.0
 10
590.8689171009937
 20
3.762503464415203
 30
0.0
 10
590.8834821779928
 20
3.813604202416172
 30
0.0
 10
590.8992787239949
 20
3.865520736417238
 30
0.0
 10
590.9109844669947
 20
3.91389174341748
 30
0.0
 10
590.9241389249946
 20
3.973233785418415
 30
0.0
 10
590.9381112969968
 20
4.032596792418189
 30
0.0
 10
590.948508378995
 20
4.080934253415762
 30
0.0
 10
590.9605701469955
 20
4.158436668418289
 30
0.0
 10
590.9715418949963
 20
4.221720914418256
 30
0.0
 10
590.9800248059946
 20
4.272764663415728
 30
0.0
  0
LINE
  5
1BA
330
70
100
AcDbEntity
  8
BASIS
  6
CENTER
100
AcDbLine
 10
-24.89075723400674
 20
355.4598748452408
 30
0.0
 11
-24.89075723400674
 21
-327.8154978591701
 31
0.0
1001
GENIUS_GENOBJ-N-CEN_13
1002
{
1000
OWNER
1000
GEN
1002
}
1001
GENIUS_GENODEF_13
1002
{
1000
HIER
1070
     0
1002
}
1002
{
1000
MANEDIT
1070
     0
1002
}
1002
{
1000
NOSEL
1070
     0
1002
}
1002
{
1000
BEHIND
1070
     0
1002
}
1002
{
1000
OTHER
1070
     0
1002
}
1002
{
1000
REACTOR
1002
}
1001
GENIUS_GENCEN_19
1002
{
1040
5.0
1002
}
  0
LINE
  5
1BD
330
70
100
AcDbEntity
  8
NOTE
  6
CENTER
100
AcDbLine
 10
-473.0907572340038
 20
256.778286213128
 30
0.0
 11
-473.0907572340038
 21
-61.37842664374329
 31
0.0
1001
GENIUS_GENODEF_13
1002
{
1000
HIER
1070
     0
1002
}
1002
{
1000
MANEDIT
1070
     0
1002
}
1002
{
1000
NOSEL
1070
     0
1002
}
1002
{
1000
BEHIND
1070
     0
1002
}
1002
{
1000
OTHER
1070
     0
1002
}
1002
{
1000
REACTOR
1002
}
1001
GENIUS_GENOBJ-N-CEN_13
1002
{
1000
OWNER
1000
GEN
1002
}
1001
GENIUS_GENCEN_19
1002
{
1040
5.0
1002
}
  0
LINE
  5
1C0
330
70
100
AcDbEntity
  8
BASIS
  6
CENTER
100
AcDbLine
 10
-626.5568759711641
 20
101.5824525164171
 30
0.0
 11
623.4572043835687
 21
101.5824525164171
 31
0.0
1001
GENIUS_GENODEF_13
1002
{
1000
HIER
1070
     0
1002
}
1002
{
1000
MANEDIT
1070
     0
1002
}
1002
{
1000
NOSEL
1070
     0
1002
}
1002
{
1000
BEHIND
1070
     0
1002
}
1002
{
1000
OTHER
1070
     0
1002
}
1002
{
1000
REACTOR
1002
}
1001
GENIUS_GENOBJ-N-CEN_13
1002
{
1000
OWNER
1000
GEN
1002
}
1001
GENIUS_GENCEN_19
1002
{
1040
5.0
1002
}
  0
LINE
  5
1C1
330
70
100
AcDbEntity
  8
NOTE
  6
CENTER
100
AcDbLine
 10
437.309242765994
 20
256.5556648237907
 30
0.0
 11
437.309242765994
 21
-57.86641598801725
 31
0.0
1001
GENIUS_GENOBJ-N-CEN_13
1002
{
1000
OWNER
1000
GEN
1002
}
1001
GENIUS_GENODEF_13
1002
{
1000
HIER
1070
     0
1002
}
1002
{
1000
MANEDIT
1070
     0
1002
}
1002
{
1000
NOSEL
1070
     0
1002
}
1002
{
1000
BEHIND
1070
     0
1002
}
1002
{
1000
OTHER
1070
     0
1002
}
1002
{
1000
REACTOR
1002
}
1001
GENIUS_GENCEN_19
1002
{
1040
5.0
1002
}
  0
LINE
  5
1C2
330
70
100
AcDbEntity
  8
NOTE
  6
CENTER
100
AcDbLine
 10
437.8845892574936
 20
-163.8304282526296
 30
0.0
 11
437.8845892574936
 21
-299.130223820368
 31
0.0
1001
GENIUS_GENODEF_13
1002
{
1000
HIER
1070
     0
1002
}
1002
{
1000
MANEDIT
1070
     0
1002
}
1002
{
1000
NOSEL
1070
     0
1002
}
1002
{
1000
BEHIND
1070
     0
1002
}
1002
{
1000
OTHER
1070
     0
1002
}
1002
{
1000
REACTOR
1002
}
1001
GENIUS_GENOBJ-N-CEN_13
1002
{
1000
OWNER
1000
GEN
1002
}
1001
GENIUS_GENCEN_19
1002
{
1040
5.0
1002
}
  0
LINE
  5
1C3
330
70
100
AcDbEntity
  8
OUTLINE
100
AcDbLine
 10
434.0750675704948
 20
-262.0190179425845
 30
0.0
 11
431.1079054644942
 21
-261.7169766815859
 31
0.0
  0
LINE
  5
1C4
330
70
100
AcDbEntity
  8
OUTLINE
100
AcDbLine
 10
431.1079054644942
 20
-261.7169766815859
 30
0.0
 11
429.9071619664937
 21
-261.5974260975854
 31
0.0
  0
LINE
  5
1C5
330
70
100
AcDbEntity
  8
OUTLINE
100
AcDbLine
 10
429.9071619664937
 20
-261.5974260975854
 30
0.0
 11
429.0082605534953
 21
-261.5110700695841
 31
0.0
  0
LINE
  5
1C6
330
70
100
AcDbEntity
  8
OUTLINE
100
AcDbLine
 10
434.9745871124942
 20
-262.1054368785844
 30
0.0
 11
434.0750675704948
 21
-262.0190179425845
 31
0.0
  0
LINE
  5
1C7
330
70
100
AcDbEntity
  8
OUTLINE
100
AcDbLine
 10
429.0082605534953
 20
-261.5110700695841
 30
0.0
 11
428.007977278492
 21
-261.4187935965856
 31
0.0
  0
LWPOLYLINE
  5
1C8
330
70
100
AcDbEntity
  8
OUTLINE
100
AcDbPolyline
 90
        7
 70
     0
 43
0.0
 10
428.007977278492
 20
-261.4187935965856
 10
426.8709697884951
 20
-261.3192297215864
 10
426.2408974374957
 20
-261.2665843985851
 10
425.572352295494
 20
-261.2127191685831
 10
424.8682573994919
 20
-261.1582116035861
 10
424.133273683492
 20
-261.1037399625857
 10
423.3759274994954
 20
-261.0501959955836
  0
LWPOLYLINE
  5
1C9
330
70
100
AcDbEntity
  8
OUTLINE
100
AcDbPolyline
 90
       80
 70
     0
 43
0.0
 10
423.3759274994954
 20
-261.0501959955836
 10
421.1973888064931
 20
-260.9042089925861
 10
419.581382440494
 20
-260.7937025225838
 10
418.0052187934961
 20
-260.6833377545845
 10
416.4686980174919
 20
-260.5732221115832
 10
414.9716555504965
 20
-260.4634635515831
 10
413.5138285014945
 20
-260.3541582915859
 10
412.0948911114937
 20
-260.2453931835844
 10
410.7144872324933
 20
-260.137250453583
 10
409.3721959434951
 20
-260.029802641584
 10
408.0676049974936
 20
-259.9231183425836
 10
406.800223291495
 20
-259.8172579925849
 10
405.569495253494
 20
-259.7122729305847
 10
404.374846441493
 20
-259.6082080285851
 10
403.2156576854941
 20
-259.505101421586
 10
402.0912816464951
 20
-259.4029858215836
 10
401.0010533294953
 20
-259.3018875395828
 10
399.9442955494924
 20
-259.2018276015842
 10
398.9203033744961
 20
-259.102822212586
 10
397.9283335774926
 20
-259.0048795685834
 10
396.9677764154949
 20
-258.9080164155857
 10
396.0379458334937
 20
-258.8122389935852
 10
395.1382603114944
 20
-258.7175622745854
 10
394.2681058244962
 20
-258.6239943985856
 10
393.4268683134942
 20
-258.5315398175844
 10
392.6139273124936
 20
-258.4402000935843
 10
391.828635072492
 20
-258.3499715615835
 10
391.0703574464933
 20
-258.2608481845855
 10
390.338458655493
 20
-258.1728197525845
 10
389.632305688494
 20
-258.0858736465852
 10
388.9512500864949
 20
-257.9999928185862
 10
388.2946074504944
 20
-257.9151511065829
 10
387.661905840494
 20
-257.8313456045835
 10
387.0525827004931
 20
-257.748559157586
 10
386.4661891384931
 20
-257.6667888175834
 10
385.9022439434957
 20
-257.5860249625839
 10
385.3602201624926
 20
-257.5062483405854
 10
384.8396064224944
 20
-257.4274386215839
 10
384.3398265954929
 20
-257.3495636245862
 10
383.8603274744928
 20
-257.2725911945854
 10
383.4004669464957
 20
-257.1964696105861
 10
382.9596417114954
 20
-257.1211469965856
 10
382.537170265492
 20
-257.0465513655836
 10
382.1323904254932
 20
-256.9726073925849
 10
381.7445782784962
 20
-256.8992189445853
 10
381.3729263774949
 20
-256.8262609755838
 10
381.0169878904962
 20
-256.7536671015842
 10
380.6761784164955
 20
-256.6813356995845
 10
380.3498130364933
 20
-256.6091337785838
 10
380.0372389884942
 20
-256.536921037583
 10
379.7374556394934
 20
-256.4644559165863
 10
379.4495736494937
 20
-256.3914927365841
 10
379.172371775494
 20
-256.3176636745847
 10
378.9047999934955
 20
-256.2425972845849
 10
378.6452700274931
 20
-256.1657068505847
 10
378.3924910524947
 20
-256.0864025525843
 10
378.1445226634933
 20
-256.0037770575836
 10
377.8998256324958
 20
-255.9168996065855
 10
377.6561483844962
 20
-255.8243924995841
 10
377.4116273204963
 20
-255.7247574675857
 10
377.1641955784944
 20
-255.6160974015838
 10
376.9120928104931
 20
-255.496249468586
 10
376.6536456114955
 20
-255.3626160625863
 10
376.3871858094935
 20
-255.2119938215838
 10
376.1129975734948
 20
-255.0416415165855
 10
375.8302638474961
 20
-254.8474590465848
 10
375.5434640424937
 20
-254.6284675825845
 10
375.2553642554958
 20
-254.3825461925844
 10
374.9718974524949
 20
-254.1105689145843
 10
374.6985789004939
 20
-253.8142354485863
 10
374.4386535754929
 20
-253.4938361275854
 10
374.196249397497
 20
-253.1515088735832
 10
373.9734901174925
 20
-252.7874051365834
 10
373.7733246104945
 20
-252.4033356875843
 10
373.5973827404923
 20
-251.9989141825863
 10
373.4480886184938
 20
-251.5750862315836
 10
373.3274754394952
 20
-251.1311045625844
 10
373.2383161144935
 20
-250.6669971205847
 10
373.1838646854921
 20
-250.182938611586
 10
373.1686078794919
 20
-249.8439578665857
  0
LWPOLYLINE
  5
1CA
330
70
100
AcDbEntity
  8
OUTLINE
100
AcDbPolyline
 90
        9
 70
     0
 43
0.0
 10
437.6597815554959
 20
-262.2893604495839
 10
437.4900051314944
 20
-262.2826438505835
 10
437.1752217704961
 20
-262.2683558055832
 10
436.8525698644953
 20
-262.2511169965837
 10
436.5280358514938
 20
-262.2311084605863
 10
436.2067960684944
 20
-262.2088184885833
 10
435.891273719495
 20
-262.1847518945833
 10
435.581241429496
 20
-262.159299519586
 10
434.9745871124942
 20
-262.1054368785844
  0
LINE
  5
1CB
330
70
100
AcDbEntity
  8
OUTLINE
100
AcDbLine
 10
437.8845655604927
 20
-262.2972583525843
 30
0.0
 11
437.660000867494
 21
-262.2893687455835
 31
0.0
  0
LINE
  5
1CC
330
70
100
AcDbEntity
  8
OUTLINE
100
AcDbLine
 10
438.1110338574944
 20
-262.2892989275861
 30
0.0
 11
437.8845655664954
 21
-262.2972583525843
 31
0.0
  0
LWPOLYLINE
  5
1CD
330
70
100
AcDbEntity
  8
OUTLINE
100
AcDbPolyline
 90
        6
 70
     0
 43
0.0
 10
454.5811126404914
 20
-260.9035790145863
 10
452.4122251584958
 20
-261.0488881115852
 10
451.6587119344949
 20
-261.1020892575834
 10
450.9249770014939
 20
-261.1563895385843
 10
450.2205340854962
 20
-261.2108467535836
 10
449.5506827894969
 20
-261.2647461815832
  0
LWPOLYLINE
  5
1CE
330
70
100
AcDbEntity
  8
OUTLINE
100
AcDbPolyline
 90
        8
 70
     0
 43
0.0
 10
440.2003370844941
 20
-262.1582465135834
 10
439.8906287354948
 20
-262.1837394355862
 10
439.5754890784919
 20
-262.207861078583
 10
439.2545673304957
 20
-262.2302263285856
 10
438.930096443495
 20
-262.2503362495845
 10
438.6072463954952
 20
-262.267695831586
 10
438.2921437034929
 20
-262.2821041405841
 10
438.1112442924968
 20
-262.2892909615839
  0
LINE
  5
1CF
330
70
100
AcDbEntity
  8
OUTLINE
100
AcDbLine
 10
449.5506827894969
 20
-261.2647461815832
 30
0.0
 11
448.3303349464949
 21
-261.3682298855856
 31
0.0
  0
LINE
  5
1D0
330
70
100
AcDbEntity
  8
OUTLINE
100
AcDbLine
 10
440.8064587194931
 20
-262.1043414115848
 30
0.0
 11
440.2003370844941
 21
-262.1582465135834
 31
0.0
  0
LINE
  5
1D1
330
70
100
AcDbEntity
  8
OUTLINE
100
AcDbLine
 10
448.3303349464949
 20
-261.3682298855856
 30
0.0
 11
447.2635183264937
 21
-261.4641756995843
 31
0.0
  0
LINE
  5
1D2
330
70
100
AcDbEntity
  8
OUTLINE
100
AcDbLine
 10
447.2635183264937
 20
-261.4641756995843
 30
0.0
 11
446.3159548344956
 21
-261.5534361985847
 31
0.0
  0
LINE
  5
1D3
330
70
100
AcDbEntity
  8
OUTLINE
100
AcDbLine
 10
441.7058156054954
 20
-262.0178581765831
 30
0.0
 11
440.8064587194931
 21
-262.1043414115848
 31
0.0
  0
LINE
  5
1D4
330
70
100
AcDbEntity
  8
OUTLINE
100
AcDbLine
 10
446.3159548344956
 20
-261.5534361985847
 30
0.0
 11
445.4586871284955
 21
-261.6371088035848
 31
0.0
  0
LINE
  5
1D5
330
70
100
AcDbEntity
  8
OUTLINE
100
AcDbLine
 10
445.4586871284955
 20
-261.6371088035848
 30
0.0
 11
444.3059726704923
 21
-261.7530456295863
 31
0.0
  0
LINE
  5
1D6
330
70
100
AcDbEntity
  8
OUTLINE
100
AcDbLine
 10
444.3059726704923
 20
-261.7530456295863
 30
0.0
 11
441.7058156054954
 21
-262.0178581765831
 31
0.0
  0
LINE
  5
1D7
330
70
100
AcDbEntity
  8
OUTLINE
100
AcDbLine
 10
356.4633564804935
 20
-202.7175474835858
 30
0.0
 11
392.6477426444944
 21
-202.7175474835858
 31
0.0
  0
LINE
  5
1D8
330
70
100
AcDbEntity
  8
OUTLINE
100
AcDbLine
 10
483.1214101444966
 20
-202.7175474835858
 30
0.0
 11
519.3058891004948
 21
-202.7175474835858
 31
0.0
  0
LINE
  5
1D9
330
70
100
AcDbEntity
  8
DETAIL
100
AcDbLine
 10
380.7862378534955
 20
-200.2175474835858
 30
0.0
 11
494.9829422134971
 21
-200.2175474835858
 31
0.0
  0
LINE
  5
1DA
330
70
100
AcDbEntity
  8
OUTLINE
100
AcDbLine
 10
520.3057368324916
 20
-201.7349998905847
 30
0.0
 11
520.3668295594943
 21
-198.2349998905847
 31
0.0
  0
LWPOLYLINE
  5
1DB
330
70
100
AcDbEntity
  8
OUTLINE
100
AcDbPolyline
 90
       79
 70
     0
 43
0.0
 10
502.6005705464958
 20
-249.8439561905834
 10
502.5853232914924
 20
-250.1828061255837
 10
502.5308894384943
 20
-250.6668187195864
 10
502.4417524694945
 20
-251.1308908175852
 10
502.3211648284959
 20
-251.5748453965862
 10
502.1718986944943
 20
-251.9986521555838
 10
501.9959875864915
 20
-252.403055613584
 10
501.795855688495
 20
-252.7871094085858
 10
501.5731338634942
 20
-253.1511983255841
 10
501.3307710044937
 20
-253.4935119655856
 10
501.070892419495
 20
-253.8138974955836
 10
500.7976231644934
 20
-254.1102205355855
 10
500.5142058794917
 20
-254.3821923765863
 10
500.2261533084929
 20
-254.6281139145831
 10
499.9393947894969
 20
-254.8471118425841
 10
499.6566961694952
 20
-255.0413053995835
 10
499.382534784494
 20
-255.2116729165864
 10
499.1160958444925
 20
-255.3623120635857
 10
498.8576647564951
 20
-255.4959627085846
 10
498.6055754604931
 20
-255.6158269945845
 10
498.3581564574961
 20
-255.7245017355854
 10
498.1136493484918
 20
-255.8241491975859
 10
497.8699901654945
 20
-255.9166657745846
 10
497.6253143724934
 20
-256.0035506315835
 10
497.3773700884958
 20
-256.0861819205856
 10
497.1246179674962
 20
-256.1654906415861
 10
496.8651169274926
 20
-256.242384512585
 10
496.5975772054917
 20
-256.3174531625846
 10
496.3204116514934
 20
-256.3912831615853
 10
496.0325699524946
 20
-256.4642462625852
 10
495.7328307494935
 20
-256.5367104555844
 10
495.420304764495
 20
-256.6089214805834
 10
495.0939910814959
 20
-256.681121028585
 10
494.7532380664961
 20
-256.7534492125851
 10
494.3973628744934
 20
-256.8260387275841
 10
494.0257796834957
 20
-256.8989916295832
 10
493.6380403284966
 20
-256.9723745965857
 10
493.2333374184927
 20
-257.0463126905852
 10
492.8109464544941
 20
-257.1209021635841
 10
492.370205729494
 20
-257.196218318586
 10
491.9104341074962
 20
-257.2723331415836
 10
491.4310281914949
 20
-257.3492985335834
 10
490.9313456964919
 20
-257.4271662505853
 10
490.4108337564939
 20
-257.5059684035841
 10
489.868917097494
 20
-257.5857371205857
 10
489.3050843164928
 20
-257.6664927695856
 10
488.7188082914945
 20
-257.7482546365863
 10
488.109608167495
 20
-257.8310323005862
 10
487.4770358574933
 20
-257.9148286435848
 10
486.8205285264957
 20
-257.9996609245863
 10
486.1396135684953
 20
-258.0855321415838
 10
485.4336067744952
 20
-258.1724684385845
 10
484.7018597764945
 20
-258.260486872583
 10
483.9437399724956
 20
-258.3496000775849
 10
483.1586114924939
 20
-258.4398182875848
 10
482.3458402394935
 20
-258.5311475395829
 10
481.5047785884926
 20
-258.6235915005854
 10
480.6348064734956
 20
-258.7171486305852
 10
479.7353097814957
 20
-258.8118144965847
 10
478.805674440493
 20
-258.9075809705864
 10
477.8453190764958
 20
-259.0044330895835
 10
476.853557802493
 20
-259.102364657585
 10
475.8297804384965
 20
-259.2013589835842
 10
474.7732439194951
 20
-259.3014078575834
 10
473.6832437004959
 20
-259.4024950885832
 10
472.5591029814932
 20
-259.504599662585
 10
471.4001567714912
 20
-259.6076952775838
 10
470.205757900494
 20
-259.7117492295838
 10
468.9752876134916
 20
-259.8167234175853
 10
467.7081712944964
 20
-259.9225730065846
 10
466.4038530454964
 20
-260.0292466965839
 10
465.0618421274957
 20
-260.1366840965857
 10
463.6817265114951
 20
-260.2448166385839
 10
462.2630848394947
 20
-260.3535718315834
 10
460.8055606054949
 20
-260.462867524584
 10
459.3088281334967
 20
-260.5726169225854
 10
457.7726248494946
 20
-260.6827238235855
 10
456.196786456494
 20
-260.7930802965857
 10
454.5811126404914
 20
-260.9035790145863
  0
LINE
  5
1DC
330
70
100
AcDbEntity
  8
OUTLINE
100
AcDbLine
 10
503.4060151894919
 20
-203.7000950775837
 30
0.0
 11
502.6005697234941
 21
-249.8440348685836
 31
0.0
  0
LINE
  5
1DD
330
70
100
AcDbEntity
  8
DETAIL
100
AcDbLine
 10
499.0899177334941
 20
-201.7349998905847
 30
0.0
 11
499.1174544004934
 21
-199.4513942575831
 31
0.0
  0
LINE
  5
1DE
330
70
100
AcDbEntity
  8
DETAIL
100
AcDbLine
 10
487.046549179493
 20
-201.2000950775837
 30
0.0
 11
487.0532960314922
 21
-201.7349998905847
 31
0.0
  0
LINE
  5
1DF
330
70
100
AcDbEntity
  8
DETAIL
100
AcDbLine
 10
388.7226293364947
 20
-201.2000950775837
 30
0.0
 11
388.7158824844919
 21
-201.7349998905847
 31
0.0
  0
LINE
  5
1E0
330
70
100
AcDbEntity
  8
DETAIL
100
AcDbLine
 10
376.6517220244968
 20
-199.4514021225841
 30
0.0
 11
376.6792607824937
 21
-201.7349998905847
 31
0.0
  0
LINE
  5
1E1
330
70
100
AcDbEntity
  8
OUTLINE
100
AcDbLine
 10
372.3631633264922
 20
-203.7000950775837
 30
0.0
 11
373.168608793494
 21
-249.8440349425837
 31
0.0
  0
LINE
  5
1E2
330
70
100
AcDbEntity
  8
OUTLINE
100
AcDbLine
 10
355.4634416824956
 20
-201.7349998905847
 30
0.0
 11
355.4023489554929
 21
-198.2349998905847
 31
0.0
  0
ARC
  5
1E3
330
70
100
AcDbEntity
  8
OUTLINE
100
AcDbCircle
 10
519.305889137493
 20
-201.7175474835858
 30
0.0
 40
1.0
100
AcDbArc
 50
270.0
 51
358.9999999999187
  0
ARC
  5
1E4
330
70
100
AcDbEntity
  8
OUTLINE
100
AcDbCircle
 10
504.4058628844941
 20
-203.7175474835858
 30
0.0
 40
1.0
100
AcDbArc
 50
90.0
 51
178.9999999999187
  0
ARC
  5
1E5
330
70
100
AcDbEntity
  8
DETAIL
100
AcDbCircle
 10
519.3669818644957
 20
-198.2175474835858
 30
0.0
 40
1.0
100
AcDbArc
 50
358.9999999999187
 51
90.0
  0
ARC
  5
1E6
330
70
100
AcDbEntity
  8
OUTLINE
100
AcDbCircle
 10
356.4632893784946
 20
-201.7175474835858
 30
0.0
 40
1.0
100
AcDbArc
 50
181.0000000000813
 51
270.0
  0
ARC
  5
1E7
330
70
100
AcDbEntity
  8
OUTLINE
100
AcDbCircle
 10
371.3633156314936
 20
-203.7175474835858
 30
0.0
 40
1.0
100
AcDbArc
 50
1.000000000081279
 51
90.0
  0
ARC
  5
1E8
330
70
100
AcDbEntity
  8
DETAIL
100
AcDbCircle
 10
356.4021966504915
 20
-198.2175474835858
 30
0.0
 40
1.0
100
AcDbArc
 50
90.0
 51
181.0000000000813
  0
SPLINE
  5
1E9
330
70
100
AcDbEntity
  8
DETAIL
100
AcDbSpline
210
0.0
220
0.0
230
1.0
 70
     8
 71
     3
 72
    11
 73
     7
 74
     0
 42
0.0000001
 43
0.0000000001
 40
0.0
 40
0.0
 40
0.0
 40
0.0
 40
0.2504063378
 40
0.4998651383
 40
0.7494483218000001
 40
1.0
 40
1.0
 40
1.0
 40
1.0
 10
425.5732471804949
 20
-245.8175474835844
 30
0.0
 10
425.572749761497
 20
-244.2120079785855
 30
0.0
 10
426.2123117014962
 20
-240.971679882583
 30
0.0
 10
428.9473025574952
 20
-236.8753232855852
 30
0.0
 10
433.0359080014932
 20
-234.1258742915852
 30
0.0
 10
436.2781177914948
 20
-233.4808199745857
 30
0.0
 10
437.8845892574936
 20
-233.4808199745857
 30
0.0
  0
SPLINE
  5
1EA
330
70
100
AcDbEntity
  8
DETAIL
100
AcDbSpline
210
0.0
220
0.0
230
1.0
 70
     8
 71
     3
 72
     9
 73
     5
 74
     0
 42
0.0000001
 43
0.0000000001
 40
0.0
 40
0.0
 40
0.0
 40
0.0
 40
0.4993171736
 40
1.0
 40
1.0
 40
1.0
 40
1.0
 10
430.3201403814928
 20
-255.5441907025852
 30
0.0
 10
428.8624439334926
 20
-254.4069894935856
 30
0.0
 10
426.4312310024942
 20
-251.4236202375832
 30
0.0
 10
425.5738215354941
 20
-247.6714158925861
 30
0.0
 10
425.5732471804949
 20
-245.8175474835844
 30
0.0
  0
SPLINE
  5
1EB
330
70
100
AcDbEntity
  8
DETAIL
100
AcDbSpline
210
0.0
220
0.0
230
1.0
 70
     8
 71
     3
 72
     9
 73
     5
 74
     0
 42
0.0000001
 43
0.0000000001
 40
0.0
 40
0.0
 40
0.0
 40
0.0
 40
0.5006828265
 40
1.0
 40
1.0
 40
1.0
 40
1.0
 10
450.1959313354928
 20
-245.8175474835844
 30
0.0
 10
450.1953569794968
 20
-247.6714158955838
 30
0.0
 10
449.3379475174915
 20
-251.4236202505854
 30
0.0
 10
446.9067345624934
 20
-254.4069894925851
 30
0.0
 10
445.4490381144969
 20
-255.5441907035856
 30
0.0
  0
SPLINE
  5
1EC
330
70
100
AcDbEntity
  8
DETAIL
100
AcDbSpline
210
0.0
220
0.0
230
1.0
 70
     8
 71
     3
 72
    11
 73
     7
 74
     0
 42
0.0000001
 43
0.0000000001
 40
0.0
 40
0.0
 40
0.0
 40
0.0
 40
0.2505516782
 40
0.5001348617
 40
0.7495936622000001
 40
1.0
 40
1.0
 40
1.0
 40
1.0
 10
437.8845892574936
 20
-233.4808199745857
 30
0.0
 10
439.491060723496
 20
-233.4808199745857
 30
0.0
 10
442.7332705144944
 20
-234.1258742915852
 30
0.0
 10
446.8218759584961
 20
-236.8753232855852
 30
0.0
 10
449.5568668134946
 20
-240.971679882583
 30
0.0
 10
450.1964287544942
 20
-244.2120079785855
 30
0.0
 10
450.1959313354928
 20
-245.8175474835844
 30
0.0
  0
SPLINE
  5
1ED
330
70
100
AcDbEntity
  8
DETAIL
100
AcDbSpline
210
0.0
220
0.0
230
1.0
 70
     8
 71
     3
 72
     9
 73
     5
 74
     0
 42
0.0000001
 43
0.0000000001
 40
0.0
 40
0.0
 40
0.0
 40
0.0
 40
0.4999935437
 40
1.0
 40
1.0
 40
1.0
 40
1.0
 10
430.320141176493
 20
-255.5441909525835
 30
0.0
 10
431.3851538684939
 20
-256.3750454765832
 30
0.0
 10
433.8138044334955
 20
-257.6843660075829
 30
0.0
 10
436.5337885064946
 20
-258.1287242545841
 30
0.0
 10
437.8845897014944
 20
-258.1300087695854
 30
0.0
  0
SPLINE
  5
1EE
330
70
100
AcDbEntity
  8
DETAIL
100
AcDbSpline
210
0.0
220
0.0
230
1.0
 70
     8
 71
     3
 72
     9
 73
     5
 74
     0
 42
0.0000001
 43
0.0000000001
 40
0.0
 40
0.0
 40
0.0
 40
0.0
 40
0.5000057484
 40
1.0
 40
1.0
 40
1.0
 40
1.0
 10
437.8845897014944
 20
-258.1300087695854
 30
0.0
 10
439.2353888394937
 20
-258.1287241745849
 30
0.0
 10
441.955372489494
 20
-257.6843664945845
 30
0.0
 10
444.3840232714937
 20
-256.3750465675839
 30
0.0
 10
445.4490373494954
 20
-255.5441909445836
 30
0.0
  0
SPLINE
  5
1EF
330
70
100
AcDbEntity
  8
DETAIL
100
AcDbSpline
210
0.0
220
0.0
230
1.0
 70
     8
 71
     3
 72
     8
 73
     4
 74
     0
 42
0.0000001
 43
0.0000000001
 40
0.0
 40
0.0
 40
0.0
 40
0.0
 40
1.0
 40
1.0
 40
1.0
 40
1.0
 10
376.6991634604965
 20
-199.2349998905847
 30
0.0
 10
376.6588848034953
 20
-199.2968948345842
 30
0.0
 10
376.6508439934951
 20
-199.3775605425835
 30
0.0
 10
376.651726424494
 20
-199.4514021005852
 30
0.0
  0
SPLINE
  5
1F0
330
70
100
AcDbEntity
  8
DETAIL
100
AcDbSpline
210
0.0
220
0.0
230
1.0
 70
     8
 71
     3
 72
     8
 73
     4
 74
     0
 42
0.0000001
 43
0.0000000001
 40
0.0
 40
0.0
 40
0.0
 40
0.0
 40
1.0
 40
1.0
 40
1.0
 40
1.0
 10
499.1174512084945
 20
-199.4513942415833
 30
0.0
 10
499.1183429034935
 20
-199.3775556485852
 30
0.0
 10
499.1103632474951
 20
-199.2968482335855
 30
0.0
 10
499.0700182924956
 20
-199.2349998905847
 30
0.0
  0
SPLINE
  5
1F1
330
70
100
AcDbEntity
  8
OUTLINE
100
AcDbSpline
210
0.0
220
0.0
230
1.0
 70
     8
 71
     3
 72
     9
 73
     5
 74
     0
 42
0.0000001
 43
0.0000000001
 40
0.0
 40
0.0
 40
0.0
 40
0.0
 40
0.7524919673000001
 40
1.0
 40
1.0
 40
1.0
 40
1.0
 10
437.8858617534933
 20
-262.2415197105838
 30
0.0
 10
437.885812958495
 20
-262.2555045235858
 30
0.0
 10
437.8926220724934
 20
-262.266753895583
 30
0.0
 10
437.8798472574962
 20
-262.2974830375861
 30
0.0
 10
437.8844414554951
 20
-262.2972544265831
 30
0.0
  0
SPLINE
  5
1F2
330
70
100
AcDbEntity
  8
DETAIL
100
AcDbSpline
210
0.0
220
0.0
230
1.0
 70
     8
 71
     3
 72
    11
 73
     7
 74
     0
 42
0.0000001
 43
0.0000000001
 40
0.0
 40
0.0
 40
0.0
 40
0.0
 40
0.2911308791
 40
0.5596909213
 40
0.7937004373000001
 40
1.0
 40
1.0
 40
1.0
 40
1.0
 10
499.0899177334941
 20
-201.7349998905847
 30
0.0
 10
499.0883829584963
 20
-201.862314555583
 30
0.0
 10
499.0534200344955
 20
-202.1081718365858
 30
0.0
 10
498.9083328644956
 20
-202.4292465175859
 30
0.0
 10
498.6856620934958
 20
-202.6574554095859
 30
0.0
 10
498.4909624494939
 20
-202.7175474835858
 30
0.0
 10
498.4007388764949
 20
-202.7175474835858
 30
0.0
  0
SPLINE
  5
1F3
330
70
100
AcDbEntity
  8
DETAIL
100
AcDbSpline
210
0.0
220
0.0
230
1.0
 70
     8
 71
     3
 72
    11
 73
     7
 74
     0
 42
0.0000001
 43
0.0000000001
 40
0.0
 40
0.0
 40
0.0
 40
0.0
 40
0.2860131986
 40
0.5520940763000001
 40
0.7879531835
 40
1.0
 40
1.0
 40
1.0
 40
1.0
 10
487.0532960314922
 20
-201.7349998905847
 30
0.0
 10
487.0549015644938
 20
-201.8622909175828
 30
0.0
 10
487.0917190814943
 20
-202.1091655905839
 30
0.0
 10
487.2444731154937
 20
-202.4312101775831
 30
0.0
 10
487.4790368634931
 20
-202.6588507555862
 30
0.0
 10
487.6808077704954
 20
-202.7175474835858
 30
0.0
 10
487.7751873454944
 20
-202.7175474835858
 30
0.0
  0
SPLINE
  5
1F4
330
70
100
AcDbEntity
  8
DETAIL
100
AcDbSpline
210
0.0
220
0.0
230
1.0
 70
     8
 71
     3
 72
    11
 73
     7
 74
     0
 42
0.0000001
 43
0.0000000001
 40
0.0
 40
0.0
 40
0.0
 40
0.0
 40
0.2857968029
 40
0.5517101966000001
 40
0.7875879683
 40
1.0
 40
1.0
 40
1.0
 40
1.0
 10
487.046549179493
 20
-201.2000950775837
 30
0.0
 10
487.0449436644958
 20
-201.0728073785831
 30
0.0
 10
487.0081283214931
 20
-200.825924273584
 30
0.0
 10
486.8552788974957
 20
-200.5037998215848
 30
0.0
 10
486.6202463594927
 20
-200.2761086285827
 30
0.0
 10
486.4181183894943
 20
-200.2175474835858
 30
0.0
 10
486.3235071514973
 20
-200.2175474835858
 30
0.0
  0
SPLINE
  5
1F5
330
70
100
AcDbEntity
  8
DETAIL
100
AcDbSpline
210
0.0
220
0.0
230
1.0
 70
     8
 71
     3
 72
    11
 73
     7
 74
     0
 42
0.0000001
 43
0.0000000001
 40
0.0
 40
0.0
 40
0.0
 40
0.0
 40
0.2857968029
 40
0.5517101966000001
 40
0.7875879683
 40
1.0
 40
1.0
 40
1.0
 40
1.0
 10
388.7226293364947
 20
-201.2000950775837
 30
0.0
 10
388.7242348514956
 20
-201.0728073785831
 30
0.0
 10
388.7610501934942
 20
-200.825924273584
 30
0.0
 10
388.9138996184956
 20
-200.5037998215848
 30
0.0
 10
389.1489321554946
 20
-200.2761086285827
 30
0.0
 10
389.351060126497
 20
-200.2175474835858
 30
0.0
 10
389.445671364494
 20
-200.2175474835858
 30
0.0
  0
SPLINE
  5
1F6
330
70
100
AcDbEntity
  8
DETAIL
100
AcDbSpline
210
0.0
220
0.0
230
1.0
 70
     8
 71
     3
 72
    11
 73
     7
 74
     0
 42
0.0000001
 43
0.0000000001
 40
0.0
 40
0.0
 40
0.0
 40
0.0
 40
0.2860131986
 40
0.5520940763000001
 40
0.7879531835
 40
1.0
 40
1.0
 40
1.0
 40
1.0
 10
388.7158824844919
 20
-201.7349998905847
 30
0.0
 10
388.7142769514939
 20
-201.8622909175828
 30
0.0
 10
388.6774594334966
 20
-202.1091655905839
 30
0.0
 10
388.524705400494
 20
-202.4312101775831
 30
0.0
 10
388.2901416524946
 20
-202.6588507555862
 30
0.0
 10
388.0883707454959
 20
-202.7175474835858
 30
0.0
 10
387.9939911704933
 20
-202.7175474835858
 30
0.0
  0
SPLINE
  5
1F7
330
70
100
AcDbEntity
  8
DETAIL
100
AcDbSpline
210
0.0
220
0.0
230
1.0
 70
     8
 71
     3
 72
    11
 73
     7
 74
     0
 42
0.0000001
 43
0.0000000001
 40
0.0
 40
0.0
 40
0.0
 40
0.0
 40
0.291130879
 40
0.5596909211
 40
0.7937004373000001
 40
1.0
 40
1.0
 40
1.0
 40
1.0
 10
376.6792607824937
 20
-201.7349998905847
 30
0.0
 10
376.680795557495
 20
-201.862314555583
 30
0.0
 10
376.7157584814959
 20
-202.1081718365858
 30
0.0
 10
376.8608456514958
 20
-202.4292465175859
 30
0.0
 10
377.0835164224954
 20
-202.6574554095859
 30
0.0
 10
377.2782160664938
 20
-202.7175474835858
 30
0.0
 10
377.3684396394929
 20
-202.7175474835858
 30
0.0
  0
LINE
  5
1F8
330
70
100
AcDbEntity
  8
OUTLINE
  6
CENTER
370
    13
100
AcDbLine
 10
-631.8907572340067
 20
261.8824525164164
 30
0.0
 11
-631.8907572340067
 21
266.8824525164164
 31
0.0
  0
LINE
  5
1F9
330
70
100
AcDbEntity
  8
OUTLINE
  6
CENTER
370
    13
100
AcDbLine
 10
589.1092427659932
 20
266.8824525164164
 30
0.0
 11
589.1092427659932
 21
264.1697003154295
 31
-0.0000000000000142
  0
LINE
  5
1FA
330
70
100
AcDbEntity
  8
DETAIL
  6
CENTER
370
    13
100
AcDbLine
 10
589.1092427659932
 20
263.38245251642
 30
-0.0000000000000142
 11
589.1092427659932
 21
261.8824525164164
 31
0.0
  0
LINE
  5
1FB
330
70
100
AcDbEntity
  8
DETAIL
  6
CENTER
370
    13
100
AcDbLine
 10
565.1092427659932
 20
266.8824525164164
 30
0.0
 11
565.1092427659932
 21
261.8824525164164
 31
0.0
  0
CIRCLE
  5
1FC
330
70
100
AcDbEntity
  8
ARRANGE
  6
Continuous
 62
     1
100
AcDbCircle
 10
-24.8907572340031
 20
266.8824525164182
 30
0.0
 40
50.0
  0
LINE
  5
1FF
330
70
100
AcDbEntity
  8
ARRANGE
  6
Continuous
 62
     1
100
AcDbLine
 10
-74.92810726533571
 20
217.360099366093
 30
0.0
 11
25.14659279732223
 21
316.4048056667434
 31
0.0
  0
LINE
  5
200
330
70
100
AcDbEntity
  8
ARRANGE
  6
Continuous
 62
     1
100
AcDbLine
 10
-74.85452054450798
 20
316.4790473144039
 30
0.0
 11
25.0730060764945
 21
217.2858577184361
 31
0.0
  0
LINE
  5
201
330
70
100
AcDbEntity
  8
AM_7
100
AcDbLine
 10
-660.6907572330092
 20
186.7169604140854
 30
0.0
 11
-660.6907572330019
 21
246.9968925039702
 31
0.0
1001
GENIUS_GENODEF_13
1002
{
1000
HIER
1070
     0
1002
}
1002
{
1000
MANEDIT
1070
     0
1002
}
1002
{
1000
NOSEL
1070
     0
1002
}
1002
{
1000
BEHIND
1070
     0
1002
}
1002
{
1000
OTHER
1070
     0
1002
}
1002
{
1000
REACTOR
1002
}
1001
GENIUS_GENOBJ-N-CEN_13
1002
{
1000
OWNER
1000
GEN
1002
}
1001
GENIUS_GENCEN_19
1002
{
1040
5.0
1002
}
  0
LINE
  5
203
330
70
100
AcDbEntity
  8
AM_7
100
AcDbLine
 10
617.9092427669965
 20
241.3809805456876
 30
0.0
 11
617.9092427669965
 21
191.3375472044608
 31
0.0
1001
GENIUS_GENODEF_13
1002
{
1000
HIER
1070
     0
1002
}
1002
{
1000
MANEDIT
1070
     0
1002
}
1002
{
1000
NOSEL
1070
     0
1002
}
1002
{
1000
BEHIND
1070
     0
1002
}
1002
{
1000
OTHER
1070
     0
1002
}
1002
{
1000
REACTOR
1002
}
1001
GENIUS_GENOBJ-N-CEN_13
1002
{
1000
OWNER
1000
GEN
1002
}
1001
GENIUS_GENCEN_19
1002
{
1040
5.0
1002
}
  0
CIRCLE
  5
204
330
70
100
AcDbEntity
  8
FIX
  6
Continuous
 62
    11
100
AcDbCircle
 10
617.9092427669965
 20
214.8824525164182
 30
0.0
 40
15.47544973867843
  0
CIRCLE
  5
207
330
70
100
AcDbEntity
  8
FIX
  6
Continuous
 62
    11
100
AcDbCircle
 10
-660.6907572330055
 20
214.7944833562451
 30
0.0
 40
15.47544973867843
  0
LINE
  5
208
330
70
100
AcDbEntity
  8
NOTE
  6
Continuous
 62
     4
100
AcDbLine
 10
680.9900883591945
 20
188.9491982293803
 30
0.0
 11
653.0468472390894
 21
188.9491982293803
 31
0.0
  0
LINE
  5
209
330
70
100
AcDbEntity
  8
NOTE
  6
Continuous
 62
     4
100
AcDbLine
 10
667.0184677991419
 20
202.8074348858172
 30
0.0
 11
667.0184677991419
 21
175.0909615729433
 31
0.0
  0
POINT
  5
20A
330
70
100
AcDbEntity
  8
BASIS
100
AcDbPoint
 10
704.309242765994
 20
222.2824525164178
 30
0.0
  0
LINE
  5
20B
330
70
100
AcDbEntity
  8
DETAIL
100
AcDbLine
 10
-631.8907572340067
 20
257.4258267812693
 30
0.0
 11
-597.5572221211805
 21
257.4258267812693
 31
0.0
  0
LINE
  5
20C
330
70
100
AcDbEntity
  8
DETAIL
100
AcDbLine
 10
-597.5572221211805
 20
257.4258267812693
 30
0.0
 11
-597.5572221211805
 21
232.0824525164171
 31
0.0
  0
LINE
  5
20D
330
70
100
AcDbEntity
  8
DETAIL
100
AcDbLine
 10
584.7092427659918
 20
209.2824525164124
 30
0.0
 11
584.7092427659881
 21
173.9824525164131
 31
0.0
  0
LINE
  5
20E
330
70
100
AcDbEntity
  8
3_ALL_AXES
  6
PHANTOM
 62
     5
370
    13
100
AcDbLine
 10
-636.4907572340089
 20
193.0372001769174
 30
0.0
 11
-705.4907572340052
 21
185.0372001769174
 31
0.0
  0
LINE
  5
211
330
70
100
AcDbEntity
  8
3_ALL_AXES
  6
PHANTOM
 62
     5
370
    13
100
AcDbLine
 10
-631.4907572340089
 20
193.0372001769174
 30
0.0
 11
-636.4907572340089
 21
193.0372001769174
 31
0.0
  0
LINE
  5
212
330
70
100
AcDbEntity
  8
3_ALL_AXES
  6
PHANTOM
 62
     5
370
    13
100
AcDbLine
 10
-705.4907572340052
 20
185.0372001769174
 30
0.0
 11
-713.4907572340089
 21
185.0372001769174
 31
0.0
  0
LINE
  5
213
330
70
100
AcDbEntity
  8
3_ALL_AXES
  6
PHANTOM
 62
     5
370
    13
100
AcDbLine
 10
-705.4907572340052
 20
-56.96279982308261
 30
0.0
 11
-713.4907572340052
 21
-56.96279982308261
 31
0.0
  0
LINE
  5
214
330
70
100
AcDbEntity
  8
0
 62
     5
100
AcDbLine
 10
-631.4907572340089
 20
193.0372001769174
 30
0.0
 11
-631.4907572340053
 21
-64.9627998220858
 31
0.0
  0
LINE
  5
215
330
70
100
AcDbEntity
  8
3_ALL_AXES
  6
PHANTOM
 62
     5
370
    13
100
AcDbLine
 10
-636.4907572340089
 20
193.0372001769174
 30
0.0
 11
-636.4907572340053
 21
-64.96279982153828
 31
0.0
  0
LINE
  5
216
330
70
100
AcDbEntity
  8
3_ALL_AXES
  6
PHANTOM
 62
     5
370
    13
100
AcDbLine
 10
-636.4907572340053
 20
-64.96279982153828
 30
0.0
 11
-705.4907572340052
 21
-56.96279982308261
 31
0.0
  0
LINE
  5
217
330
70
100
AcDbEntity
  8
3_ALL_AXES
  6
PHANTOM
 62
     5
370
    13
100
AcDbLine
 10
-705.4907572340052
 20
185.0372001769174
 30
0.0
 11
-705.4907572340052
 21
-56.96279982308261
 31
0.0
  0
LINE
  5
218
330
70
100
AcDbEntity
  8
3_ALL_AXES
  6
PHANTOM
 62
     5
370
    13
100
AcDbLine
 10
-713.4907572340089
 20
185.0370319569156
 30
0.0
 11
-713.4907572340052
 21
-56.962631602084
 31
0.0
  0
LINE
  5
219
330
70
100
AcDbEntity
  8
NOTE
  6
CENTER
100
AcDbLine
 10
-621.2277904412221
 20
64.0372001774158
 30
0.0
 11
-745.7454702719478
 21
64.0372001774158
 31
0.0
1001
GENIUS_GENODEF_13
1002
{
1000
HIER
1070
     0
1002
}
1002
{
1000
MANEDIT
1070
     0
1002
}
1002
{
1000
NOSEL
1070
     0
1002
}
1002
{
1000
BEHIND
1070
     0
1002
}
1002
{
1000
OTHER
1070
     0
1002
}
1002
{
1000
REACTOR
1002
}
1001
GENIUS_GENOBJ-N-CEN_13
1002
{
1000
OWNER
1000
GEN
1002
}
1001
GENIUS_GENCEN_19
1002
{
1040
5.0
1002
}
  0
LINE
  5
21A
330
70
100
AcDbEntity
  8
3_ALL_AXES
  6
PHANTOM
 62
     5
370
    13
100
AcDbLine
 10
-631.4907572340053
 20
-64.9627998220858
 30
0.0
 11
-636.4907572292759
 21
-64.9627998220858
 31
0.0
  0
TEXT
  5
231
330
70
100
AcDbEntity
  8
ETC
  6
Continuous
 62
    61
100
AcDbText
 10
-716.6219719379378
 20
1098.542549111049
 30
0.0
 40
80.0
  1
LGH-100RVS-E_5
 50
0.0000029998804485
 41
0.8
  7
STANDARD_MODELNAME
100
AcDbText
  0
DIMENSION
  5
234
330
70
100
AcDbEntity
  8
SIZE
100
AcDbDimension
  2
*D17
 10
704.3092427659953
 20
-422.5053851283291
 30
0.0
 11
632.0980235612109
 21
-422.5053851283291
 31
0.0
 70
   160
  1
 
 71
     5
 42
115.0000000638229
  3
JIS2$0
100
AcDbAlignedDimension
 13
589.3092427021724
 23
-195.2175475701651
 33
0.0
 14
704.3092427659953
 24
-38.11754748358271
 34
0.0
 50
180.0
100
AcDbRotatedDimension
1001
ACAD_DSTYLE_DIMINSPECT
1070
   396
1000
100%
1070
   395
1000

1070
   394
1070
    33
1070
   393
1070
     0
1001
ACAD
1000
DSTYLE
1002
{
1070
    41
1040
30.0
1070
   144
1040
15.0
1070
   173
1070
     1
1070
   271
1070
     0
1070
   342
1005
0
1070
   343
1005
23D
1070
   344
1005
23D
1002
}
1001
ACAD_DSTYLE_DIMFLIPARROW_WHICH_SYMBOL
1070
   386
1070
     1
  0
DIMENSION
  5
249
330
70
100
AcDbEntity
  8
SIZE
100
AcDbDimension
  2
*D18
 10
932.3453264065534
 20
266.8824526852634
 30
0.0
 11
932.3453264065532
 21
244.582452672811
 31
0.0
 70
   160
  1
 
 71
     5
 42
44.60000002490417
  3
JIS2$0
100
AcDbAlignedDimension
 13
703.1092427653306
 23
222.282452660359
 33
0.0
 14
587.50924270118
 24
266.8824526852632
 34
0.0
 50
270.0
100
AcDbRotatedDimension
1001
ACAD_DIMASSOC_OVERRIDDEN_DIMLFAC
1040
15.0
1001
ACAD_DIMASSOC_CALC_DIMLFAC
1040
-19.9999999889444
1001
ACAD_DIMASSOC_DIMLFAC
1040
-19.9999999889444
1001
ACAD_DSTYLE_DIMINSPECT
1070
   396
1000
100%
1070
   395
1000

1070
   394
1070
    33
1070
   393
1070
     0
1001
ACAD
1000
DSTYLE
1002
{
1070
    41
1040
30.0
1070
   144
1040
19.9999999889444
1070
   147
1040
1.0
1070
   173
1070
     1
1070
   271
1070
     0
1070
   342
1005
0
1070
   343
1005
23D
1070
   344
1005
23D
1002
}
  0
DIMENSION
  5
257
330
70
100
AcDbEntity
  8
SIZE
100
AcDbDimension
  2
*D19
 10
1027.685367723244
 20
266.8824526852634
 30
0.0
 11
1027.685367723244
 21
27.97365831615844
 31
0.0
 70
   160
  1
 
 71
     5
 42
465.1000002571018
  3
JIS2$0
100
AcDbAlignedDimension
 13
587.3092427010683
 23
-198.2175475718386
 33
0.0
 14
587.50924270118
 24
266.8824526852632
 34
0.0
 50
270.0
100
AcDbRotatedDimension
1001
ACAD_DIMASSOC_OVERRIDDEN_DIMLFAC
1040
15.0
1001
ACAD_DIMASSOC_CALC_DIMLFAC
1040
-19.9999999889444
1001
ACAD_DIMASSOC_DIMLFAC
1040
-19.9999999889444
1001
ACAD_DSTYLE_DIMINSPECT
1070
   396
1000
100%
1070
   395
1000

1070
   394
1070
    33
1070
   393
1070
     0
1001
ACAD
1000
DSTYLE
1002
{
1070
    41
1040
30.0
1070
   343
1005
23D
1070
   342
1005
0
1070
   173
1070
     1
1070
   344
1005
23D
1070
     3
1000

1070
   144
1040
19.9999999889444
1070
   271
1070
     0
1002
}
  0
DIMENSION
  5
263
330
70
100
AcDbEntity
  8
SIZE
100
AcDbDimension
  2
*D20
 10
-748.0846728561147
 20
214.8824525164174
 30
0.0
 11
-748.0846728561146
 21
242.4824525316701
 31
0.0
 70
   160
  1
 
 71
     5
 42
55.20000003050515
  3
JIS2$0
100
AcDbAlignedDimension
 13
-631.8907572105659
 23
270.0824525469225
 33
0.0
 14
-674.2907572340032
 24
214.8824525164173
 34
0.0
 50
270.0
100
AcDbRotatedDimension
1001
ACAD_DIMASSOC_OVERRIDDEN_DIMLFAC
1040
15.0
1001
ACAD_DIMASSOC_CALC_DIMLFAC
1040
-19.9999999889444
1001
ACAD_DIMASSOC_DIMLFAC
1040
-19.9999999889444
1001
ACAD_DSTYLE_DIMINSPECT
1070
   396
1000
100%
1070
   395
1000

1070
   394
1070
    33
1070
   393
1070
     0
1001
ACAD
1000
DSTYLE
1002
{
1070
    41
1040
30.0
1070
   144
1040
19.9999999889444
1070
   173
1070
     1
1070
   271
1070
     0
1070
   342
1005
0
1070
   343
1005
23D
1070
   344
1005
23D
1002
}
  0
DIMENSION
  5
271
330
70
100
AcDbEntity
  8
SIZE
100
AcDbDimension
  2
*D21
 10
259.1804275152295
 20
-262.2846862351427
 30
0.0
 11
259.1804275152294
 21
-232.0471216506933
 31
0.0
 70
   160
  1
 
 71
     5
 42
64.06713866330398
  3
JIS2$0
100
AcDbAlignedDimension
 13
271.4691159153731
 23
-198.2175475718386
 33
0.0
 14
435.9504040454007
 24
-262.2846862351425
 34
0.0
 50
270.0
100
AcDbRotatedDimension
1001
ACAD_DIMASSOC_OVERRIDDEN_DIMLFAC
1040
15.0
1001
ACAD_DIMASSOC_CALC_DIMLFAC
1040
-19.9999999889444
1001
ACAD_DIMASSOC_DIMLFAC
1040
-19.9999999889444
1001
ACAD_DSTYLE_DIMINSPECT
1070
   396
1000
100%
1070
   395
1000

1070
   394
1070
    33
1070
   393
1070
     0
1001
ACAD
1000
DSTYLE
1002
{
1070
    41
1040
30.0
1070
   144
1040
19.9999999889444
1070
   173
1070
     1
1070
   271
1070
     0
1070
   342
1005
0
1070
   343
1005
23D
1070
   344
1005
23D
1002
}
  0
DIMENSION
  5
27D
330
70
100
AcDbEntity
  8
SIZE
100
AcDbDimension
  2
*D22
 10
589.3092427021724
 20
-422.5053851283291
 30
0.0
 11
512.6298233737866
 21
-422.5053851283291
 31
0.0
 70
   160
  1
 
 71
     5
 42
153.3588386567717
  3
JIS2$0
100
AcDbAlignedDimension
 13
435.9504040454007
 23
-299.1302239643983
 33
0.0
 14
589.3092427021724
 24
-195.2175475701651
 34
0.0
 50
180.0
100
AcDbRotatedDimension
1001
ACAD_DIMASSOC_OVERRIDDEN_DIMLFAC
1040
15.0
1001
ACAD_DIMASSOC_CALC_DIMLFAC
1040
-19.9999999889444
1001
ACAD_DIMASSOC_DIMLFAC
1040
-19.9999999889444
1001
ACAD_DSTYLE_DIMINSPECT
1070
   396
1000
100%
1070
   395
1000

1070
   394
1070
    33
1070
   393
1070
     0
1001
ACAD
1000
DSTYLE
1002
{
1070
    41
1040
30.0
1070
   144
1040
19.9999999889444
1070
   173
1070
     1
1070
   271
1070
     0
1070
   342
1005
0
1070
   343
1005
23D
1070
   344
1005
23D
1002
}
1001
ACAD_DSTYLE_DIMFLIPARROW_WHICH_SYMBOL
1070
   386
1070
     1
  0
DIMENSION
  5
28B
330
70
100
AcDbEntity
  8
SIZE
100
AcDbDimension
  2
*D23
 10
803.6165253375617
 20
101.5824525938961
 30
0.0
 11
803.6165253375616
 21
184.23245263958
 31
0.0
 70
   160
  1
 
 71
     5
 42
165.3000000913671
  3
JIS2$0
100
AcDbAlignedDimension
 13
587.5092427011764
 23
266.8824526852632
 33
0.0
 14
609.2092427134243
 24
101.582452593896
 34
0.0
 50
270.0
100
AcDbRotatedDimension
1001
ACAD_DIMASSOC_CALC_DIMLFAC
1040
-19.9999999889444
1001
ACAD_DIMASSOC_DIMLFAC
1040
-19.9999999889444
1001
ACAD_DIMASSOC_OVERRIDDEN_DIMLFAC
1040
15.0
1001
ACAD_DSTYLE_DIMINSPECT
1070
   396
1000
100%
1070
   395
1000

1070
   394
1070
    33
1070
   393
1070
     0
1001
ACAD
1000
DSTYLE
1002
{
1070
    41
1040
30.0
1070
   144
1040
19.9999999889444
1070
   173
1070
     1
1070
   271
1070
     0
1070
   342
1005
0
1070
   343
1005
23D
1070
   344
1005
23D
1002
}
1001
ACAD_DSTYLE_DIMFLIPARROW_WHICH_SYMBOL
1070
   386
1070
     3
  0
MTEXT
  5
29B
330
70
100
AcDbEntity
  8
SIZE
100
AcDbMText
 10
-773.6819792801238
 20
264.1475947057031
 30
0.0
 40
40.0
 41
242.2450763362503
 71
     9
 72
     5
  1
55
 11
-0.0000000000000001
 21
1.0
 31
0.0
 73
     1
 44
1.0
1001
ACAD
1000
ACAD_MTEXT_COLUMN_INFO_BEGIN
1070
    75
1070
     2
1070
    79
1070
     0
1070
    76
1070
     1
1070
    78
1070
     0
1070
    48
1040
242.2450763362503
1070
    49
1040
17.5
1070
    50
1070
     1
1040
0.0
1000
ACAD_MTEXT_COLUMN_INFO_END
1000
MTEXTBEGIN
1070
    73
1070
     1
1070
    44
1040
1.0
1070
    74
1070
     0
1000
MTEXTEND
  0
MTEXT
  5
29C
330
70
100
AcDbEntity
  8
SIZE
100
AcDbMText
 10
475.0532165747476
 20
-372.6599995559691
 30
0.0
 40
40.0
 41
242.2450763362503
 71
     1
 72
     5
  1
153
 73
     1
 44
1.0
1001
ACAD
1000
ACAD_MTEXT_COLUMN_INFO_BEGIN
1070
    75
1070
     2
1070
    79
1070
     0
1070
    76
1070
     1
1070
    78
1070
     0
1070
    48
1040
242.2450763362503
1070
    49
1040
17.5
1070
    50
1070
     1
1040
0.0
1000
ACAD_MTEXT_COLUMN_INFO_END
1000
MTEXTBEGIN
1070
    73
1070
     1
1070
    44
1040
1.0
1070
    74
1070
     0
1000
MTEXTEND
  0
MTEXT
  5
29D
330
70
100
AcDbEntity
  8
SIZE
100
AcDbMText
 10
616.0014989615188
 20
-374.1212795748338
 30
0.0
 40
40.0
 41
242.2450763362503
 71
     1
 72
     5
  1
115
 73
     1
 44
1.0
1001
ACAD
1000
ACAD_MTEXT_COLUMN_INFO_BEGIN
1070
    75
1070
     2
1070
    79
1070
     0
1070
    76
1070
     1
1070
    78
1070
     0
1070
    48
1040
242.2450763362503
1070
    49
1040
17.5
1070
    50
1070
     1
1040
0.0
1000
ACAD_MTEXT_COLUMN_INFO_END
1000
MTEXTBEGIN
1070
    73
1070
     1
1070
    44
1040
1.0
1070
    74
1070
     0
1000
MTEXTEND
  0
MTEXT
  5
29E
330
70
100
AcDbEntity
  8
SIZE
100
AcDbMText
 10
224.6606319326288
 20
-209.0001315440923
 30
0.0
 40
40.0
 41
242.2450763362503
 71
     9
 72
     5
  1
64
 11
-0.0000000000000001
 21
1.0
 31
0.0
 73
     1
 44
1.0
1001
ACAD
1000
ACAD_MTEXT_COLUMN_INFO_BEGIN
1070
    75
1070
     2
1070
    79
1070
     0
1070
    76
1070
     1
1070
    78
1070
     0
1070
    48
1040
242.2450763362503
1070
    49
1040
17.5
1070
    50
1070
     1
1040
0.0
1000
ACAD_MTEXT_COLUMN_INFO_END
1000
MTEXTBEGIN
1070
    73
1070
     1
1070
    44
1040
1.0
1070
    74
1070
     0
1000
MTEXTEND
  0
MTEXT
  5
29F
330
70
100
AcDbEntity
  8
SIZE
100
AcDbMText
 10
1016.743492633913
 20
67.18900939915465
 30
0.0
 40
40.0
 41
242.2450763362503
 71
     9
 72
     5
  1
465
 11
-0.0000000000000001
 21
1.0
 31
0.0
 73
     1
 44
1.0
1001
ACAD
1000
ACAD_MTEXT_COLUMN_INFO_BEGIN
1070
    75
1070
     2
1070
    79
1070
     0
1070
    76
1070
     1
1070
    78
1070
     0
1070
    48
1040
242.2450763362503
1070
    49
1040
17.5
1070
    50
1070
     1
1040
0.0
1000
ACAD_MTEXT_COLUMN_INFO_END
1000
MTEXTBEGIN
1070
    73
1070
     1
1070
    44
1040
1.0
1070
    74
1070
     0
1000
MTEXTEND
  0
MTEXT
  5
2A0
330
70
100
AcDbEntity
  8
SIZE
100
AcDbMText
 10
920.6483723505966
 20
196.044866964831
 30
0.0
 40
40.0
 41
242.2450763362503
 71
     9
 72
     5
  1
45
 11
-0.0000000000000001
 21
1.0
 31
0.0
 73
     1
 44
1.0
1001
ACAD
1000
ACAD_MTEXT_COLUMN_INFO_BEGIN
1070
    75
1070
     2
1070
    79
1070
     0
1070
    76
1070
     1
1070
    78
1070
     0
1070
    48
1040
242.2450763362503
1070
    49
1040
17.5
1070
    50
1070
     1
1040
0.0
1000
ACAD_MTEXT_COLUMN_INFO_END
1000
MTEXTBEGIN
1070
    73
1070
     1
1070
    44
1040
1.0
1070
    74
1070
     0
1000
MTEXTEND
  0
MTEXT
  5
2A1
330
70
100
AcDbEntity
  8
SIZE
100
AcDbMText
 10
779.9581265770389
 20
204.7527989245514
 30
0.0
 40
40.0
 41
242.2450763362503
 71
     9
 72
     5
  1
165
 11
-0.0000000000000001
 21
1.0
 31
0.0
 73
     1
 44
1.0
1001
ACAD
1000
ACAD_MTEXT_COLUMN_INFO_BEGIN
1070
    75
1070
     2
1070
    79
1070
     0
1070
    76
1070
     1
1070
    78
1070
     0
1070
    48
1040
242.2450763362503
1070
    49
1040
17.5
1070
    50
1070
     1
1040
0.0
1000
ACAD_MTEXT_COLUMN_INFO_END
1000
MTEXTBEGIN
1070
    73
1070
     1
1070
    44
1040
1.0
1070
    74
1070
     0
1000
MTEXTEND
  0
DIMENSION
  5
2A2
330
70
100
AcDbEntity
  8
SIZE
100
AcDbDimension
  2
*D24
 10
437.3092427659953
 20
437.8544614652996
 30
0.0
 11
-131.5907572340033
 21
437.8544614652996
 31
0.0
 70
   160
  1
 
 71
     5
 42
910.3999999999977
  3
JIS2$0
100
AcDbAlignedDimension
 13
-473.0907572340024
 23
256.5556648237916
 33
0.0
 14
437.3092427659953
 24
256.7782862131289
 34
0.0
100
AcDbRotatedDimension
1001
ACAD_DIMASSOC_CALC_DIMLFAC
1040
-1.0
1001
ACAD_DIMASSOC_DIMLFAC
1040
-1.0
1001
ACAD_DIMASSOC_OVERRIDDEN_DIMLFAC
1040
-1.0
1001
ACAD_DSTYLE_DIMINSPECT
1070
   396
1000
100%
1070
   395
1000

1070
   394
1070
    33
1070
   393
1070
     0
1001
ACAD
1000
DSTYLE
1002
{
1070
    41
1040
30.0
1070
   144
1040
1.0
1070
   173
1070
     1
1070
   342
1005
0
1070
   343
1005
23D
1070
   344
1005
23D
1002
}
  0
MTEXT
  5
2AE
330
70
100
AcDbEntity
  8
SIZE
100
AcDbMText
 10
3.753138479990866
 20
489.7015732100698
 30
0.0
 40
40.0
 41
242.2450763362503
 71
     3
 72
     5
  1
910
 73
     1
 44
1.0
1001
ACAD
1000
ACAD_MTEXT_COLUMN_INFO_BEGIN
1070
    75
1070
     2
1070
    79
1070
     0
1070
    76
1070
     1
1070
    78
1070
     0
1070
    48
1040
242.2450763362503
1070
    49
1040
17.5
1070
    50
1070
     1
1040
0.0
1000
ACAD_MTEXT_COLUMN_INFO_END
1000
MTEXTBEGIN
1070
    73
1070
     1
1070
    44
1040
1.0
1070
    74
1070
     0
1000
MTEXTEND
  0
DIMENSION
  5
2AF
330
70
100
AcDbEntity
  8
SIZE
100
AcDbDimension
  2
*D25
 10
-631.8907572340053
 20
519.8949369422903
 30
0.0
 11
-129.3598950721884
 21
519.8949369422903
 31
0.0
 70
   160
  1
 
 71
     5
 42
1222.599999999998
  3
JIS2$0
100
AcDbAlignedDimension
 13
590.7092427659931
 23
260.2824525164187
 33
0.0
 14
-631.8907572340053
 24
266.8824525164173
 34
0.0
100
AcDbRotatedDimension
1001
ACAD_DIMASSOC_CALC_DIMLFAC
1040
-1.0
1001
ACAD_DIMASSOC_DIMLFAC
1040
-1.0
1001
ACAD_DIMASSOC_OVERRIDDEN_DIMLFAC
1040
-1.0
1001
ACAD_DSTYLE_DIMINSPECT
1070
   396
1000
100%
1070
   395
1000

1070
   394
1070
    33
1070
   393
1070
     0
1001
ACAD
1000
DSTYLE
1002
{
1070
    41
1040
30.0
1070
   144
1040
1.0
1070
   173
1070
     1
1070
   342
1005
0
1070
   343
1005
23D
1070
   344
1005
23D
1002
}
  0
MTEXT
  5
2BB
330
70
100
AcDbEntity
  8
SIZE
100
AcDbMText
 10
13.83174008319975
 20
560.1528227564822
 30
0.0
 40
40.0
 41
242.2450763362503
 71
     3
 72
     5
  1
1224
 73
     1
 44
1.0
1001
ACAD
1000
ACAD_MTEXT_COLUMN_INFO_BEGIN
1070
    75
1070
     2
1070
    79
1070
     0
1070
    76
1070
     1
1070
    78
1070
     0
1070
    48
1040
242.2450763362503
1070
    49
1040
17.5
1070
    50
1070
     1
1040
0.0
1000
ACAD_MTEXT_COLUMN_INFO_END
1000
MTEXTBEGIN
1070
    73
1070
     1
1070
    44
1040
1.0
1070
    74
1070
     0
1000
MTEXTEND
  0
DIMENSION
  5
2BC
330
70
100
AcDbEntity
  8
SIZE
100
AcDbDimension
  2
*D26
 10
-660.6907572330006
 20
590.5955536802134
 30
0.0
 11
-134.1049095924541
 21
590.5955536802134
 31
0.0
 70
   160
  1
 
 71
     5
 42
1278.599999999998
  3
JIS2$0
100
AcDbAlignedDimension
 13
617.909242766998
 23
241.3809805456885
 33
0.0
 14
-660.6907572330006
 24
246.9968925039712
 34
0.0
100
AcDbRotatedDimension
1001
ACAD_DIMASSOC_CALC_DIMLFAC
1040
-1.0
1001
ACAD_DIMASSOC_DIMLFAC
1040
-1.0
1001
ACAD_DIMASSOC_OVERRIDDEN_DIMLFAC
1040
-1.0
1001
ACAD_DSTYLE_DIMINSPECT
1070
   396
1000
100%
1070
   395
1000

1070
   394
1070
    33
1070
   393
1070
     0
1001
ACAD
1000
DSTYLE
1002
{
1070
    41
1040
30.0
1070
   144
1040
1.0
1070
   173
1070
     1
1070
   342
1005
0
1070
   343
1005
23D
1070
   344
1005
23D
1002
}
  0
MTEXT
  5
2C8
330
70
100
AcDbEntity
  8
SIZE
100
AcDbMText
 10
11.98192569189586
 20
640.1498844924263
 30
0.0
 40
40.0
 41
242.2450763362503
 71
     3
 72
     5
  1
1279
 73
     1
 44
1.0
1001
ACAD
1000
ACAD_MTEXT_COLUMN_INFO_BEGIN
1070
    75
1070
     2
1070
    79
1070
     0
1070
    76
1070
     1
1070
    78
1070
     0
1070
    48
1040
242.2450763362503
1070
    49
1040
17.5
1070
    50
1070
     1
1040
0.0
1000
ACAD_MTEXT_COLUMN_INFO_END
1000
MTEXTBEGIN
1070
    73
1070
     1
1070
    44
1040
1.0
1070
    74
1070
     0
1000
MTEXTEND
  0
MTEXT
  5
2C9
330
70
100
AcDbEntity
  8
SIZE
100
AcDbMText
 10
-718.989021395188
 20
-117.5198160383752
 30
0.0
 40
40.0
 41
242.2450763362503
 71
     3
 72
     5
  1
φ242
 11
0.5863023667771833
 21
0.8100923001186181
 31
0.0
 73
     1
 44
1.0
1001
ACAD
1000
ACAD_MTEXT_COLUMN_INFO_BEGIN
1070
    75
1070
     2
1070
    79
1070
     0
1070
    76
1070
     1
1070
    78
1070
     0
1070
    48
1040
242.2450763362503
1070
    49
1040
17.5
1070
    50
1070
     1
1040
0.0
1000
ACAD_MTEXT_COLUMN_INFO_END
1000
MTEXTBEGIN
1070
    73
1070
     1
1070
    44
1040
1.0
1070
    74
1070
     0
1000
MTEXTEND
  0
MTEXT
  5
2CA
330
70
100
AcDbEntity
  8
SIZE
100
AcDbMText
 10
-666.559419660884
 20
-192.4911390258118
 30
0.0
 40
40.0
 41
242.2450763362503
 71
     3
 72
     5
  1
φ258
 11
0.5157663987973457
 21
0.8567292582091599
 31
0.0
 73
     1
 44
1.0
1001
ACAD
1000
ACAD_MTEXT_COLUMN_INFO_BEGIN
1070
    75
1070
     2
1070
    79
1070
     0
1070
    76
1070
     1
1070
    78
1070
     0
1070
    48
1040
242.2450763362503
1070
    49
1040
17.5
1070
    50
1070
     1
1040
0.0
1000
ACAD_MTEXT_COLUMN_INFO_END
1000
MTEXTBEGIN
1070
    73
1070
     1
1070
    44
1040
1.0
1070
    74
1070
     0
1000
MTEXTEND
  0
DIMENSION
  5
2CB
330
70
100
AcDbEntity
  8
SIZE
100
AcDbDimension
  2
*D27
 10
-398.5621218591587
 20
195.8879269554111
 30
0.0
 11
-751.5183872637225
 21
-250.7284359738342
 31
0.0
 70
   163
  1
 
 71
     5
 42
240.4000000000002
  3
JIS2$3
100
AcDbDiametricDimension
 15
-547.6193926088463
 25
7.276978077424757
 35
0.0
 40
0.0
1001
ACAD_DIMASSOC_CALC_DIMLFAC
1040
-1.0
1001
ACAD_DIMASSOC_DIMLFAC
1040
-1.0
1001
ACAD_DIMASSOC_OVERRIDDEN_DIMLFAC
1040
-1.0
1001
ACAD_DSTYLE_DIMRADIAL_EXTENSION
1070
   387
1070
     1
1070
   388
1040
0.0
1070
   390
1040
0.0
1001
ACAD_DSTYLE_DIMINSPECT
1070
   396
1000
100%
1070
   395
1000

1070
   394
1070
    33
1070
   393
1070
     0
1001
ACAD
1000
DSTYLE
1002
{
1070
    41
1040
30.0
1070
   144
1040
1.0
1070
   173
1070
     1
1070
   342
1005
0
1070
   343
1005
23D
1070
   344
1005
23D
1002
}
  0
DIMENSION
  5
2D5
330
70
100
AcDbEntity
  8
SIZE
100
AcDbDimension
  2
*D28
 10
-415.2430286213534
 20
216.8848388506014
 30
0.0
 11
-686.9548535566482
 21
-324.6925499529587
 31
0.0
 70
   163
  1
 
 71
     5
 42
257.9999999999998
  3
JIS2$3
100
AcDbDiametricDimension
 15
-530.9384858466513
 25
-13.71993381776542
 35
0.0
 40
0.0
1001
ACAD_DIMASSOC_CALC_DIMLFAC
1040
-1.0
1001
ACAD_DIMASSOC_DIMLFAC
1040
-1.0
1001
ACAD_DIMASSOC_OVERRIDDEN_DIMLFAC
1040
-1.0
1001
ACAD_DSTYLE_DIMRADIAL_EXTENSION
1070
   387
1070
     1
1070
   388
1040
0.0
1070
   390
1040
0.0
1001
ACAD_DSTYLE_DIMINSPECT
1070
   396
1000
100%
1070
   395
1000

1070
   394
1070
    33
1070
   393
1070
     0
1001
ACAD
1000
DSTYLE
1002
{
1070
    41
1040
30.0
1070
   144
1040
1.0
1070
   173
1070
     1
1070
   342
1005
0
1070
   343
1005
23D
1070
   344
1005
23D
1002
}
  0
INSERT
  5
2DF
330
70
100
AcDbEntity
  8
0
100
AcDbBlockReference
  2
CustomObjectsInViewport1_0
 10
0.0
 20
0.0
 30
0.0
  0
ENDSEC
  0
SECTION
  2
OBJECTS
  0
DICTIONARY
  5
C
330
0
100
AcDbDictionary
281
     1
  3
ACAD_2007HEADERVARS_RT
350
5B0
  3
ACAD_CIP_PREVIOUS_PRODUCT_INFO
350
549
  3
ACAD_COLOR
350
63
  3
ACAD_DETAILVIEWSTYLE
350
6A
  3
ACAD_FIELDLIST
350
59C
  3
ACAD_GROUP
350
D
  3
ACAD_LAYOUT
350
62
  3
ACAD_MATERIAL
350
10
  3
ACAD_MLEADERSTYLE
350
66
  3
ACAD_MLINESTYLE
350
5F
  3
ACAD_PLOTSETTINGS
350
61
  3
ACAD_PLOTSTYLENAME
350
E
  3
ACAD_SCALELIST
350
42
  3
ACAD_SECTIONVIEWSTYLE
350
68
  3
ACAD_TABLESTYLE
350
64
  3
ACAD_VISUALSTYLE
350
29
  3
ACDB_RECOMPOSE_DATA
350
5AE
  3
AcDbVariableDictionary
350
531
  3
AcmDictionary
350
56A
  3
AMG
350
54A
  3
ASE_INDEX_DICTIONARY
350
52E
  3
DWGPROPS
350
5AF
  0
DICTIONARY
  5
C4
330
C3
100
AcDbDictionary
280
     1
281
     1
  3
ADSK_XREC_LAYER_RECONCILED
360
C5
  0
DICTIONARY
  5
C8
330
C7
100
AcDbDictionary
280
     1
281
     1
  0
DICTIONARY
  5
CD
330
CC
100
AcDbDictionary
280
     1
281
     1
  0
DICTIONARY
  5
1BC
330
1BB
100
AcDbDictionary
280
     1
281
     1
  0
DICTIONARY
  5
1BF
330
1BE
100
AcDbDictionary
280
     1
281
     1
  0
DICTIONARY
  5
1FE
330
1FD
100
AcDbDictionary
280
     1
281
     1
  0
DICTIONARY
  5
206
330
205
100
AcDbDictionary
280
     1
281
     1
  0
DICTIONARY
  5
210
330
20F
100
AcDbDictionary
280
     1
281
     1
  0
DICTIONARY
  5
233
330
232
100
AcDbDictionary
280
     1
281
     1
  0
DICTIONARY
  5
236
330
235
100
AcDbDictionary
280
     1
281
     1
  0
DICTIONARY
  5
22F
330
70
100
AcDbDictionary
280
     1
281
     1
  3
ACAD_SORTENTS
360
230
  0
DICTIONARY
  5
5B0
102
{ACAD_REACTORS
330
C
102
}
330
C
100
AcDbDictionary
281
     1
  3
DIMARCSYM
350
5B1
  3
DIMLTEX1
350
5B3
  3
DIMLTEX2
350
5B4
  3
DIMLTYPE
350
5B2
  0
XRECORD
  5
549
102
{ACAD_REACTORS
330
C
102
}
330
C
100
AcDbXrecord
280
     1
300
AMECH_PP
300
2019
300
87089AMECH_PP_2019_0F
  0
DICTIONARY
  5
63
102
{ACAD_REACTORS
330
C
102
}
330
C
100
AcDbDictionary
281
     1
  0
DICTIONARY
  5
6A
102
{ACAD_REACTORS
330
C
102
}
330
C
100
AcDbDictionary
281
     1
  3
Imperial24
350
6B
  3
Metric50
350
53E
  0
FIELDLIST
  5
59C
102
{ACAD_REACTORS
330
C
102
}
330
C
100
AcDbIdSet
 90
        3
330
59A
330
59B
330
59D
100
AcDbFieldList
  0
DICTIONARY
  5
D
102
{ACAD_REACTORS
330
C
102
}
330
C
100
AcDbDictionary
281
     1
  0
DICTIONARY
  5
62
102
{ACAD_REACTORS
330
C
102
}
330
C
100
AcDbDictionary
281
     1
  3
Model
350
73
  3
レイアウト1
350
6F
  3
レイアウト2
350
77
  0
DICTIONARY
  5
10
102
{ACAD_REACTORS
330
C
102
}
330
C
100
AcDbDictionary
281
     1
  3
ByBlock
350
19
  3
ByLayer
350
11
  3
Global
350
21
  0
DICTIONARY
  5
66
102
{ACAD_REACTORS
330
C
102
}
330
C
100
AcDbDictionary
281
     1
  3
Standard
350
67
  0
DICTIONARY
  5
5F
102
{ACAD_REACTORS
330
C
102
}
330
C
100
AcDbDictionary
281
     1
  3
Standard
350
60
  0
DICTIONARY
  5
61
102
{ACAD_REACTORS
330
C
102
}
330
C
100
AcDbDictionary
281
     1
  0
ACDBDICTIONARYWDFLT
  5
E
102
{ACAD_REACTORS
330
C
102
}
330
C
100
AcDbDictionary
281
     1
  3
Normal
350
F
100
AcDbDictionaryWithDefault
340
F
  0
DICTIONARY
  5
42
102
{ACAD_REACTORS
330
C
102
}
330
C
100
AcDbDictionary
281
     1
  3
*A1
350
BE
  3
*A2
350
BF
  3
*A3
350
C0
  3
*A4
350
C1
  3
A0
350
43
  3
A1
350
44
  3
A2
350
45
  3
A3
350
46
  3
A4
350
47
  3
A5
350
48
  3
A6
350
49
  3
A7
350
4A
  3
A8
350
4B
  3
A9
350
4C
  3
B0
350
4D
  3
B1
350
4E
  3
B2
350
4F
  3
B3
350
50
  3
B4
350
51
  3
B5
350
52
  3
B6
350
53
  0
DICTIONARY
  5
68
102
{ACAD_REACTORS
330
C
102
}
330
C
100
AcDbDictionary
281
     1
  3
Imperial24
350
69
  3
Metric50
350
53D
  0
DICTIONARY
  5
64
102
{ACAD_REACTORS
330
C
102
}
330
C
100
AcDbDictionary
281
     1
  3
Standard
350
65
  0
DICTIONARY
  5
29
102
{ACAD_REACTORS
330
C
102
}
330
C
100
AcDbDictionary
281
     1
  3
2dWireframe
350
2F
  3
Basic
350
2E
  3
Brighten
350
35
  3
ColorChange
350
39
  3
Conceptual
350
32
  3
Dim
350
34
  3
EdgeColorOff
350
41
  3
Facepattern
350
38
  3
Flat
350
2A
  3
FlatWithEdges
350
2B
  3
Gouraud
350
2C
  3
GouraudWithEdges
350
2D
  3
Hidden
350
31
  3
JitterOff
350
3F
  3
Linepattern
350
37
  3
OverhangOff
350
40
  3
Realistic
350
33
  3
Shaded
350
3E
  3
Shaded with edges
350
3D
  3
Shades of Gray
350
3A
  3
Sketchy
350
3B
  3
Thicken
350
36
  3
Wireframe
350
30
  3
X-Ray
350
3C
  0
XRECORD
  5
5AE
102
{ACAD_REACTORS
330
C
102
}
330
C
100
AcDbXrecord
280
     1
 90
        1
330
65
330
29B
330
29C
330
29D
330
29E
330
29F
330
2A0
330
2A1
330
2AE
330
2BB
330
2C8
330
2C9
330
2CA
  0
DICTIONARY
  5
531
102
{ACAD_REACTORS
330
C
102
}
330
C
100
AcDbDictionary
281
     1
  3
ANNOALLVISIBLE
350
537
  3
CANNOSCALE
350
538
  3
CMLEADERSTYLE
350
533
  3
CTABLESTYLE
350
532
  3
CVIEWDETAILSTYLE
350
534
  3
CVIEWSECTIONSTYLE
350
535
  3
DIMASSOC
350
5A9
  3
HIDETEXT
350
5A7
  3
INDEXCTL
350
5A6
  3
LAYEREVAL
350
53A
  3
LAYERNOTIFY
350
53B
  3
LIGHTINGUNITS
350
539
  3
MSLTSCALE
350
536
  3
SORTENTS
350
5A5
  3
XCLIPFRAME
350
5A8
  0
DICTIONARY
  5
56A
102
{ACAD_REACTORS
330
C
102
}
330
C
100
AcDbDictionary
281
     1
  3
AcmStdDictionary
350
571
  0
DICTIONARY
  5
54A
102
{ACAD_REACTORS
330
C
102
}
330
C
100
AcDbDictionary
281
     1
  3
AcMgSettings
350
54B
  0
DICTIONARY
  5
52E
102
{ACAD_REACTORS
330
C
102
}
330
C
100
AcDbDictionary
281
     1
  3
ASEBlockHierarchyIndexRecord
350
530
1001
DCO15
1040
2031906575.0
  0
XRECORD
  5
5AF
102
{ACAD_REACTORS
330
C
102
}
330
C
100
AcDbXrecord
280
     1
  1
DWGPROPS COOKIE
  2

  3

  4

  6

  7

  8
GM29624
  9

300
=
301
=
302
=
303
=
304
=
305
=
306
=
307
=
308
=
309
=
 40
0.0000462962962963
 41
2459320.649039352
 42
2459320.6490625
  1

 90
        0
  0
XRECORD
  5
C5
102
{ACAD_REACTORS
330
C4
102
}
330
C4
100
AcDbXrecord
280
     1
290
     1
  0
SORTENTSTABLE
  5
230
102
{ACAD_REACTORS
330
22F
102
}
330
22F
100
AcDbSortentsTable
330
70
  0
XRECORD
  5
5B1
102
{ACAD_REACTORS
330
5B0
102
}
330
5B0
100
AcDbXrecord
280
     1
 70
     1
  0
XRECORD
  5
5B3
102
{ACAD_REACTORS
330
5B0
102
}
330
5B0
100
AcDbXrecord
280
     1
340
5B
  0
XRECORD
  5
5B4
102
{ACAD_REACTORS
330
5B0
102
}
330
5B0
100
AcDbXrecord
280
     1
340
5B
  0
XRECORD
  5
5B2
102
{ACAD_REACTORS
330
5B0
102
}
330
5B0
100
AcDbXrecord
280
     1
340
5B
  0
ACDBDETAILVIEWSTYLE
  5
6B
102
{ACAD_XDICTIONARY
360
5EE
102
}
102
{ACAD_REACTORS
330
6A
330
58F
102
}
330
6A
100
AcDbModelDocViewStyle
 70
     0
  3
Imperial24
290
     0
100
AcDbDetailViewStyle
 70
     0
 71
     0
 90
        3
 71
     1
340
55
 40
0.24
340
0
 40
0.24
300

 40
0.36
280
     3
 71
     2
340
5D
 90
       25
 71
     3
340
55
 40
0.24
 90
        1
 40
0.75
 90
        1
300
%<\AcVar ViewType \f "%tc1">% %<\AcVar ViewDetailId>%\PSCALE %<\AcVar ViewScale \f "%sn">%
 71
     4
340
5D
 90
       25
340
5D
 90
       25
280
     0
  0
ACDBDETAILVIEWSTYLE
  5
53E
102
{ACAD_XDICTIONARY
360
61D
102
}
102
{ACAD_REACTORS
330
6A
330
590
102
}
330
6A
100
AcDbModelDocViewStyle
 70
     0
  3
Metric50
290
     0
100
AcDbDetailViewStyle
 70
     0
 71
     0
 90
        3
 71
     1
340
55
 40
5.0
340
0
 40
5.0
300

 40
0.0
280
     1
 71
     2
340
5D
 90
       25
 71
     3
340
55
 40
5.0
 90
        0
 40
15.0
 90
        1
300
%<\AcVar ViewDetailId>% (%<\AcVar ViewScale \f "%sn">%)
 71
     4
340
5D
 90
       25
340
5D
 90
       25
280
     0
  0
LAYOUT
  5
73
102
{ACAD_XDICTIONARY
360
5F2
102
}
102
{ACAD_REACTORS
330
62
102
}
330
62
100
AcDbPlotSettings
  1

  2
なし
  4
ISO_A4_(210.00_x_297.00_MM)
  6

 40
7.5
 41
20.0
 42
7.5
 43
20.0
 44
210.0
 45
297.0
 46
0.0
 47
0.0
 48
0.0
 49
0.0
140
0.0
141
0.0
142
1.0
143
17.75790344814775
 70
 11952
 72
     1
 73
     1
 74
     0
  7
monochrome.ctb
 75
     0
147
0.0563129539993251
148
1852.57931711486
149
732.6826982564033
100
AcDbLayout
  1
Model
 70
     1
 71
     0
 10
0.0
 20
0.0
 11
12.0
 21
9.0
 12
0.0
 22
0.0
 32
0.0
 14
0.0
 24
0.0
 34
0.0
 15
0.0
 25
0.0
 35
0.0
146
0.0
 13
0.0
 23
0.0
 33
0.0
 16
1.0
 26
0.0
 36
0.0
 17
0.0
 27
1.0
 37
0.0
 76
     0
330
70
1001
ACAD_PSEXT
1000
なし
1000
なし
1000
適切ではありません
1000
新しいプロッタ環境設定名を選択しない限り、レイアウトは印刷されません。
1070
     0
  0
LAYOUT
  5
6F
102
{ACAD_XDICTIONARY
360
5F0
102
}
102
{ACAD_REACTORS
330
62
102
}
330
62
100
AcDbPlotSettings
  1

  2
AutoCAD PDF (General Documentation).pc3
  4

  6

 40
0.0
 41
0.0
 42
0.0
 43
0.0
 44
0.0
 45
0.0
 46
0.0
 47
0.0
 48
0.0
 49
0.0
140
0.0
141
0.0
142
1.0
143
1.0
 70
   688
 72
     0
 73
     0
 74
     5
  7
monochrome.ctb
 75
    16
147
1.0
148
0.0
149
0.0
100
AcDbLayout
  1
レイアウト1
 70
     1
 71
     1
 10
0.0
 20
0.0
 11
12.0
 21
9.0
 12
0.0
 22
0.0
 32
0.0
 14
1.000000000000000E+20
 24
1.000000000000000E+20
 34
1.000000000000000E+20
 15
-1.000000000000000E+20
 25
-1.000000000000000E+20
 35
-1.000000000000000E+20
146
0.0
 13
0.0
 23
0.0
 33
0.0
 16
1.0
 26
0.0
 36
0.0
 17
0.0
 27
1.0
 37
0.0
 76
     0
330
6C
  0
LAYOUT
  5
77
102
{ACAD_XDICTIONARY
360
5F4
102
}
102
{ACAD_REACTORS
330
62
102
}
330
62
100
AcDbPlotSettings
  1

  2
AutoCAD PDF (General Documentation).pc3
  4

  6

 40
0.0
 41
0.0
 42
0.0
 43
0.0
 44
0.0
 45
0.0
 46
0.0
 47
0.0
 48
0.0
 49
0.0
140
0.0
141
0.0
142
1.0
143
1.0
 70
   688
 72
     0
 73
     0
 74
     5
  7
monochrome.ctb
 75
    16
147
1.0
148
0.0
149
0.0
100
AcDbLayout
  1
レイアウト2
 70
     1
 71
     2
 10
0.0
 20
0.0
 11
12.0
 21
9.0
 12
0.0
 22
0.0
 32
0.0
 14
0.0
 24
0.0
 34
0.0
 15
0.0
 25
0.0
 35
0.0
146
0.0
 13
0.0
 23
0.0
 33
0.0
 16
1.0
 26
0.0
 36
0.0
 17
0.0
 27
1.0
 37
0.0
 76
     0
330
74
  0
MATERIAL
  5
19
102
{ACAD_XDICTIONARY
360
1A
102
}
102
{ACAD_REACTORS
330
10
102
}
330
10
100
AcDbMaterial
  1
ByBlock
 72
     0
 43
0.0208333333333333
 43
0.0
 43
0.0
 43
0.0
 43
0.0
 43
0.0208333333333333
 43
0.0
 43
0.0
 43
0.0
 43
0.0
 43
1.0
 43
0.0
 43
0.0
 43
0.0
 43
0.0
 43
1.0
 77
     0
 47
0.0208333333333333
 47
0.0
 47
0.0
 47
0.0
 47
0.0
 47
0.0208333333333333
 47
0.0
 47
0.0
 47
0.0
 47
0.0
 47
1.0
 47
0.0
 47
0.0
 47
0.0
 47
0.0
 47
1.0
171
     0
 49
0.0208333333333333
 49
0.0
 49
0.0
 49
0.0
 49
0.0
 49
0.0208333333333333
 49
0.0
 49
0.0
 49
0.0
 49
0.0
 49
1.0
 49
0.0
 49
0.0
 49
0.0
 49
0.0
 49
1.0
175
     0
142
0.0208333333333333
142
0.0
142
0.0
142
0.0
142
0.0
142
0.0208333333333333
142
0.0
142
0.0
142
0.0
142
0.0
142
1.0
142
0.0
142
0.0
142
0.0
142
0.0
142
1.0
179
     0
144
0.0208333333333333
144
0.0
144
0.0
144
0.0
144
0.0
144
0.0208333333333333
144
0.0
144
0.0
144
0.0
144
0.0
144
1.0
144
0.0
144
0.0
144
0.0
144
0.0
144
1.0
147
0.0208333333333333
147
0.0
147
0.0
147
0.0
147
0.0
147
0.0208333333333333
147
0.0
147
0.0
147
0.0
147
0.0
147
1.0
147
0.0
147
0.0
147
0.0
147
0.0
147
1.0
  0
MATERIAL
  5
11
102
{ACAD_XDICTIONARY
360
12
102
}
102
{ACAD_REACTORS
330
10
102
}
330
10
100
AcDbMaterial
  1
ByLayer
 72
     0
 43
0.0208333333333333
 43
0.0
 43
0.0
 43
0.0
 43
0.0
 43
0.0208333333333333
 43
0.0
 43
0.0
 43
0.0
 43
0.0
 43
1.0
 43
0.0
 43
0.0
 43
0.0
 43
0.0
 43
1.0
 77
     0
 47
0.0208333333333333
 47
0.0
 47
0.0
 47
0.0
 47
0.0
 47
0.0208333333333333
 47
0.0
 47
0.0
 47
0.0
 47
0.0
 47
1.0
 47
0.0
 47
0.0
 47
0.0
 47
0.0
 47
1.0
171
     0
 49
0.0208333333333333
 49
0.0
 49
0.0
 49
0.0
 49
0.0
 49
0.0208333333333333
 49
0.0
 49
0.0
 49
0.0
 49
0.0
 49
1.0
 49
0.0
 49
0.0
 49
0.0
 49
0.0
 49
1.0
175
     0
142
0.0208333333333333
142
0.0
142
0.0
142
0.0
142
0.0
142
0.0208333333333333
142
0.0
142
0.0
142
0.0
142
0.0
142
1.0
142
0.0
142
0.0
142
0.0
142
0.0
142
1.0
179
     0
144
0.0208333333333333
144
0.0
144
0.0
144
0.0
144
0.0
144
0.0208333333333333
144
0.0
144
0.0
144
0.0
144
0.0
144
1.0
144
0.0
144
0.0
144
0.0
144
0.0
144
1.0
147
0.0208333333333333
147
0.0
147
0.0
147
0.0
147
0.0
147
0.0208333333333333
147
0.0
147
0.0
147
0.0
147
0.0
147
1.0
147
0.0
147
0.0
147
0.0
147
0.0
147
1.0
  0
MATERIAL
  5
21
102
{ACAD_XDICTIONARY
360
22
102
}
102
{ACAD_REACTORS
330
10
102
}
330
10
100
AcDbMaterial
  1
Global
 72
     0
 43
0.0208333333333333
 43
0.0
 43
0.0
 43
0.0
 43
0.0
 43
0.0208333333333333
 43
0.0
 43
0.0
 43
0.0
 43
0.0
 43
1.0
 43
0.0
 43
0.0
 43
0.0
 43
0.0
 43
1.0
 77
     0
 47
0.0208333333333333
 47
0.0
 47
0.0
 47
0.0
 47
0.0
 47
0.0208333333333333
 47
0.0
 47
0.0
 47
0.0
 47
0.0
 47
1.0
 47
0.0
 47
0.0
 47
0.0
 47
0.0
 47
1.0
171
     0
 49
0.0208333333333333
 49
0.0
 49
0.0
 49
0.0
 49
0.0
 49
0.0208333333333333
 49
0.0
 49
0.0
 49
0.0
 49
0.0
 49
1.0
 49
0.0
 49
0.0
 49
0.0
 49
0.0
 49
1.0
175
     0
142
0.0208333333333333
142
0.0
142
0.0
142
0.0
142
0.0
142
0.0208333333333333
142
0.0
142
0.0
142
0.0
142
0.0
142
1.0
142
0.0
142
0.0
142
0.0
142
0.0
142
1.0
179
     0
144
0.0208333333333333
144
0.0
144
0.0
144
0.0
144
0.0
144
0.0208333333333333
144
0.0
144
0.0
144
0.0
144
0.0
144
1.0
144
0.0
144
0.0
144
0.0
144
0.0
144
1.0
147
0.0208333333333333
147
0.0
147
0.0
147
0.0
147
0.0
147
0.0208333333333333
147
0.0
147
0.0
147
0.0
147
0.0
147
1.0
147
0.0
147
0.0
147
0.0
147
0.0
147
1.0
  0
MLEADERSTYLE
  5
67
102
{ACAD_XDICTIONARY
360
5EA
102
}
102
{ACAD_REACTORS
330
66
102
}
330
66
100
AcDbMLeaderStyle
170
     2
171
     1
172
     0
 90
        2
 40
0.0
 41
0.0
173
     1
 91
-1056964608
340
5B
 92
       -2
290
     1
 42
0.09
291
     1
 43
0.36
  3
Standard
 44
0.18
300

342
55
174
     1
178
     6
175
     1
176
     0
 93
-1056964608
 45
0.18
292
     0
297
     0
 46
0.18
 94
-1056964608
 47
1.0
 49
1.0
140
1.0
293
     1
141
0.0
294
     1
177
     0
142
1.0
295
     0
296
     0
143
0.125
1001
ACAD_MLEADERVER
1070
     2
  0
MLINESTYLE
  5
60
102
{ACAD_REACTORS
330
5F
102
}
330
5F
100
AcDbMlineStyle
  2
STANDARD
 70
     0
  3

 62
   256
 51
90.0
 52
90.0
 71
     2
 49
0.5
 62
   256
  6
BYLAYER
 49
-0.5
 62
   256
  6
BYLAYER
  0
ACDBPLACEHOLDER
  5
F
102
{ACAD_REACTORS
330
E
102
}
330
E
  0
SCALE
  5
BE
102
{ACAD_REACTORS
330
42
102
}
330
42
100
AcDbScale
 70
     0
300
1:38
140
1.0
141
38.0
290
     0
  0
SCALE
  5
BF
102
{ACAD_REACTORS
330
42
102
}
330
42
100
AcDbScale
 70
     0
300
1:35
140
1.0
141
35.0
290
     0
  0
SCALE
  5
C0
102
{ACAD_REACTORS
330
42
102
}
330
42
100
AcDbScale
 70
     0
300
1:33
140
1.0
141
33.0
290
     0
  0
SCALE
  5
C1
102
{ACAD_REACTORS
330
42
102
}
330
42
100
AcDbScale
 70
     0
300
IMAGE
140
1.0
141
3.0
290
     0
  0
SCALE
  5
43
102
{ACAD_REACTORS
330
42
102
}
330
42
100
AcDbScale
 70
     0
300
1:1
140
1.0
141
1.0
290
     1
  0
SCALE
  5
44
102
{ACAD_REACTORS
330
42
102
}
330
42
100
AcDbScale
 70
     0
300
1:2
140
1.0
141
2.0
290
     0
  0
SCALE
  5
45
102
{ACAD_REACTORS
330
42
102
}
330
42
100
AcDbScale
 70
     0
300
1:4
140
1.0
141
4.0
290
     0
  0
SCALE
  5
46
102
{ACAD_REACTORS
330
42
102
}
330
42
100
AcDbScale
 70
     0
300
1:5
140
1.0
141
5.0
290
     0
  0
SCALE
  5
47
102
{ACAD_REACTORS
330
42
102
}
330
42
100
AcDbScale
 70
     0
300
1:8
140
1.0
141
8.0
290
     0
  0
SCALE
  5
48
102
{ACAD_REACTORS
330
42
102
}
330
42
100
AcDbScale
 70
     0
300
1:10
140
1.0
141
10.0
290
     0
  0
SCALE
  5
49
102
{ACAD_REACTORS
330
42
102
}
330
42
100
AcDbScale
 70
     0
300
1:16
140
1.0
141
16.0
290
     0
  0
SCALE
  5
4A
102
{ACAD_REACTORS
330
42
102
}
330
42
100
AcDbScale
 70
     0
300
1:20
140
1.0
141
20.0
290
     0
  0
SCALE
  5
4B
102
{ACAD_REACTORS
330
42
102
}
330
42
100
AcDbScale
 70
     0
300
1:30
140
1.0
141
30.0
290
     0
  0
SCALE
  5
4C
102
{ACAD_REACTORS
330
42
102
}
330
42
100
AcDbScale
 70
     0
300
1:40
140
1.0
141
40.0
290
     0
  0
SCALE
  5
4D
102
{ACAD_REACTORS
330
42
102
}
330
42
100
AcDbScale
 70
     0
300
1:50
140
1.0
141
50.0
290
     0
  0
SCALE
  5
4E
102
{ACAD_REACTORS
330
42
102
}
330
42
100
AcDbScale
 70
     0
300
1:100
140
1.0
141
100.0
290
     0
  0
SCALE
  5
4F
102
{ACAD_REACTORS
330
42
102
}
330
42
100
AcDbScale
 70
     0
300
2:1
140
2.0
141
1.0
290
     0
  0
SCALE
  5
50
102
{ACAD_REACTORS
330
42
102
}
330
42
100
AcDbScale
 70
     0
300
4:1
140
4.0
141
1.0
290
     0
  0
SCALE
  5
51
102
{ACAD_REACTORS
330
42
102
}
330
42
100
AcDbScale
 70
     0
300
8:1
140
8.0
141
1.0
290
     0
  0
SCALE
  5
52
102
{ACAD_REACTORS
330
42
102
}
330
42
100
AcDbScale
 70
     0
300
10:1
140
10.0
141
1.0
290
     0
  0
SCALE
  5
53
102
{ACAD_REACTORS
330
42
102
}
330
42
100
AcDbScale
 70
     0
300
100:1
140
100.0
141
1.0
290
     0
  0
ACDBSECTIONVIEWSTYLE
  5
69
102
{ACAD_XDICTIONARY
360
5EC
102
}
102
{ACAD_REACTORS
330
68
330
58D
102
}
330
68
100
AcDbModelDocViewStyle
 70
     0
  3
Imperial24
290
     0
100
AcDbSectionViewStyle
 70
     0
 71
     0
 90
       78
 71
     1
340
55
 40
0.24
340
0
340
0
 40
0.24
300
I, O, Q, S, X, Z
 40
0.48
 90
        3
 40
0.18
 90
        1
 71
     2
340
5D
 90
       25
340
5D
 90
       50
 40
0.24
 40
0.0
 40
0.24
 71
     3
340
55
 40
0.24
 90
        1
 40
0.75
 90
        1
300
%<\AcVar ViewType \f "%tc1">% %<\AcVar ViewSectionStartId>%-%<\AcVar ViewSectionEndId>%\PSCALE %<\AcVar ViewScale \f "%sn">%
 71
     4
300
ANSI31
 40
1.0
 90
        0
290
     0
290
     0
 90
        6
 40
0.0
 40
1.570796326794896
 40
0.2617993877991494
 40
1.308996938995747
 40
-0.2617993877991494
 40
1.832595714594046
  0
ACDBSECTIONVIEWSTYLE
  5
53D
102
{ACAD_XDICTIONARY
360
61B
102
}
102
{ACAD_REACTORS
330
68
330
58E
102
}
330
68
100
AcDbModelDocViewStyle
 70
     0
  3
Metric50
290
     0
100
AcDbSectionViewStyle
 70
     0
 71
     0
 90
      102
 71
     1
340
55
 40
5.0
340
0
340
0
 40
5.0
300
I, O, Q, S, X, Z
 40
10.0
 90
        0
 40
2.5
 90
        0
 71
     2
340
5D
 90
       25
340
5D
 90
       50
 40
5.0
 40
2.5
 40
5.0
 71
     3
340
55
 40
5.0
 90
        0
 40
15.0
 90
        1
300
%<\AcVar ViewSectionStartId>%-%<\AcVar ViewSectionEndId>% (%<\AcVar ViewScale \f "%sn">%)
 71
     4
300
ANSI31
 40
1.0
 90
        0
290
     0
290
     0
 90
        6
 40
0.0
 40
1.570796326794896
 40
0.2617993877991494
 40
1.308996938995747
 40
-0.2617993877991494
 40
1.832595714594046
  0
TABLESTYLE
  5
65
102
{ACAD_XDICTIONARY
360
5AC
102
}
102
{ACAD_REACTORS
330
64
102
}
330
64
100
AcDbTableStyle
  3
Standard
 70
     0
 71
     3
 40
1.5
 41
1.5
280
     0
281
     0
  7
STANDARD
140
3.5
170
     2
 62
     0
 63
     7
283
     0
274
    -2
284
     1
 64
     0
275
    -2
285
     1
 65
     0
276
    -2
286
     1
 66
     0
277
    -2
287
     1
 67
     0
278
    -2
288
     1
 68
     0
279
    -2
289
     1
 69
     0
  7
STANDARD
140
3.5
170
     5
 62
     0
 63
     7
283
     0
274
    -2
284
     1
 64
     0
275
    -2
285
     1
 65
     0
276
    -2
286
     1
 66
     0
277
    -2
287
     1
 67
     0
278
    -2
288
     1
 68
     0
279
    -2
289
     1
 69
     0
  7
STANDARD
140
3.5
170
     5
 62
     0
 63
     7
283
     0
274
    -2
284
     1
 64
     0
275
    -2
285
     1
 65
     0
276
    -2
286
     1
 66
     0
277
    -2
287
     1
 67
     0
278
    -2
288
     1
 68
     0
279
    -2
289
     1
 69
     0
  0
VISUALSTYLE
  5
2F
102
{ACAD_XDICTIONARY
360
5C2
102
}
102
{ACAD_REACTORS
330
29
102
}
330
29
100
AcDbVisualStyle
  2
2dWireframe
 70
     4
 71
     0
 72
     2
 73
     0
 90
        0
 40
-0.6
 41
-30.0
 62
     5
 63
     7
 74
     1
 91
        4
 64
     7
 65
   257
 75
     1
175
     1
 42
1.0
 92
        0
 66
   257
 43
1.0
 76
     1
 77
     6
 78
     2
 67
     7
 79
     5
170
     0
171
     0
290
     0
174
     0
 93
        1
 44
0.0
173
     0
291
     0
 45
0.0
1001
ACAD
1000
AcDbSavedByObjectVersion
1070
     0
  0
VISUALSTYLE
  5
2E
102
{ACAD_XDICTIONARY
360
5C0
102
}
102
{ACAD_REACTORS
330
29
102
}
330
29
100
AcDbVisualStyle
  2
Basic
 70
     7
 71
     1
 72
     0
 73
     1
 90
        0
 40
-0.6
 41
-30.0
 62
     5
 63
     7
 74
     0
 91
        4
 64
     7
 65
   257
 75
     1
175
     1
 42
1.0
 92
        8
 66
     7
 43
1.0
 76
     1
 77
     6
 78
     2
 67
     7
 79
     5
170
     0
171
     0
290
     0
174
     0
 93
        1
 44
0.0
173
     0
291
     1
 45
0.0
1001
ACAD
1000
AcDbSavedByObjectVersion
1070
     0
  0
VISUALSTYLE
  5
35
102
{ACAD_XDICTIONARY
360
5CE
102
}
102
{ACAD_REACTORS
330
29
102
}
330
29
100
AcDbVisualStyle
  2
Brighten
 70
    12
 71
     2
 72
     2
 73
     0
 90
        0
 40
-0.6
 41
-30.0
 62
     5
 63
     7
 74
     1
 91
        4
 64
     7
 65
   257
 75
     1
175
     1
 42
1.0
 92
        8
 66
     7
 43
1.0
 76
     1
 77
     6
 78
     2
 67
     7
 79
     5
170
     0
171
     0
290
     0
174
     0
 93
        1
 44
50.0
173
     0
291
     1
 45
0.0
1001
ACAD
1000
AcDbSavedByObjectVersion
1070
     0
  0
VISUALSTYLE
  5
39
102
{ACAD_XDICTIONARY
360
5D6
102
}
102
{ACAD_REACTORS
330
29
102
}
330
29
100
AcDbVisualStyle
  2
ColorChange
 70
    16
 71
     2
 72
     2
 73
     3
 90
        0
 40
-0.6
 41
-30.0
 62
     5
 63
     8
 74
     1
 91
        4
 64
     7
 65
   257
 75
     1
175
     1
 42
1.0
 92
        8
 66
     8
 43
1.0
 76
     1
 77
     6
 78
     2
 67
     7
 79
     5
170
     0
171
     0
290
     0
174
     0
 93
        1
 44
0.0
173
     0
291
     1
 45
0.0
1001
ACAD
1000
AcDbSavedByObjectVersion
1070
     0
  0
VISUALSTYLE
  5
32
102
{ACAD_XDICTIONARY
360
5C8
102
}
102
{ACAD_REACTORS
330
29
102
}
330
29
100
AcDbVisualStyle
  2
Conceptual
 70
     9
 71
     3
 72
     2
 73
     0
 90
        0
 40
-0.6
 41
-30.0
 62
     5
 63
     7
 74
     2
 91
        2
 64
     7
 65
   257
 75
     1
175
     1
 42
179.0
 92
        8
 66
     7
 43
1.0
 76
     1
 77
     6
 78
     2
 67
     7
 79
     3
170
     0
171
     0
290
     0
174
     0
 93
        1
 44
0.0
173
     0
291
     0
 45
0.0
1001
ACAD
1000
AcDbSavedByObjectVersion
1070
     0
  0
VISUALSTYLE
  5
34
102
{ACAD_XDICTIONARY
360
5CC
102
}
102
{ACAD_REACTORS
330
29
102
}
330
29
100
AcDbVisualStyle
  2
Dim
 70
    11
 71
     2
 72
     2
 73
     0
 90
        0
 40
-0.6
 41
-30.0
 62
     5
 63
     7
 74
     1
 91
        4
 64
     7
 65
   257
 75
     1
175
     1
 42
1.0
 92
        8
 66
     7
 43
1.0
 76
     1
 77
     6
 78
     2
 67
     7
 79
     5
170
     0
171
     0
290
     0
174
     0
 93
        1
 44
-50.0
173
     0
291
     1
 45
0.0
1001
ACAD
1000
AcDbSavedByObjectVersion
1070
     0
  0
VISUALSTYLE
  5
41
102
{ACAD_XDICTIONARY
360
5E6
102
}
102
{ACAD_REACTORS
330
29
102
}
330
29
100
AcDbVisualStyle
  2
EdgeColorOff
 70
    22
 71
     2
 72
     2
 73
     0
 90
        0
 40
-0.6
 41
-30.0
 62
     5
 63
     7
 74
     1
 91
        4
 64
     7
 65
   257
 75
     1
175
     1
 42
1.0
 92
        8
 66
     7
 43
1.0
 76
     1
 77
     6
 78
     2
 67
     7
 79
     5
170
     0
171
     0
290
     0
174
     0
 93
        1
 44
0.0
173
     0
291
     1
 45
0.0
1001
ACAD
1000
AcDbSavedByObjectVersion
1070
     0
  0
VISUALSTYLE
  5
38
102
{ACAD_XDICTIONARY
360
5D4
102
}
102
{ACAD_REACTORS
330
29
102
}
330
29
100
AcDbVisualStyle
  2
Facepattern
 70
    15
 71
     2
 72
     2
 73
     0
 90
        0
 40
-0.6
 41
-30.0
 62
     5
 63
     7
 74
     1
 91
        4
 64
     7
 65
   257
 75
     1
175
     1
 42
1.0
 92
        8
 66
     7
 43
1.0
 76
     1
 77
     6
 78
     2
 67
     7
 79
     5
170
     0
171
     0
290
     0
174
     0
 93
        1
 44
0.0
173
     0
291
     1
 45
0.0
1001
ACAD
1000
AcDbSavedByObjectVersion
1070
     0
  0
VISUALSTYLE
  5
2A
102
{ACAD_XDICTIONARY
360
5B8
102
}
102
{ACAD_REACTORS
330
29
102
}
330
29
100
AcDbVisualStyle
  2
Flat
 70
     0
 71
     2
 72
     1
 73
     1
 90
        2
 40
-0.6
 41
30.0
 62
     5
 63
     7
 74
     0
 91
        0
 64
     7
 65
   257
 75
     1
175
     1
 42
1.0
 92
        8
 66
     7
 43
1.0
 76
     1
 77
     6
 78
     2
 67
     7
 79
     5
170
     0
171
     0
290
     0
174
     0
 93
       13
 44
0.0
173
     0
291
     1
 45
0.0
1001
ACAD
1000
AcDbSavedByObjectVersion
1070
     0
  0
VISUALSTYLE
  5
2B
102
{ACAD_XDICTIONARY
360
5BA
102
}
102
{ACAD_REACTORS
330
29
102
}
330
29
100
AcDbVisualStyle
  2
FlatWithEdges
 70
     1
 71
     2
 72
     1
 73
     1
 90
        2
 40
-0.6
 41
30.0
 62
     5
 63
     7
 74
     1
 91
        0
 64
     7
 65
   257
 75
     1
175
     1
 42
1.0
 92
        0
 66
   257
 43
1.0
 76
     1
 77
     6
 78
     2
 67
     7
 79
     5
170
     0
171
     0
290
     0
174
     0
 93
       13
 44
0.0
173
     0
291
     1
 45
0.0
1001
ACAD
1000
AcDbSavedByObjectVersion
1070
     0
  0
VISUALSTYLE
  5
2C
102
{ACAD_XDICTIONARY
360
5BC
102
}
102
{ACAD_REACTORS
330
29
102
}
330
29
100
AcDbVisualStyle
  2
Gouraud
 70
     2
 71
     2
 72
     2
 73
     1
 90
        2
 40
-0.6
 41
30.0
 62
     5
 63
     7
 74
     0
 91
        0
 64
     7
 65
   257
 75
     1
175
     1
 42
1.0
 92
        0
 66
     7
 43
1.0
 76
     1
 77
     6
 78
     2
 67
     7
 79
     5
170
     0
171
     0
290
     0
174
     0
 93
       13
 44
0.0
173
     0
291
     1
 45
0.0
1001
ACAD
1000
AcDbSavedByObjectVersion
1070
     0
  0
VISUALSTYLE
  5
2D
102
{ACAD_XDICTIONARY
360
5BE
102
}
102
{ACAD_REACTORS
330
29
102
}
330
29
100
AcDbVisualStyle
  2
GouraudWithEdges
 70
     3
 71
     2
 72
     2
 73
     1
 90
        2
 40
-0.6
 41
30.0
 62
     5
 63
     7
 74
     1
 91
        0
 64
     7
 65
   257
 75
     1
175
     1
 42
1.0
 92
        0
 66
   257
 43
1.0
 76
     1
 77
     6
 78
     2
 67
     7
 79
     5
170
     0
171
     0
290
     0
174
     0
 93
       13
 44
0.0
173
     0
291
     1
 45
0.0
1001
ACAD
1000
AcDbSavedByObjectVersion
1070
     0
  0
VISUALSTYLE
  5
31
102
{ACAD_XDICTIONARY
360
5C6
102
}
102
{ACAD_REACTORS
330
29
102
}
330
29
100
AcDbVisualStyle
  2
Hidden
 70
     6
 71
     1
 72
     2
 73
     2
 90
        0
 40
-0.6
 41
-30.0
 62
     5
 63
     7
 74
     2
 91
        2
 64
     7
 65
   257
 75
     2
175
     1
 42
40.0
 92
        0
 66
   257
 43
1.0
 76
     1
 77
     6
 78
     2
 67
     7
 79
     3
170
     0
171
     0
290
     0
174
     0
 93
        1
 44
0.0
173
     0
291
     0
 45
0.0
1001
ACAD
1000
AcDbSavedByObjectVersion
1070
     0
  0
VISUALSTYLE
  5
3F
102
{ACAD_XDICTIONARY
360
5E2
102
}
102
{ACAD_REACTORS
330
29
102
}
330
29
100
AcDbVisualStyle
  2
JitterOff
 70
    20
 71
     2
 72
     2
 73
     0
 90
        0
 40
-0.6
 41
-30.0
 62
     5
 63
     7
 74
     1
 91
        4
 64
     7
 65
   257
 75
     1
175
     1
 42
1.0
 92
       10
 66
     7
 43
1.0
 76
     1
 77
     6
 78
     2
 67
     7
 79
     5
170
     0
171
     0
290
     0
174
     0
 93
        1
 44
0.0
173
     0
291
     1
 45
0.0
1001
ACAD
1000
AcDbSavedByObjectVersion
1070
     0
  0
VISUALSTYLE
  5
37
102
{ACAD_XDICTIONARY
360
5D2
102
}
102
{ACAD_REACTORS
330
29
102
}
330
29
100
AcDbVisualStyle
  2
Linepattern
 70
    14
 71
     2
 72
     2
 73
     0
 90
        0
 40
-0.6
 41
-30.0
 62
     5
 63
     7
 74
     1
 91
        4
 64
     7
 65
   257
 75
     7
175
     7
 42
1.0
 92
        8
 66
     7
 43
1.0
 76
     1
 77
     6
 78
     2
 67
     7
 79
     5
170
     0
171
     0
290
     0
174
     0
 93
        1
 44
0.0
173
     0
291
     1
 45
0.0
1001
ACAD
1000
AcDbSavedByObjectVersion
1070
     0
  0
VISUALSTYLE
  5
40
102
{ACAD_XDICTIONARY
360
5E4
102
}
102
{ACAD_REACTORS
330
29
102
}
330
29
100
AcDbVisualStyle
  2
OverhangOff
 70
    21
 71
     2
 72
     2
 73
     0
 90
        0
 40
-0.6
 41
-30.0
 62
     5
 63
     7
 74
     1
 91
        4
 64
     7
 65
   257
 75
     1
175
     1
 42
1.0
 92
        9
 66
     7
 43
1.0
 76
     1
 77
     6
 78
     2
 67
     7
 79
     5
170
     0
171
     0
290
     0
174
     0
 93
        1
 44
0.0
173
     0
291
     1
 45
0.0
1001
ACAD
1000
AcDbSavedByObjectVersion
1070
     0
  0
VISUALSTYLE
  5
33
102
{ACAD_XDICTIONARY
360
5CA
102
}
102
{ACAD_REACTORS
330
29
102
}
330
29
100
AcDbVisualStyle
  2
Realistic
 70
     8
 71
     2
 72
     3
 73
     0
 90
        2
 40
-0.6
 41
30.0
 62
     5
 63
     7
 74
     0
 91
        0
 64
     7
 65
   257
 75
     1
175
     1
 42
1.0
 92
        8
 66
   257
 43
1.0
 76
     1
 77
     6
 78
     2
 67
     7
 79
     3
170
     0
171
     0
290
     0
174
     0
 93
       13
 44
0.0
173
     0
291
     0
 45
0.0
1001
ACAD
1000
AcDbSavedByObjectVersion
1070
     0
  0
VISUALSTYLE
  5
3E
102
{ACAD_XDICTIONARY
360
5E0
102
}
102
{ACAD_REACTORS
330
29
102
}
330
29
100
AcDbVisualStyle
  2
Shaded
 70
    27
 71
     2
 72
     2
 73
     1
 90
        2
 40
-0.6
 41
30.0
 62
     5
 63
     7
 74
     0
 91
        4
 64
     7
 65
   257
 75
     1
175
     1
 42
1.0
 92
        8
 66
   257
 43
1.0
 76
     1
 77
     6
 78
     2
 67
     8
 79
     3
170
     0
171
     0
290
     0
174
     0
 93
        5
 44
0.0
173
     0
291
     0
 45
0.0
1001
ACAD
1000
AcDbSavedByObjectVersion
1070
     0
  0
VISUALSTYLE
  5
3D
102
{ACAD_XDICTIONARY
360
5DE
102
}
102
{ACAD_REACTORS
330
29
102
}
330
29
100
AcDbVisualStyle
  2
Shaded with edges
 70
    26
 71
     2
 72
     2
 73
     1
 90
        2
 40
-0.6
 41
30.0
 62
     5
 63
     7
 74
     1
 91
        2
 64
     7
 65
   257
 75
     2
175
     1
 42
1.0
 92
        8
 66
   257
 43
1.0
 76
     1
 77
     6
 78
     2
 67
     7
 79
     3
170
     0
171
     0
290
     0
174
     0
 93
        5
 44
0.0
173
     0
291
     0
 45
0.0
1001
ACAD
1000
AcDbSavedByObjectVersion
1070
     0
  0
VISUALSTYLE
  5
3A
102
{ACAD_XDICTIONARY
360
5D8
102
}
102
{ACAD_REACTORS
330
29
102
}
330
29
100
AcDbVisualStyle
  2
Shades of Gray
 70
    23
 71
     2
 72
     2
 73
     3
 90
        0
 40
-0.6
 41
-30.0
 62
     5
 63
     7
 74
     2
 91
        2
 64
     7
 65
     7
 75
     1
175
     1
 42
40.0
 92
        8
 66
     7
 43
1.0
 76
     1
 77
     6
 78
     2
 67
     7
 79
     3
170
     0
171
     0
290
     0
174
     0
 93
        1
 44
0.0
173
     0
291
     0
 45
0.0
1001
ACAD
1000
AcDbSavedByObjectVersion
1070
     0
  0
VISUALSTYLE
  5
3B
102
{ACAD_XDICTIONARY
360
5DA
102
}
102
{ACAD_REACTORS
330
29
102
}
330
29
100
AcDbVisualStyle
  2
Sketchy
 70
    24
 71
     1
 72
     2
 73
     2
 90
        0
 40
-0.6
 41
-30.0
 62
     5
 63
     7
 74
     2
 91
        2
 64
     7
 65
     7
 75
     1
175
     1
 42
40.0
 92
       11
 66
     7
 43
1.0
 76
     1
 77
     6
 78
     2
 67
     7
 79
     6
170
     0
171
     0
290
     0
174
     0
 93
        1
 44
0.0
173
     0
291
     0
 45
0.0
1001
ACAD
1000
AcDbSavedByObjectVersion
1070
     0
  0
VISUALSTYLE
  5
36
102
{ACAD_XDICTIONARY
360
5D0
102
}
102
{ACAD_REACTORS
330
29
102
}
330
29
100
AcDbVisualStyle
  2
Thicken
 70
    13
 71
     2
 72
     2
 73
     0
 90
        0
 40
-0.6
 41
-30.0
 62
     5
 63
     7
 74
     1
 91
        4
 64
     7
 65
   257
 75
     1
175
     1
 42
1.0
 92
       12
 66
     7
 43
1.0
 76
     1
 77
     6
 78
     2
 67
     7
 79
     5
170
     0
171
     0
290
     0
174
     0
 93
        1
 44
0.0
173
     0
291
     1
 45
0.0
1001
ACAD
1000
AcDbSavedByObjectVersion
1070
     0
  0
VISUALSTYLE
  5
30
102
{ACAD_XDICTIONARY
360
5C4
102
}
102
{ACAD_REACTORS
330
29
102
}
330
29
100
AcDbVisualStyle
  2
Wireframe
 70
     5
 71
     0
 72
     2
 73
     0
 90
        0
 40
-0.6
 41
-30.0
 62
     5
 63
     7
 74
     1
 91
        4
 64
     7
 65
   257
 75
     1
175
     1
 42
1.0
 92
        0
 66
   257
 43
1.0
 76
     1
 77
     6
 78
     2
 67
     7
 79
     3
170
     0
171
     0
290
     0
174
     0
 93
        1
 44
0.0
173
     0
291
     0
 45
0.0
1001
ACAD
1000
AcDbSavedByObjectVersion
1070
     0
  0
VISUALSTYLE
  5
3C
102
{ACAD_XDICTIONARY
360
5DC
102
}
102
{ACAD_REACTORS
330
29
102
}
330
29
100
AcDbVisualStyle
  2
X-Ray
 70
    25
 71
     2
 72
     2
 73
     1
 90
        1
 40
0.5
 41
-30.0
 62
     5
 63
     7
 74
     1
 91
        0
 64
     7
 65
   257
 75
     1
175
     1
 42
1.0
 92
        8
 66
     7
 43
1.0
 76
     1
 77
     6
 78
     2
 67
     7
 79
     3
170
     0
171
     0
290
     0
174
     0
 93
       13
 44
0.0
173
     0
291
     0
 45
0.0
1001
ACAD
1000
AcDbSavedByObjectVersion
1070
     0
  0
DICTIONARYVAR
  5
537
102
{ACAD_REACTORS
330
531
102
}
330
531
100
DictionaryVariables
280
     0
  1
1
  0
DICTIONARYVAR
  5
538
102
{ACAD_REACTORS
330
531
102
}
330
531
100
DictionaryVariables
280
     0
  1
1:1
  0
DICTIONARYVAR
  5
533
102
{ACAD_REACTORS
330
531
102
}
330
531
100
DictionaryVariables
280
     0
  1
STANDARD
  0
DICTIONARYVAR
  5
532
102
{ACAD_REACTORS
330
531
102
}
330
531
100
DictionaryVariables
280
     0
  1
STANDARD
  0
DICTIONARYVAR
  5
534
102
{ACAD_REACTORS
330
531
102
}
330
531
100
DictionaryVariables
280
     0
  1
ISO 128-34_2001
  0
DICTIONARYVAR
  5
535
102
{ACAD_REACTORS
330
531
102
}
330
531
100
DictionaryVariables
280
     0
  1
ISO 128-40_2001(E)
  0
DICTIONARYVAR
  5
5A9
102
{ACAD_REACTORS
330
531
102
}
330
531
100
DictionaryVariables
280
     0
  1
2
  0
DICTIONARYVAR
  5
5A7
102
{ACAD_REACTORS
330
531
102
}
330
531
100
DictionaryVariables
280
     0
  1
1
  0
DICTIONARYVAR
  5
5A6
102
{ACAD_REACTORS
330
531
102
}
330
531
100
DictionaryVariables
280
     0
  1
0
  0
DICTIONARYVAR
  5
53A
102
{ACAD_REACTORS
330
531
102
}
330
531
100
DictionaryVariables
280
     0
  1
1
  0
DICTIONARYVAR
  5
53B
102
{ACAD_REACTORS
330
531
102
}
330
531
100
DictionaryVariables
280
     0
  1
15
  0
DICTIONARYVAR
  5
539
102
{ACAD_REACTORS
330
531
102
}
330
531
100
DictionaryVariables
280
     0
  1
0
  0
DICTIONARYVAR
  5
536
102
{ACAD_REACTORS
330
531
102
}
330
531
100
DictionaryVariables
280
     0
  1
0
  0
DICTIONARYVAR
  5
5A5
102
{ACAD_REACTORS
330
531
102
}
330
531
100
DictionaryVariables
280
     0
  1
127
  0
DICTIONARYVAR
  5
5A8
102
{ACAD_REACTORS
330
531
102
}
330
531
100
DictionaryVariables
280
     0
  1
0
  0
DICTIONARY
  5
571
102
{ACAD_REACTORS
330
56A
102
}
330
56A
100
AcDbDictionary
281
     1
  0
DICTIONARY
  5
54B
102
{ACAD_REACTORS
330
54A
102
}
330
54A
100
AcDbDictionary
281
     1
  3
DWGSETTINGS
350
54C
  3
TRANSSETTINGS
350
54D
  0
XRECORD
  5
530
102
{ACAD_REACTORS
330
52E
102
}
330
52E
100
AcDbXrecord
280
     1
330
4C8
330
4CB
330
4D4
330
4D5
330
4DC
330
4DD
330
4E6
330
4E7
330
4EE
330
4EF
330
4F6
330
4F9
330
500
330
503
330
50C
330
50D
330
514
330
515
330
51C
330
51D
330
523
330
524
330
529
330
52A
  0
DICTIONARY
  5
5EE
330
6B
100
AcDbDictionary
280
     1
281
     1
  3
ACAD_XREC_ROUNDTRIP
360
5EF
  0
DICTIONARY
  5
61D
330
53E
100
AcDbDictionary
280
     1
281
     1
  3
ACAD_XREC_ROUNDTRIP
360
61E
  0
DICTIONARY
  5
5F2
330
73
100
AcDbDictionary
280
     1
281
     1
  3
ACAD_XREC_ROUNDTRIP
360
5F3
  0
DICTIONARY
  5
5F0
330
6F
100
AcDbDictionary
280
     1
281
     1
  3
ACAD_XREC_ROUNDTRIP
360
5F1
  0
DICTIONARY
  5
5F4
330
77
100
AcDbDictionary
280
     1
281
     1
  3
ACAD_XREC_ROUNDTRIP
360
5F5
  0
DICTIONARY
  5
1A
330
19
100
AcDbDictionary
280
     1
281
     1
  3
ACAD_XREC_ROUNDTRIP
360
5B6
  3
BUMPTILE
360
1C
  3
DIFFUSETILE
360
1B
  3
OPACITYTILE
360
1F
  3
REFLECTIONTILE
360
1E
  3
REFRACTIONTILE
360
20
  3
SPECULARTILE
360
1D
  0
DICTIONARY
  5
12
330
11
100
AcDbDictionary
280
     1
281
     1
  3
ACAD_XREC_ROUNDTRIP
360
5B5
  3
BUMPTILE
360
14
  3
DIFFUSETILE
360
13
  3
OPACITYTILE
360
17
  3
REFLECTIONTILE
360
16
  3
REFRACTIONTILE
360
18
  3
SPECULARTILE
360
15
  0
DICTIONARY
  5
22
330
21
100
AcDbDictionary
280
     1
281
     1
  3
ACAD_XREC_ROUNDTRIP
360
5B7
  3
BUMPTILE
360
24
  3
DIFFUSETILE
360
23
  3
OPACITYTILE
360
27
  3
REFLECTIONTILE
360
26
  3
REFRACTIONTILE
360
28
  3
SPECULARTILE
360
25
  0
DICTIONARY
  5
5EA
330
67
100
AcDbDictionary
280
     1
281
     1
  3
ACAD_XREC_ROUNDTRIP
360
5EB
  0
DICTIONARY
  5
5EC
330
69
100
AcDbDictionary
280
     1
281
     1
  3
ACAD_XREC_ROUNDTRIP
360
5ED
  0
DICTIONARY
  5
61B
330
53D
100
AcDbDictionary
280
     1
281
     1
  3
ACAD_XREC_ROUNDTRIP
360
61C
  0
DICTIONARY
  5
5AC
330
65
100
AcDbDictionary
280
     1
281
     1
  3
ACAD_ROUNDTRIP_2008_TABLESTYLE_CELLSTYLEMAP
360
5AD
  3
ACAD_XREC_ROUNDTRIP
360
5E8
  0
DICTIONARY
  5
5C2
330
2F
100
AcDbDictionary
280
     1
281
     1
  3
ACAD_XREC_ROUNDTRIP
360
5C3
  0
DICTIONARY
  5
5C0
330
2E
100
AcDbDictionary
280
     1
281
     1
  3
ACAD_XREC_ROUNDTRIP
360
5C1
  0
DICTIONARY
  5
5CE
330
35
100
AcDbDictionary
280
     1
281
     1
  3
ACAD_XREC_ROUNDTRIP
360
5CF
  0
DICTIONARY
  5
5D6
330
39
100
AcDbDictionary
280
     1
281
     1
  3
ACAD_XREC_ROUNDTRIP
360
5D7
  0
DICTIONARY
  5
5C8
330
32
100
AcDbDictionary
280
     1
281
     1
  3
ACAD_XREC_ROUNDTRIP
360
5C9
  0
DICTIONARY
  5
5CC
330
34
100
AcDbDictionary
280
     1
281
     1
  3
ACAD_XREC_ROUNDTRIP
360
5CD
  0
DICTIONARY
  5
5E6
330
41
100
AcDbDictionary
280
     1
281
     1
  3
ACAD_XREC_ROUNDTRIP
360
5E7
  0
DICTIONARY
  5
5D4
330
38
100
AcDbDictionary
280
     1
281
     1
  3
ACAD_XREC_ROUNDTRIP
360
5D5
  0
DICTIONARY
  5
5B8
330
2A
100
AcDbDictionary
280
     1
281
     1
  3
ACAD_XREC_ROUNDTRIP
360
5B9
  0
DICTIONARY
  5
5BA
330
2B
100
AcDbDictionary
280
     1
281
     1
  3
ACAD_XREC_ROUNDTRIP
360
5BB
  0
DICTIONARY
  5
5BC
330
2C
100
AcDbDictionary
280
     1
281
     1
  3
ACAD_XREC_ROUNDTRIP
360
5BD
  0
DICTIONARY
  5
5BE
330
2D
100
AcDbDictionary
280
     1
281
     1
  3
ACAD_XREC_ROUNDTRIP
360
5BF
  0
DICTIONARY
  5
5C6
330
31
100
AcDbDictionary
280
     1
281
     1
  3
ACAD_XREC_ROUNDTRIP
360
5C7
  0
DICTIONARY
  5
5E2
330
3F
100
AcDbDictionary
280
     1
281
     1
  3
ACAD_XREC_ROUNDTRIP
360
5E3
  0
DICTIONARY
  5
5D2
330
37
100
AcDbDictionary
280
     1
281
     1
  3
ACAD_XREC_ROUNDTRIP
360
5D3
  0
DICTIONARY
  5
5E4
330
40
100
AcDbDictionary
280
     1
281
     1
  3
ACAD_XREC_ROUNDTRIP
360
5E5
  0
DICTIONARY
  5
5CA
330
33
100
AcDbDictionary
280
     1
281
     1
  3
ACAD_XREC_ROUNDTRIP
360
5CB
  0
DICTIONARY
  5
5E0
330
3E
100
AcDbDictionary
280
     1
281
     1
  3
ACAD_XREC_ROUNDTRIP
360
5E1
  0
DICTIONARY
  5
5DE
330
3D
100
AcDbDictionary
280
     1
281
     1
  3
ACAD_XREC_ROUNDTRIP
360
5DF
  0
DICTIONARY
  5
5D8
330
3A
100
AcDbDictionary
280
     1
281
     1
  3
ACAD_XREC_ROUNDTRIP
360
5D9
  0
DICTIONARY
  5
5DA
330
3B
100
AcDbDictionary
280
     1
281
     1
  3
ACAD_XREC_ROUNDTRIP
360
5DB
  0
DICTIONARY
  5
5D0
330
36
100
AcDbDictionary
280
     1
281
     1
  3
ACAD_XREC_ROUNDTRIP
360
5D1
  0
DICTIONARY
  5
5C4
330
30
100
AcDbDictionary
280
     1
281
     1
  3
ACAD_XREC_ROUNDTRIP
360
5C5
  0
DICTIONARY
  5
5DC
330
3C
100
AcDbDictionary
280
     1
281
     1
  3
ACAD_XREC_ROUNDTRIP
360
5DD
  0
XRECORD
  5
5EF
102
{ACAD_REACTORS
330
5EE
102
}
330
5EE
100
AcDbXrecord
280
     1
102
DISPLAYNAME
  1
Imperial24
102
FLAGS
 90
        0
  0
XRECORD
  5
61E
102
{ACAD_REACTORS
330
61D
102
}
330
61D
100
AcDbXrecord
280
     1
102
DISPLAYNAME
  1
Metric50
102
FLAGS
 90
        0
  0
XRECORD
  5
5F3
102
{ACAD_REACTORS
330
5F2
102
}
330
5F2
100
AcDbXrecord
280
     1
102
SHADEPLOT
 70
     0
102
SHADEPLOTRESLEVEL
 70
     2
102
SHADEPLOTCUSTOMDPI
 70
   300
  0
XRECORD
  5
5F1
102
{ACAD_REACTORS
330
5F0
102
}
330
5F0
100
AcDbXrecord
280
     1
102
SHADEPLOT
 70
     0
102
SHADEPLOTRESLEVEL
 70
     2
102
SHADEPLOTCUSTOMDPI
 70
   300
  0
XRECORD
  5
5F5
102
{ACAD_REACTORS
330
5F4
102
}
330
5F4
100
AcDbXrecord
280
     1
102
SHADEPLOT
 70
     0
102
SHADEPLOTRESLEVEL
 70
     2
102
SHADEPLOTCUSTOMDPI
 70
   300
  0
XRECORD
  5
5B6
102
{ACAD_REACTORS
330
1A
102
}
330
1A
100
AcDbXrecord
280
     1
102
MATERIAL
148
0.0
149
0.0
149
0.0
 93
        0
 94
      127
282
     0
 72
     0
 77
     0
171
     0
175
     0
179
     0
273
     0
  0
XRECORD
  5
1C
102
{ACAD_REACTORS
330
1A
102
}
330
1A
100
AcDbXrecord
280
     1
270
     1
271
     1
  0
XRECORD
  5
1B
102
{ACAD_REACTORS
330
1A
102
}
330
1A
100
AcDbXrecord
280
     1
270
     1
271
     1
  0
XRECORD
  5
1F
102
{ACAD_REACTORS
330
1A
102
}
330
1A
100
AcDbXrecord
280
     1
270
     1
271
     1
  0
XRECORD
  5
1E
102
{ACAD_REACTORS
330
1A
102
}
330
1A
100
AcDbXrecord
280
     1
270
     1
271
     1
  0
XRECORD
  5
20
102
{ACAD_REACTORS
330
1A
102
}
330
1A
100
AcDbXrecord
280
     1
270
     1
271
     1
  0
XRECORD
  5
1D
102
{ACAD_REACTORS
330
1A
102
}
330
1A
100
AcDbXrecord
280
     1
270
     1
271
     1
  0
XRECORD
  5
5B5
102
{ACAD_REACTORS
330
12
102
}
330
12
100
AcDbXrecord
280
     1
102
MATERIAL
148
0.0
149
0.0
149
0.0
 93
        0
 94
      127
282
     0
 72
     0
 77
     0
171
     0
175
     0
179
     0
273
     0
  0
XRECORD
  5
14
102
{ACAD_REACTORS
330
12
102
}
330
12
100
AcDbXrecord
280
     1
270
     1
271
     1
  0
XRECORD
  5
13
102
{ACAD_REACTORS
330
12
102
}
330
12
100
AcDbXrecord
280
     1
270
     1
271
     1
  0
XRECORD
  5
17
102
{ACAD_REACTORS
330
12
102
}
330
12
100
AcDbXrecord
280
     1
270
     1
271
     1
  0
XRECORD
  5
16
102
{ACAD_REACTORS
330
12
102
}
330
12
100
AcDbXrecord
280
     1
270
     1
271
     1
  0
XRECORD
  5
18
102
{ACAD_REACTORS
330
12
102
}
330
12
100
AcDbXrecord
280
     1
270
     1
271
     1
  0
XRECORD
  5
15
102
{ACAD_REACTORS
330
12
102
}
330
12
100
AcDbXrecord
280
     1
270
     1
271
     1
  0
XRECORD
  5
5B7
102
{ACAD_REACTORS
330
22
102
}
330
22
100
AcDbXrecord
280
     1
102
MATERIAL
148
0.0
149
0.0
149
0.0
 93
        0
 94
      127
282
     0
 72
     0
 77
     0
171
     0
175
     0
179
     0
273
     0
  0
XRECORD
  5
24
102
{ACAD_REACTORS
330
22
102
}
330
22
100
AcDbXrecord
280
     1
270
     1
271
     1
  0
XRECORD
  5
23
102
{ACAD_REACTORS
330
22
102
}
330
22
100
AcDbXrecord
280
     1
270
     1
271
     1
  0
XRECORD
  5
27
102
{ACAD_REACTORS
330
22
102
}
330
22
100
AcDbXrecord
280
     1
270
     1
271
     1
  0
XRECORD
  5
26
102
{ACAD_REACTORS
330
22
102
}
330
22
100
AcDbXrecord
280
     1
270
     1
271
     1
  0
XRECORD
  5
28
102
{ACAD_REACTORS
330
22
102
}
330
22
100
AcDbXrecord
280
     1
270
     1
271
     1
  0
XRECORD
  5
25
102
{ACAD_REACTORS
330
22
102
}
330
22
100
AcDbXrecord
280
     1
270
     1
271
     1
  0
XRECORD
  5
5EB
102
{ACAD_REACTORS
330
5EA
102
}
330
5EA
100
AcDbXrecord
280
     1
102
ACAD_ROUNDTRIP_2012_MLEADER_STYLE
298
     1
  0
XRECORD
  5
5ED
102
{ACAD_REACTORS
330
5EC
102
}
330
5EC
100
AcDbXrecord
280
     1
102
DISPLAYNAME
  1
Imperial24
102
FLAGS
 90
        0
  0
XRECORD
  5
61C
102
{ACAD_REACTORS
330
61B
102
}
330
61B
100
AcDbXrecord
280
     1
102
DISPLAYNAME
  1
Metric50
102
FLAGS
 90
        0
  0
CELLSTYLEMAP
  5
5AD
102
{ACAD_REACTORS
330
5AC
102
}
330
5AC
100
AcDbCellStyleMap
 90
        3
300
CELLSTYLE
  1
TABLEFORMAT_BEGIN
 90
        5
170
     1
 91
        0
 92
    32768
 62
   257
 93
        1
300
CONTENTFORMAT
  1
CONTENTFORMAT_BEGIN
 90
        0
 91
        0
 92
      512
 93
        0
300

 40
0.0
140
1.0
 94
        5
 62
     0
340
55
144
3.5
309
CONTENTFORMAT_END
171
     1
301
MARGIN
  1
CELLMARGIN_BEGIN
 40
1.5
 40
1.5
 40
1.5
 40
1.5
 40
4.5
 40
4.5
309
CELLMARGIN_END
 94
        6
 95
        1
302
GRIDFORMAT
  1
GRIDFORMAT_BEGIN
 90
        0
 91
        1
 62
     0
 92
       -2
340
5B
 93
        0
 40
1.125
309
GRIDFORMAT_END
 95
        2
302
GRIDFORMAT
  1
GRIDFORMAT_BEGIN
 90
        0
 91
        1
 62
     0
 92
       -2
340
5B
 93
        0
 40
1.125
309
GRIDFORMAT_END
 95
        4
302
GRIDFORMAT
  1
GRIDFORMAT_BEGIN
 90
        0
 91
        1
 62
     0
 92
       -2
340
5B
 93
        0
 40
1.125
309
GRIDFORMAT_END
 95
        8
302
GRIDFORMAT
  1
GRIDFORMAT_BEGIN
 90
        0
 91
        1
 62
     0
 92
       -2
340
5B
 93
        0
 40
1.125
309
GRIDFORMAT_END
 95
       16
302
GRIDFORMAT
  1
GRIDFORMAT_BEGIN
 90
        0
 91
        1
 62
     0
 92
       -2
340
5B
 93
        0
 40
1.125
309
GRIDFORMAT_END
 95
       32
302
GRIDFORMAT
  1
GRIDFORMAT_BEGIN
 90
        0
 91
        1
 62
     0
 92
       -2
340
5B
 93
        0
 40
1.125
309
GRIDFORMAT_END
309
TABLEFORMAT_END
  1
CELLSTYLE_BEGIN
 90
        1
 91
        1
300
_TITLE
309
CELLSTYLE_END
300
CELLSTYLE
  1
TABLEFORMAT_BEGIN
 90
        5
170
     1
 91
        0
 92
        0
 62
   257
 93
        1
300
CONTENTFORMAT
  1
CONTENTFORMAT_BEGIN
 90
        0
 91
        0
 92
      512
 93
        0
300

 40
0.0
140
1.0
 94
        5
 62
     0
340
55
144
3.5
309
CONTENTFORMAT_END
171
     1
301
MARGIN
  1
CELLMARGIN_BEGIN
 40
1.5
 40
1.5
 40
1.5
 40
1.5
 40
4.5
 40
4.5
309
CELLMARGIN_END
 94
        6
 95
        1
302
GRIDFORMAT
  1
GRIDFORMAT_BEGIN
 90
        0
 91
        1
 62
     0
 92
       -2
340
5B
 93
        0
 40
1.125
309
GRIDFORMAT_END
 95
        2
302
GRIDFORMAT
  1
GRIDFORMAT_BEGIN
 90
        0
 91
        1
 62
     0
 92
       -2
340
5B
 93
        0
 40
1.125
309
GRIDFORMAT_END
 95
        4
302
GRIDFORMAT
  1
GRIDFORMAT_BEGIN
 90
        0
 91
        1
 62
     0
 92
       -2
340
5B
 93
        0
 40
1.125
309
GRIDFORMAT_END
 95
        8
302
GRIDFORMAT
  1
GRIDFORMAT_BEGIN
 90
        0
 91
        1
 62
     0
 92
       -2
340
5B
 93
        0
 40
1.125
309
GRIDFORMAT_END
 95
       16
302
GRIDFORMAT
  1
GRIDFORMAT_BEGIN
 90
        0
 91
        1
 62
     0
 92
       -2
340
5B
 93
        0
 40
1.125
309
GRIDFORMAT_END
 95
       32
302
GRIDFORMAT
  1
GRIDFORMAT_BEGIN
 90
        0
 91
        1
 62
     0
 92
       -2
340
5B
 93
        0
 40
1.125
309
GRIDFORMAT_END
309
TABLEFORMAT_END
  1
CELLSTYLE_BEGIN
 90
        2
 91
        1
300
_HEADER
309
CELLSTYLE_END
300
CELLSTYLE
  1
TABLEFORMAT_BEGIN
 90
        5
170
     1
 91
        0
 92
        0
 62
   257
 93
        1
300
CONTENTFORMAT
  1
CONTENTFORMAT_BEGIN
 90
        0
 91
        0
 92
      512
 93
        0
300

 40
0.0
140
1.0
 94
        2
 62
     0
340
55
144
3.5
309
CONTENTFORMAT_END
171
     1
301
MARGIN
  1
CELLMARGIN_BEGIN
 40
1.5
 40
1.5
 40
1.5
 40
1.5
 40
4.5
 40
4.5
309
CELLMARGIN_END
 94
        6
 95
        1
302
GRIDFORMAT
  1
GRIDFORMAT_BEGIN
 90
        0
 91
        1
 62
     0
 92
       -2
340
5B
 93
        0
 40
1.125
309
GRIDFORMAT_END
 95
        2
302
GRIDFORMAT
  1
GRIDFORMAT_BEGIN
 90
        0
 91
        1
 62
     0
 92
       -2
340
5B
 93
        0
 40
1.125
309
GRIDFORMAT_END
 95
        4
302
GRIDFORMAT
  1
GRIDFORMAT_BEGIN
 90
        0
 91
        1
 62
     0
 92
       -2
340
5B
 93
        0
 40
1.125
309
GRIDFORMAT_END
 95
        8
302
GRIDFORMAT
  1
GRIDFORMAT_BEGIN
 90
        0
 91
        1
 62
     0
 92
       -2
340
5B
 93
        0
 40
1.125
309
GRIDFORMAT_END
 95
       16
302
GRIDFORMAT
  1
GRIDFORMAT_BEGIN
 90
        0
 91
        1
 62
     0
 92
       -2
340
5B
 93
        0
 40
1.125
309
GRIDFORMAT_END
 95
       32
302
GRIDFORMAT
  1
GRIDFORMAT_BEGIN
 90
        0
 91
        1
 62
     0
 92
       -2
340
5B
 93
        0
 40
1.125
309
GRIDFORMAT_END
309
TABLEFORMAT_END
  1
CELLSTYLE_BEGIN
 90
        3
 91
        2
300
_DATA
309
CELLSTYLE_END
  0
XRECORD
  5
5E8
102
{ACAD_REACTORS
330
5AC
102
}
330
5AC
100
AcDbXrecord
280
     1
102
ACAD_ROUNDTRIP_PRE2007_TABLESTYLE
 90
      512
 91
        0
  1

 92
      512
 93
        0
  2

 94
      512
 95
        0
  3

  0
XRECORD
  5
5C3
102
{ACAD_REACTORS
330
5C2
102
}
330
5C2
100
AcDbXrecord
280
     1
102
RTVSPost2010Prop28
280
     1
102
RTVSPost2010PropOp28
 70
     1
102
RTVSPost2010Prop29
280
     1
102
RTVSPost2010PropOp29
 70
     1
102
RTVSPost2010Prop30
280
     0
102
RTVSPost2010PropOp30
 70
     1
102
RTVSPost2010Prop31
280
     0
102
RTVSPost2010PropOp31
 70
     1
102
RTVSPost2010Prop32
280
     0
102
RTVSPost2010PropOp32
 70
     1
102
RTVSPost2010Prop33
280
     0
102
RTVSPost2010PropOp33
 70
     1
102
RTVSPost2010Prop34
280
     0
102
RTVSPost2010PropOp34
 70
     1
102
RTVSPost2010Prop35
280
     0
102
RTVSPost2010PropOp35
 70
     1
102
RTVSPost2010Prop36
280
     0
102
RTVSPost2010PropOp36
 70
     1
102
RTVSPost2010Prop37
 90
       50
102
RTVSPost2010PropOp37
 70
     1
102
RTVSPost2010Prop38
140
0.0
102
RTVSPost2010PropOp38
 70
     1
102
RTVSPost2010Prop39
140
1.0
102
RTVSPost2010PropOp39
 70
     1
102
RTVSPost2010Prop40
 90
        0
102
RTVSPost2010PropOp40
 70
     1
102
RTVSPost2010Prop41ColorIndex
 90
       18
102
RTVSPost2010Prop41ColorRGB
 90
        0
102
RTVSPost2010PropOp41
 70
     1
102
RTVSPost2010Prop42
 90
       50
102
RTVSPost2010PropOp42
 70
     1
102
RTVSPost2010Prop43
 90
        3
102
RTVSPost2010PropOp43
 70
     1
102
RTVSPost2010Prop44ColorIndex
 90
        5
102
RTVSPost2010Prop44ColorRGB
 90
      255
102
RTVSPost2010PropOp44
 70
     1
102
RTVSPost2010Prop45
280
     0
102
RTVSPost2010PropOp45
 70
     1
102
RTVSPost2010Prop46
 90
       50
102
RTVSPost2010PropOp46
 70
     1
102
RTVSPost2010Prop47
 90
       50
102
RTVSPost2010PropOp47
 70
     1
102
RTVSPost2010Prop48
 90
       50
102
RTVSPost2010PropOp48
 70
     1
102
RTVSPost2010Prop49
280
     0
102
RTVSPost2010PropOp49
 70
     1
102
RTVSPost2010Prop50
 90
       50
102
RTVSPost2010PropOp50
 70
     1
102
RTVSPost2010Prop51ColorIndex
 90
      256
102
RTVSPost2010Prop51ColorRGB
 90
-16777216
102
RTVSPost2010PropOp51
 70
     0
102
RTVSPost2010Prop52
140
1.0
102
RTVSPost2010PropOp52
 70
     0
102
RTVSPost2010Prop53
 90
        2
102
RTVSPost2010PropOp53
 70
     1
102
RTVSPost2010Prop54
  1
strokes_ogs.tif
102
RTVSPost2010PropOp54
 70
     1
102
RTVSPost2010Prop55
280
     0
102
RTVSPost2010PropOp55
 70
     1
102
RTVSPost2010Prop56
140
1.0
102
RTVSPost2010PropOp56
 70
     1
102
RTVSPost2010Prop57
140
1.0
102
RTVSPost2010PropOp57
 70
     1
102
RTVSPropertyOp0
 70
     1
102
RTVSPropertyOp1
 70
     1
102
RTVSPropertyOp2
 70
     1
102
RTVSPropertyOp3
 70
     1
102
RTVSPropertyOp4
 70
     1
102
RTVSPropertyOp5
 70
     1
102
RTVSPropertyOp6
 70
     1
102
RTVSPropertyOp7
 70
     1
102
RTVSPropertyOp8
 70
     1
102
RTVSPropertyOp9
 70
     1
102
RTVSPropertyOp10
 70
     1
102
RTVSPropertyOp11
 70
     1
102
RTVSPropertyOp12
 70
     1
102
RTVSPropertyOp13
 70
     1
102
RTVSPropertyOp14
 70
     1
102
RTVSPropertyOp15
 70
     1
102
RTVSPropertyOp16
 70
     1
102
RTVSPropertyOp17
 70
     1
102
RTVSPropertyOp18
 70
     1
102
RTVSPropertyOp19
 70
     1
102
RTVSPropertyOp20
 70
     1
102
RTVSPropertyOp21
 70
     1
102
RTVSPropertyOp22
 70
     1
102
RTVSPropertyOp23
 70
     1
102
RTVSPropertyOp24
 70
     1
102
RTVSPropertyOp25
 70
     1
102
RTVSPropertyOp26
 70
     1
102
RTVSPropertyOp27
 70
     1
102
RTVSPropertyOp28
 70
     1
102
RTVSPropertyOp29
 70
     1
102
RTVSPropertyOp30
 70
     1
102
RTVSPropertyOp31
 70
     1
102
RTVSPropertyOp32
 70
     1
102
RTVSPropertyOp33
 70
     1
102
RTVSPropertyOp34
 70
     1
102
RTVSPropertyOp35
 70
     1
102
RTVSPropertyOp36
 70
     1
102
RTVSPropertyOp37
 70
     1
102
RTVSPropertyOp38
 70
     1
102
RTVSPropertyOp39
 70
     1
102
RTVSPropertyOp40
 70
     1
102
RTVSPropertyOp41
 70
     1
102
RTVSPropertyOp42
 70
     1
102
RTVSPropertyOp43
 70
     1
102
RTVSPropertyOp44
 70
     1
102
RTVSPropertyOp45
 70
     1
102
RTVSPropertyOp46
 70
     1
102
RTVSPropertyOp47
 70
     1
102
RTVSPropertyOp48
 70
     1
102
RTVSPropertyOp49
 70
     1
102
RTVSPropertyOp50
 70
     1
102
RTVSPropertyOp51
 70
     0
102
RTVSPropertyOp52
 70
     0
102
RTVSPropertyOp53
 70
     1
102
RTVSPropertyOp54
 70
     1
102
RTVSPropertyOp55
 70
     1
102
RTVSPropertyOp56
 70
     1
102
RTVSPropertyOp57
 70
     1
102
RTVSPropertyOp58
 70
     1
102
RTVSPropertyOp59
 70
     1
102
RTVSPropertyOp60
 70
     1
102
RTVSPropertyOp61
 70
     1
102
RTVSPropertyOp62
 70
     1
  0
XRECORD
  5
5C1
102
{ACAD_REACTORS
330
5C0
102
}
330
5C0
100
AcDbXrecord
280
     1
102
RTVSPost2010Prop28
280
     0
102
RTVSPost2010PropOp28
 70
     1
102
RTVSPost2010Prop29
280
     1
102
RTVSPost2010PropOp29
 70
     1
102
RTVSPost2010Prop30
280
     1
102
RTVSPost2010PropOp30
 70
     1
102
RTVSPost2010Prop31
280
     0
102
RTVSPost2010PropOp31
 70
     1
102
RTVSPost2010Prop32
280
     0
102
RTVSPost2010PropOp32
 70
     1
102
RTVSPost2010Prop33
280
     0
102
RTVSPost2010PropOp33
 70
     1
102
RTVSPost2010Prop34
280
     0
102
RTVSPost2010PropOp34
 70
     1
102
RTVSPost2010Prop35
280
     0
102
RTVSPost2010PropOp35
 70
     1
102
RTVSPost2010Prop36
280
     0
102
RTVSPost2010PropOp36
 70
     1
102
RTVSPost2010Prop37
 90
       50
102
RTVSPost2010PropOp37
 70
     1
102
RTVSPost2010Prop38
140
0.0
102
RTVSPost2010PropOp38
 70
     1
102
RTVSPost2010Prop39
140
1.0
102
RTVSPost2010PropOp39
 70
     1
102
RTVSPost2010Prop40
 90
        0
102
RTVSPost2010PropOp40
 70
     1
102
RTVSPost2010Prop41ColorIndex
 90
       18
102
RTVSPost2010Prop41ColorRGB
 90
        0
102
RTVSPost2010PropOp41
 70
     1
102
RTVSPost2010Prop42
 90
       50
102
RTVSPost2010PropOp42
 70
     1
102
RTVSPost2010Prop43
 90
        3
102
RTVSPost2010PropOp43
 70
     1
102
RTVSPost2010Prop44ColorIndex
 90
        5
102
RTVSPost2010Prop44ColorRGB
 90
      255
102
RTVSPost2010PropOp44
 70
     1
102
RTVSPost2010Prop45
280
     0
102
RTVSPost2010PropOp45
 70
     1
102
RTVSPost2010Prop46
 90
       50
102
RTVSPost2010PropOp46
 70
     1
102
RTVSPost2010Prop47
 90
       50
102
RTVSPost2010PropOp47
 70
     1
102
RTVSPost2010Prop48
 90
       50
102
RTVSPost2010PropOp48
 70
     1
102
RTVSPost2010Prop49
280
     0
102
RTVSPost2010PropOp49
 70
     1
102
RTVSPost2010Prop50
 90
       50
102
RTVSPost2010PropOp50
 70
     1
102
RTVSPost2010Prop51ColorIndex
 90
      256
102
RTVSPost2010Prop51ColorRGB
 90
-16777216
102
RTVSPost2010PropOp51
 70
     0
102
RTVSPost2010Prop52
140
1.0
102
RTVSPost2010PropOp52
 70
     0
102
RTVSPost2010Prop53
 90
        2
102
RTVSPost2010PropOp53
 70
     1
102
RTVSPost2010Prop54
  1
strokes_ogs.tif
102
RTVSPost2010PropOp54
 70
     1
102
RTVSPost2010Prop55
280
     0
102
RTVSPost2010PropOp55
 70
     1
102
RTVSPost2010Prop56
140
1.0
102
RTVSPost2010PropOp56
 70
     1
102
RTVSPost2010Prop57
140
1.0
102
RTVSPost2010PropOp57
 70
     1
102
RTVSPropertyOp0
 70
     1
102
RTVSPropertyOp1
 70
     1
102
RTVSPropertyOp2
 70
     1
102
RTVSPropertyOp3
 70
     1
102
RTVSPropertyOp4
 70
     1
102
RTVSPropertyOp5
 70
     1
102
RTVSPropertyOp6
 70
     1
102
RTVSPropertyOp7
 70
     1
102
RTVSPropertyOp8
 70
     1
102
RTVSPropertyOp9
 70
     1
102
RTVSPropertyOp10
 70
     1
102
RTVSPropertyOp11
 70
     1
102
RTVSPropertyOp12
 70
     1
102
RTVSPropertyOp13
 70
     1
102
RTVSPropertyOp14
 70
     1
102
RTVSPropertyOp15
 70
     1
102
RTVSPropertyOp16
 70
     1
102
RTVSPropertyOp17
 70
     1
102
RTVSPropertyOp18
 70
     1
102
RTVSPropertyOp19
 70
     1
102
RTVSPropertyOp20
 70
     1
102
RTVSPropertyOp21
 70
     1
102
RTVSPropertyOp22
 70
     1
102
RTVSPropertyOp23
 70
     1
102
RTVSPropertyOp24
 70
     1
102
RTVSPropertyOp25
 70
     1
102
RTVSPropertyOp26
 70
     1
102
RTVSPropertyOp27
 70
     1
102
RTVSPropertyOp28
 70
     1
102
RTVSPropertyOp29
 70
     1
102
RTVSPropertyOp30
 70
     1
102
RTVSPropertyOp31
 70
     1
102
RTVSPropertyOp32
 70
     1
102
RTVSPropertyOp33
 70
     1
102
RTVSPropertyOp34
 70
     1
102
RTVSPropertyOp35
 70
     1
102
RTVSPropertyOp36
 70
     1
102
RTVSPropertyOp37
 70
     1
102
RTVSPropertyOp38
 70
     1
102
RTVSPropertyOp39
 70
     1
102
RTVSPropertyOp40
 70
     1
102
RTVSPropertyOp41
 70
     1
102
RTVSPropertyOp42
 70
     1
102
RTVSPropertyOp43
 70
     1
102
RTVSPropertyOp44
 70
     1
102
RTVSPropertyOp45
 70
     1
102
RTVSPropertyOp46
 70
     1
102
RTVSPropertyOp47
 70
     1
102
RTVSPropertyOp48
 70
     1
102
RTVSPropertyOp49
 70
     1
102
RTVSPropertyOp50
 70
     1
102
RTVSPropertyOp51
 70
     0
102
RTVSPropertyOp52
 70
     0
102
RTVSPropertyOp53
 70
     1
102
RTVSPropertyOp54
 70
     1
102
RTVSPropertyOp55
 70
     1
102
RTVSPropertyOp56
 70
     1
102
RTVSPropertyOp57
 70
     1
102
RTVSPropertyOp58
 70
     1
102
RTVSPropertyOp59
 70
     1
102
RTVSPropertyOp60
 70
     1
102
RTVSPropertyOp61
 70
     1
102
RTVSPropertyOp62
 70
     1
  0
XRECORD
  5
5CF
102
{ACAD_REACTORS
330
5CE
102
}
330
5CE
100
AcDbXrecord
280
     1
102
RTVSPost2010Prop28
280
     0
102
RTVSPost2010PropOp28
 70
     1
102
RTVSPost2010Prop29
280
     1
102
RTVSPost2010PropOp29
 70
     1
102
RTVSPost2010Prop30
280
     1
102
RTVSPost2010PropOp30
 70
     1
102
RTVSPost2010Prop31
280
     0
102
RTVSPost2010PropOp31
 70
     1
102
RTVSPost2010Prop32
280
     0
102
RTVSPost2010PropOp32
 70
     1
102
RTVSPost2010Prop33
280
     0
102
RTVSPost2010PropOp33
 70
     1
102
RTVSPost2010Prop34
280
     0
102
RTVSPost2010PropOp34
 70
     1
102
RTVSPost2010Prop35
280
     0
102
RTVSPost2010PropOp35
 70
     1
102
RTVSPost2010Prop36
280
     0
102
RTVSPost2010PropOp36
 70
     1
102
RTVSPost2010Prop37
 90
       50
102
RTVSPost2010PropOp37
 70
     1
102
RTVSPost2010Prop38
140
0.0
102
RTVSPost2010PropOp38
 70
     1
102
RTVSPost2010Prop39
140
1.0
102
RTVSPost2010PropOp39
 70
     1
102
RTVSPost2010Prop40
 90
        0
102
RTVSPost2010PropOp40
 70
     1
102
RTVSPost2010Prop41ColorIndex
 90
       18
102
RTVSPost2010Prop41ColorRGB
 90
        0
102
RTVSPost2010PropOp41
 70
     1
102
RTVSPost2010Prop42
 90
       50
102
RTVSPost2010PropOp42
 70
     1
102
RTVSPost2010Prop43
 90
        3
102
RTVSPost2010PropOp43
 70
     1
102
RTVSPost2010Prop44ColorIndex
 90
        5
102
RTVSPost2010Prop44ColorRGB
 90
      255
102
RTVSPost2010PropOp44
 70
     1
102
RTVSPost2010Prop45
280
     0
102
RTVSPost2010PropOp45
 70
     1
102
RTVSPost2010Prop46
 90
       50
102
RTVSPost2010PropOp46
 70
     1
102
RTVSPost2010Prop47
 90
       50
102
RTVSPost2010PropOp47
 70
     1
102
RTVSPost2010Prop48
 90
       50
102
RTVSPost2010PropOp48
 70
     1
102
RTVSPost2010Prop49
280
     0
102
RTVSPost2010PropOp49
 70
     1
102
RTVSPost2010Prop50
 90
       50
102
RTVSPost2010PropOp50
 70
     1
102
RTVSPost2010Prop51ColorIndex
 90
      256
102
RTVSPost2010Prop51ColorRGB
 90
-16777216
102
RTVSPost2010PropOp51
 70
     0
102
RTVSPost2010Prop52
140
1.0
102
RTVSPost2010PropOp52
 70
     0
102
RTVSPost2010Prop53
 90
        2
102
RTVSPost2010PropOp53
 70
     1
102
RTVSPost2010Prop54
  1
strokes_ogs.tif
102
RTVSPost2010PropOp54
 70
     1
102
RTVSPost2010Prop55
280
     0
102
RTVSPost2010PropOp55
 70
     1
102
RTVSPost2010Prop56
140
1.0
102
RTVSPost2010PropOp56
 70
     1
102
RTVSPost2010Prop57
140
1.0
102
RTVSPost2010PropOp57
 70
     1
102
RTVSPropertyOp0
 70
     1
102
RTVSPropertyOp1
 70
     1
102
RTVSPropertyOp2
 70
     1
102
RTVSPropertyOp3
 70
     1
102
RTVSPropertyOp4
 70
     1
102
RTVSPropertyOp5
 70
     1
102
RTVSPropertyOp6
 70
     1
102
RTVSPropertyOp7
 70
     1
102
RTVSPropertyOp8
 70
     1
102
RTVSPropertyOp9
 70
     1
102
RTVSPropertyOp10
 70
     1
102
RTVSPropertyOp11
 70
     1
102
RTVSPropertyOp12
 70
     1
102
RTVSPropertyOp13
 70
     1
102
RTVSPropertyOp14
 70
     1
102
RTVSPropertyOp15
 70
     1
102
RTVSPropertyOp16
 70
     1
102
RTVSPropertyOp17
 70
     1
102
RTVSPropertyOp18
 70
     1
102
RTVSPropertyOp19
 70
     1
102
RTVSPropertyOp20
 70
     1
102
RTVSPropertyOp21
 70
     1
102
RTVSPropertyOp22
 70
     1
102
RTVSPropertyOp23
 70
     1
102
RTVSPropertyOp24
 70
     1
102
RTVSPropertyOp25
 70
     1
102
RTVSPropertyOp26
 70
     1
102
RTVSPropertyOp27
 70
     1
102
RTVSPropertyOp28
 70
     1
102
RTVSPropertyOp29
 70
     1
102
RTVSPropertyOp30
 70
     1
102
RTVSPropertyOp31
 70
     1
102
RTVSPropertyOp32
 70
     1
102
RTVSPropertyOp33
 70
     1
102
RTVSPropertyOp34
 70
     1
102
RTVSPropertyOp35
 70
     1
102
RTVSPropertyOp36
 70
     1
102
RTVSPropertyOp37
 70
     1
102
RTVSPropertyOp38
 70
     1
102
RTVSPropertyOp39
 70
     1
102
RTVSPropertyOp40
 70
     1
102
RTVSPropertyOp41
 70
     1
102
RTVSPropertyOp42
 70
     1
102
RTVSPropertyOp43
 70
     1
102
RTVSPropertyOp44
 70
     1
102
RTVSPropertyOp45
 70
     1
102
RTVSPropertyOp46
 70
     1
102
RTVSPropertyOp47
 70
     1
102
RTVSPropertyOp48
 70
     1
102
RTVSPropertyOp49
 70
     1
102
RTVSPropertyOp50
 70
     1
102
RTVSPropertyOp51
 70
     0
102
RTVSPropertyOp52
 70
     0
102
RTVSPropertyOp53
 70
     1
102
RTVSPropertyOp54
 70
     1
102
RTVSPropertyOp55
 70
     1
102
RTVSPropertyOp56
 70
     1
102
RTVSPropertyOp57
 70
     1
102
RTVSPropertyOp58
 70
     1
102
RTVSPropertyOp59
 70
     1
102
RTVSPropertyOp60
 70
     1
102
RTVSPropertyOp61
 70
     1
102
RTVSPropertyOp62
 70
     1
  0
XRECORD
  5
5D7
102
{ACAD_REACTORS
330
5D6
102
}
330
5D6
100
AcDbXrecord
280
     1
102
RTVSPost2010Prop28
280
     0
102
RTVSPost2010PropOp28
 70
     1
102
RTVSPost2010Prop29
280
     1
102
RTVSPost2010PropOp29
 70
     1
102
RTVSPost2010Prop30
280
     1
102
RTVSPost2010PropOp30
 70
     1
102
RTVSPost2010Prop31
280
     0
102
RTVSPost2010PropOp31
 70
     1
102
RTVSPost2010Prop32
280
     0
102
RTVSPost2010PropOp32
 70
     1
102
RTVSPost2010Prop33
280
     0
102
RTVSPost2010PropOp33
 70
     1
102
RTVSPost2010Prop34
280
     0
102
RTVSPost2010PropOp34
 70
     1
102
RTVSPost2010Prop35
280
     0
102
RTVSPost2010PropOp35
 70
     1
102
RTVSPost2010Prop36
280
     0
102
RTVSPost2010PropOp36
 70
     1
102
RTVSPost2010Prop37
 90
       50
102
RTVSPost2010PropOp37
 70
     1
102
RTVSPost2010Prop38
140
0.0
102
RTVSPost2010PropOp38
 70
     1
102
RTVSPost2010Prop39
140
1.0
102
RTVSPost2010PropOp39
 70
     1
102
RTVSPost2010Prop40
 90
        0
102
RTVSPost2010PropOp40
 70
     1
102
RTVSPost2010Prop41ColorIndex
 90
       18
102
RTVSPost2010Prop41ColorRGB
 90
        0
102
RTVSPost2010PropOp41
 70
     1
102
RTVSPost2010Prop42
 90
       50
102
RTVSPost2010PropOp42
 70
     1
102
RTVSPost2010Prop43
 90
        3
102
RTVSPost2010PropOp43
 70
     1
102
RTVSPost2010Prop44ColorIndex
 90
        5
102
RTVSPost2010Prop44ColorRGB
 90
      255
102
RTVSPost2010PropOp44
 70
     1
102
RTVSPost2010Prop45
280
     0
102
RTVSPost2010PropOp45
 70
     1
102
RTVSPost2010Prop46
 90
       50
102
RTVSPost2010PropOp46
 70
     1
102
RTVSPost2010Prop47
 90
       50
102
RTVSPost2010PropOp47
 70
     1
102
RTVSPost2010Prop48
 90
       50
102
RTVSPost2010PropOp48
 70
     1
102
RTVSPost2010Prop49
280
     0
102
RTVSPost2010PropOp49
 70
     1
102
RTVSPost2010Prop50
 90
       50
102
RTVSPost2010PropOp50
 70
     1
102
RTVSPost2010Prop51ColorIndex
 90
      256
102
RTVSPost2010Prop51ColorRGB
 90
-16777216
102
RTVSPost2010PropOp51
 70
     0
102
RTVSPost2010Prop52
140
1.0
102
RTVSPost2010PropOp52
 70
     0
102
RTVSPost2010Prop53
 90
        2
102
RTVSPost2010PropOp53
 70
     1
102
RTVSPost2010Prop54
  1
strokes_ogs.tif
102
RTVSPost2010PropOp54
 70
     1
102
RTVSPost2010Prop55
280
     0
102
RTVSPost2010PropOp55
 70
     1
102
RTVSPost2010Prop56
140
1.0
102
RTVSPost2010PropOp56
 70
     1
102
RTVSPost2010Prop57
140
1.0
102
RTVSPost2010PropOp57
 70
     1
102
RTVSPropertyOp0
 70
     1
102
RTVSPropertyOp1
 70
     1
102
RTVSPropertyOp2
 70
     1
102
RTVSPropertyOp3
 70
     1
102
RTVSPropertyOp4
 70
     1
102
RTVSPropertyOp5
 70
     1
102
RTVSPropertyOp6
 70
     1
102
RTVSPropertyOp7
 70
     1
102
RTVSPropertyOp8
 70
     1
102
RTVSPropertyOp9
 70
     1
102
RTVSPropertyOp10
 70
     1
102
RTVSPropertyOp11
 70
     1
102
RTVSPropertyOp12
 70
     1
102
RTVSPropertyOp13
 70
     1
102
RTVSPropertyOp14
 70
     1
102
RTVSPropertyOp15
 70
     1
102
RTVSPropertyOp16
 70
     1
102
RTVSPropertyOp17
 70
     1
102
RTVSPropertyOp18
 70
     1
102
RTVSPropertyOp19
 70
     1
102
RTVSPropertyOp20
 70
     1
102
RTVSPropertyOp21
 70
     1
102
RTVSPropertyOp22
 70
     1
102
RTVSPropertyOp23
 70
     1
102
RTVSPropertyOp24
 70
     1
102
RTVSPropertyOp25
 70
     1
102
RTVSPropertyOp26
 70
     1
102
RTVSPropertyOp27
 70
     1
102
RTVSPropertyOp28
 70
     1
102
RTVSPropertyOp29
 70
     1
102
RTVSPropertyOp30
 70
     1
102
RTVSPropertyOp31
 70
     1
102
RTVSPropertyOp32
 70
     1
102
RTVSPropertyOp33
 70
     1
102
RTVSPropertyOp34
 70
     1
102
RTVSPropertyOp35
 70
     1
102
RTVSPropertyOp36
 70
     1
102
RTVSPropertyOp37
 70
     1
102
RTVSPropertyOp38
 70
     1
102
RTVSPropertyOp39
 70
     1
102
RTVSPropertyOp40
 70
     1
102
RTVSPropertyOp41
 70
     1
102
RTVSPropertyOp42
 70
     1
102
RTVSPropertyOp43
 70
     1
102
RTVSPropertyOp44
 70
     1
102
RTVSPropertyOp45
 70
     1
102
RTVSPropertyOp46
 70
     1
102
RTVSPropertyOp47
 70
     1
102
RTVSPropertyOp48
 70
     1
102
RTVSPropertyOp49
 70
     1
102
RTVSPropertyOp50
 70
     1
102
RTVSPropertyOp51
 70
     0
102
RTVSPropertyOp52
 70
     0
102
RTVSPropertyOp53
 70
     1
102
RTVSPropertyOp54
 70
     1
102
RTVSPropertyOp55
 70
     1
102
RTVSPropertyOp56
 70
     1
102
RTVSPropertyOp57
 70
     1
102
RTVSPropertyOp58
 70
     1
102
RTVSPropertyOp59
 70
     1
102
RTVSPropertyOp60
 70
     1
102
RTVSPropertyOp61
 70
     1
102
RTVSPropertyOp62
 70
     1
  0
XRECORD
  5
5C9
102
{ACAD_REACTORS
330
5C8
102
}
330
5C8
100
AcDbXrecord
280
     1
102
RTVSPost2010Prop28
280
     0
102
RTVSPost2010PropOp28
 70
     1
102
RTVSPost2010Prop29
280
     1
102
RTVSPost2010PropOp29
 70
     1
102
RTVSPost2010Prop30
280
     1
102
RTVSPost2010PropOp30
 70
     1
102
RTVSPost2010Prop31
280
     0
102
RTVSPost2010PropOp31
 70
     1
102
RTVSPost2010Prop32
280
     0
102
RTVSPost2010PropOp32
 70
     1
102
RTVSPost2010Prop33
280
     0
102
RTVSPost2010PropOp33
 70
     1
102
RTVSPost2010Prop34
280
     0
102
RTVSPost2010PropOp34
 70
     1
102
RTVSPost2010Prop35
280
     0
102
RTVSPost2010PropOp35
 70
     1
102
RTVSPost2010Prop36
280
     0
102
RTVSPost2010PropOp36
 70
     1
102
RTVSPost2010Prop37
 90
       50
102
RTVSPost2010PropOp37
 70
     1
102
RTVSPost2010Prop38
140
0.0
102
RTVSPost2010PropOp38
 70
     1
102
RTVSPost2010Prop39
140
1.0
102
RTVSPost2010PropOp39
 70
     1
102
RTVSPost2010Prop40
 90
        0
102
RTVSPost2010PropOp40
 70
     1
102
RTVSPost2010Prop41ColorIndex
 90
       18
102
RTVSPost2010Prop41ColorRGB
 90
        0
102
RTVSPost2010PropOp41
 70
     1
102
RTVSPost2010Prop42
 90
       50
102
RTVSPost2010PropOp42
 70
     1
102
RTVSPost2010Prop43
 90
        3
102
RTVSPost2010PropOp43
 70
     1
102
RTVSPost2010Prop44ColorIndex
 90
        5
102
RTVSPost2010Prop44ColorRGB
 90
      255
102
RTVSPost2010PropOp44
 70
     1
102
RTVSPost2010Prop45
280
     0
102
RTVSPost2010PropOp45
 70
     1
102
RTVSPost2010Prop46
 90
       50
102
RTVSPost2010PropOp46
 70
     1
102
RTVSPost2010Prop47
 90
       50
102
RTVSPost2010PropOp47
 70
     1
102
RTVSPost2010Prop48
 90
       50
102
RTVSPost2010PropOp48
 70
     1
102
RTVSPost2010Prop49
280
     0
102
RTVSPost2010PropOp49
 70
     1
102
RTVSPost2010Prop50
 90
       50
102
RTVSPost2010PropOp50
 70
     1
102
RTVSPost2010Prop51ColorIndex
 90
      256
102
RTVSPost2010Prop51ColorRGB
 90
-16777216
102
RTVSPost2010PropOp51
 70
     0
102
RTVSPost2010Prop52
140
1.0
102
RTVSPost2010PropOp52
 70
     0
102
RTVSPost2010Prop53
 90
        2
102
RTVSPost2010PropOp53
 70
     1
102
RTVSPost2010Prop54
  1
strokes_ogs.tif
102
RTVSPost2010PropOp54
 70
     1
102
RTVSPost2010Prop55
280
     0
102
RTVSPost2010PropOp55
 70
     1
102
RTVSPost2010Prop56
140
1.0
102
RTVSPost2010PropOp56
 70
     1
102
RTVSPost2010Prop57
140
1.0
102
RTVSPost2010PropOp57
 70
     1
102
RTVSPropertyOp0
 70
     1
102
RTVSPropertyOp1
 70
     1
102
RTVSPropertyOp2
 70
     1
102
RTVSPropertyOp3
 70
     1
102
RTVSPropertyOp4
 70
     1
102
RTVSPropertyOp5
 70
     1
102
RTVSPropertyOp6
 70
     1
102
RTVSPropertyOp7
 70
     1
102
RTVSPropertyOp8
 70
     1
102
RTVSPropertyOp9
 70
     1
102
RTVSPropertyOp10
 70
     1
102
RTVSPropertyOp11
 70
     1
102
RTVSPropertyOp12
 70
     1
102
RTVSPropertyOp13
 70
     1
102
RTVSPropertyOp14
 70
     1
102
RTVSPropertyOp15
 70
     1
102
RTVSPropertyOp16
 70
     1
102
RTVSPropertyOp17
 70
     1
102
RTVSPropertyOp18
 70
     1
102
RTVSPropertyOp19
 70
     1
102
RTVSPropertyOp20
 70
     1
102
RTVSPropertyOp21
 70
     1
102
RTVSPropertyOp22
 70
     1
102
RTVSPropertyOp23
 70
     1
102
RTVSPropertyOp24
 70
     1
102
RTVSPropertyOp25
 70
     1
102
RTVSPropertyOp26
 70
     1
102
RTVSPropertyOp27
 70
     1
102
RTVSPropertyOp28
 70
     1
102
RTVSPropertyOp29
 70
     1
102
RTVSPropertyOp30
 70
     1
102
RTVSPropertyOp31
 70
     1
102
RTVSPropertyOp32
 70
     1
102
RTVSPropertyOp33
 70
     1
102
RTVSPropertyOp34
 70
     1
102
RTVSPropertyOp35
 70
     1
102
RTVSPropertyOp36
 70
     1
102
RTVSPropertyOp37
 70
     1
102
RTVSPropertyOp38
 70
     1
102
RTVSPropertyOp39
 70
     1
102
RTVSPropertyOp40
 70
     1
102
RTVSPropertyOp41
 70
     1
102
RTVSPropertyOp42
 70
     1
102
RTVSPropertyOp43
 70
     1
102
RTVSPropertyOp44
 70
     1
102
RTVSPropertyOp45
 70
     1
102
RTVSPropertyOp46
 70
     1
102
RTVSPropertyOp47
 70
     1
102
RTVSPropertyOp48
 70
     1
102
RTVSPropertyOp49
 70
     1
102
RTVSPropertyOp50
 70
     1
102
RTVSPropertyOp51
 70
     0
102
RTVSPropertyOp52
 70
     0
102
RTVSPropertyOp53
 70
     1
102
RTVSPropertyOp54
 70
     1
102
RTVSPropertyOp55
 70
     1
102
RTVSPropertyOp56
 70
     1
102
RTVSPropertyOp57
 70
     1
102
RTVSPropertyOp58
 70
     1
102
RTVSPropertyOp59
 70
     1
102
RTVSPropertyOp60
 70
     1
102
RTVSPropertyOp61
 70
     1
102
RTVSPropertyOp62
 70
     1
  0
XRECORD
  5
5CD
102
{ACAD_REACTORS
330
5CC
102
}
330
5CC
100
AcDbXrecord
280
     1
102
RTVSPost2010Prop28
280
     0
102
RTVSPost2010PropOp28
 70
     1
102
RTVSPost2010Prop29
280
     1
102
RTVSPost2010PropOp29
 70
     1
102
RTVSPost2010Prop30
280
     1
102
RTVSPost2010PropOp30
 70
     1
102
RTVSPost2010Prop31
280
     0
102
RTVSPost2010PropOp31
 70
     1
102
RTVSPost2010Prop32
280
     0
102
RTVSPost2010PropOp32
 70
     1
102
RTVSPost2010Prop33
280
     0
102
RTVSPost2010PropOp33
 70
     1
102
RTVSPost2010Prop34
280
     0
102
RTVSPost2010PropOp34
 70
     1
102
RTVSPost2010Prop35
280
     0
102
RTVSPost2010PropOp35
 70
     1
102
RTVSPost2010Prop36
280
     0
102
RTVSPost2010PropOp36
 70
     1
102
RTVSPost2010Prop37
 90
       50
102
RTVSPost2010PropOp37
 70
     1
102
RTVSPost2010Prop38
140
0.0
102
RTVSPost2010PropOp38
 70
     1
102
RTVSPost2010Prop39
140
1.0
102
RTVSPost2010PropOp39
 70
     1
102
RTVSPost2010Prop40
 90
        0
102
RTVSPost2010PropOp40
 70
     1
102
RTVSPost2010Prop41ColorIndex
 90
       18
102
RTVSPost2010Prop41ColorRGB
 90
        0
102
RTVSPost2010PropOp41
 70
     1
102
RTVSPost2010Prop42
 90
       50
102
RTVSPost2010PropOp42
 70
     1
102
RTVSPost2010Prop43
 90
        3
102
RTVSPost2010PropOp43
 70
     1
102
RTVSPost2010Prop44ColorIndex
 90
        5
102
RTVSPost2010Prop44ColorRGB
 90
      255
102
RTVSPost2010PropOp44
 70
     1
102
RTVSPost2010Prop45
280
     0
102
RTVSPost2010PropOp45
 70
     1
102
RTVSPost2010Prop46
 90
       50
102
RTVSPost2010PropOp46
 70
     1
102
RTVSPost2010Prop47
 90
       50
102
RTVSPost2010PropOp47
 70
     1
102
RTVSPost2010Prop48
 90
       50
102
RTVSPost2010PropOp48
 70
     1
102
RTVSPost2010Prop49
280
     0
102
RTVSPost2010PropOp49
 70
     1
102
RTVSPost2010Prop50
 90
       50
102
RTVSPost2010PropOp50
 70
     1
102
RTVSPost2010Prop51ColorIndex
 90
      256
102
RTVSPost2010Prop51ColorRGB
 90
-16777216
102
RTVSPost2010PropOp51
 70
     0
102
RTVSPost2010Prop52
140
1.0
102
RTVSPost2010PropOp52
 70
     0
102
RTVSPost2010Prop53
 90
        2
102
RTVSPost2010PropOp53
 70
     1
102
RTVSPost2010Prop54
  1
strokes_ogs.tif
102
RTVSPost2010PropOp54
 70
     1
102
RTVSPost2010Prop55
280
     0
102
RTVSPost2010PropOp55
 70
     1
102
RTVSPost2010Prop56
140
1.0
102
RTVSPost2010PropOp56
 70
     1
102
RTVSPost2010Prop57
140
1.0
102
RTVSPost2010PropOp57
 70
     1
102
RTVSPropertyOp0
 70
     1
102
RTVSPropertyOp1
 70
     1
102
RTVSPropertyOp2
 70
     1
102
RTVSPropertyOp3
 70
     1
102
RTVSPropertyOp4
 70
     1
102
RTVSPropertyOp5
 70
     1
102
RTVSPropertyOp6
 70
     1
102
RTVSPropertyOp7
 70
     1
102
RTVSPropertyOp8
 70
     1
102
RTVSPropertyOp9
 70
     1
102
RTVSPropertyOp10
 70
     1
102
RTVSPropertyOp11
 70
     1
102
RTVSPropertyOp12
 70
     1
102
RTVSPropertyOp13
 70
     1
102
RTVSPropertyOp14
 70
     1
102
RTVSPropertyOp15
 70
     1
102
RTVSPropertyOp16
 70
     1
102
RTVSPropertyOp17
 70
     1
102
RTVSPropertyOp18
 70
     1
102
RTVSPropertyOp19
 70
     1
102
RTVSPropertyOp20
 70
     1
102
RTVSPropertyOp21
 70
     1
102
RTVSPropertyOp22
 70
     1
102
RTVSPropertyOp23
 70
     1
102
RTVSPropertyOp24
 70
     1
102
RTVSPropertyOp25
 70
     1
102
RTVSPropertyOp26
 70
     1
102
RTVSPropertyOp27
 70
     1
102
RTVSPropertyOp28
 70
     1
102
RTVSPropertyOp29
 70
     1
102
RTVSPropertyOp30
 70
     1
102
RTVSPropertyOp31
 70
     1
102
RTVSPropertyOp32
 70
     1
102
RTVSPropertyOp33
 70
     1
102
RTVSPropertyOp34
 70
     1
102
RTVSPropertyOp35
 70
     1
102
RTVSPropertyOp36
 70
     1
102
RTVSPropertyOp37
 70
     1
102
RTVSPropertyOp38
 70
     1
102
RTVSPropertyOp39
 70
     1
102
RTVSPropertyOp40
 70
     1
102
RTVSPropertyOp41
 70
     1
102
RTVSPropertyOp42
 70
     1
102
RTVSPropertyOp43
 70
     1
102
RTVSPropertyOp44
 70
     1
102
RTVSPropertyOp45
 70
     1
102
RTVSPropertyOp46
 70
     1
102
RTVSPropertyOp47
 70
     1
102
RTVSPropertyOp48
 70
     1
102
RTVSPropertyOp49
 70
     1
102
RTVSPropertyOp50
 70
     1
102
RTVSPropertyOp51
 70
     0
102
RTVSPropertyOp52
 70
     0
102
RTVSPropertyOp53
 70
     1
102
RTVSPropertyOp54
 70
     1
102
RTVSPropertyOp55
 70
     1
102
RTVSPropertyOp56
 70
     1
102
RTVSPropertyOp57
 70
     1
102
RTVSPropertyOp58
 70
     1
102
RTVSPropertyOp59
 70
     1
102
RTVSPropertyOp60
 70
     1
102
RTVSPropertyOp61
 70
     1
102
RTVSPropertyOp62
 70
     1
  0
XRECORD
  5
5E7
102
{ACAD_REACTORS
330
5E6
102
}
330
5E6
100
AcDbXrecord
280
     1
102
RTVSPost2010Prop28
280
     0
102
RTVSPost2010PropOp28
 70
     0
102
RTVSPost2010Prop29
280
     1
102
RTVSPost2010PropOp29
 70
     0
102
RTVSPost2010Prop30
280
     1
102
RTVSPost2010PropOp30
 70
     0
102
RTVSPost2010Prop31
280
     0
102
RTVSPost2010PropOp31
 70
     0
102
RTVSPost2010Prop32
280
     0
102
RTVSPost2010PropOp32
 70
     0
102
RTVSPost2010Prop33
280
     0
102
RTVSPost2010PropOp33
 70
     0
102
RTVSPost2010Prop34
280
     0
102
RTVSPost2010PropOp34
 70
     0
102
RTVSPost2010Prop35
280
     0
102
RTVSPost2010PropOp35
 70
     0
102
RTVSPost2010Prop36
280
     0
102
RTVSPost2010PropOp36
 70
     0
102
RTVSPost2010Prop37
 90
       50
102
RTVSPost2010PropOp37
 70
     0
102
RTVSPost2010Prop38
140
0.0
102
RTVSPost2010PropOp38
 70
     0
102
RTVSPost2010Prop39
140
1.0
102
RTVSPost2010PropOp39
 70
     0
102
RTVSPost2010Prop40
 90
        0
102
RTVSPost2010PropOp40
 70
     0
102
RTVSPost2010Prop41ColorIndex
 90
       18
102
RTVSPost2010Prop41ColorRGB
 90
        0
102
RTVSPost2010PropOp41
 70
     0
102
RTVSPost2010Prop42
 90
       50
102
RTVSPost2010PropOp42
 70
     0
102
RTVSPost2010Prop43
 90
        3
102
RTVSPost2010PropOp43
 70
     0
102
RTVSPost2010Prop44ColorIndex
 90
        5
102
RTVSPost2010Prop44ColorRGB
 90
      255
102
RTVSPost2010PropOp44
 70
     0
102
RTVSPost2010Prop45
280
     0
102
RTVSPost2010PropOp45
 70
     0
102
RTVSPost2010Prop46
 90
       50
102
RTVSPost2010PropOp46
 70
     0
102
RTVSPost2010Prop47
 90
       50
102
RTVSPost2010PropOp47
 70
     0
102
RTVSPost2010Prop48
 90
       50
102
RTVSPost2010PropOp48
 70
     0
102
RTVSPost2010Prop49
280
     0
102
RTVSPost2010PropOp49
 70
     0
102
RTVSPost2010Prop50
 90
       50
102
RTVSPost2010PropOp50
 70
     0
102
RTVSPost2010Prop51ColorIndex
 90
      256
102
RTVSPost2010Prop51ColorRGB
 90
-16777216
102
RTVSPost2010PropOp51
 70
     0
102
RTVSPost2010Prop52
140
1.0
102
RTVSPost2010PropOp52
 70
     0
102
RTVSPost2010Prop53
 90
        2
102
RTVSPost2010PropOp53
 70
     0
102
RTVSPost2010Prop54
  1
strokes_ogs.tif
102
RTVSPost2010PropOp54
 70
     0
102
RTVSPost2010Prop55
280
     0
102
RTVSPost2010PropOp55
 70
     0
102
RTVSPost2010Prop56
140
1.0
102
RTVSPost2010PropOp56
 70
     0
102
RTVSPost2010Prop57
140
1.0
102
RTVSPost2010PropOp57
 70
     0
102
RTVSPropertyOp0
 70
     0
102
RTVSPropertyOp1
 70
     0
102
RTVSPropertyOp2
 70
     0
102
RTVSPropertyOp3
 70
     0
102
RTVSPropertyOp4
 70
     0
102
RTVSPropertyOp5
 70
     0
102
RTVSPropertyOp6
 70
     0
102
RTVSPropertyOp7
 70
     0
102
RTVSPropertyOp8
 70
     0
102
RTVSPropertyOp9
 70
     0
102
RTVSPropertyOp10
 70
     0
102
RTVSPropertyOp11
 70
     0
102
RTVSPropertyOp12
 70
     0
102
RTVSPropertyOp13
 70
     0
102
RTVSPropertyOp14
 70
     2
102
RTVSPropertyOp15
 70
     0
102
RTVSPropertyOp16
 70
     0
102
RTVSPropertyOp17
 70
     0
102
RTVSPropertyOp18
 70
     0
102
RTVSPropertyOp19
 70
     0
102
RTVSPropertyOp20
 70
     0
102
RTVSPropertyOp21
 70
     0
102
RTVSPropertyOp22
 70
     0
102
RTVSPropertyOp23
 70
     0
102
RTVSPropertyOp24
 70
     0
102
RTVSPropertyOp25
 70
     0
102
RTVSPropertyOp26
 70
     0
102
RTVSPropertyOp27
 70
     0
102
RTVSPropertyOp28
 70
     0
102
RTVSPropertyOp29
 70
     0
102
RTVSPropertyOp30
 70
     0
102
RTVSPropertyOp31
 70
     0
102
RTVSPropertyOp32
 70
     0
102
RTVSPropertyOp33
 70
     0
102
RTVSPropertyOp34
 70
     0
102
RTVSPropertyOp35
 70
     0
102
RTVSPropertyOp36
 70
     0
102
RTVSPropertyOp37
 70
     0
102
RTVSPropertyOp38
 70
     0
102
RTVSPropertyOp39
 70
     0
102
RTVSPropertyOp40
 70
     0
102
RTVSPropertyOp41
 70
     0
102
RTVSPropertyOp42
 70
     0
102
RTVSPropertyOp43
 70
     0
102
RTVSPropertyOp44
 70
     0
102
RTVSPropertyOp45
 70
     0
102
RTVSPropertyOp46
 70
     0
102
RTVSPropertyOp47
 70
     0
102
RTVSPropertyOp48
 70
     0
102
RTVSPropertyOp49
 70
     0
102
RTVSPropertyOp50
 70
     0
102
RTVSPropertyOp51
 70
     0
102
RTVSPropertyOp52
 70
     0
102
RTVSPropertyOp53
 70
     0
102
RTVSPropertyOp54
 70
     0
102
RTVSPropertyOp55
 70
     0
102
RTVSPropertyOp56
 70
     0
102
RTVSPropertyOp57
 70
     0
102
RTVSPropertyOp58
 70
     1
102
RTVSPropertyOp59
 70
     1
102
RTVSPropertyOp60
 70
     1
102
RTVSPropertyOp61
 70
     1
102
RTVSPropertyOp62
 70
     1
  0
XRECORD
  5
5D5
102
{ACAD_REACTORS
330
5D4
102
}
330
5D4
100
AcDbXrecord
280
     1
102
RTVSPost2010Prop28
280
     0
102
RTVSPost2010PropOp28
 70
     1
102
RTVSPost2010Prop29
280
     1
102
RTVSPost2010PropOp29
 70
     1
102
RTVSPost2010Prop30
280
     1
102
RTVSPost2010PropOp30
 70
     1
102
RTVSPost2010Prop31
280
     0
102
RTVSPost2010PropOp31
 70
     1
102
RTVSPost2010Prop32
280
     0
102
RTVSPost2010PropOp32
 70
     1
102
RTVSPost2010Prop33
280
     0
102
RTVSPost2010PropOp33
 70
     1
102
RTVSPost2010Prop34
280
     0
102
RTVSPost2010PropOp34
 70
     1
102
RTVSPost2010Prop35
280
     0
102
RTVSPost2010PropOp35
 70
     1
102
RTVSPost2010Prop36
280
     0
102
RTVSPost2010PropOp36
 70
     1
102
RTVSPost2010Prop37
 90
       50
102
RTVSPost2010PropOp37
 70
     1
102
RTVSPost2010Prop38
140
0.0
102
RTVSPost2010PropOp38
 70
     1
102
RTVSPost2010Prop39
140
1.0
102
RTVSPost2010PropOp39
 70
     1
102
RTVSPost2010Prop40
 90
        0
102
RTVSPost2010PropOp40
 70
     1
102
RTVSPost2010Prop41ColorIndex
 90
       18
102
RTVSPost2010Prop41ColorRGB
 90
        0
102
RTVSPost2010PropOp41
 70
     1
102
RTVSPost2010Prop42
 90
       50
102
RTVSPost2010PropOp42
 70
     1
102
RTVSPost2010Prop43
 90
        3
102
RTVSPost2010PropOp43
 70
     1
102
RTVSPost2010Prop44ColorIndex
 90
        5
102
RTVSPost2010Prop44ColorRGB
 90
      255
102
RTVSPost2010PropOp44
 70
     1
102
RTVSPost2010Prop45
280
     0
102
RTVSPost2010PropOp45
 70
     1
102
RTVSPost2010Prop46
 90
       50
102
RTVSPost2010PropOp46
 70
     1
102
RTVSPost2010Prop47
 90
       50
102
RTVSPost2010PropOp47
 70
     1
102
RTVSPost2010Prop48
 90
       50
102
RTVSPost2010PropOp48
 70
     1
102
RTVSPost2010Prop49
280
     0
102
RTVSPost2010PropOp49
 70
     1
102
RTVSPost2010Prop50
 90
       50
102
RTVSPost2010PropOp50
 70
     1
102
RTVSPost2010Prop51ColorIndex
 90
      256
102
RTVSPost2010Prop51ColorRGB
 90
-16777216
102
RTVSPost2010PropOp51
 70
     0
102
RTVSPost2010Prop52
140
1.0
102
RTVSPost2010PropOp52
 70
     0
102
RTVSPost2010Prop53
 90
        2
102
RTVSPost2010PropOp53
 70
     1
102
RTVSPost2010Prop54
  1
strokes_ogs.tif
102
RTVSPost2010PropOp54
 70
     1
102
RTVSPost2010Prop55
280
     0
102
RTVSPost2010PropOp55
 70
     1
102
RTVSPost2010Prop56
140
1.0
102
RTVSPost2010PropOp56
 70
     1
102
RTVSPost2010Prop57
140
1.0
102
RTVSPost2010PropOp57
 70
     1
102
RTVSPropertyOp0
 70
     1
102
RTVSPropertyOp1
 70
     1
102
RTVSPropertyOp2
 70
     1
102
RTVSPropertyOp3
 70
     1
102
RTVSPropertyOp4
 70
     1
102
RTVSPropertyOp5
 70
     1
102
RTVSPropertyOp6
 70
     1
102
RTVSPropertyOp7
 70
     1
102
RTVSPropertyOp8
 70
     1
102
RTVSPropertyOp9
 70
     1
102
RTVSPropertyOp10
 70
     1
102
RTVSPropertyOp11
 70
     1
102
RTVSPropertyOp12
 70
     1
102
RTVSPropertyOp13
 70
     1
102
RTVSPropertyOp14
 70
     1
102
RTVSPropertyOp15
 70
     1
102
RTVSPropertyOp16
 70
     1
102
RTVSPropertyOp17
 70
     1
102
RTVSPropertyOp18
 70
     1
102
RTVSPropertyOp19
 70
     1
102
RTVSPropertyOp20
 70
     1
102
RTVSPropertyOp21
 70
     1
102
RTVSPropertyOp22
 70
     1
102
RTVSPropertyOp23
 70
     1
102
RTVSPropertyOp24
 70
     1
102
RTVSPropertyOp25
 70
     1
102
RTVSPropertyOp26
 70
     1
102
RTVSPropertyOp27
 70
     1
102
RTVSPropertyOp28
 70
     1
102
RTVSPropertyOp29
 70
     1
102
RTVSPropertyOp30
 70
     1
102
RTVSPropertyOp31
 70
     1
102
RTVSPropertyOp32
 70
     1
102
RTVSPropertyOp33
 70
     1
102
RTVSPropertyOp34
 70
     1
102
RTVSPropertyOp35
 70
     1
102
RTVSPropertyOp36
 70
     1
102
RTVSPropertyOp37
 70
     1
102
RTVSPropertyOp38
 70
     1
102
RTVSPropertyOp39
 70
     1
102
RTVSPropertyOp40
 70
     1
102
RTVSPropertyOp41
 70
     1
102
RTVSPropertyOp42
 70
     1
102
RTVSPropertyOp43
 70
     1
102
RTVSPropertyOp44
 70
     1
102
RTVSPropertyOp45
 70
     1
102
RTVSPropertyOp46
 70
     1
102
RTVSPropertyOp47
 70
     1
102
RTVSPropertyOp48
 70
     1
102
RTVSPropertyOp49
 70
     1
102
RTVSPropertyOp50
 70
     1
102
RTVSPropertyOp51
 70
     0
102
RTVSPropertyOp52
 70
     0
102
RTVSPropertyOp53
 70
     1
102
RTVSPropertyOp54
 70
     1
102
RTVSPropertyOp55
 70
     1
102
RTVSPropertyOp56
 70
     1
102
RTVSPropertyOp57
 70
     1
102
RTVSPropertyOp58
 70
     1
102
RTVSPropertyOp59
 70
     1
102
RTVSPropertyOp60
 70
     1
102
RTVSPropertyOp61
 70
     1
102
RTVSPropertyOp62
 70
     1
  0
XRECORD
  5
5B9
102
{ACAD_REACTORS
330
5B8
102
}
330
5B8
100
AcDbXrecord
280
     1
102
RTVSPost2010Prop28
280
     0
102
RTVSPost2010PropOp28
 70
     1
102
RTVSPost2010Prop29
280
     1
102
RTVSPost2010PropOp29
 70
     1
102
RTVSPost2010Prop30
280
     1
102
RTVSPost2010PropOp30
 70
     1
102
RTVSPost2010Prop31
280
     0
102
RTVSPost2010PropOp31
 70
     1
102
RTVSPost2010Prop32
280
     0
102
RTVSPost2010PropOp32
 70
     1
102
RTVSPost2010Prop33
280
     0
102
RTVSPost2010PropOp33
 70
     1
102
RTVSPost2010Prop34
280
     0
102
RTVSPost2010PropOp34
 70
     1
102
RTVSPost2010Prop35
280
     0
102
RTVSPost2010PropOp35
 70
     1
102
RTVSPost2010Prop36
280
     0
102
RTVSPost2010PropOp36
 70
     1
102
RTVSPost2010Prop37
 90
       50
102
RTVSPost2010PropOp37
 70
     1
102
RTVSPost2010Prop38
140
0.0
102
RTVSPost2010PropOp38
 70
     1
102
RTVSPost2010Prop39
140
1.0
102
RTVSPost2010PropOp39
 70
     1
102
RTVSPost2010Prop40
 90
        0
102
RTVSPost2010PropOp40
 70
     1
102
RTVSPost2010Prop41ColorIndex
 90
       18
102
RTVSPost2010Prop41ColorRGB
 90
        0
102
RTVSPost2010PropOp41
 70
     1
102
RTVSPost2010Prop42
 90
       50
102
RTVSPost2010PropOp42
 70
     1
102
RTVSPost2010Prop43
 90
        3
102
RTVSPost2010PropOp43
 70
     1
102
RTVSPost2010Prop44ColorIndex
 90
        5
102
RTVSPost2010Prop44ColorRGB
 90
      255
102
RTVSPost2010PropOp44
 70
     1
102
RTVSPost2010Prop45
280
     0
102
RTVSPost2010PropOp45
 70
     1
102
RTVSPost2010Prop46
 90
       50
102
RTVSPost2010PropOp46
 70
     1
102
RTVSPost2010Prop47
 90
       50
102
RTVSPost2010PropOp47
 70
     1
102
RTVSPost2010Prop48
 90
       50
102
RTVSPost2010PropOp48
 70
     1
102
RTVSPost2010Prop49
280
     0
102
RTVSPost2010PropOp49
 70
     1
102
RTVSPost2010Prop50
 90
       50
102
RTVSPost2010PropOp50
 70
     1
102
RTVSPost2010Prop51ColorIndex
 90
      256
102
RTVSPost2010Prop51ColorRGB
 90
-16777216
102
RTVSPost2010PropOp51
 70
     0
102
RTVSPost2010Prop52
140
1.0
102
RTVSPost2010PropOp52
 70
     0
102
RTVSPost2010Prop53
 90
        2
102
RTVSPost2010PropOp53
 70
     1
102
RTVSPost2010Prop54
  1
strokes_ogs.tif
102
RTVSPost2010PropOp54
 70
     1
102
RTVSPost2010Prop55
280
     0
102
RTVSPost2010PropOp55
 70
     1
102
RTVSPost2010Prop56
140
1.0
102
RTVSPost2010PropOp56
 70
     1
102
RTVSPost2010Prop57
140
1.0
102
RTVSPost2010PropOp57
 70
     1
102
RTVSPropertyOp0
 70
     1
102
RTVSPropertyOp1
 70
     1
102
RTVSPropertyOp2
 70
     1
102
RTVSPropertyOp3
 70
     1
102
RTVSPropertyOp4
 70
     1
102
RTVSPropertyOp5
 70
     1
102
RTVSPropertyOp6
 70
     1
102
RTVSPropertyOp7
 70
     1
102
RTVSPropertyOp8
 70
     1
102
RTVSPropertyOp9
 70
     1
102
RTVSPropertyOp10
 70
     1
102
RTVSPropertyOp11
 70
     1
102
RTVSPropertyOp12
 70
     1
102
RTVSPropertyOp13
 70
     1
102
RTVSPropertyOp14
 70
     1
102
RTVSPropertyOp15
 70
     1
102
RTVSPropertyOp16
 70
     1
102
RTVSPropertyOp17
 70
     1
102
RTVSPropertyOp18
 70
     1
102
RTVSPropertyOp19
 70
     1
102
RTVSPropertyOp20
 70
     1
102
RTVSPropertyOp21
 70
     1
102
RTVSPropertyOp22
 70
     1
102
RTVSPropertyOp23
 70
     1
102
RTVSPropertyOp24
 70
     1
102
RTVSPropertyOp25
 70
     1
102
RTVSPropertyOp26
 70
     1
102
RTVSPropertyOp27
 70
     1
102
RTVSPropertyOp28
 70
     1
102
RTVSPropertyOp29
 70
     1
102
RTVSPropertyOp30
 70
     1
102
RTVSPropertyOp31
 70
     1
102
RTVSPropertyOp32
 70
     1
102
RTVSPropertyOp33
 70
     1
102
RTVSPropertyOp34
 70
     1
102
RTVSPropertyOp35
 70
     1
102
RTVSPropertyOp36
 70
     1
102
RTVSPropertyOp37
 70
     1
102
RTVSPropertyOp38
 70
     1
102
RTVSPropertyOp39
 70
     1
102
RTVSPropertyOp40
 70
     1
102
RTVSPropertyOp41
 70
     1
102
RTVSPropertyOp42
 70
     1
102
RTVSPropertyOp43
 70
     1
102
RTVSPropertyOp44
 70
     1
102
RTVSPropertyOp45
 70
     1
102
RTVSPropertyOp46
 70
     1
102
RTVSPropertyOp47
 70
     1
102
RTVSPropertyOp48
 70
     1
102
RTVSPropertyOp49
 70
     1
102
RTVSPropertyOp50
 70
     1
102
RTVSPropertyOp51
 70
     0
102
RTVSPropertyOp52
 70
     0
102
RTVSPropertyOp53
 70
     1
102
RTVSPropertyOp54
 70
     1
102
RTVSPropertyOp55
 70
     1
102
RTVSPropertyOp56
 70
     1
102
RTVSPropertyOp57
 70
     1
102
RTVSPropertyOp58
 70
     1
102
RTVSPropertyOp59
 70
     1
102
RTVSPropertyOp60
 70
     1
102
RTVSPropertyOp61
 70
     1
102
RTVSPropertyOp62
 70
     1
  0
XRECORD
  5
5BB
102
{ACAD_REACTORS
330
5BA
102
}
330
5BA
100
AcDbXrecord
280
     1
102
RTVSPost2010Prop28
280
     0
102
RTVSPost2010PropOp28
 70
     1
102
RTVSPost2010Prop29
280
     1
102
RTVSPost2010PropOp29
 70
     1
102
RTVSPost2010Prop30
280
     1
102
RTVSPost2010PropOp30
 70
     1
102
RTVSPost2010Prop31
280
     0
102
RTVSPost2010PropOp31
 70
     1
102
RTVSPost2010Prop32
280
     0
102
RTVSPost2010PropOp32
 70
     1
102
RTVSPost2010Prop33
280
     0
102
RTVSPost2010PropOp33
 70
     1
102
RTVSPost2010Prop34
280
     0
102
RTVSPost2010PropOp34
 70
     1
102
RTVSPost2010Prop35
280
     0
102
RTVSPost2010PropOp35
 70
     1
102
RTVSPost2010Prop36
280
     0
102
RTVSPost2010PropOp36
 70
     1
102
RTVSPost2010Prop37
 90
       50
102
RTVSPost2010PropOp37
 70
     1
102
RTVSPost2010Prop38
140
0.0
102
RTVSPost2010PropOp38
 70
     1
102
RTVSPost2010Prop39
140
1.0
102
RTVSPost2010PropOp39
 70
     1
102
RTVSPost2010Prop40
 90
        0
102
RTVSPost2010PropOp40
 70
     1
102
RTVSPost2010Prop41ColorIndex
 90
       18
102
RTVSPost2010Prop41ColorRGB
 90
        0
102
RTVSPost2010PropOp41
 70
     1
102
RTVSPost2010Prop42
 90
       50
102
RTVSPost2010PropOp42
 70
     1
102
RTVSPost2010Prop43
 90
        3
102
RTVSPost2010PropOp43
 70
     1
102
RTVSPost2010Prop44ColorIndex
 90
        5
102
RTVSPost2010Prop44ColorRGB
 90
      255
102
RTVSPost2010PropOp44
 70
     1
102
RTVSPost2010Prop45
280
     0
102
RTVSPost2010PropOp45
 70
     1
102
RTVSPost2010Prop46
 90
       50
102
RTVSPost2010PropOp46
 70
     1
102
RTVSPost2010Prop47
 90
       50
102
RTVSPost2010PropOp47
 70
     1
102
RTVSPost2010Prop48
 90
       50
102
RTVSPost2010PropOp48
 70
     1
102
RTVSPost2010Prop49
280
     0
102
RTVSPost2010PropOp49
 70
     1
102
RTVSPost2010Prop50
 90
       50
102
RTVSPost2010PropOp50
 70
     1
102
RTVSPost2010Prop51ColorIndex
 90
      256
102
RTVSPost2010Prop51ColorRGB
 90
-16777216
102
RTVSPost2010PropOp51
 70
     0
102
RTVSPost2010Prop52
140
1.0
102
RTVSPost2010PropOp52
 70
     0
102
RTVSPost2010Prop53
 90
        2
102
RTVSPost2010PropOp53
 70
     1
102
RTVSPost2010Prop54
  1
strokes_ogs.tif
102
RTVSPost2010PropOp54
 70
     1
102
RTVSPost2010Prop55
280
     0
102
RTVSPost2010PropOp55
 70
     1
102
RTVSPost2010Prop56
140
1.0
102
RTVSPost2010PropOp56
 70
     1
102
RTVSPost2010Prop57
140
1.0
102
RTVSPost2010PropOp57
 70
     1
102
RTVSPropertyOp0
 70
     1
102
RTVSPropertyOp1
 70
     1
102
RTVSPropertyOp2
 70
     1
102
RTVSPropertyOp3
 70
     1
102
RTVSPropertyOp4
 70
     1
102
RTVSPropertyOp5
 70
     1
102
RTVSPropertyOp6
 70
     1
102
RTVSPropertyOp7
 70
     1
102
RTVSPropertyOp8
 70
     1
102
RTVSPropertyOp9
 70
     1
102
RTVSPropertyOp10
 70
     1
102
RTVSPropertyOp11
 70
     1
102
RTVSPropertyOp12
 70
     1
102
RTVSPropertyOp13
 70
     1
102
RTVSPropertyOp14
 70
     1
102
RTVSPropertyOp15
 70
     1
102
RTVSPropertyOp16
 70
     1
102
RTVSPropertyOp17
 70
     1
102
RTVSPropertyOp18
 70
     1
102
RTVSPropertyOp19
 70
     1
102
RTVSPropertyOp20
 70
     1
102
RTVSPropertyOp21
 70
     1
102
RTVSPropertyOp22
 70
     1
102
RTVSPropertyOp23
 70
     1
102
RTVSPropertyOp24
 70
     1
102
RTVSPropertyOp25
 70
     1
102
RTVSPropertyOp26
 70
     1
102
RTVSPropertyOp27
 70
     1
102
RTVSPropertyOp28
 70
     1
102
RTVSPropertyOp29
 70
     1
102
RTVSPropertyOp30
 70
     1
102
RTVSPropertyOp31
 70
     1
102
RTVSPropertyOp32
 70
     1
102
RTVSPropertyOp33
 70
     1
102
RTVSPropertyOp34
 70
     1
102
RTVSPropertyOp35
 70
     1
102
RTVSPropertyOp36
 70
     1
102
RTVSPropertyOp37
 70
     1
102
RTVSPropertyOp38
 70
     1
102
RTVSPropertyOp39
 70
     1
102
RTVSPropertyOp40
 70
     1
102
RTVSPropertyOp41
 70
     1
102
RTVSPropertyOp42
 70
     1
102
RTVSPropertyOp43
 70
     1
102
RTVSPropertyOp44
 70
     1
102
RTVSPropertyOp45
 70
     1
102
RTVSPropertyOp46
 70
     1
102
RTVSPropertyOp47
 70
     1
102
RTVSPropertyOp48
 70
     1
102
RTVSPropertyOp49
 70
     1
102
RTVSPropertyOp50
 70
     1
102
RTVSPropertyOp51
 70
     0
102
RTVSPropertyOp52
 70
     0
102
RTVSPropertyOp53
 70
     1
102
RTVSPropertyOp54
 70
     1
102
RTVSPropertyOp55
 70
     1
102
RTVSPropertyOp56
 70
     1
102
RTVSPropertyOp57
 70
     1
102
RTVSPropertyOp58
 70
     1
102
RTVSPropertyOp59
 70
     1
102
RTVSPropertyOp60
 70
     1
102
RTVSPropertyOp61
 70
     1
102
RTVSPropertyOp62
 70
     1
  0
XRECORD
  5
5BD
102
{ACAD_REACTORS
330
5BC
102
}
330
5BC
100
AcDbXrecord
280
     1
102
RTVSPost2010Prop28
280
     0
102
RTVSPost2010PropOp28
 70
     1
102
RTVSPost2010Prop29
280
     1
102
RTVSPost2010PropOp29
 70
     1
102
RTVSPost2010Prop30
280
     1
102
RTVSPost2010PropOp30
 70
     1
102
RTVSPost2010Prop31
280
     0
102
RTVSPost2010PropOp31
 70
     1
102
RTVSPost2010Prop32
280
     0
102
RTVSPost2010PropOp32
 70
     1
102
RTVSPost2010Prop33
280
     0
102
RTVSPost2010PropOp33
 70
     1
102
RTVSPost2010Prop34
280
     0
102
RTVSPost2010PropOp34
 70
     1
102
RTVSPost2010Prop35
280
     0
102
RTVSPost2010PropOp35
 70
     1
102
RTVSPost2010Prop36
280
     0
102
RTVSPost2010PropOp36
 70
     1
102
RTVSPost2010Prop37
 90
       50
102
RTVSPost2010PropOp37
 70
     1
102
RTVSPost2010Prop38
140
0.0
102
RTVSPost2010PropOp38
 70
     1
102
RTVSPost2010Prop39
140
1.0
102
RTVSPost2010PropOp39
 70
     1
102
RTVSPost2010Prop40
 90
        0
102
RTVSPost2010PropOp40
 70
     1
102
RTVSPost2010Prop41ColorIndex
 90
       18
102
RTVSPost2010Prop41ColorRGB
 90
        0
102
RTVSPost2010PropOp41
 70
     1
102
RTVSPost2010Prop42
 90
       50
102
RTVSPost2010PropOp42
 70
     1
102
RTVSPost2010Prop43
 90
        3
102
RTVSPost2010PropOp43
 70
     1
102
RTVSPost2010Prop44ColorIndex
 90
        5
102
RTVSPost2010Prop44ColorRGB
 90
      255
102
RTVSPost2010PropOp44
 70
     1
102
RTVSPost2010Prop45
280
     0
102
RTVSPost2010PropOp45
 70
     1
102
RTVSPost2010Prop46
 90
       50
102
RTVSPost2010PropOp46
 70
     1
102
RTVSPost2010Prop47
 90
       50
102
RTVSPost2010PropOp47
 70
     1
102
RTVSPost2010Prop48
 90
       50
102
RTVSPost2010PropOp48
 70
     1
102
RTVSPost2010Prop49
280
     0
102
RTVSPost2010PropOp49
 70
     1
102
RTVSPost2010Prop50
 90
       50
102
RTVSPost2010PropOp50
 70
     1
102
RTVSPost2010Prop51ColorIndex
 90
      256
102
RTVSPost2010Prop51ColorRGB
 90
-16777216
102
RTVSPost2010PropOp51
 70
     0
102
RTVSPost2010Prop52
140
1.0
102
RTVSPost2010PropOp52
 70
     0
102
RTVSPost2010Prop53
 90
        2
102
RTVSPost2010PropOp53
 70
     1
102
RTVSPost2010Prop54
  1
strokes_ogs.tif
102
RTVSPost2010PropOp54
 70
     1
102
RTVSPost2010Prop55
280
     0
102
RTVSPost2010PropOp55
 70
     1
102
RTVSPost2010Prop56
140
1.0
102
RTVSPost2010PropOp56
 70
     1
102
RTVSPost2010Prop57
140
1.0
102
RTVSPost2010PropOp57
 70
     1
102
RTVSPropertyOp0
 70
     1
102
RTVSPropertyOp1
 70
     1
102
RTVSPropertyOp2
 70
     1
102
RTVSPropertyOp3
 70
     1
102
RTVSPropertyOp4
 70
     1
102
RTVSPropertyOp5
 70
     1
102
RTVSPropertyOp6
 70
     1
102
RTVSPropertyOp7
 70
     1
102
RTVSPropertyOp8
 70
     1
102
RTVSPropertyOp9
 70
     1
102
RTVSPropertyOp10
 70
     1
102
RTVSPropertyOp11
 70
     1
102
RTVSPropertyOp12
 70
     1
102
RTVSPropertyOp13
 70
     1
102
RTVSPropertyOp14
 70
     1
102
RTVSPropertyOp15
 70
     1
102
RTVSPropertyOp16
 70
     1
102
RTVSPropertyOp17
 70
     1
102
RTVSPropertyOp18
 70
     1
102
RTVSPropertyOp19
 70
     1
102
RTVSPropertyOp20
 70
     1
102
RTVSPropertyOp21
 70
     1
102
RTVSPropertyOp22
 70
     1
102
RTVSPropertyOp23
 70
     1
102
RTVSPropertyOp24
 70
     1
102
RTVSPropertyOp25
 70
     1
102
RTVSPropertyOp26
 70
     1
102
RTVSPropertyOp27
 70
     1
102
RTVSPropertyOp28
 70
     1
102
RTVSPropertyOp29
 70
     1
102
RTVSPropertyOp30
 70
     1
102
RTVSPropertyOp31
 70
     1
102
RTVSPropertyOp32
 70
     1
102
RTVSPropertyOp33
 70
     1
102
RTVSPropertyOp34
 70
     1
102
RTVSPropertyOp35
 70
     1
102
RTVSPropertyOp36
 70
     1
102
RTVSPropertyOp37
 70
     1
102
RTVSPropertyOp38
 70
     1
102
RTVSPropertyOp39
 70
     1
102
RTVSPropertyOp40
 70
     1
102
RTVSPropertyOp41
 70
     1
102
RTVSPropertyOp42
 70
     1
102
RTVSPropertyOp43
 70
     1
102
RTVSPropertyOp44
 70
     1
102
RTVSPropertyOp45
 70
     1
102
RTVSPropertyOp46
 70
     1
102
RTVSPropertyOp47
 70
     1
102
RTVSPropertyOp48
 70
     1
102
RTVSPropertyOp49
 70
     1
102
RTVSPropertyOp50
 70
     1
102
RTVSPropertyOp51
 70
     0
102
RTVSPropertyOp52
 70
     0
102
RTVSPropertyOp53
 70
     1
102
RTVSPropertyOp54
 70
     1
102
RTVSPropertyOp55
 70
     1
102
RTVSPropertyOp56
 70
     1
102
RTVSPropertyOp57
 70
     1
102
RTVSPropertyOp58
 70
     1
102
RTVSPropertyOp59
 70
     1
102
RTVSPropertyOp60
 70
     1
102
RTVSPropertyOp61
 70
     1
102
RTVSPropertyOp62
 70
     1
  0
XRECORD
  5
5BF
102
{ACAD_REACTORS
330
5BE
102
}
330
5BE
100
AcDbXrecord
280
     1
102
RTVSPost2010Prop28
280
     0
102
RTVSPost2010PropOp28
 70
     1
102
RTVSPost2010Prop29
280
     1
102
RTVSPost2010PropOp29
 70
     1
102
RTVSPost2010Prop30
280
     1
102
RTVSPost2010PropOp30
 70
     1
102
RTVSPost2010Prop31
280
     0
102
RTVSPost2010PropOp31
 70
     1
102
RTVSPost2010Prop32
280
     0
102
RTVSPost2010PropOp32
 70
     1
102
RTVSPost2010Prop33
280
     0
102
RTVSPost2010PropOp33
 70
     1
102
RTVSPost2010Prop34
280
     0
102
RTVSPost2010PropOp34
 70
     1
102
RTVSPost2010Prop35
280
     0
102
RTVSPost2010PropOp35
 70
     1
102
RTVSPost2010Prop36
280
     0
102
RTVSPost2010PropOp36
 70
     1
102
RTVSPost2010Prop37
 90
       50
102
RTVSPost2010PropOp37
 70
     1
102
RTVSPost2010Prop38
140
0.0
102
RTVSPost2010PropOp38
 70
     1
102
RTVSPost2010Prop39
140
1.0
102
RTVSPost2010PropOp39
 70
     1
102
RTVSPost2010Prop40
 90
        0
102
RTVSPost2010PropOp40
 70
     1
102
RTVSPost2010Prop41ColorIndex
 90
       18
102
RTVSPost2010Prop41ColorRGB
 90
        0
102
RTVSPost2010PropOp41
 70
     1
102
RTVSPost2010Prop42
 90
       50
102
RTVSPost2010PropOp42
 70
     1
102
RTVSPost2010Prop43
 90
        3
102
RTVSPost2010PropOp43
 70
     1
102
RTVSPost2010Prop44ColorIndex
 90
        5
102
RTVSPost2010Prop44ColorRGB
 90
      255
102
RTVSPost2010PropOp44
 70
     1
102
RTVSPost2010Prop45
280
     0
102
RTVSPost2010PropOp45
 70
     1
102
RTVSPost2010Prop46
 90
       50
102
RTVSPost2010PropOp46
 70
     1
102
RTVSPost2010Prop47
 90
       50
102
RTVSPost2010PropOp47
 70
     1
102
RTVSPost2010Prop48
 90
       50
102
RTVSPost2010PropOp48
 70
     1
102
RTVSPost2010Prop49
280
     0
102
RTVSPost2010PropOp49
 70
     1
102
RTVSPost2010Prop50
 90
       50
102
RTVSPost2010PropOp50
 70
     1
102
RTVSPost2010Prop51ColorIndex
 90
      256
102
RTVSPost2010Prop51ColorRGB
 90
-16777216
102
RTVSPost2010PropOp51
 70
     0
102
RTVSPost2010Prop52
140
1.0
102
RTVSPost2010PropOp52
 70
     0
102
RTVSPost2010Prop53
 90
        2
102
RTVSPost2010PropOp53
 70
     1
102
RTVSPost2010Prop54
  1
strokes_ogs.tif
102
RTVSPost2010PropOp54
 70
     1
102
RTVSPost2010Prop55
280
     0
102
RTVSPost2010PropOp55
 70
     1
102
RTVSPost2010Prop56
140
1.0
102
RTVSPost2010PropOp56
 70
     1
102
RTVSPost2010Prop57
140
1.0
102
RTVSPost2010PropOp57
 70
     1
102
RTVSPropertyOp0
 70
     1
102
RTVSPropertyOp1
 70
     1
102
RTVSPropertyOp2
 70
     1
102
RTVSPropertyOp3
 70
     1
102
RTVSPropertyOp4
 70
     1
102
RTVSPropertyOp5
 70
     1
102
RTVSPropertyOp6
 70
     1
102
RTVSPropertyOp7
 70
     1
102
RTVSPropertyOp8
 70
     1
102
RTVSPropertyOp9
 70
     1
102
RTVSPropertyOp10
 70
     1
102
RTVSPropertyOp11
 70
     1
102
RTVSPropertyOp12
 70
     1
102
RTVSPropertyOp13
 70
     1
102
RTVSPropertyOp14
 70
     1
102
RTVSPropertyOp15
 70
     1
102
RTVSPropertyOp16
 70
     1
102
RTVSPropertyOp17
 70
     1
102
RTVSPropertyOp18
 70
     1
102
RTVSPropertyOp19
 70
     1
102
RTVSPropertyOp20
 70
     1
102
RTVSPropertyOp21
 70
     1
102
RTVSPropertyOp22
 70
     1
102
RTVSPropertyOp23
 70
     1
102
RTVSPropertyOp24
 70
     1
102
RTVSPropertyOp25
 70
     1
102
RTVSPropertyOp26
 70
     1
102
RTVSPropertyOp27
 70
     1
102
RTVSPropertyOp28
 70
     1
102
RTVSPropertyOp29
 70
     1
102
RTVSPropertyOp30
 70
     1
102
RTVSPropertyOp31
 70
     1
102
RTVSPropertyOp32
 70
     1
102
RTVSPropertyOp33
 70
     1
102
RTVSPropertyOp34
 70
     1
102
RTVSPropertyOp35
 70
     1
102
RTVSPropertyOp36
 70
     1
102
RTVSPropertyOp37
 70
     1
102
RTVSPropertyOp38
 70
     1
102
RTVSPropertyOp39
 70
     1
102
RTVSPropertyOp40
 70
     1
102
RTVSPropertyOp41
 70
     1
102
RTVSPropertyOp42
 70
     1
102
RTVSPropertyOp43
 70
     1
102
RTVSPropertyOp44
 70
     1
102
RTVSPropertyOp45
 70
     1
102
RTVSPropertyOp46
 70
     1
102
RTVSPropertyOp47
 70
     1
102
RTVSPropertyOp48
 70
     1
102
RTVSPropertyOp49
 70
     1
102
RTVSPropertyOp50
 70
     1
102
RTVSPropertyOp51
 70
     0
102
RTVSPropertyOp52
 70
     0
102
RTVSPropertyOp53
 70
     1
102
RTVSPropertyOp54
 70
     1
102
RTVSPropertyOp55
 70
     1
102
RTVSPropertyOp56
 70
     1
102
RTVSPropertyOp57
 70
     1
102
RTVSPropertyOp58
 70
     1
102
RTVSPropertyOp59
 70
     1
102
RTVSPropertyOp60
 70
     1
102
RTVSPropertyOp61
 70
     1
102
RTVSPropertyOp62
 70
     1
  0
XRECORD
  5
5C7
102
{ACAD_REACTORS
330
5C6
102
}
330
5C6
100
AcDbXrecord
280
     1
102
RTVSPost2010Prop28
280
     0
102
RTVSPost2010PropOp28
 70
     1
102
RTVSPost2010Prop29
280
     1
102
RTVSPost2010PropOp29
 70
     1
102
RTVSPost2010Prop30
280
     1
102
RTVSPost2010PropOp30
 70
     1
102
RTVSPost2010Prop31
280
     0
102
RTVSPost2010PropOp31
 70
     1
102
RTVSPost2010Prop32
280
     0
102
RTVSPost2010PropOp32
 70
     1
102
RTVSPost2010Prop33
280
     0
102
RTVSPost2010PropOp33
 70
     1
102
RTVSPost2010Prop34
280
     0
102
RTVSPost2010PropOp34
 70
     1
102
RTVSPost2010Prop35
280
     0
102
RTVSPost2010PropOp35
 70
     1
102
RTVSPost2010Prop36
280
     0
102
RTVSPost2010PropOp36
 70
     1
102
RTVSPost2010Prop37
 90
       50
102
RTVSPost2010PropOp37
 70
     1
102
RTVSPost2010Prop38
140
0.0
102
RTVSPost2010PropOp38
 70
     1
102
RTVSPost2010Prop39
140
1.0
102
RTVSPost2010PropOp39
 70
     1
102
RTVSPost2010Prop40
 90
        0
102
RTVSPost2010PropOp40
 70
     1
102
RTVSPost2010Prop41ColorIndex
 90
       18
102
RTVSPost2010Prop41ColorRGB
 90
        0
102
RTVSPost2010PropOp41
 70
     1
102
RTVSPost2010Prop42
 90
       50
102
RTVSPost2010PropOp42
 70
     1
102
RTVSPost2010Prop43
 90
        3
102
RTVSPost2010PropOp43
 70
     1
102
RTVSPost2010Prop44ColorIndex
 90
        5
102
RTVSPost2010Prop44ColorRGB
 90
      255
102
RTVSPost2010PropOp44
 70
     1
102
RTVSPost2010Prop45
280
     0
102
RTVSPost2010PropOp45
 70
     1
102
RTVSPost2010Prop46
 90
       50
102
RTVSPost2010PropOp46
 70
     1
102
RTVSPost2010Prop47
 90
       50
102
RTVSPost2010PropOp47
 70
     1
102
RTVSPost2010Prop48
 90
       50
102
RTVSPost2010PropOp48
 70
     1
102
RTVSPost2010Prop49
280
     0
102
RTVSPost2010PropOp49
 70
     1
102
RTVSPost2010Prop50
 90
       50
102
RTVSPost2010PropOp50
 70
     1
102
RTVSPost2010Prop51ColorIndex
 90
      256
102
RTVSPost2010Prop51ColorRGB
 90
-16777216
102
RTVSPost2010PropOp51
 70
     0
102
RTVSPost2010Prop52
140
1.0
102
RTVSPost2010PropOp52
 70
     0
102
RTVSPost2010Prop53
 90
        2
102
RTVSPost2010PropOp53
 70
     1
102
RTVSPost2010Prop54
  1
strokes_ogs.tif
102
RTVSPost2010PropOp54
 70
     1
102
RTVSPost2010Prop55
280
     0
102
RTVSPost2010PropOp55
 70
     1
102
RTVSPost2010Prop56
140
1.0
102
RTVSPost2010PropOp56
 70
     1
102
RTVSPost2010Prop57
140
1.0
102
RTVSPost2010PropOp57
 70
     1
102
RTVSPropertyOp0
 70
     1
102
RTVSPropertyOp1
 70
     1
102
RTVSPropertyOp2
 70
     1
102
RTVSPropertyOp3
 70
     1
102
RTVSPropertyOp4
 70
     1
102
RTVSPropertyOp5
 70
     1
102
RTVSPropertyOp6
 70
     1
102
RTVSPropertyOp7
 70
     1
102
RTVSPropertyOp8
 70
     1
102
RTVSPropertyOp9
 70
     1
102
RTVSPropertyOp10
 70
     1
102
RTVSPropertyOp11
 70
     1
102
RTVSPropertyOp12
 70
     1
102
RTVSPropertyOp13
 70
     1
102
RTVSPropertyOp14
 70
     1
102
RTVSPropertyOp15
 70
     1
102
RTVSPropertyOp16
 70
     1
102
RTVSPropertyOp17
 70
     1
102
RTVSPropertyOp18
 70
     1
102
RTVSPropertyOp19
 70
     1
102
RTVSPropertyOp20
 70
     1
102
RTVSPropertyOp21
 70
     1
102
RTVSPropertyOp22
 70
     1
102
RTVSPropertyOp23
 70
     1
102
RTVSPropertyOp24
 70
     1
102
RTVSPropertyOp25
 70
     1
102
RTVSPropertyOp26
 70
     1
102
RTVSPropertyOp27
 70
     1
102
RTVSPropertyOp28
 70
     1
102
RTVSPropertyOp29
 70
     1
102
RTVSPropertyOp30
 70
     1
102
RTVSPropertyOp31
 70
     1
102
RTVSPropertyOp32
 70
     1
102
RTVSPropertyOp33
 70
     1
102
RTVSPropertyOp34
 70
     1
102
RTVSPropertyOp35
 70
     1
102
RTVSPropertyOp36
 70
     1
102
RTVSPropertyOp37
 70
     1
102
RTVSPropertyOp38
 70
     1
102
RTVSPropertyOp39
 70
     1
102
RTVSPropertyOp40
 70
     1
102
RTVSPropertyOp41
 70
     1
102
RTVSPropertyOp42
 70
     1
102
RTVSPropertyOp43
 70
     1
102
RTVSPropertyOp44
 70
     1
102
RTVSPropertyOp45
 70
     1
102
RTVSPropertyOp46
 70
     1
102
RTVSPropertyOp47
 70
     1
102
RTVSPropertyOp48
 70
     1
102
RTVSPropertyOp49
 70
     1
102
RTVSPropertyOp50
 70
     1
102
RTVSPropertyOp51
 70
     0
102
RTVSPropertyOp52
 70
     0
102
RTVSPropertyOp53
 70
     1
102
RTVSPropertyOp54
 70
     1
102
RTVSPropertyOp55
 70
     1
102
RTVSPropertyOp56
 70
     1
102
RTVSPropertyOp57
 70
     1
102
RTVSPropertyOp58
 70
     1
102
RTVSPropertyOp59
 70
     1
102
RTVSPropertyOp60
 70
     1
102
RTVSPropertyOp61
 70
     1
102
RTVSPropertyOp62
 70
     1
  0
XRECORD
  5
5E3
102
{ACAD_REACTORS
330
5E2
102
}
330
5E2
100
AcDbXrecord
280
     1
102
RTVSPost2010Prop28
280
     0
102
RTVSPost2010PropOp28
 70
     0
102
RTVSPost2010Prop29
280
     1
102
RTVSPost2010PropOp29
 70
     0
102
RTVSPost2010Prop30
280
     1
102
RTVSPost2010PropOp30
 70
     0
102
RTVSPost2010Prop31
280
     0
102
RTVSPost2010PropOp31
 70
     0
102
RTVSPost2010Prop32
280
     0
102
RTVSPost2010PropOp32
 70
     0
102
RTVSPost2010Prop33
280
     0
102
RTVSPost2010PropOp33
 70
     0
102
RTVSPost2010Prop34
280
     0
102
RTVSPost2010PropOp34
 70
     0
102
RTVSPost2010Prop35
280
     0
102
RTVSPost2010PropOp35
 70
     0
102
RTVSPost2010Prop36
280
     0
102
RTVSPost2010PropOp36
 70
     0
102
RTVSPost2010Prop37
 90
       50
102
RTVSPost2010PropOp37
 70
     0
102
RTVSPost2010Prop38
140
0.0
102
RTVSPost2010PropOp38
 70
     0
102
RTVSPost2010Prop39
140
1.0
102
RTVSPost2010PropOp39
 70
     0
102
RTVSPost2010Prop40
 90
        0
102
RTVSPost2010PropOp40
 70
     0
102
RTVSPost2010Prop41ColorIndex
 90
       18
102
RTVSPost2010Prop41ColorRGB
 90
        0
102
RTVSPost2010PropOp41
 70
     0
102
RTVSPost2010Prop42
 90
       50
102
RTVSPost2010PropOp42
 70
     0
102
RTVSPost2010Prop43
 90
        3
102
RTVSPost2010PropOp43
 70
     0
102
RTVSPost2010Prop44ColorIndex
 90
        5
102
RTVSPost2010Prop44ColorRGB
 90
      255
102
RTVSPost2010PropOp44
 70
     0
102
RTVSPost2010Prop45
280
     0
102
RTVSPost2010PropOp45
 70
     0
102
RTVSPost2010Prop46
 90
       50
102
RTVSPost2010PropOp46
 70
     0
102
RTVSPost2010Prop47
 90
       50
102
RTVSPost2010PropOp47
 70
     0
102
RTVSPost2010Prop48
 90
       50
102
RTVSPost2010PropOp48
 70
     0
102
RTVSPost2010Prop49
280
     0
102
RTVSPost2010PropOp49
 70
     0
102
RTVSPost2010Prop50
 90
       50
102
RTVSPost2010PropOp50
 70
     0
102
RTVSPost2010Prop51ColorIndex
 90
      256
102
RTVSPost2010Prop51ColorRGB
 90
-16777216
102
RTVSPost2010PropOp51
 70
     0
102
RTVSPost2010Prop52
140
1.0
102
RTVSPost2010PropOp52
 70
     0
102
RTVSPost2010Prop53
 90
        2
102
RTVSPost2010PropOp53
 70
     0
102
RTVSPost2010Prop54
  1
strokes_ogs.tif
102
RTVSPost2010PropOp54
 70
     0
102
RTVSPost2010Prop55
280
     0
102
RTVSPost2010PropOp55
 70
     0
102
RTVSPost2010Prop56
140
1.0
102
RTVSPost2010PropOp56
 70
     0
102
RTVSPost2010Prop57
140
1.0
102
RTVSPost2010PropOp57
 70
     0
102
RTVSPropertyOp0
 70
     0
102
RTVSPropertyOp1
 70
     0
102
RTVSPropertyOp2
 70
     0
102
RTVSPropertyOp3
 70
     0
102
RTVSPropertyOp4
 70
     0
102
RTVSPropertyOp5
 70
     0
102
RTVSPropertyOp6
 70
     0
102
RTVSPropertyOp7
 70
     0
102
RTVSPropertyOp8
 70
     0
102
RTVSPropertyOp9
 70
     0
102
RTVSPropertyOp10
 70
     0
102
RTVSPropertyOp11
 70
     0
102
RTVSPropertyOp12
 70
     0
102
RTVSPropertyOp13
 70
     0
102
RTVSPropertyOp14
 70
     2
102
RTVSPropertyOp15
 70
     0
102
RTVSPropertyOp16
 70
     0
102
RTVSPropertyOp17
 70
     0
102
RTVSPropertyOp18
 70
     0
102
RTVSPropertyOp19
 70
     0
102
RTVSPropertyOp20
 70
     0
102
RTVSPropertyOp21
 70
     0
102
RTVSPropertyOp22
 70
     0
102
RTVSPropertyOp23
 70
     0
102
RTVSPropertyOp24
 70
     0
102
RTVSPropertyOp25
 70
     0
102
RTVSPropertyOp26
 70
     0
102
RTVSPropertyOp27
 70
     0
102
RTVSPropertyOp28
 70
     0
102
RTVSPropertyOp29
 70
     0
102
RTVSPropertyOp30
 70
     0
102
RTVSPropertyOp31
 70
     0
102
RTVSPropertyOp32
 70
     0
102
RTVSPropertyOp33
 70
     0
102
RTVSPropertyOp34
 70
     0
102
RTVSPropertyOp35
 70
     0
102
RTVSPropertyOp36
 70
     0
102
RTVSPropertyOp37
 70
     0
102
RTVSPropertyOp38
 70
     0
102
RTVSPropertyOp39
 70
     0
102
RTVSPropertyOp40
 70
     0
102
RTVSPropertyOp41
 70
     0
102
RTVSPropertyOp42
 70
     0
102
RTVSPropertyOp43
 70
     0
102
RTVSPropertyOp44
 70
     0
102
RTVSPropertyOp45
 70
     0
102
RTVSPropertyOp46
 70
     0
102
RTVSPropertyOp47
 70
     0
102
RTVSPropertyOp48
 70
     0
102
RTVSPropertyOp49
 70
     0
102
RTVSPropertyOp50
 70
     0
102
RTVSPropertyOp51
 70
     0
102
RTVSPropertyOp52
 70
     0
102
RTVSPropertyOp53
 70
     0
102
RTVSPropertyOp54
 70
     0
102
RTVSPropertyOp55
 70
     0
102
RTVSPropertyOp56
 70
     0
102
RTVSPropertyOp57
 70
     0
102
RTVSPropertyOp58
 70
     1
102
RTVSPropertyOp59
 70
     1
102
RTVSPropertyOp60
 70
     1
102
RTVSPropertyOp61
 70
     1
102
RTVSPropertyOp62
 70
     1
  0
XRECORD
  5
5D3
102
{ACAD_REACTORS
330
5D2
102
}
330
5D2
100
AcDbXrecord
280
     1
102
RTVSPost2010Prop28
280
     0
102
RTVSPost2010PropOp28
 70
     1
102
RTVSPost2010Prop29
280
     1
102
RTVSPost2010PropOp29
 70
     1
102
RTVSPost2010Prop30
280
     1
102
RTVSPost2010PropOp30
 70
     1
102
RTVSPost2010Prop31
280
     0
102
RTVSPost2010PropOp31
 70
     1
102
RTVSPost2010Prop32
280
     0
102
RTVSPost2010PropOp32
 70
     1
102
RTVSPost2010Prop33
280
     0
102
RTVSPost2010PropOp33
 70
     1
102
RTVSPost2010Prop34
280
     0
102
RTVSPost2010PropOp34
 70
     1
102
RTVSPost2010Prop35
280
     0
102
RTVSPost2010PropOp35
 70
     1
102
RTVSPost2010Prop36
280
     0
102
RTVSPost2010PropOp36
 70
     1
102
RTVSPost2010Prop37
 90
       50
102
RTVSPost2010PropOp37
 70
     1
102
RTVSPost2010Prop38
140
0.0
102
RTVSPost2010PropOp38
 70
     1
102
RTVSPost2010Prop39
140
1.0
102
RTVSPost2010PropOp39
 70
     1
102
RTVSPost2010Prop40
 90
        0
102
RTVSPost2010PropOp40
 70
     1
102
RTVSPost2010Prop41ColorIndex
 90
       18
102
RTVSPost2010Prop41ColorRGB
 90
        0
102
RTVSPost2010PropOp41
 70
     1
102
RTVSPost2010Prop42
 90
       50
102
RTVSPost2010PropOp42
 70
     1
102
RTVSPost2010Prop43
 90
        3
102
RTVSPost2010PropOp43
 70
     1
102
RTVSPost2010Prop44ColorIndex
 90
        5
102
RTVSPost2010Prop44ColorRGB
 90
      255
102
RTVSPost2010PropOp44
 70
     1
102
RTVSPost2010Prop45
280
     0
102
RTVSPost2010PropOp45
 70
     1
102
RTVSPost2010Prop46
 90
       50
102
RTVSPost2010PropOp46
 70
     1
102
RTVSPost2010Prop47
 90
       50
102
RTVSPost2010PropOp47
 70
     1
102
RTVSPost2010Prop48
 90
       50
102
RTVSPost2010PropOp48
 70
     1
102
RTVSPost2010Prop49
280
     0
102
RTVSPost2010PropOp49
 70
     1
102
RTVSPost2010Prop50
 90
       50
102
RTVSPost2010PropOp50
 70
     1
102
RTVSPost2010Prop51ColorIndex
 90
      256
102
RTVSPost2010Prop51ColorRGB
 90
-16777216
102
RTVSPost2010PropOp51
 70
     0
102
RTVSPost2010Prop52
140
1.0
102
RTVSPost2010PropOp52
 70
     0
102
RTVSPost2010Prop53
 90
        2
102
RTVSPost2010PropOp53
 70
     1
102
RTVSPost2010Prop54
  1
strokes_ogs.tif
102
RTVSPost2010PropOp54
 70
     1
102
RTVSPost2010Prop55
280
     0
102
RTVSPost2010PropOp55
 70
     1
102
RTVSPost2010Prop56
140
1.0
102
RTVSPost2010PropOp56
 70
     1
102
RTVSPost2010Prop57
140
1.0
102
RTVSPost2010PropOp57
 70
     1
102
RTVSPropertyOp0
 70
     1
102
RTVSPropertyOp1
 70
     1
102
RTVSPropertyOp2
 70
     1
102
RTVSPropertyOp3
 70
     1
102
RTVSPropertyOp4
 70
     1
102
RTVSPropertyOp5
 70
     1
102
RTVSPropertyOp6
 70
     1
102
RTVSPropertyOp7
 70
     1
102
RTVSPropertyOp8
 70
     1
102
RTVSPropertyOp9
 70
     1
102
RTVSPropertyOp10
 70
     1
102
RTVSPropertyOp11
 70
     1
102
RTVSPropertyOp12
 70
     1
102
RTVSPropertyOp13
 70
     1
102
RTVSPropertyOp14
 70
     1
102
RTVSPropertyOp15
 70
     1
102
RTVSPropertyOp16
 70
     1
102
RTVSPropertyOp17
 70
     1
102
RTVSPropertyOp18
 70
     1
102
RTVSPropertyOp19
 70
     1
102
RTVSPropertyOp20
 70
     1
102
RTVSPropertyOp21
 70
     1
102
RTVSPropertyOp22
 70
     1
102
RTVSPropertyOp23
 70
     1
102
RTVSPropertyOp24
 70
     1
102
RTVSPropertyOp25
 70
     1
102
RTVSPropertyOp26
 70
     1
102
RTVSPropertyOp27
 70
     1
102
RTVSPropertyOp28
 70
     1
102
RTVSPropertyOp29
 70
     1
102
RTVSPropertyOp30
 70
     1
102
RTVSPropertyOp31
 70
     1
102
RTVSPropertyOp32
 70
     1
102
RTVSPropertyOp33
 70
     1
102
RTVSPropertyOp34
 70
     1
102
RTVSPropertyOp35
 70
     1
102
RTVSPropertyOp36
 70
     1
102
RTVSPropertyOp37
 70
     1
102
RTVSPropertyOp38
 70
     1
102
RTVSPropertyOp39
 70
     1
102
RTVSPropertyOp40
 70
     1
102
RTVSPropertyOp41
 70
     1
102
RTVSPropertyOp42
 70
     1
102
RTVSPropertyOp43
 70
     1
102
RTVSPropertyOp44
 70
     1
102
RTVSPropertyOp45
 70
     1
102
RTVSPropertyOp46
 70
     1
102
RTVSPropertyOp47
 70
     1
102
RTVSPropertyOp48
 70
     1
102
RTVSPropertyOp49
 70
     1
102
RTVSPropertyOp50
 70
     1
102
RTVSPropertyOp51
 70
     0
102
RTVSPropertyOp52
 70
     0
102
RTVSPropertyOp53
 70
     1
102
RTVSPropertyOp54
 70
     1
102
RTVSPropertyOp55
 70
     1
102
RTVSPropertyOp56
 70
     1
102
RTVSPropertyOp57
 70
     1
102
RTVSPropertyOp58
 70
     1
102
RTVSPropertyOp59
 70
     1
102
RTVSPropertyOp60
 70
     1
102
RTVSPropertyOp61
 70
     1
102
RTVSPropertyOp62
 70
     1
  0
XRECORD
  5
5E5
102
{ACAD_REACTORS
330
5E4
102
}
330
5E4
100
AcDbXrecord
280
     1
102
RTVSPost2010Prop28
280
     0
102
RTVSPost2010PropOp28
 70
     0
102
RTVSPost2010Prop29
280
     1
102
RTVSPost2010PropOp29
 70
     0
102
RTVSPost2010Prop30
280
     1
102
RTVSPost2010PropOp30
 70
     0
102
RTVSPost2010Prop31
280
     0
102
RTVSPost2010PropOp31
 70
     0
102
RTVSPost2010Prop32
280
     0
102
RTVSPost2010PropOp32
 70
     0
102
RTVSPost2010Prop33
280
     0
102
RTVSPost2010PropOp33
 70
     0
102
RTVSPost2010Prop34
280
     0
102
RTVSPost2010PropOp34
 70
     0
102
RTVSPost2010Prop35
280
     0
102
RTVSPost2010PropOp35
 70
     0
102
RTVSPost2010Prop36
280
     0
102
RTVSPost2010PropOp36
 70
     0
102
RTVSPost2010Prop37
 90
       50
102
RTVSPost2010PropOp37
 70
     0
102
RTVSPost2010Prop38
140
0.0
102
RTVSPost2010PropOp38
 70
     0
102
RTVSPost2010Prop39
140
1.0
102
RTVSPost2010PropOp39
 70
     0
102
RTVSPost2010Prop40
 90
        0
102
RTVSPost2010PropOp40
 70
     0
102
RTVSPost2010Prop41ColorIndex
 90
       18
102
RTVSPost2010Prop41ColorRGB
 90
        0
102
RTVSPost2010PropOp41
 70
     0
102
RTVSPost2010Prop42
 90
       50
102
RTVSPost2010PropOp42
 70
     0
102
RTVSPost2010Prop43
 90
        3
102
RTVSPost2010PropOp43
 70
     0
102
RTVSPost2010Prop44ColorIndex
 90
        5
102
RTVSPost2010Prop44ColorRGB
 90
      255
102
RTVSPost2010PropOp44
 70
     0
102
RTVSPost2010Prop45
280
     0
102
RTVSPost2010PropOp45
 70
     0
102
RTVSPost2010Prop46
 90
       50
102
RTVSPost2010PropOp46
 70
     0
102
RTVSPost2010Prop47
 90
       50
102
RTVSPost2010PropOp47
 70
     0
102
RTVSPost2010Prop48
 90
       50
102
RTVSPost2010PropOp48
 70
     0
102
RTVSPost2010Prop49
280
     0
102
RTVSPost2010PropOp49
 70
     0
102
RTVSPost2010Prop50
 90
       50
102
RTVSPost2010PropOp50
 70
     0
102
RTVSPost2010Prop51ColorIndex
 90
      256
102
RTVSPost2010Prop51ColorRGB
 90
-16777216
102
RTVSPost2010PropOp51
 70
     0
102
RTVSPost2010Prop52
140
1.0
102
RTVSPost2010PropOp52
 70
     0
102
RTVSPost2010Prop53
 90
        2
102
RTVSPost2010PropOp53
 70
     0
102
RTVSPost2010Prop54
  1
strokes_ogs.tif
102
RTVSPost2010PropOp54
 70
     0
102
RTVSPost2010Prop55
280
     0
102
RTVSPost2010PropOp55
 70
     0
102
RTVSPost2010Prop56
140
1.0
102
RTVSPost2010PropOp56
 70
     0
102
RTVSPost2010Prop57
140
1.0
102
RTVSPost2010PropOp57
 70
     0
102
RTVSPropertyOp0
 70
     0
102
RTVSPropertyOp1
 70
     0
102
RTVSPropertyOp2
 70
     0
102
RTVSPropertyOp3
 70
     0
102
RTVSPropertyOp4
 70
     0
102
RTVSPropertyOp5
 70
     0
102
RTVSPropertyOp6
 70
     0
102
RTVSPropertyOp7
 70
     0
102
RTVSPropertyOp8
 70
     0
102
RTVSPropertyOp9
 70
     0
102
RTVSPropertyOp10
 70
     0
102
RTVSPropertyOp11
 70
     0
102
RTVSPropertyOp12
 70
     0
102
RTVSPropertyOp13
 70
     0
102
RTVSPropertyOp14
 70
     2
102
RTVSPropertyOp15
 70
     0
102
RTVSPropertyOp16
 70
     0
102
RTVSPropertyOp17
 70
     0
102
RTVSPropertyOp18
 70
     0
102
RTVSPropertyOp19
 70
     0
102
RTVSPropertyOp20
 70
     0
102
RTVSPropertyOp21
 70
     0
102
RTVSPropertyOp22
 70
     0
102
RTVSPropertyOp23
 70
     0
102
RTVSPropertyOp24
 70
     0
102
RTVSPropertyOp25
 70
     0
102
RTVSPropertyOp26
 70
     0
102
RTVSPropertyOp27
 70
     0
102
RTVSPropertyOp28
 70
     0
102
RTVSPropertyOp29
 70
     0
102
RTVSPropertyOp30
 70
     0
102
RTVSPropertyOp31
 70
     0
102
RTVSPropertyOp32
 70
     0
102
RTVSPropertyOp33
 70
     0
102
RTVSPropertyOp34
 70
     0
102
RTVSPropertyOp35
 70
     0
102
RTVSPropertyOp36
 70
     0
102
RTVSPropertyOp37
 70
     0
102
RTVSPropertyOp38
 70
     0
102
RTVSPropertyOp39
 70
     0
102
RTVSPropertyOp40
 70
     0
102
RTVSPropertyOp41
 70
     0
102
RTVSPropertyOp42
 70
     0
102
RTVSPropertyOp43
 70
     0
102
RTVSPropertyOp44
 70
     0
102
RTVSPropertyOp45
 70
     0
102
RTVSPropertyOp46
 70
     0
102
RTVSPropertyOp47
 70
     0
102
RTVSPropertyOp48
 70
     0
102
RTVSPropertyOp49
 70
     0
102
RTVSPropertyOp50
 70
     0
102
RTVSPropertyOp51
 70
     0
102
RTVSPropertyOp52
 70
     0
102
RTVSPropertyOp53
 70
     0
102
RTVSPropertyOp54
 70
     0
102
RTVSPropertyOp55
 70
     0
102
RTVSPropertyOp56
 70
     0
102
RTVSPropertyOp57
 70
     0
102
RTVSPropertyOp58
 70
     1
102
RTVSPropertyOp59
 70
     1
102
RTVSPropertyOp60
 70
     1
102
RTVSPropertyOp61
 70
     1
102
RTVSPropertyOp62
 70
     1
  0
XRECORD
  5
5CB
102
{ACAD_REACTORS
330
5CA
102
}
330
5CA
100
AcDbXrecord
280
     1
102
RTVSPost2010Prop28
280
     0
102
RTVSPost2010PropOp28
 70
     1
102
RTVSPost2010Prop29
280
     1
102
RTVSPost2010PropOp29
 70
     1
102
RTVSPost2010Prop30
280
     1
102
RTVSPost2010PropOp30
 70
     1
102
RTVSPost2010Prop31
280
     0
102
RTVSPost2010PropOp31
 70
     1
102
RTVSPost2010Prop32
280
     0
102
RTVSPost2010PropOp32
 70
     1
102
RTVSPost2010Prop33
280
     0
102
RTVSPost2010PropOp33
 70
     1
102
RTVSPost2010Prop34
280
     0
102
RTVSPost2010PropOp34
 70
     1
102
RTVSPost2010Prop35
280
     0
102
RTVSPost2010PropOp35
 70
     1
102
RTVSPost2010Prop36
280
     0
102
RTVSPost2010PropOp36
 70
     1
102
RTVSPost2010Prop37
 90
       50
102
RTVSPost2010PropOp37
 70
     1
102
RTVSPost2010Prop38
140
0.0
102
RTVSPost2010PropOp38
 70
     1
102
RTVSPost2010Prop39
140
1.0
102
RTVSPost2010PropOp39
 70
     1
102
RTVSPost2010Prop40
 90
        0
102
RTVSPost2010PropOp40
 70
     1
102
RTVSPost2010Prop41ColorIndex
 90
       18
102
RTVSPost2010Prop41ColorRGB
 90
        0
102
RTVSPost2010PropOp41
 70
     1
102
RTVSPost2010Prop42
 90
       50
102
RTVSPost2010PropOp42
 70
     1
102
RTVSPost2010Prop43
 90
        3
102
RTVSPost2010PropOp43
 70
     1
102
RTVSPost2010Prop44ColorIndex
 90
        5
102
RTVSPost2010Prop44ColorRGB
 90
      255
102
RTVSPost2010PropOp44
 70
     1
102
RTVSPost2010Prop45
280
     0
102
RTVSPost2010PropOp45
 70
     1
102
RTVSPost2010Prop46
 90
       50
102
RTVSPost2010PropOp46
 70
     1
102
RTVSPost2010Prop47
 90
       50
102
RTVSPost2010PropOp47
 70
     1
102
RTVSPost2010Prop48
 90
       50
102
RTVSPost2010PropOp48
 70
     1
102
RTVSPost2010Prop49
280
     0
102
RTVSPost2010PropOp49
 70
     1
102
RTVSPost2010Prop50
 90
       50
102
RTVSPost2010PropOp50
 70
     1
102
RTVSPost2010Prop51ColorIndex
 90
      256
102
RTVSPost2010Prop51ColorRGB
 90
-16777216
102
RTVSPost2010PropOp51
 70
     0
102
RTVSPost2010Prop52
140
1.0
102
RTVSPost2010PropOp52
 70
     0
102
RTVSPost2010Prop53
 90
        2
102
RTVSPost2010PropOp53
 70
     1
102
RTVSPost2010Prop54
  1
strokes_ogs.tif
102
RTVSPost2010PropOp54
 70
     1
102
RTVSPost2010Prop55
280
     0
102
RTVSPost2010PropOp55
 70
     1
102
RTVSPost2010Prop56
140
1.0
102
RTVSPost2010PropOp56
 70
     1
102
RTVSPost2010Prop57
140
1.0
102
RTVSPost2010PropOp57
 70
     1
102
RTVSPropertyOp0
 70
     1
102
RTVSPropertyOp1
 70
     1
102
RTVSPropertyOp2
 70
     1
102
RTVSPropertyOp3
 70
     1
102
RTVSPropertyOp4
 70
     1
102
RTVSPropertyOp5
 70
     1
102
RTVSPropertyOp6
 70
     1
102
RTVSPropertyOp7
 70
     1
102
RTVSPropertyOp8
 70
     1
102
RTVSPropertyOp9
 70
     1
102
RTVSPropertyOp10
 70
     1
102
RTVSPropertyOp11
 70
     1
102
RTVSPropertyOp12
 70
     1
102
RTVSPropertyOp13
 70
     1
102
RTVSPropertyOp14
 70
     1
102
RTVSPropertyOp15
 70
     1
102
RTVSPropertyOp16
 70
     1
102
RTVSPropertyOp17
 70
     1
102
RTVSPropertyOp18
 70
     1
102
RTVSPropertyOp19
 70
     1
102
RTVSPropertyOp20
 70
     1
102
RTVSPropertyOp21
 70
     1
102
RTVSPropertyOp22
 70
     1
102
RTVSPropertyOp23
 70
     1
102
RTVSPropertyOp24
 70
     1
102
RTVSPropertyOp25
 70
     1
102
RTVSPropertyOp26
 70
     1
102
RTVSPropertyOp27
 70
     1
102
RTVSPropertyOp28
 70
     1
102
RTVSPropertyOp29
 70
     1
102
RTVSPropertyOp30
 70
     1
102
RTVSPropertyOp31
 70
     1
102
RTVSPropertyOp32
 70
     1
102
RTVSPropertyOp33
 70
     1
102
RTVSPropertyOp34
 70
     1
102
RTVSPropertyOp35
 70
     1
102
RTVSPropertyOp36
 70
     1
102
RTVSPropertyOp37
 70
     1
102
RTVSPropertyOp38
 70
     1
102
RTVSPropertyOp39
 70
     1
102
RTVSPropertyOp40
 70
     1
102
RTVSPropertyOp41
 70
     1
102
RTVSPropertyOp42
 70
     1
102
RTVSPropertyOp43
 70
     1
102
RTVSPropertyOp44
 70
     1
102
RTVSPropertyOp45
 70
     1
102
RTVSPropertyOp46
 70
     1
102
RTVSPropertyOp47
 70
     1
102
RTVSPropertyOp48
 70
     1
102
RTVSPropertyOp49
 70
     1
102
RTVSPropertyOp50
 70
     1
102
RTVSPropertyOp51
 70
     0
102
RTVSPropertyOp52
 70
     0
102
RTVSPropertyOp53
 70
     1
102
RTVSPropertyOp54
 70
     1
102
RTVSPropertyOp55
 70
     1
102
RTVSPropertyOp56
 70
     1
102
RTVSPropertyOp57
 70
     1
102
RTVSPropertyOp58
 70
     1
102
RTVSPropertyOp59
 70
     1
102
RTVSPropertyOp60
 70
     1
102
RTVSPropertyOp61
 70
     1
102
RTVSPropertyOp62
 70
     1
  0
XRECORD
  5
5E1
102
{ACAD_REACTORS
330
5E0
102
}
330
5E0
100
AcDbXrecord
280
     1
102
RTVSPost2010Prop28
280
     0
102
RTVSPost2010PropOp28
 70
     1
102
RTVSPost2010Prop29
280
     1
102
RTVSPost2010PropOp29
 70
     1
102
RTVSPost2010Prop30
280
     1
102
RTVSPost2010PropOp30
 70
     1
102
RTVSPost2010Prop31
280
     0
102
RTVSPost2010PropOp31
 70
     1
102
RTVSPost2010Prop32
280
     0
102
RTVSPost2010PropOp32
 70
     1
102
RTVSPost2010Prop33
280
     0
102
RTVSPost2010PropOp33
 70
     1
102
RTVSPost2010Prop34
280
     0
102
RTVSPost2010PropOp34
 70
     1
102
RTVSPost2010Prop35
280
     0
102
RTVSPost2010PropOp35
 70
     1
102
RTVSPost2010Prop36
280
     0
102
RTVSPost2010PropOp36
 70
     1
102
RTVSPost2010Prop37
 90
       50
102
RTVSPost2010PropOp37
 70
     1
102
RTVSPost2010Prop38
140
0.0
102
RTVSPost2010PropOp38
 70
     1
102
RTVSPost2010Prop39
140
1.0
102
RTVSPost2010PropOp39
 70
     1
102
RTVSPost2010Prop40
 90
        0
102
RTVSPost2010PropOp40
 70
     1
102
RTVSPost2010Prop41ColorIndex
 90
       18
102
RTVSPost2010Prop41ColorRGB
 90
        0
102
RTVSPost2010PropOp41
 70
     1
102
RTVSPost2010Prop42
 90
       50
102
RTVSPost2010PropOp42
 70
     1
102
RTVSPost2010Prop43
 90
        3
102
RTVSPost2010PropOp43
 70
     1
102
RTVSPost2010Prop44ColorIndex
 90
        5
102
RTVSPost2010Prop44ColorRGB
 90
      255
102
RTVSPost2010PropOp44
 70
     1
102
RTVSPost2010Prop45
280
     0
102
RTVSPost2010PropOp45
 70
     1
102
RTVSPost2010Prop46
 90
       50
102
RTVSPost2010PropOp46
 70
     1
102
RTVSPost2010Prop47
 90
       50
102
RTVSPost2010PropOp47
 70
     1
102
RTVSPost2010Prop48
 90
       50
102
RTVSPost2010PropOp48
 70
     1
102
RTVSPost2010Prop49
280
     0
102
RTVSPost2010PropOp49
 70
     1
102
RTVSPost2010Prop50
 90
       50
102
RTVSPost2010PropOp50
 70
     1
102
RTVSPost2010Prop51ColorIndex
 90
      256
102
RTVSPost2010Prop51ColorRGB
 90
-16777216
102
RTVSPost2010PropOp51
 70
     0
102
RTVSPost2010Prop52
140
1.0
102
RTVSPost2010PropOp52
 70
     0
102
RTVSPost2010Prop53
 90
        2
102
RTVSPost2010PropOp53
 70
     1
102
RTVSPost2010Prop54
  1
strokes_ogs.tif
102
RTVSPost2010PropOp54
 70
     1
102
RTVSPost2010Prop55
280
     0
102
RTVSPost2010PropOp55
 70
     1
102
RTVSPost2010Prop56
140
1.0
102
RTVSPost2010PropOp56
 70
     1
102
RTVSPost2010Prop57
140
1.0
102
RTVSPost2010PropOp57
 70
     1
102
RTVSPropertyOp0
 70
     1
102
RTVSPropertyOp1
 70
     1
102
RTVSPropertyOp2
 70
     1
102
RTVSPropertyOp3
 70
     1
102
RTVSPropertyOp4
 70
     1
102
RTVSPropertyOp5
 70
     1
102
RTVSPropertyOp6
 70
     1
102
RTVSPropertyOp7
 70
     1
102
RTVSPropertyOp8
 70
     1
102
RTVSPropertyOp9
 70
     1
102
RTVSPropertyOp10
 70
     1
102
RTVSPropertyOp11
 70
     1
102
RTVSPropertyOp12
 70
     1
102
RTVSPropertyOp13
 70
     1
102
RTVSPropertyOp14
 70
     1
102
RTVSPropertyOp15
 70
     1
102
RTVSPropertyOp16
 70
     1
102
RTVSPropertyOp17
 70
     1
102
RTVSPropertyOp18
 70
     1
102
RTVSPropertyOp19
 70
     1
102
RTVSPropertyOp20
 70
     1
102
RTVSPropertyOp21
 70
     1
102
RTVSPropertyOp22
 70
     1
102
RTVSPropertyOp23
 70
     1
102
RTVSPropertyOp24
 70
     1
102
RTVSPropertyOp25
 70
     1
102
RTVSPropertyOp26
 70
     1
102
RTVSPropertyOp27
 70
     1
102
RTVSPropertyOp28
 70
     1
102
RTVSPropertyOp29
 70
     1
102
RTVSPropertyOp30
 70
     1
102
RTVSPropertyOp31
 70
     1
102
RTVSPropertyOp32
 70
     1
102
RTVSPropertyOp33
 70
     1
102
RTVSPropertyOp34
 70
     1
102
RTVSPropertyOp35
 70
     1
102
RTVSPropertyOp36
 70
     1
102
RTVSPropertyOp37
 70
     1
102
RTVSPropertyOp38
 70
     1
102
RTVSPropertyOp39
 70
     1
102
RTVSPropertyOp40
 70
     1
102
RTVSPropertyOp41
 70
     1
102
RTVSPropertyOp42
 70
     1
102
RTVSPropertyOp43
 70
     1
102
RTVSPropertyOp44
 70
     1
102
RTVSPropertyOp45
 70
     1
102
RTVSPropertyOp46
 70
     1
102
RTVSPropertyOp47
 70
     1
102
RTVSPropertyOp48
 70
     1
102
RTVSPropertyOp49
 70
     1
102
RTVSPropertyOp50
 70
     1
102
RTVSPropertyOp51
 70
     0
102
RTVSPropertyOp52
 70
     0
102
RTVSPropertyOp53
 70
     1
102
RTVSPropertyOp54
 70
     1
102
RTVSPropertyOp55
 70
     1
102
RTVSPropertyOp56
 70
     1
102
RTVSPropertyOp57
 70
     1
102
RTVSPropertyOp58
 70
     1
102
RTVSPropertyOp59
 70
     1
102
RTVSPropertyOp60
 70
     1
102
RTVSPropertyOp61
 70
     1
102
RTVSPropertyOp62
 70
     1
  0
XRECORD
  5
5DF
102
{ACAD_REACTORS
330
5DE
102
}
330
5DE
100
AcDbXrecord
280
     1
102
RTVSPost2010Prop28
280
     0
102
RTVSPost2010PropOp28
 70
     1
102
RTVSPost2010Prop29
280
     1
102
RTVSPost2010PropOp29
 70
     1
102
RTVSPost2010Prop30
280
     1
102
RTVSPost2010PropOp30
 70
     1
102
RTVSPost2010Prop31
280
     0
102
RTVSPost2010PropOp31
 70
     1
102
RTVSPost2010Prop32
280
     0
102
RTVSPost2010PropOp32
 70
     1
102
RTVSPost2010Prop33
280
     0
102
RTVSPost2010PropOp33
 70
     1
102
RTVSPost2010Prop34
280
     0
102
RTVSPost2010PropOp34
 70
     1
102
RTVSPost2010Prop35
280
     0
102
RTVSPost2010PropOp35
 70
     1
102
RTVSPost2010Prop36
280
     0
102
RTVSPost2010PropOp36
 70
     1
102
RTVSPost2010Prop37
 90
       50
102
RTVSPost2010PropOp37
 70
     1
102
RTVSPost2010Prop38
140
0.0
102
RTVSPost2010PropOp38
 70
     1
102
RTVSPost2010Prop39
140
1.0
102
RTVSPost2010PropOp39
 70
     1
102
RTVSPost2010Prop40
 90
        0
102
RTVSPost2010PropOp40
 70
     1
102
RTVSPost2010Prop41ColorIndex
 90
       18
102
RTVSPost2010Prop41ColorRGB
 90
        0
102
RTVSPost2010PropOp41
 70
     1
102
RTVSPost2010Prop42
 90
       50
102
RTVSPost2010PropOp42
 70
     1
102
RTVSPost2010Prop43
 90
        3
102
RTVSPost2010PropOp43
 70
     1
102
RTVSPost2010Prop44ColorIndex
 90
        5
102
RTVSPost2010Prop44ColorRGB
 90
      255
102
RTVSPost2010PropOp44
 70
     1
102
RTVSPost2010Prop45
280
     0
102
RTVSPost2010PropOp45
 70
     1
102
RTVSPost2010Prop46
 90
       50
102
RTVSPost2010PropOp46
 70
     1
102
RTVSPost2010Prop47
 90
       50
102
RTVSPost2010PropOp47
 70
     1
102
RTVSPost2010Prop48
 90
       50
102
RTVSPost2010PropOp48
 70
     1
102
RTVSPost2010Prop49
280
     0
102
RTVSPost2010PropOp49
 70
     1
102
RTVSPost2010Prop50
 90
       50
102
RTVSPost2010PropOp50
 70
     1
102
RTVSPost2010Prop51ColorIndex
 90
      256
102
RTVSPost2010Prop51ColorRGB
 90
-16777216
102
RTVSPost2010PropOp51
 70
     0
102
RTVSPost2010Prop52
140
1.0
102
RTVSPost2010PropOp52
 70
     0
102
RTVSPost2010Prop53
 90
        2
102
RTVSPost2010PropOp53
 70
     1
102
RTVSPost2010Prop54
  1
strokes_ogs.tif
102
RTVSPost2010PropOp54
 70
     1
102
RTVSPost2010Prop55
280
     0
102
RTVSPost2010PropOp55
 70
     1
102
RTVSPost2010Prop56
140
1.0
102
RTVSPost2010PropOp56
 70
     1
102
RTVSPost2010Prop57
140
1.0
102
RTVSPost2010PropOp57
 70
     1
102
RTVSPropertyOp0
 70
     1
102
RTVSPropertyOp1
 70
     1
102
RTVSPropertyOp2
 70
     1
102
RTVSPropertyOp3
 70
     1
102
RTVSPropertyOp4
 70
     1
102
RTVSPropertyOp5
 70
     1
102
RTVSPropertyOp6
 70
     1
102
RTVSPropertyOp7
 70
     1
102
RTVSPropertyOp8
 70
     1
102
RTVSPropertyOp9
 70
     1
102
RTVSPropertyOp10
 70
     1
102
RTVSPropertyOp11
 70
     1
102
RTVSPropertyOp12
 70
     1
102
RTVSPropertyOp13
 70
     1
102
RTVSPropertyOp14
 70
     1
102
RTVSPropertyOp15
 70
     1
102
RTVSPropertyOp16
 70
     1
102
RTVSPropertyOp17
 70
     1
102
RTVSPropertyOp18
 70
     1
102
RTVSPropertyOp19
 70
     1
102
RTVSPropertyOp20
 70
     1
102
RTVSPropertyOp21
 70
     1
102
RTVSPropertyOp22
 70
     1
102
RTVSPropertyOp23
 70
     1
102
RTVSPropertyOp24
 70
     1
102
RTVSPropertyOp25
 70
     1
102
RTVSPropertyOp26
 70
     1
102
RTVSPropertyOp27
 70
     1
102
RTVSPropertyOp28
 70
     1
102
RTVSPropertyOp29
 70
     1
102
RTVSPropertyOp30
 70
     1
102
RTVSPropertyOp31
 70
     1
102
RTVSPropertyOp32
 70
     1
102
RTVSPropertyOp33
 70
     1
102
RTVSPropertyOp34
 70
     1
102
RTVSPropertyOp35
 70
     1
102
RTVSPropertyOp36
 70
     1
102
RTVSPropertyOp37
 70
     1
102
RTVSPropertyOp38
 70
     1
102
RTVSPropertyOp39
 70
     1
102
RTVSPropertyOp40
 70
     1
102
RTVSPropertyOp41
 70
     1
102
RTVSPropertyOp42
 70
     1
102
RTVSPropertyOp43
 70
     1
102
RTVSPropertyOp44
 70
     1
102
RTVSPropertyOp45
 70
     1
102
RTVSPropertyOp46
 70
     1
102
RTVSPropertyOp47
 70
     1
102
RTVSPropertyOp48
 70
     1
102
RTVSPropertyOp49
 70
     1
102
RTVSPropertyOp50
 70
     1
102
RTVSPropertyOp51
 70
     0
102
RTVSPropertyOp52
 70
     0
102
RTVSPropertyOp53
 70
     1
102
RTVSPropertyOp54
 70
     1
102
RTVSPropertyOp55
 70
     1
102
RTVSPropertyOp56
 70
     1
102
RTVSPropertyOp57
 70
     1
102
RTVSPropertyOp58
 70
     1
102
RTVSPropertyOp59
 70
     1
102
RTVSPropertyOp60
 70
     1
102
RTVSPropertyOp61
 70
     1
102
RTVSPropertyOp62
 70
     1
  0
XRECORD
  5
5D9
102
{ACAD_REACTORS
330
5D8
102
}
330
5D8
100
AcDbXrecord
280
     1
102
RTVSPost2010Prop28
280
     0
102
RTVSPost2010PropOp28
 70
     1
102
RTVSPost2010Prop29
280
     1
102
RTVSPost2010PropOp29
 70
     1
102
RTVSPost2010Prop30
280
     1
102
RTVSPost2010PropOp30
 70
     1
102
RTVSPost2010Prop31
280
     0
102
RTVSPost2010PropOp31
 70
     1
102
RTVSPost2010Prop32
280
     0
102
RTVSPost2010PropOp32
 70
     1
102
RTVSPost2010Prop33
280
     0
102
RTVSPost2010PropOp33
 70
     1
102
RTVSPost2010Prop34
280
     0
102
RTVSPost2010PropOp34
 70
     1
102
RTVSPost2010Prop35
280
     0
102
RTVSPost2010PropOp35
 70
     1
102
RTVSPost2010Prop36
280
     0
102
RTVSPost2010PropOp36
 70
     1
102
RTVSPost2010Prop37
 90
       50
102
RTVSPost2010PropOp37
 70
     1
102
RTVSPost2010Prop38
140
0.0
102
RTVSPost2010PropOp38
 70
     1
102
RTVSPost2010Prop39
140
1.0
102
RTVSPost2010PropOp39
 70
     1
102
RTVSPost2010Prop40
 90
        0
102
RTVSPost2010PropOp40
 70
     1
102
RTVSPost2010Prop41ColorIndex
 90
       18
102
RTVSPost2010Prop41ColorRGB
 90
        0
102
RTVSPost2010PropOp41
 70
     1
102
RTVSPost2010Prop42
 90
       50
102
RTVSPost2010PropOp42
 70
     1
102
RTVSPost2010Prop43
 90
        3
102
RTVSPost2010PropOp43
 70
     1
102
RTVSPost2010Prop44ColorIndex
 90
        5
102
RTVSPost2010Prop44ColorRGB
 90
      255
102
RTVSPost2010PropOp44
 70
     1
102
RTVSPost2010Prop45
280
     0
102
RTVSPost2010PropOp45
 70
     1
102
RTVSPost2010Prop46
 90
       50
102
RTVSPost2010PropOp46
 70
     1
102
RTVSPost2010Prop47
 90
       50
102
RTVSPost2010PropOp47
 70
     1
102
RTVSPost2010Prop48
 90
       50
102
RTVSPost2010PropOp48
 70
     1
102
RTVSPost2010Prop49
280
     0
102
RTVSPost2010PropOp49
 70
     1
102
RTVSPost2010Prop50
 90
       50
102
RTVSPost2010PropOp50
 70
     1
102
RTVSPost2010Prop51ColorIndex
 90
      256
102
RTVSPost2010Prop51ColorRGB
 90
-16777216
102
RTVSPost2010PropOp51
 70
     0
102
RTVSPost2010Prop52
140
1.0
102
RTVSPost2010PropOp52
 70
     0
102
RTVSPost2010Prop53
 90
        2
102
RTVSPost2010PropOp53
 70
     1
102
RTVSPost2010Prop54
  1
strokes_ogs.tif
102
RTVSPost2010PropOp54
 70
     1
102
RTVSPost2010Prop55
280
     0
102
RTVSPost2010PropOp55
 70
     1
102
RTVSPost2010Prop56
140
1.0
102
RTVSPost2010PropOp56
 70
     1
102
RTVSPost2010Prop57
140
1.0
102
RTVSPost2010PropOp57
 70
     1
102
RTVSPropertyOp0
 70
     1
102
RTVSPropertyOp1
 70
     1
102
RTVSPropertyOp2
 70
     1
102
RTVSPropertyOp3
 70
     1
102
RTVSPropertyOp4
 70
     1
102
RTVSPropertyOp5
 70
     1
102
RTVSPropertyOp6
 70
     1
102
RTVSPropertyOp7
 70
     1
102
RTVSPropertyOp8
 70
     1
102
RTVSPropertyOp9
 70
     1
102
RTVSPropertyOp10
 70
     1
102
RTVSPropertyOp11
 70
     1
102
RTVSPropertyOp12
 70
     1
102
RTVSPropertyOp13
 70
     1
102
RTVSPropertyOp14
 70
     1
102
RTVSPropertyOp15
 70
     1
102
RTVSPropertyOp16
 70
     1
102
RTVSPropertyOp17
 70
     1
102
RTVSPropertyOp18
 70
     1
102
RTVSPropertyOp19
 70
     1
102
RTVSPropertyOp20
 70
     1
102
RTVSPropertyOp21
 70
     1
102
RTVSPropertyOp22
 70
     1
102
RTVSPropertyOp23
 70
     1
102
RTVSPropertyOp24
 70
     1
102
RTVSPropertyOp25
 70
     1
102
RTVSPropertyOp26
 70
     1
102
RTVSPropertyOp27
 70
     1
102
RTVSPropertyOp28
 70
     1
102
RTVSPropertyOp29
 70
     1
102
RTVSPropertyOp30
 70
     1
102
RTVSPropertyOp31
 70
     1
102
RTVSPropertyOp32
 70
     1
102
RTVSPropertyOp33
 70
     1
102
RTVSPropertyOp34
 70
     1
102
RTVSPropertyOp35
 70
     1
102
RTVSPropertyOp36
 70
     1
102
RTVSPropertyOp37
 70
     1
102
RTVSPropertyOp38
 70
     1
102
RTVSPropertyOp39
 70
     1
102
RTVSPropertyOp40
 70
     1
102
RTVSPropertyOp41
 70
     1
102
RTVSPropertyOp42
 70
     1
102
RTVSPropertyOp43
 70
     1
102
RTVSPropertyOp44
 70
     1
102
RTVSPropertyOp45
 70
     1
102
RTVSPropertyOp46
 70
     1
102
RTVSPropertyOp47
 70
     1
102
RTVSPropertyOp48
 70
     1
102
RTVSPropertyOp49
 70
     1
102
RTVSPropertyOp50
 70
     1
102
RTVSPropertyOp51
 70
     0
102
RTVSPropertyOp52
 70
     0
102
RTVSPropertyOp53
 70
     1
102
RTVSPropertyOp54
 70
     1
102
RTVSPropertyOp55
 70
     1
102
RTVSPropertyOp56
 70
     1
102
RTVSPropertyOp57
 70
     1
102
RTVSPropertyOp58
 70
     1
102
RTVSPropertyOp59
 70
     1
102
RTVSPropertyOp60
 70
     1
102
RTVSPropertyOp61
 70
     1
102
RTVSPropertyOp62
 70
     1
  0
XRECORD
  5
5DB
102
{ACAD_REACTORS
330
5DA
102
}
330
5DA
100
AcDbXrecord
280
     1
102
RTVSPost2010Prop28
280
     0
102
RTVSPost2010PropOp28
 70
     1
102
RTVSPost2010Prop29
280
     1
102
RTVSPost2010PropOp29
 70
     1
102
RTVSPost2010Prop30
280
     1
102
RTVSPost2010PropOp30
 70
     1
102
RTVSPost2010Prop31
280
     0
102
RTVSPost2010PropOp31
 70
     1
102
RTVSPost2010Prop32
280
     0
102
RTVSPost2010PropOp32
 70
     1
102
RTVSPost2010Prop33
280
     0
102
RTVSPost2010PropOp33
 70
     1
102
RTVSPost2010Prop34
280
     0
102
RTVSPost2010PropOp34
 70
     1
102
RTVSPost2010Prop35
280
     0
102
RTVSPost2010PropOp35
 70
     1
102
RTVSPost2010Prop36
280
     0
102
RTVSPost2010PropOp36
 70
     1
102
RTVSPost2010Prop37
 90
       50
102
RTVSPost2010PropOp37
 70
     1
102
RTVSPost2010Prop38
140
0.0
102
RTVSPost2010PropOp38
 70
     1
102
RTVSPost2010Prop39
140
1.0
102
RTVSPost2010PropOp39
 70
     1
102
RTVSPost2010Prop40
 90
        0
102
RTVSPost2010PropOp40
 70
     1
102
RTVSPost2010Prop41ColorIndex
 90
       18
102
RTVSPost2010Prop41ColorRGB
 90
        0
102
RTVSPost2010PropOp41
 70
     1
102
RTVSPost2010Prop42
 90
       50
102
RTVSPost2010PropOp42
 70
     1
102
RTVSPost2010Prop43
 90
        3
102
RTVSPost2010PropOp43
 70
     1
102
RTVSPost2010Prop44ColorIndex
 90
        5
102
RTVSPost2010Prop44ColorRGB
 90
      255
102
RTVSPost2010PropOp44
 70
     1
102
RTVSPost2010Prop45
280
     0
102
RTVSPost2010PropOp45
 70
     1
102
RTVSPost2010Prop46
 90
       50
102
RTVSPost2010PropOp46
 70
     1
102
RTVSPost2010Prop47
 90
       50
102
RTVSPost2010PropOp47
 70
     1
102
RTVSPost2010Prop48
 90
       50
102
RTVSPost2010PropOp48
 70
     1
102
RTVSPost2010Prop49
280
     0
102
RTVSPost2010PropOp49
 70
     1
102
RTVSPost2010Prop50
 90
       50
102
RTVSPost2010PropOp50
 70
     1
102
RTVSPost2010Prop51ColorIndex
 90
      256
102
RTVSPost2010Prop51ColorRGB
 90
-16777216
102
RTVSPost2010PropOp51
 70
     0
102
RTVSPost2010Prop52
140
1.0
102
RTVSPost2010PropOp52
 70
     0
102
RTVSPost2010Prop53
 90
        2
102
RTVSPost2010PropOp53
 70
     1
102
RTVSPost2010Prop54
  1
strokes_ogs.tif
102
RTVSPost2010PropOp54
 70
     1
102
RTVSPost2010Prop55
280
     0
102
RTVSPost2010PropOp55
 70
     1
102
RTVSPost2010Prop56
140
1.0
102
RTVSPost2010PropOp56
 70
     1
102
RTVSPost2010Prop57
140
1.0
102
RTVSPost2010PropOp57
 70
     1
102
RTVSPropertyOp0
 70
     1
102
RTVSPropertyOp1
 70
     1
102
RTVSPropertyOp2
 70
     1
102
RTVSPropertyOp3
 70
     1
102
RTVSPropertyOp4
 70
     1
102
RTVSPropertyOp5
 70
     1
102
RTVSPropertyOp6
 70
     1
102
RTVSPropertyOp7
 70
     1
102
RTVSPropertyOp8
 70
     1
102
RTVSPropertyOp9
 70
     1
102
RTVSPropertyOp10
 70
     1
102
RTVSPropertyOp11
 70
     1
102
RTVSPropertyOp12
 70
     1
102
RTVSPropertyOp13
 70
     1
102
RTVSPropertyOp14
 70
     1
102
RTVSPropertyOp15
 70
     1
102
RTVSPropertyOp16
 70
     1
102
RTVSPropertyOp17
 70
     1
102
RTVSPropertyOp18
 70
     1
102
RTVSPropertyOp19
 70
     1
102
RTVSPropertyOp20
 70
     1
102
RTVSPropertyOp21
 70
     1
102
RTVSPropertyOp22
 70
     1
102
RTVSPropertyOp23
 70
     1
102
RTVSPropertyOp24
 70
     1
102
RTVSPropertyOp25
 70
     1
102
RTVSPropertyOp26
 70
     1
102
RTVSPropertyOp27
 70
     1
102
RTVSPropertyOp28
 70
     1
102
RTVSPropertyOp29
 70
     1
102
RTVSPropertyOp30
 70
     1
102
RTVSPropertyOp31
 70
     1
102
RTVSPropertyOp32
 70
     1
102
RTVSPropertyOp33
 70
     1
102
RTVSPropertyOp34
 70
     1
102
RTVSPropertyOp35
 70
     1
102
RTVSPropertyOp36
 70
     1
102
RTVSPropertyOp37
 70
     1
102
RTVSPropertyOp38
 70
     1
102
RTVSPropertyOp39
 70
     1
102
RTVSPropertyOp40
 70
     1
102
RTVSPropertyOp41
 70
     1
102
RTVSPropertyOp42
 70
     1
102
RTVSPropertyOp43
 70
     1
102
RTVSPropertyOp44
 70
     1
102
RTVSPropertyOp45
 70
     1
102
RTVSPropertyOp46
 70
     1
102
RTVSPropertyOp47
 70
     1
102
RTVSPropertyOp48
 70
     1
102
RTVSPropertyOp49
 70
     1
102
RTVSPropertyOp50
 70
     1
102
RTVSPropertyOp51
 70
     0
102
RTVSPropertyOp52
 70
     0
102
RTVSPropertyOp53
 70
     1
102
RTVSPropertyOp54
 70
     1
102
RTVSPropertyOp55
 70
     1
102
RTVSPropertyOp56
 70
     1
102
RTVSPropertyOp57
 70
     1
102
RTVSPropertyOp58
 70
     1
102
RTVSPropertyOp59
 70
     1
102
RTVSPropertyOp60
 70
     1
102
RTVSPropertyOp61
 70
     1
102
RTVSPropertyOp62
 70
     1
  0
XRECORD
  5
5D1
102
{ACAD_REACTORS
330
5D0
102
}
330
5D0
100
AcDbXrecord
280
     1
102
RTVSPost2010Prop28
280
     0
102
RTVSPost2010PropOp28
 70
     1
102
RTVSPost2010Prop29
280
     1
102
RTVSPost2010PropOp29
 70
     1
102
RTVSPost2010Prop30
280
     1
102
RTVSPost2010PropOp30
 70
     1
102
RTVSPost2010Prop31
280
     0
102
RTVSPost2010PropOp31
 70
     1
102
RTVSPost2010Prop32
280
     0
102
RTVSPost2010PropOp32
 70
     1
102
RTVSPost2010Prop33
280
     0
102
RTVSPost2010PropOp33
 70
     1
102
RTVSPost2010Prop34
280
     0
102
RTVSPost2010PropOp34
 70
     1
102
RTVSPost2010Prop35
280
     0
102
RTVSPost2010PropOp35
 70
     1
102
RTVSPost2010Prop36
280
     0
102
RTVSPost2010PropOp36
 70
     1
102
RTVSPost2010Prop37
 90
       50
102
RTVSPost2010PropOp37
 70
     1
102
RTVSPost2010Prop38
140
0.0
102
RTVSPost2010PropOp38
 70
     1
102
RTVSPost2010Prop39
140
1.0
102
RTVSPost2010PropOp39
 70
     1
102
RTVSPost2010Prop40
 90
        0
102
RTVSPost2010PropOp40
 70
     1
102
RTVSPost2010Prop41ColorIndex
 90
       18
102
RTVSPost2010Prop41ColorRGB
 90
        0
102
RTVSPost2010PropOp41
 70
     1
102
RTVSPost2010Prop42
 90
       50
102
RTVSPost2010PropOp42
 70
     1
102
RTVSPost2010Prop43
 90
        3
102
RTVSPost2010PropOp43
 70
     1
102
RTVSPost2010Prop44ColorIndex
 90
        5
102
RTVSPost2010Prop44ColorRGB
 90
      255
102
RTVSPost2010PropOp44
 70
     1
102
RTVSPost2010Prop45
280
     0
102
RTVSPost2010PropOp45
 70
     1
102
RTVSPost2010Prop46
 90
       50
102
RTVSPost2010PropOp46
 70
     1
102
RTVSPost2010Prop47
 90
       50
102
RTVSPost2010PropOp47
 70
     1
102
RTVSPost2010Prop48
 90
       50
102
RTVSPost2010PropOp48
 70
     1
102
RTVSPost2010Prop49
280
     0
102
RTVSPost2010PropOp49
 70
     1
102
RTVSPost2010Prop50
 90
       50
102
RTVSPost2010PropOp50
 70
     1
102
RTVSPost2010Prop51ColorIndex
 90
      256
102
RTVSPost2010Prop51ColorRGB
 90
-16777216
102
RTVSPost2010PropOp51
 70
     0
102
RTVSPost2010Prop52
140
1.0
102
RTVSPost2010PropOp52
 70
     0
102
RTVSPost2010Prop53
 90
        2
102
RTVSPost2010PropOp53
 70
     1
102
RTVSPost2010Prop54
  1
strokes_ogs.tif
102
RTVSPost2010PropOp54
 70
     1
102
RTVSPost2010Prop55
280
     0
102
RTVSPost2010PropOp55
 70
     1
102
RTVSPost2010Prop56
140
1.0
102
RTVSPost2010PropOp56
 70
     1
102
RTVSPost2010Prop57
140
1.0
102
RTVSPost2010PropOp57
 70
     1
102
RTVSPropertyOp0
 70
     1
102
RTVSPropertyOp1
 70
     1
102
RTVSPropertyOp2
 70
     1
102
RTVSPropertyOp3
 70
     1
102
RTVSPropertyOp4
 70
     1
102
RTVSPropertyOp5
 70
     1
102
RTVSPropertyOp6
 70
     1
102
RTVSPropertyOp7
 70
     1
102
RTVSPropertyOp8
 70
     1
102
RTVSPropertyOp9
 70
     1
102
RTVSPropertyOp10
 70
     1
102
RTVSPropertyOp11
 70
     1
102
RTVSPropertyOp12
 70
     1
102
RTVSPropertyOp13
 70
     1
102
RTVSPropertyOp14
 70
     1
102
RTVSPropertyOp15
 70
     1
102
RTVSPropertyOp16
 70
     1
102
RTVSPropertyOp17
 70
     1
102
RTVSPropertyOp18
 70
     1
102
RTVSPropertyOp19
 70
     1
102
RTVSPropertyOp20
 70
     1
102
RTVSPropertyOp21
 70
     1
102
RTVSPropertyOp22
 70
     1
102
RTVSPropertyOp23
 70
     1
102
RTVSPropertyOp24
 70
     1
102
RTVSPropertyOp25
 70
     1
102
RTVSPropertyOp26
 70
     1
102
RTVSPropertyOp27
 70
     1
102
RTVSPropertyOp28
 70
     1
102
RTVSPropertyOp29
 70
     1
102
RTVSPropertyOp30
 70
     1
102
RTVSPropertyOp31
 70
     1
102
RTVSPropertyOp32
 70
     1
102
RTVSPropertyOp33
 70
     1
102
RTVSPropertyOp34
 70
     1
102
RTVSPropertyOp35
 70
     1
102
RTVSPropertyOp36
 70
     1
102
RTVSPropertyOp37
 70
     1
102
RTVSPropertyOp38
 70
     1
102
RTVSPropertyOp39
 70
     1
102
RTVSPropertyOp40
 70
     1
102
RTVSPropertyOp41
 70
     1
102
RTVSPropertyOp42
 70
     1
102
RTVSPropertyOp43
 70
     1
102
RTVSPropertyOp44
 70
     1
102
RTVSPropertyOp45
 70
     1
102
RTVSPropertyOp46
 70
     1
102
RTVSPropertyOp47
 70
     1
102
RTVSPropertyOp48
 70
     1
102
RTVSPropertyOp49
 70
     1
102
RTVSPropertyOp50
 70
     1
102
RTVSPropertyOp51
 70
     0
102
RTVSPropertyOp52
 70
     0
102
RTVSPropertyOp53
 70
     1
102
RTVSPropertyOp54
 70
     1
102
RTVSPropertyOp55
 70
     1
102
RTVSPropertyOp56
 70
     1
102
RTVSPropertyOp57
 70
     1
102
RTVSPropertyOp58
 70
     1
102
RTVSPropertyOp59
 70
     1
102
RTVSPropertyOp60
 70
     1
102
RTVSPropertyOp61
 70
     1
102
RTVSPropertyOp62
 70
     1
  0
XRECORD
  5
5C5
102
{ACAD_REACTORS
330
5C4
102
}
330
5C4
100
AcDbXrecord
280
     1
102
RTVSPost2010Prop28
280
     0
102
RTVSPost2010PropOp28
 70
     1
102
RTVSPost2010Prop29
280
     1
102
RTVSPost2010PropOp29
 70
     1
102
RTVSPost2010Prop30
280
     1
102
RTVSPost2010PropOp30
 70
     1
102
RTVSPost2010Prop31
280
     0
102
RTVSPost2010PropOp31
 70
     1
102
RTVSPost2010Prop32
280
     0
102
RTVSPost2010PropOp32
 70
     1
102
RTVSPost2010Prop33
280
     0
102
RTVSPost2010PropOp33
 70
     1
102
RTVSPost2010Prop34
280
     0
102
RTVSPost2010PropOp34
 70
     1
102
RTVSPost2010Prop35
280
     0
102
RTVSPost2010PropOp35
 70
     1
102
RTVSPost2010Prop36
280
     0
102
RTVSPost2010PropOp36
 70
     1
102
RTVSPost2010Prop37
 90
       50
102
RTVSPost2010PropOp37
 70
     1
102
RTVSPost2010Prop38
140
0.0
102
RTVSPost2010PropOp38
 70
     1
102
RTVSPost2010Prop39
140
1.0
102
RTVSPost2010PropOp39
 70
     1
102
RTVSPost2010Prop40
 90
        0
102
RTVSPost2010PropOp40
 70
     1
102
RTVSPost2010Prop41ColorIndex
 90
       18
102
RTVSPost2010Prop41ColorRGB
 90
        0
102
RTVSPost2010PropOp41
 70
     1
102
RTVSPost2010Prop42
 90
       50
102
RTVSPost2010PropOp42
 70
     1
102
RTVSPost2010Prop43
 90
        3
102
RTVSPost2010PropOp43
 70
     1
102
RTVSPost2010Prop44ColorIndex
 90
        5
102
RTVSPost2010Prop44ColorRGB
 90
      255
102
RTVSPost2010PropOp44
 70
     1
102
RTVSPost2010Prop45
280
     0
102
RTVSPost2010PropOp45
 70
     1
102
RTVSPost2010Prop46
 90
       50
102
RTVSPost2010PropOp46
 70
     1
102
RTVSPost2010Prop47
 90
       50
102
RTVSPost2010PropOp47
 70
     1
102
RTVSPost2010Prop48
 90
       50
102
RTVSPost2010PropOp48
 70
     1
102
RTVSPost2010Prop49
280
     0
102
RTVSPost2010PropOp49
 70
     1
102
RTVSPost2010Prop50
 90
       50
102
RTVSPost2010PropOp50
 70
     1
102
RTVSPost2010Prop51ColorIndex
 90
      256
102
RTVSPost2010Prop51ColorRGB
 90
-16777216
102
RTVSPost2010PropOp51
 70
     0
102
RTVSPost2010Prop52
140
1.0
102
RTVSPost2010PropOp52
 70
     0
102
RTVSPost2010Prop53
 90
        2
102
RTVSPost2010PropOp53
 70
     1
102
RTVSPost2010Prop54
  1
strokes_ogs.tif
102
RTVSPost2010PropOp54
 70
     1
102
RTVSPost2010Prop55
280
     0
102
RTVSPost2010PropOp55
 70
     1
102
RTVSPost2010Prop56
140
1.0
102
RTVSPost2010PropOp56
 70
     1
102
RTVSPost2010Prop57
140
1.0
102
RTVSPost2010PropOp57
 70
     1
102
RTVSPropertyOp0
 70
     1
102
RTVSPropertyOp1
 70
     1
102
RTVSPropertyOp2
 70
     1
102
RTVSPropertyOp3
 70
     1
102
RTVSPropertyOp4
 70
     1
102
RTVSPropertyOp5
 70
     1
102
RTVSPropertyOp6
 70
     1
102
RTVSPropertyOp7
 70
     1
102
RTVSPropertyOp8
 70
     1
102
RTVSPropertyOp9
 70
     1
102
RTVSPropertyOp10
 70
     1
102
RTVSPropertyOp11
 70
     1
102
RTVSPropertyOp12
 70
     1
102
RTVSPropertyOp13
 70
     1
102
RTVSPropertyOp14
 70
     1
102
RTVSPropertyOp15
 70
     1
102
RTVSPropertyOp16
 70
     1
102
RTVSPropertyOp17
 70
     1
102
RTVSPropertyOp18
 70
     1
102
RTVSPropertyOp19
 70
     1
102
RTVSPropertyOp20
 70
     1
102
RTVSPropertyOp21
 70
     1
102
RTVSPropertyOp22
 70
     1
102
RTVSPropertyOp23
 70
     1
102
RTVSPropertyOp24
 70
     1
102
RTVSPropertyOp25
 70
     1
102
RTVSPropertyOp26
 70
     1
102
RTVSPropertyOp27
 70
     1
102
RTVSPropertyOp28
 70
     1
102
RTVSPropertyOp29
 70
     1
102
RTVSPropertyOp30
 70
     1
102
RTVSPropertyOp31
 70
     1
102
RTVSPropertyOp32
 70
     1
102
RTVSPropertyOp33
 70
     1
102
RTVSPropertyOp34
 70
     1
102
RTVSPropertyOp35
 70
     1
102
RTVSPropertyOp36
 70
     1
102
RTVSPropertyOp37
 70
     1
102
RTVSPropertyOp38
 70
     1
102
RTVSPropertyOp39
 70
     1
102
RTVSPropertyOp40
 70
     1
102
RTVSPropertyOp41
 70
     1
102
RTVSPropertyOp42
 70
     1
102
RTVSPropertyOp43
 70
     1
102
RTVSPropertyOp44
 70
     1
102
RTVSPropertyOp45
 70
     1
102
RTVSPropertyOp46
 70
     1
102
RTVSPropertyOp47
 70
     1
102
RTVSPropertyOp48
 70
     1
102
RTVSPropertyOp49
 70
     1
102
RTVSPropertyOp50
 70
     1
102
RTVSPropertyOp51
 70
     0
102
RTVSPropertyOp52
 70
     0
102
RTVSPropertyOp53
 70
     1
102
RTVSPropertyOp54
 70
     1
102
RTVSPropertyOp55
 70
     1
102
RTVSPropertyOp56
 70
     1
102
RTVSPropertyOp57
 70
     1
102
RTVSPropertyOp58
 70
     1
102
RTVSPropertyOp59
 70
     1
102
RTVSPropertyOp60
 70
     1
102
RTVSPropertyOp61
 70
     1
102
RTVSPropertyOp62
 70
     1
  0
XRECORD
  5
5DD
102
{ACAD_REACTORS
330
5DC
102
}
330
5DC
100
AcDbXrecord
280
     1
102
RTVSPost2010Prop28
280
     0
102
RTVSPost2010PropOp28
 70
     1
102
RTVSPost2010Prop29
280
     1
102
RTVSPost2010PropOp29
 70
     1
102
RTVSPost2010Prop30
280
     1
102
RTVSPost2010PropOp30
 70
     1
102
RTVSPost2010Prop31
280
     0
102
RTVSPost2010PropOp31
 70
     1
102
RTVSPost2010Prop32
280
     0
102
RTVSPost2010PropOp32
 70
     1
102
RTVSPost2010Prop33
280
     0
102
RTVSPost2010PropOp33
 70
     1
102
RTVSPost2010Prop34
280
     0
102
RTVSPost2010PropOp34
 70
     1
102
RTVSPost2010Prop35
280
     0
102
RTVSPost2010PropOp35
 70
     1
102
RTVSPost2010Prop36
280
     0
102
RTVSPost2010PropOp36
 70
     1
102
RTVSPost2010Prop37
 90
       50
102
RTVSPost2010PropOp37
 70
     1
102
RTVSPost2010Prop38
140
0.0
102
RTVSPost2010PropOp38
 70
     1
102
RTVSPost2010Prop39
140
1.0
102
RTVSPost2010PropOp39
 70
     1
102
RTVSPost2010Prop40
 90
        0
102
RTVSPost2010PropOp40
 70
     1
102
RTVSPost2010Prop41ColorIndex
 90
       18
102
RTVSPost2010Prop41ColorRGB
 90
        0
102
RTVSPost2010PropOp41
 70
     1
102
RTVSPost2010Prop42
 90
       50
102
RTVSPost2010PropOp42
 70
     1
102
RTVSPost2010Prop43
 90
        3
102
RTVSPost2010PropOp43
 70
     1
102
RTVSPost2010Prop44ColorIndex
 90
        5
102
RTVSPost2010Prop44ColorRGB
 90
      255
102
RTVSPost2010PropOp44
 70
     1
102
RTVSPost2010Prop45
280
     0
102
RTVSPost2010PropOp45
 70
     1
102
RTVSPost2010Prop46
 90
       50
102
RTVSPost2010PropOp46
 70
     1
102
RTVSPost2010Prop47
 90
       50
102
RTVSPost2010PropOp47
 70
     1
102
RTVSPost2010Prop48
 90
       50
102
RTVSPost2010PropOp48
 70
     1
102
RTVSPost2010Prop49
280
     0
102
RTVSPost2010PropOp49
 70
     1
102
RTVSPost2010Prop50
 90
       50
102
RTVSPost2010PropOp50
 70
     1
102
RTVSPost2010Prop51ColorIndex
 90
      256
102
RTVSPost2010Prop51ColorRGB
 90
-16777216
102
RTVSPost2010PropOp51
 70
     0
102
RTVSPost2010Prop52
140
1.0
102
RTVSPost2010PropOp52
 70
     0
102
RTVSPost2010Prop53
 90
        2
102
RTVSPost2010PropOp53
 70
     1
102
RTVSPost2010Prop54
  1
strokes_ogs.tif
102
RTVSPost2010PropOp54
 70
     1
102
RTVSPost2010Prop55
280
     0
102
RTVSPost2010PropOp55
 70
     1
102
RTVSPost2010Prop56
140
1.0
102
RTVSPost2010PropOp56
 70
     1
102
RTVSPost2010Prop57
140
1.0
102
RTVSPost2010PropOp57
 70
     1
102
RTVSPropertyOp0
 70
     1
102
RTVSPropertyOp1
 70
     1
102
RTVSPropertyOp2
 70
     1
102
RTVSPropertyOp3
 70
     1
102
RTVSPropertyOp4
 70
     1
102
RTVSPropertyOp5
 70
     1
102
RTVSPropertyOp6
 70
     1
102
RTVSPropertyOp7
 70
     1
102
RTVSPropertyOp8
 70
     1
102
RTVSPropertyOp9
 70
     1
102
RTVSPropertyOp10
 70
     1
102
RTVSPropertyOp11
 70
     1
102
RTVSPropertyOp12
 70
     1
102
RTVSPropertyOp13
 70
     1
102
RTVSPropertyOp14
 70
     1
102
RTVSPropertyOp15
 70
     1
102
RTVSPropertyOp16
 70
     1
102
RTVSPropertyOp17
 70
     1
102
RTVSPropertyOp18
 70
     1
102
RTVSPropertyOp19
 70
     1
102
RTVSPropertyOp20
 70
     1
102
RTVSPropertyOp21
 70
     1
102
RTVSPropertyOp22
 70
     1
102
RTVSPropertyOp23
 70
     1
102
RTVSPropertyOp24
 70
     1
102
RTVSPropertyOp25
 70
     1
102
RTVSPropertyOp26
 70
     1
102
RTVSPropertyOp27
 70
     1
102
RTVSPropertyOp28
 70
     1
102
RTVSPropertyOp29
 70
     1
102
RTVSPropertyOp30
 70
     1
102
RTVSPropertyOp31
 70
     1
102
RTVSPropertyOp32
 70
     1
102
RTVSPropertyOp33
 70
     1
102
RTVSPropertyOp34
 70
     1
102
RTVSPropertyOp35
 70
     1
102
RTVSPropertyOp36
 70
     1
102
RTVSPropertyOp37
 70
     1
102
RTVSPropertyOp38
 70
     1
102
RTVSPropertyOp39
 70
     1
102
RTVSPropertyOp40
 70
     1
102
RTVSPropertyOp41
 70
     1
102
RTVSPropertyOp42
 70
     1
102
RTVSPropertyOp43
 70
     1
102
RTVSPropertyOp44
 70
     1
102
RTVSPropertyOp45
 70
     1
102
RTVSPropertyOp46
 70
     1
102
RTVSPropertyOp47
 70
     1
102
RTVSPropertyOp48
 70
     1
102
RTVSPropertyOp49
 70
     1
102
RTVSPropertyOp50
 70
     1
102
RTVSPropertyOp51
 70
     0
102
RTVSPropertyOp52
 70
     0
102
RTVSPropertyOp53
 70
     1
102
RTVSPropertyOp54
 70
     1
102
RTVSPropertyOp55
 70
     1
102
RTVSPropertyOp56
 70
     1
102
RTVSPropertyOp57
 70
     1
102
RTVSPropertyOp58
 70
     1
102
RTVSPropertyOp59
 70
     1
102
RTVSPropertyOp60
 70
     1
102
RTVSPropertyOp61
 70
     1
102
RTVSPropertyOp62
 70
     1
  0
ENDSEC
  0
EOF
